osu file format v14

[General]
AudioFilename: iNSaNiTY.mp3
AudioLeadIn: 0
PreviewTime: 61301
Countdown: 0
SampleSet: Soft
StackLeniency: 0.4
Mode: 0
LetterboxInBreaks: 0
EpilepsyWarning: 1
WidescreenStoryboard: 1

[Editor]
Bookmarks: 9581,95981,99821,213101,220781,295181
DistanceSpacing: 1.2
BeatDivisor: 4
GridSize: 4
TimelineZoom: 1

[Metadata]
Title:iNSaNiTY
TitleUnicode:iNSaNiTY
Artist:CircusP
ArtistUnicode:CircusP
Creator:Gero
Version:-eaSY-
Source:osu!
Tags:Lucid -EP DLX codename 開発コード SF-A2 miki & KAITO Yamaha Corporation Crypton Future Media Circus-P さん Doofus-P DoofusP デュファスP Azuralunar VOCALOID ボーカロイド FA Featured Artist Mappers Mappers' Guild MPG MG Japanese Dance Electronic Pachiru Cosmolade xNymphia Nymphi-a
BeatmapID:2409376
BeatmapSetID:1154421

[Difficulty]
HPDrainRate:2
CircleSize:3
OverallDifficulty:2
ApproachRate:3
SliderMultiplier:0.8
SliderTickRate:1

[Events]
//Background and Video events
0,0,"SaNiTY.jpg",0,0
//Break Periods
2,96181,98381
2,213301,219341
//Storyboard Layer 0 (Background)
//Storyboard Layer 1 (Fail)
//Storyboard Layer 2 (Pass)
//Storyboard Layer 3 (Foreground)
//Storyboard Layer 4 (Overlay)
//Storyboard Sound Samples

[TimingPoints]
-19,480,4,2,1,80,1,0
18701,-100,4,2,1,80,0,0
19181,-100,4,2,1,80,0,0
22541,-100,4,2,1,80,0,0
23021,-100,4,2,1,80,0,0
26381,-100,4,2,1,80,0,0
26861,-100,4,2,1,80,0,0
30221,-100,4,2,1,80,0,0
30701,-100,4,2,1,80,0,0
61421,-100,4,2,1,60,0,0
76781,-100,4,2,1,80,0,1
92141,-100,4,2,1,60,0,0
94061,-100,4,2,1,40,0,0
99821,-100,4,2,1,50,0,0
105581,-100,4,2,1,30,0,0
107021,-100,4,2,1,60,0,0
107501,-100,4,2,1,80,0,0
130541,-100,4,2,1,70,0,0
145901,-100,4,2,1,80,0,1
161261,-100,4,2,1,80,0,0
176621,-100,4,2,1,60,0,0
207341,-100,4,2,1,55,0,0
207821,-100,4,2,1,50,0,0
208301,-100,4,2,1,40,0,0
208781,-100,4,2,1,30,0,0
209261,-100,4,2,1,20,0,0
209741,-100,4,2,1,10,0,0
210221,-100,4,2,1,5,0,0
211661,-100,4,2,1,5,0,0
211901,-100,4,2,1,10,0,0
212141,-100,4,2,1,15,0,0
212381,-100,4,2,1,20,0,0
212621,-100,4,2,1,30,0,0
212861,-100,4,2,1,40,0,0
213101,-100,4,2,1,50,0,0
220781,-100,4,2,1,20,0,0
222701,-100,4,2,1,25,0,0
224621,-100,4,2,1,30,0,0
226541,-100,4,2,1,40,0,0
228461,-100,4,2,1,35,0,0
230381,-100,4,2,1,40,0,0
243821,-100,4,2,1,60,0,0
245741,-100,4,2,1,80,0,1
260981,-100,4,2,1,80,0,0
261101,-100,4,2,1,80,0,1
276461,-100,4,2,1,80,0,0
291821,-100,4,2,1,70,0,0
292301,-100,4,2,1,60,0,0
292781,-100,4,2,1,50,0,0
293261,-100,4,2,1,40,0,0
293741,-100,4,2,1,30,0,0
294221,-100,4,2,1,20,0,0
294701,-100,4,2,1,10,0,0
295181,-100,4,2,1,5,0,0

[Colours]
Combo1 : 100,140,234
Combo2 : 255,121,121

[HitObjects]
256,192,9581,12,0,13421,3:0:0:0:
128,192,14861,5,4,1:0:0:0:
188,270,15341,6,0,P|256:234|324:270,1,160,2|2,3:2|0:0,0:0:0:0:
391,337,16781,1,10,0:0:0:0:
458,270,17261,2,0,B|440:192|440:192|458:114,1,160,2|2,3:2|0:0,0:0:0:0:
391,47,18701,1,14,1:2:0:0:
324,114,19181,6,0,P|256:150|188:114,1,160,2|2,3:2|0:0,0:0:0:0:
121,47,20621,1,10,0:0:0:0:
54,114,21101,2,0,B|72:192|72:192|54:270,1,160,2|2,3:2|0:0,0:0:0:0:
121,337,22541,1,14,1:2:0:0:
188,270,23021,6,0,P|199:232|188:194,2,80,2|8|2,3:2|0:0|0:0,0:0:0:0:
256,337,24461,1,10,0:0:0:0:
324,270,24941,2,0,P|313:232|324:194,2,80,2|8|2,3:2|0:0|0:0,0:0:0:0:
391,337,26381,1,14,1:2:0:0:
458,270,26861,6,0,B|488:192|458:114,1,160,2|2,3:2|0:0,0:0:0:0:
391,47,28301,1,10,0:0:0:0:
324,114,28781,2,0,B|294:192|324:270,1,160,2|2,3:2|0:0,0:0:0:0:
256,337,30221,1,14,1:2:0:0:
188,270,30701,6,0,B|204:242|204:242|204:186|204:186|188:158,2,120,0|2|0,3:0|3:2|0:0,0:0:0:0:
92,270,32621,2,0,B|76:242|76:242|76:186|76:186|92:158,2,120,0|2|4,3:0|3:2|1:2,0:0:0:0:
24,337,34541,2,0,P|140:364|256:337,1,240,0|0,3:0|0:0,0:0:0:0:
324,270,36461,1,0,3:0:0:0:
256,203,36941,2,0,L|256:112,2,80,0|0|4,0:0|0:0|1:2,0:0:0:0:
188,270,38381,6,0,B|156:278|140:303|140:303|124:278|92:270,2,120,0|2|0,3:0|3:2|0:0,0:0:0:0:
256,203,40301,2,0,L|256:83,2,120,0|2|4,3:0|3:2|1:2,0:0:0:0:
324,270,42221,2,0,B|372:334|372:334|420:270,1,160,0|0,3:0|0:0,0:0:0:0:
488,203,43661,1,0,0:0:0:0:
420,136,44141,2,0,L|372:72,1,80,0|0,3:0|0:0,0:0:0:0:
304,139,45101,2,0,L|256:75,1,80,0|4,0:0|1:0,0:0:0:0:
188,142,46061,6,0,B|160:96|108:96|108:96|44:96,1,160,0|2,3:0|0:0,0:0:0:0:
44,192,47501,1,8,0:0:0:0:
44,288,47981,2,0,B|108:288|108:288|160:288|188:242,1,160,0|2,3:0|0:0,0:0:0:0:
256,308,49421,1,12,0:0:0:0:
323,241,49901,6,0,P|240:157|208:43,1,240,0|8,3:0|0:0,0:0:0:0:
303,43,51821,2,0,P|271:157|188:241,1,240,0|12,3:0|0:0,0:0:0:0:
256,308,53741,6,0,B|256:335|256:335|252:343|252:343|260:343|260:343|256:351|256:351|256:378,2,80,0|8|2,3:0|0:0|0:0,0:0:0:0:
323,241,55181,1,8,0:0:0:0:
390,308,55661,2,0,B|390:335|390:335|394:343|394:343|386:343|386:343|390:351|390:351|390:378,2,80,0|8|2,3:0|0:0|0:0,0:0:0:0:
457,241,57101,1,12,0:0:0:0:
390,174,57581,6,0,B|420:128|384:84|348:84|348:84|309:84,1,160,0|2,3:0|0:0,0:0:0:0:
256,164,59021,1,8,0:0:0:0:
202,84,59501,2,0,B|164:84|164:84|128:84|92:128|122:174,1,160,0|2,3:0|0:0,0:0:0:0:
55,241,60941,1,12,0:0:0:0:
122,308,61421,6,0,B|208:308|208:308|268:308|304:264|303:209,1,240,2|2,0:0|0:0,0:0:0:0:
208,209,63341,2,0,B|208:264|244:308|304:308|304:308|390:308,1,240,2|2,0:0|0:0,0:0:0:0:
457,241,65261,6,0,P|487:169|457:97,1,160,2|2,0:0|0:0,0:0:0:0:
390,30,66701,1,2,0:0:0:0:
323,97,67181,2,0,B|292:128|292:128|220:128|220:128|189:97,1,160,2|2,0:0|0:0,0:0:0:0:
122,30,68621,1,2,0:0:0:0:
55,97,69101,6,0,P|25:169|55:241,1,160,2|2,0:0|0:0,0:0:0:0:
122,308,70541,1,2,0:0:0:0:
189,241,71021,2,0,B|220:210|220:210|292:210|292:210|323:241,1,160,2|2,0:0|0:0,0:0:0:0:
390,308,72461,1,2,0:0:0:0:
457,241,72941,6,0,B|466:202|466:202|457:163,1,80,2|2,0:0|0:0,0:0:0:0:
369,120,73901,2,0,B|360:81|360:81|369:42,1,80,2|2,0:0|0:0,0:0:0:0:
457,81,74861,2,0,L|217:81,1,240,2|2,0:0|0:0,0:0:0:0:
136,29,76781,6,0,B|108:81|136:133|136:133|84:133,1,160,4|2,1:0|0:0,0:0:0:0:
12,192,78221,1,10,0:0:0:0:
84,251,78701,2,0,B|136:251|136:251|108:303|136:355,1,160,0|2,3:0|0:0,0:0:0:0:
217,303,80141,1,14,0:0:0:0:
298,355,80621,6,0,B|337:364|337:364|376:355,2,80,0|10|2,1:0|0:0|0:0,0:0:0:0:
217,303,82061,1,10,0:0:0:0:
298,251,82541,2,0,B|337:242|337:242|376:251,2,80,0|10|2,3:0|0:0|0:0,0:0:0:0:
217,199,83981,1,14,0:0:0:0:
298,147,84461,6,0,P|337:91|376:147,1,160,4|2,1:0|0:0,0:0:0:0:
457,199,85901,1,10,0:0:0:0:
376,251,86381,2,0,P|337:307|298:251,1,160,0|2,3:0|0:0,0:0:0:0:
217,199,87821,1,14,0:0:0:0:
136,251,88301,6,0,P|123:288|136:325,2,80,4|10|2,1:0|0:0|0:0,0:0:0:0:
55,199,89741,1,10,0:0:0:0:
136,147,90221,2,0,P|123:110|136:73,2,80,0|10|2,3:0|0:0|0:0,0:0:0:0:
217,199,91661,1,14,0:0:0:0:
298,147,92141,5,2,0:0:0:0:
256,192,92261,12,2,95981,0:0:0:0:
324,114,99821,6,0,B|308:142|308:142|308:198|308:198|324:226,2,120,0|0|2,3:0|0:0|0:3,0:0:0:0:
420,114,101741,2,0,B|436:142|436:142|436:198|436:198|420:226,2,120,0|0|0,3:0|3:0|3:0,0:0:0:0:
488,47,103661,2,0,P|372:20|256:47,1,240,0|2,3:0|0:3,0:0:0:0:
188,114,105581,1,2,0:0:0:0:
256,181,106061,2,0,L|256:272,2,80,2|2|2,0:0|0:0|0:0,0:0:0:0:
324,114,107501,6,0,B|356:106|372:81|372:81|388:106|420:114,2,120,0|2|0,3:0|3:2|0:0,0:0:0:0:
256,181,109421,2,0,L|256:301,2,120,0|2|4,3:0|3:2|1:2,0:0:0:0:
188,114,111341,2,0,B|140:50|140:50|92:114,1,160,0|0,3:0|0:0,0:0:0:0:
24,181,112781,1,0,0:0:0:0:
92,248,113261,2,0,L|140:312,1,80,0|0,3:0|0:0,0:0:0:0:
208,245,114221,2,0,L|256:309,1,80,0|4,0:0|1:0,0:0:0:0:
324,242,115181,6,0,B|352:288|404:288|404:288|468:288,1,160,0|2,3:0|0:0,0:0:0:0:
468,192,116621,1,8,0:0:0:0:
468,96,117101,2,0,B|404:96|404:96|352:96|324:142,1,160,0|2,3:0|0:0,0:0:0:0:
256,76,118541,1,12,0:0:0:0:
189,143,119021,6,0,P|272:227|304:341,1,240,0|8,3:0|0:0,0:0:0:0:
209,341,120941,2,0,P|241:227|324:143,1,240,0|12,3:0|0:0,0:0:0:0:
256,76,122861,6,0,B|256:49|256:49|260:41|260:41|252:41|252:41|256:33|256:33|256:6,2,80,0|8|2,3:0|0:0|0:0,0:0:0:0:
189,143,124301,1,8,0:0:0:0:
122,76,124781,2,0,B|122:49|122:49|118:41|118:41|126:41|126:41|122:33|122:33|122:6,2,80,0|8|2,3:0|0:0|0:0,0:0:0:0:
55,143,126221,1,12,0:0:0:0:
122,210,126701,6,0,B|92:256|128:300|164:300|164:300|203:300,1,160,0|2,3:0|0:0,0:0:0:0:
256,220,128141,1,8,0:0:0:0:
310,300,128621,2,0,B|348:300|348:300|384:300|420:256|390:210,1,160,0|2,3:0|0:0,0:0:0:0:
457,143,130061,1,12,0:0:0:0:
390,76,130541,6,0,B|304:76|304:76|244:76|208:120|208:174,1,240,0|2,3:0|0:0,0:0:0:0:
303,174,132461,2,0,B|304:120|268:76|208:76|208:76|122:76,1,240,0|6,3:0|3:2,0:0:0:0:
55,143,134381,6,0,P|25:215|55:287,1,160,0|2,3:0|0:0,0:0:0:0:
122,354,135821,1,2,0:0:0:0:
189,287,136301,2,0,B|220:256|220:256|292:256|292:256|323:287,1,160,0|2,3:0|0:0,0:0:0:0:
390,354,137741,1,6,3:2:0:0:
457,287,138221,6,0,P|487:215|457:143,1,160,0|2,3:0|0:0,0:0:0:0:
390,76,139661,1,2,0:0:0:0:
323,143,140141,2,0,B|292:174|292:174|220:174|220:174|189:143,1,160,0|2,3:0|0:0,0:0:0:0:
122,76,141581,1,6,3:2:0:0:
55,143,142061,6,0,B|46:182|46:182|55:221,1,80,0|2,3:0|0:0,0:0:0:0:
143,264,143021,2,0,B|152:303|152:303|143:342,1,80,2|2,0:0|0:0,0:0:0:0:
55,303,143981,2,0,L|295:303,1,240,0|6,3:0|0:0,0:0:0:0:
376,355,145901,6,0,B|404:303|376:251|376:251|427:251,1,160,4|2,1:0|0:0,0:0:0:0:
500,192,147341,1,10,0:0:0:0:
427,133,147821,2,0,B|376:133|376:133|404:81|376:29,1,160,0|2,3:0|0:0,0:0:0:0:
295,81,149261,1,14,0:0:0:0:
214,29,149741,6,0,B|175:20|175:20|136:29,2,80,0|10|2,1:0|0:0|0:0,0:0:0:0:
295,81,151181,1,10,0:0:0:0:
214,133,151661,2,0,B|175:142|175:142|136:133,2,80,0|10|2,3:0|0:0|0:0,0:0:0:0:
295,185,153101,1,14,0:0:0:0:
214,237,153581,6,0,P|175:293|136:237,1,160,4|2,1:0|0:0,0:0:0:0:
55,185,155021,1,10,0:0:0:0:
136,133,155501,2,0,P|175:77|214:133,1,160,0|2,3:0|0:0,0:0:0:0:
295,185,156941,1,14,0:0:0:0:
376,133,157421,6,0,P|389:96|376:59,2,80,4|10|2,1:0|0:0|0:0,0:0:0:0:
457,185,158861,1,10,0:0:0:0:
376,237,159341,2,0,P|389:274|376:311,2,80,0|10|2,3:0|0:0|0:0,0:0:0:0:
295,185,160781,1,14,0:0:0:0:
214,237,161261,6,0,B|214:275|190:303|150:303|150:303|118:303|118:303|78:303|54:275|54:237,1,240,0|8,3:0|0:0,0:0:0:0:
134,185,163181,2,0,B|134:147|158:119|198:119|198:119|230:119|230:119|270:119|294:147|294:185,1,240,0|12,3:0|0:0,0:0:0:0:
376,237,165101,6,0,B|409:249|415:279|415:279|421:249|454:237,2,120,0|2|8,3:0|3:2|0:0,0:0:0:0:
295,185,167021,2,0,B|262:173|256:143|256:143|250:173|217:185,2,120,0|2|12,3:0|3:2|0:0,0:0:0:0:
376,133,168941,6,0,B|429:133|448:72|424:24|372:24|372:24|304:24,1,240,0|8,3:0|0:0,0:0:0:0:
208,24,170861,2,0,B|140:24|140:24|88:24|64:72|83:133|136:133,1,240,0|12,3:0|0:0,0:0:0:0:
217,185,172781,6,0,B|256:255|256:255|295:185,1,160,0|2,3:0|0:3,0:0:0:0:
376,133,174221,1,8,0:0:0:0:
457,185,174701,6,0,B|440:243|376:267|376:267|312:243|295:185,1,240,0|12,3:0|0:0,0:0:0:0:
376,131,176621,6,0,P|397:62|329:37,1,160,0|8,3:0|3:2,0:0:0:0:
256,100,178061,1,8,0:0:0:0:
182,37,178541,2,0,P|114:62|135:131,1,160,8|8,3:2|0:0,0:0:0:0:
60,192,179981,1,4,1:0:0:0:
135,252,180461,6,0,P|114:321|182:346,1,160,0|8,3:0|3:2,0:0:0:0:
256,284,181901,1,8,0:0:0:0:
329,346,182381,2,0,P|397:321|376:252,1,160,8|8,3:2|0:0,0:0:0:0:
452,192,183821,1,4,1:0:0:0:
376,131,184301,6,0,L|399:55,2,80,0|8|8,3:0|0:0|3:2,0:0:0:0:
301,192,185741,1,8,0:0:0:0:
377,252,186221,2,0,L|353:328,2,80,8|8|8,3:2|0:0|0:0,0:0:0:0:
452,192,187661,1,4,1:0:0:0:
376,132,188141,6,0,B|299:132|299:132|315:92|299:52,1,160,0|8,3:0|3:2,0:0:0:0:
213,92,189581,1,8,0:0:0:0:
126,52,190061,2,0,P|90:37|54:52,2,80,8|8|8,3:2|0:0|0:0,0:0:0:0:
213,92,191501,1,4,1:0:0:0:
126,132,191981,6,0,B|118:171|118:171|126:210,1,80,0|8,3:0|0:0,0:0:0:0:
213,250,192941,2,0,B|221:289|221:289|213:328,1,80,8|8,3:2|0:0,0:0:0:0:
126,368,193901,2,0,L|344:267,1,240,8|4,3:2|1:0,0:0:0:0:
432,304,195821,6,0,P|447:268|432:232,2,80,0|8|8,3:0|0:0|3:2,0:0:0:0:
344,268,197261,1,8,0:0:0:0:
256,304,197741,2,0,P|241:268|256:232,2,80,8|8|8,3:2|0:0|0:0,0:0:0:0:
344,268,199181,1,4,1:0:0:0:
432,304,199661,6,0,L|432:144,1,160,0|8,3:0|3:2,0:0:0:0:
432,48,201101,1,8,0:0:0:0:
351,96,201581,2,0,L|308:164,1,80,8|8,3:2|0:0,0:0:0:0:
256,80,202541,2,0,L|176:80,1,80,8|4,0:0|1:0,0:0:0:0:
80,80,203501,6,0,L|80:240,1,160,0|8,3:0|3:2,0:0:0:0:
80,336,204941,1,8,0:0:0:0:
161,288,205421,2,0,L|204:220,1,80,8|8,3:2|0:0,0:0:0:0:
256,304,206381,2,0,L|336:304,1,80,8|12,0:0|0:0,0:0:0:0:
432,304,207341,5,2,0:0:0:0:
256,192,207461,12,2,213101,0:0:0:0:
364,196,220781,6,0,P|420:177|476:196,2,120,0|2|0,3:0|3:2|0:0,0:0:0:0:
304,120,222701,2,0,B|304:73|304:73|300:65|300:65|308:65|308:65|304:57|304:57|304:10,2,120,0|2|4,3:0|3:2|3:2,0:0:0:0:
208,120,224621,2,0,B|208:73|208:73|212:65|212:65|204:65|204:65|208:57|208:57|208:10,2,120,0|2|0,3:0|3:2|0:0,0:0:0:0:
148,196,226541,2,0,P|92:177|36:196,2,120,0|2|4,3:0|3:2|3:2,0:0:0:0:
208,264,228461,5,0,0:0:0:0:
208,264,230381,6,0,P|256:350|304:264,1,240,2|0,0:0|0:0,0:0:0:0:
399,263,232301,2,0,B|440:263|440:263|472:240,1,80,2|0,0:0|0:0,0:0:0:0:
472,144,233261,2,0,B|440:121|440:121|399:121,1,80,0|0,0:0|0:0,0:0:0:0:
304,120,234221,6,0,P|256:34|208:120,1,240,2|0,0:0|0:0,0:0:0:0:
113,121,236141,2,0,B|72:121|72:121|40:144,1,80,2|0,0:0|0:0,0:0:0:0:
40,240,237101,2,0,B|72:263|72:263|113:263,1,80,0|0,0:0|0:0,0:0:0:0:
208,264,238061,6,0,P|178:192|208:120,1,160,2|0,0:0|0:0,0:0:0:0:
256,36,239501,1,0,0:0:0:0:
304,120,239981,2,0,P|334:192|304:264,1,160,2|0,0:0|0:0,0:0:0:0:
256,348,241421,1,0,0:0:0:0:
208,264,241901,6,0,P|256:148|304:264,1,320,2|2,0:0|0:0,0:0:0:0:
256,28,245741,6,0,L|176:28,1,80,4|10,1:0|0:0,0:0:0:0:
80,28,246701,2,0,B|80:68|80:68|51:96,1,80,2|10,0:0|0:0,0:0:0:0:
51,192,247661,2,0,B|120:192|120:192|188:192|216:280|169:315,1,240,0|14,3:0|0:0,0:0:0:0:
256,356,249581,6,0,L|336:356,1,80,0|10,1:0|0:0,0:0:0:0:
432,356,250541,2,0,B|432:316|432:316|460:287,1,80,2|10,0:0|0:0,0:0:0:0:
461,192,251501,2,0,B|392:192|392:192|324:192|296:104|342:68,1,240,0|14,3:0|0:0,0:0:0:0:
256,28,253421,5,4,1:0:0:0:
170,68,253901,1,10,0:0:0:0:
85,28,254381,2,0,L|28:84,1,80,2|10,0:0|0:0,0:0:0:0:
96,152,255341,2,0,B|96:224|96:224|100:232|100:232|104:240|104:240|104:310,1,160,0|2,3:0|0:0,0:0:0:0:
180,371,256781,1,14,0:0:0:0:
256,310,257261,6,0,L|256:230,2,80,4|10|2,1:0|0:0|0:0,0:0:0:0:
332,371,258701,1,10,0:0:0:0:
408,310,259181,2,0,B|408:240|408:240|412:232|412:232|416:224|416:224|416:152,1,160,0|2,3:0|0:0,0:0:0:0:
483,84,260621,1,14,0:0:0:0:
416,16,261101,6,0,B|372:16|372:16|332:16|300:52|300:92,1,160,4|2,1:0|0:0,0:0:0:0:
256,176,262541,1,10,0:0:0:0:
211,92,263021,2,0,B|212:52|180:16|140:16|140:16|96:16,1,160,0|2,3:0|0:0,0:0:0:0:
29,84,264461,1,14,0:0:0:0:
96,152,264941,6,0,B|96:232,1,80,0|10,1:0|0:0,0:0:0:0:
192,232,265901,2,0,B|192:272|192:272|209:307,1,80,2|10,0:0|0:0,0:0:0:0:
302,307,266861,2,0,B|320:272|320:272|320:232,1,80,0|10,3:0|0:0,0:0:0:0:
416,232,267821,2,0,B|416:152,1,80,2|14,0:0|0:0,0:0:0:0:
349,84,268781,6,0,B|280:84|280:84|256:39|256:39|232:84|232:84|163:84,1,240,4|10,1:0|0:0,0:0:0:0:
88,144,270701,2,0,B|8:144,2,80,0|10|2,3:0|0:0|0:0,0:0:0:0:
88,240,272141,1,14,0:0:0:0:
163,300,272621,6,0,B|232:300|232:300|256:345|256:345|280:300|280:300|349:300,1,240,4|10,1:0|0:0,0:0:0:0:
424,240,274541,2,0,B|504:240,2,80,0|10|2,3:0|0:0|0:0,0:0:0:0:
424,144,275981,1,14,0:0:0:0:
349,84,276461,6,0,P|256:148|163:84,1,240,4|8,1:0|0:0,0:0:0:0:
88,144,278381,2,0,L|206:352,1,240,0|12,1:0|1:2,0:0:0:0:
305,352,280301,2,0,L|424:144,1,240,4|8,1:0|0:0,0:0:0:0:
349,84,282221,6,0,L|309:153,1,80,0|8,1:0|0:0,0:0:0:0:
256,84,283181,1,0,0:0:0:0:
202,153,283661,1,12,1:2:0:0:
256,223,284141,6,0,L|295:292,1,80,4|8,1:0|0:0,0:0:0:0:
349,223,285101,1,0,0:0:0:0:
403,292,285581,1,8,0:0:0:0:
349,361,286061,6,0,B|304:304|304:304|208:304|208:304|163:361,1,240,0|12,1:0|1:2,0:0:0:0:
109,292,287981,2,0,L|208:166,1,160,4|0,1:0|0:0,0:0:0:0:
256,84,289421,1,8,0:0:0:0:
303,166,289901,2,0,L|403:292,2,160,0|0|2,1:0|0:0|0:0,0:0:0:0:
256,192,292061,12,0,295181,0:0:0:0:
