osu file format v14

[General]
AudioFilename: audio.mp3
AudioLeadIn: 0
PreviewTime: 54139
Countdown: 0
SampleSet: Soft
StackLeniency: 0.7
Mode: 0
LetterboxInBreaks: 0
WidescreenStoryboard: 1

[Editor]
Bookmarks: 175,11535,22896,34257,45618,56979,67985,68340,91062,102423,113784,125145,136151,136506,147867,159228,169080,170589,181950,193311,204672,207512,230234,232896
DistanceSpacing: 0.8
BeatDivisor: 4
GridSize: 32
TimelineZoom: 1

[Metadata]
Title:Last of Me
TitleUnicode:Last of Me
Artist:CircusP
ArtistUnicode:CircusP
Creator:eiri-
Version:Normal
Source:osu!
Tags:Ayyri Trynna Circus-P Featured Artist FA English Electronic Vocaloid Megurine Luka 巡音ルカ
BeatmapID:2431764
BeatmapSetID:1165972

[Difficulty]
HPDrainRate:4
CircleSize:3.5
OverallDifficulty:5
ApproachRate:6
SliderMultiplier:1.2
SliderTickRate:1

[Events]
//Background and Video events
0,0,"Luka 385.jpg",0,0
//Break Periods
//Storyboard Layer 0 (Background)
//Storyboard Layer 1 (Fail)
//Storyboard Layer 2 (Pass)
//Storyboard Layer 3 (Foreground)
//Storyboard Layer 4 (Overlay)
//Storyboard Sound Samples

[TimingPoints]
175,355.029585798817,4,2,1,50,1,0
10115,-100,4,2,1,75,0,0
11535,-100,4,2,1,90,0,1
22896,-100,4,2,1,75,0,0
34257,-100,4,2,1,80,0,0
45618,-100,4,2,1,60,0,0
56624,-100,4,2,1,100,0,0
56979,-100,4,2,1,90,0,1
67985,-100,4,2,1,90,0,0
68340,-100,4,2,1,95,0,1
91062,-100,4,2,1,75,0,0
102423,-100,4,2,1,80,0,0
113784,-100,4,2,1,60,0,0
124790,-100,4,2,1,100,0,0
125145,-100,4,2,1,90,0,1
136151,-100,4,2,1,90,0,0
136506,-100,4,2,1,95,0,1
147867,-100,4,2,1,60,0,0
159228,-100,4,2,1,90,0,1
169080,-100,4,2,1,50,0,0
170589,-100,4,2,1,95,0,1
181950,-100,4,2,1,60,0,0
192956,-100,4,2,1,100,0,0
193311,-100,4,2,1,80,0,1
204672,-100,4,2,1,75,0,0
207157,-100,4,2,1,100,0,0
207512,-100,4,2,1,95,0,1
230234,-100,4,2,1,75,0,0

[Colours]
Combo1 : 126,179,237
Combo2 : 155,208,106
Combo3 : 179,136,230
Combo4 : 240,142,182

[HitObjects]
32,320,175,5,2,0:0:0:0:
114,271,530,2,0,L|252:260,2,120,2|0|2,0:0|0:0|0:0,0:0:0:0:
46,202,1595,5,2,0:0:0:0:
110,131,1950,2,0,L|114:48,1,60,2|0,0:0|0:0,0:0:0:0:
117,23,2305,1,0,0:0:0:0:
207,54,2660,2,0,L|290:50,1,60,2|2,0:0|0:0,0:0:0:0:
315,50,3015,5,2,0:0:0:0:
295,149,3370,1,2,0:0:0:0:
295,149,3547,1,2,0:0:0:0:
295,149,3725,2,0,L|312:279,1,120,2|0,0:0|0:0,0:0:0:0:
324,362,4435,6,0,P|327:316|401:306,1,120,2|0,0:0|0:0,0:0:0:0:
476,340,5145,2,0,P|496:296|494:208,1,120,2|2,0:0|0:0,0:0:0:0:
490,182,5677,1,2,0:0:0:0:
490,182,5855,5,2,0:0:0:0:
396,202,6210,2,0,L|258:191,2,120,2|0|2,0:0|0:0|0:0,0:0:0:0:
390,106,7275,5,2,0:0:0:0:
309,53,7630,2,0,L|226:61,1,60,2|0,0:0|0:0,0:0:0:0:
201,66,7985,1,0,0:0:0:0:
127,127,8340,2,0,L|44:118,1,60,2|2,0:0|0:0,0:0:0:0:
19,114,8695,5,2,0:0:0:0:
39,216,9050,1,2,0:0:0:0:
39,216,9227,1,2,0:0:0:0:
39,216,9405,2,0,L|56:346,1,120,2|0,0:0|0:0,0:0:0:0:
148,372,10115,5,2,0:0:0:0:
148,372,10293,2,0,P|212:351|281:341,1,120,2|0,0:0|0:0,0:0:0:0:
311,342,10825,1,2,0:0:0:0:
373,269,11180,1,2,0:0:0:0:
314,192,11535,6,0,L|185:216,1,120,6|8,1:2|0:0,0:0:0:0:
102,235,12246,2,0,L|85:168,1,60,2|0,1:2|0:0,0:0:0:0:
104,131,12601,2,0,L|87:64,1,60,10|2,0:0|1:2,0:0:0:0:
78,25,12956,5,2,1:2:0:0:
172,38,13311,2,0,P|224:24|298:13,1,120,10|2,0:0|1:2,0:0:0:0:
388,51,14021,1,10,0:0:0:0:
388,51,14198,1,2,1:2:0:0:
388,51,14376,6,0,L|381:187,1,120,2|10,1:2|0:0,0:0:0:0:
374,266,15086,2,0,P|343:252|301:252,1,60,2|0,1:2|0:0,0:0:0:0:
282,282,15441,2,0,P|251:296|209:296,1,60,10|2,0:0|1:2,0:0:0:0:
179,283,15796,5,2,1:2:0:0:
118,208,16151,1,10,0:0:0:0:
179,133,16506,1,2,1:2:0:0:
127,64,16861,1,10,0:0:0:0:
127,64,17038,1,2,1:2:0:0:
127,64,17216,6,0,P|77:75|9:97,1,120,2|10,1:2|0:0,0:0:0:0:
11,192,17926,2,0,L|88:181,1,60,2|0,1:2|0:0,0:0:0:0:
105,216,18281,2,0,L|182:227,1,60,10|2,0:0|1:2,0:0:0:0:
207,203,18636,5,2,1:2:0:0:
273,271,18991,2,0,P|333:253|403:242,1,120,10|2,0:0|1:2,0:0:0:0:
492,240,19701,1,10,0:0:0:0:
492,240,19878,1,2,1:2:0:0:
492,240,20056,6,0,L|503:92,1,120,2|10,1:2|0:0,0:0:0:0:
510,24,20766,2,0,P|479:10|437:10,1,60,2|0,1:2|0:0,0:0:0:0:
411,30,21121,1,10,0:0:0:0:
320,15,21476,5,2,1:2:0:0:
320,15,21654,2,0,L|333:148,1,120,2|2,0:0|0:0,0:0:0:0:
337,181,22186,1,2,1:2:0:0:
241,167,22541,1,10,0:0:0:0:
228,265,22896,5,6,1:2:0:0:
228,265,23074,2,0,P|169:248|99:236,1,120,2|2,0:0|0:0,0:0:0:0:
16,253,23784,1,2,0:0:0:0:
8,158,24139,1,2,1:2:0:0:
8,158,24317,6,0,L|127:131,1,120,2|8,1:2|0:0,0:0:0:0:
162,101,24849,1,2,0:0:0:0:
162,101,25027,2,0,L|154:216,2,90,2|8|8,1:2|0:0|1:2,0:0:0:0:
169,53,25737,5,2,1:2:0:0:
261,77,26092,1,10,0:0:0:0:
338,20,26447,2,0,L|435:8,2,90,2|10|10,1:2|0:0|1:2,0:0:0:0:
348,67,27157,6,0,L|375:193,1,120,2|8,1:2|0:0,0:0:0:0:
352,277,27867,2,0,B|321:252|321:252|257:263,2,90,2|8|8,1:2|0:0|1:2,0:0:0:0:
392,312,28577,5,2,1:2:0:0:
392,312,28754,2,0,P|448:298|517:288,1,120,2|2,0:0|0:0,0:0:0:0:
455,209,29464,1,2,0:0:0:0:
495,122,29819,1,10,1:2:0:0:
495,122,29997,6,0,B|469:158|469:158|386:145,1,120,2|8,1:2|0:0,0:0:0:0:
351,140,30530,1,2,0:0:0:0:
351,140,30707,2,0,L|344:43,2,90,2|8|8,1:2|0:0|1:2,0:0:0:0:
330,183,31417,5,2,1:2:0:0:
239,150,31772,1,10,0:0:0:0:
177,223,32127,2,0,L|80:212,2,90,2|8|8,1:2|0:0|1:2,0:0:0:0:
208,259,32837,6,0,L|220:346,1,60,2|2,1:2|0:0,0:0:0:0:
198,362,33192,1,8,0:0:0:0:
106,333,33547,2,0,L|1:343,2,90,2|8|10,1:2|0:0|1:2,0:0:0:0:
134,294,34257,5,6,1:2:0:0:
123,207,34612,1,10,0:0:0:0:
123,207,34790,1,2,0:0:0:0:
123,207,34967,2,0,L|202:212,1,60,2|0,1:2|0:0,0:0:0:0:
226,191,35322,1,10,0:0:0:0:
304,245,35677,6,0,L|298:319,1,60,2|0,1:2|0:0,0:0:0:0:
322,358,36032,1,10,0:0:0:0:
322,358,36210,1,2,0:0:0:0:
322,358,36388,2,0,P|384:342|453:332,1,120,2|8,1:2|0:0,0:0:0:0:
504,260,37098,5,2,1:2:0:0:
504,260,37275,2,0,L|490:137,1,120,2|2,0:0|0:0,0:0:0:0:
485,92,37808,1,2,1:2:0:0:
392,119,38163,1,10,0:0:0:0:
345,41,38518,5,2,1:2:0:0:
345,41,38695,2,0,P|286:27|214:20,1,120,2|2,0:0|0:0,0:0:0:0:
181,36,39228,1,2,1:2:0:0:
89,7,39583,2,0,P|58:19|27:43,1,60,10|2,0:0|1:2,0:0:0:0:
6,72,39938,5,2,1:2:0:0:
59,151,40293,2,0,L|51:224,1,60,10|2,0:0|0:0,0:0:0:0:
77,251,40648,2,0,P|120:226|206:217,1,120,2|10,1:2|0:0,0:0:0:0:
282,234,41358,5,2,1:2:0:0:
271,138,41713,2,0,L|263:65,1,60,10|2,0:0|0:0,0:0:0:0:
289,38,42068,2,0,P|332:63|418:72,1,120,2|8,1:2|0:0,0:0:0:0:
498,59,42778,5,2,1:2:0:0:
498,59,42956,2,0,L|492:183,1,120,2|2,0:0|0:0,0:0:0:0:
488,226,43488,2,0,P|438:186|375:175,1,120,2|10,1:2|0:0,0:0:0:0:
292,186,44198,5,2,1:2:0:0:
292,186,44376,2,0,L|149:170,1,120,2|2,0:0|0:0,0:0:0:0:
125,167,44908,2,0,B|96:203|96:203|115:298,1,120,2|10,1:2|0:0,0:0:0:0:
126,371,45618,5,6,1:2:0:0:
221,359,45973,1,2,1:2:0:0:
316,347,46328,1,2,1:2:0:0:
411,335,46683,1,2,1:2:0:0:
506,323,47038,5,2,1:2:0:0:
494,228,47393,1,2,1:2:0:0:
482,133,47748,2,0,L|348:115,1,120,2|0,1:2|1:0,0:0:0:0:
271,145,48459,5,2,1:2:0:0:
208,217,48814,1,2,1:2:0:0:
117,185,49169,1,2,1:2:0:0:
54,257,49524,1,2,1:2:0:0:
2,176,49879,6,0,P|6:136|27:47,1,120,2|2,1:2|1:2,0:0:0:0:
114,87,50589,2,0,L|196:71,1,60,2|0,1:2|0:0,0:0:0:0:
207,42,50944,2,0,L|289:58,1,60,2|0,1:2|0:0,0:0:0:0:
312,66,51299,5,2,1:2:0:0:
285,158,51654,1,2,1:2:0:0:
377,185,52009,1,2,1:2:0:0:
404,93,52364,1,2,1:2:0:0:
496,120,52719,6,0,L|465:256,1,120,2|2,1:2|1:2,0:0:0:0:
438,327,53429,2,0,P|422:268|356:280,1,120,2|0,1:2|1:0,0:0:0:0:
348,359,54139,5,2,1:2:0:0:
252,371,54494,1,2,1:2:0:0:
177,310,54849,1,2,1:2:0:0:
81,322,55204,1,2,1:2:0:0:
69,226,55559,6,0,L|83:154,1,60,2|0,1:2|0:0,0:0:0:0:
101,123,55914,2,0,L|87:51,1,60,2|0,1:2|0:0,0:0:0:0:
79,16,56269,1,2,1:2:0:0:
173,32,56624,2,2,L|258:16,1,60,14|0,0:0|0:0,0:1:0:0:
276,38,56979,5,6,1:2:0:0:
368,12,57334,2,0,L|358:142,1,120,10|2,0:0|1:2,0:0:0:0:
353,227,58044,2,0,L|423:218,1,60,10|2,0:0|1:2,0:0:0:0:
458,234,58399,5,2,1:2:0:0:
444,329,58754,1,10,0:0:0:0:
355,367,59109,2,0,P|320:347|277:341,1,60,2|0,1:2|0:0,0:0:0:0:
253,349,59464,2,0,L|263:270,1,60,10|2,0:0|1:2,0:0:0:0:
268,242,59819,5,2,1:2:0:0:
175,267,60175,2,0,L|39:248,1,120,10|2,0:0|1:2,0:0:0:0:
1,171,60885,1,10,0:0:0:0:
63,97,61240,6,0,P|100:101|129:183,1,120,2|10,1:2|0:0,0:0:0:0:
227,189,61950,2,0,P|264:145|321:153,1,120,2|10,1:2|0:0,0:0:0:0:
358,192,62482,1,2,1:2:0:0:
358,192,62660,5,2,1:2:0:0:
422,120,63015,2,0,P|428:78|423:38,1,60,10|0,0:0|0:0,0:0:0:0:
407,16,63370,2,0,L|281:5,1,120,2|10,1:2|0:0,0:0:0:0:
196,36,64080,5,2,1:2:0:0:
104,7,64435,1,10,0:0:0:0:
25,62,64790,2,0,L|34:133,1,60,2|0,1:2|0:0,0:0:0:0:
62,158,65145,2,0,L|53:229,1,60,10|2,0:0|1:2,0:0:0:0:
48,265,65500,5,2,1:2:0:0:
109,338,65855,2,0,P|173:322|186:269,1,120,10|2,0:0|1:2,0:0:0:0:
163,182,66565,1,10,0:0:0:0:
238,122,66920,6,0,B|300:123|300:123|345:175,1,120,2|10,1:2|0:0,0:0:0:0:
410,229,67630,2,0,P|463:219|488:202,1,60,2|0,1:2|0:0,0:0:0:0:
505,186,67985,2,0,P|486:151|474:114,1,60,10|2,0:0|1:2,0:0:0:0:
477,84,68340,5,6,1:2:0:0:
403,22,68695,2,0,L|322:32,1,60,10|2,0:0|0:0,0:0:0:0:
303,56,69050,2,0,L|222:46,1,60,2|2,1:2|0:0,0:0:0:0:
195,41,69405,1,10,0:0:0:0:
213,135,69760,5,2,1:2:0:0:
148,205,70115,2,0,L|158:287,1,60,10|2,0:0|0:0,0:0:0:0:
160,313,70470,1,2,1:2:0:0:
68,326,70825,2,0,L|58:244,1,60,10|2,0:0|1:2,0:0:0:0:
56,218,71180,5,2,1:2:0:0:
49,122,71535,2,0,L|130:132,1,60,10|2,0:0|0:0,0:0:0:0:
149,156,71890,2,0,L|230:146,1,60,2|2,1:2|0:0,0:0:0:0:
257,141,72245,1,10,0:0:0:0:
314,64,72600,5,6,1:2:0:0:
387,126,72955,2,0,L|397:208,1,60,10|2,0:0|0:0,0:0:0:0:
399,234,73310,1,6,1:2:0:0:
493,218,73665,2,0,L|483:136,1,60,10|2,0:0|1:2,0:0:0:0:
481,110,74020,5,6,1:2:0:0:
440,22,74376,2,0,L|359:32,1,60,10|2,0:0|0:0,0:0:0:0:
340,56,74731,2,0,L|259:46,1,60,2|2,1:2|0:0,0:0:0:0:
232,41,75086,1,10,0:0:0:0:
152,94,75441,5,2,1:2:0:0:
206,172,75796,2,0,L|216:254,1,60,10|2,0:0|0:0,0:0:0:0:
218,280,76151,1,2,1:2:0:0:
310,304,76506,2,0,L|300:222,1,60,10|2,0:0|1:2,0:0:0:0:
298,196,76861,5,2,1:2:0:0:
372,135,77216,2,0,L|453:145,1,60,10|2,0:0|0:0,0:0:0:0:
478,151,77571,2,0,L|468:232,1,60,2|2,1:2|0:0,0:0:0:0:
463,259,77926,1,10,0:0:0:0:
403,334,78281,5,6,1:2:0:0:
310,304,78636,2,0,L|228:314,1,60,8|2,0:0|0:0,0:0:0:0:
202,316,78991,1,2,1:2:0:0:
195,220,79346,2,0,L|277:210,1,60,10|2,0:0|1:2,0:0:0:0:
303,208,79701,5,6,1:2:0:0:
365,135,80056,2,0,P|346:107|304:81,1,60,10|2,0:0|0:0,0:0:0:0:
282,69,80411,2,0,P|252:74|225:87,1,60,2|2,1:2|0:0,0:0:0:0:
193,122,80766,1,10,0:0:0:0:
97,110,81121,5,2,1:2:0:0:
108,205,81476,2,0,L|118:287,1,60,10|2,0:0|0:0,0:0:0:0:
120,313,81831,1,2,1:2:0:0:
24,322,82186,2,0,L|14:240,1,60,10|2,0:0|1:2,0:0:0:0:
12,214,82541,5,2,1:2:0:0:
43,123,82896,2,0,L|124:133,1,60,10|2,0:0|0:0,0:0:0:0:
143,157,83251,2,0,L|224:147,1,60,2|2,1:2|0:0,0:0:0:0:
251,142,83606,1,10,0:0:0:0:
310,66,83961,5,6,1:2:0:0:
378,125,84316,2,0,L|388:207,1,60,10|2,0:0|0:0,0:0:0:0:
390,233,84671,1,6,1:2:0:0:
295,249,85026,2,0,L|213:259,1,60,10|2,0:0|1:2,0:0:0:0:
187,261,85381,5,6,1:2:0:0:
193,357,85737,2,0,P|237:372|261:368,1,60,10|2,0:0|0:0,0:0:0:0:
286,340,86092,2,0,P|330:325|354:329,1,60,2|2,1:2|0:0,0:0:0:0:
387,343,86447,1,10,0:0:0:0:
447,268,86802,5,2,1:2:0:0:
400,183,87157,2,0,L|318:193,1,60,10|2,0:0|0:0,0:0:0:0:
292,195,87512,1,2,1:2:0:0:
213,249,87867,2,0,L|131:239,1,60,10|2,0:0|1:2,0:0:0:0:
105,237,88222,5,2,1:2:0:0:
78,144,88577,2,0,L|159:134,1,60,10|2,0:0|0:0,0:0:0:0:
173,104,88932,2,0,L|254:114,1,60,2|2,1:2|0:0,0:0:0:0:
279,120,89287,1,10,0:0:0:0:
350,55,89642,5,6,1:2:0:0:
350,55,89819,2,0,L|341:193,1,120,2|2,0:0|0:0,0:0:0:0:
339,222,90352,1,2,1:2:0:0:
425,264,90707,1,10,0:0:0:0:
489,193,91062,5,6,1:2:0:0:
434,114,91417,2,0,L|423:37,1,60,8|2,0:0|0:0,0:0:0:0:
419,6,91772,1,0,1:0:0:0:
327,33,92127,1,2,0:0:0:0:
231,20,92482,6,0,B|295:49|295:49|269:174,1,180,2|2,1:2|0:0,0:0:0:0:
284,203,93192,2,0,L|393:192,2,90,2|8|8,1:2|0:0|1:2,0:0:0:0:
254,240,93902,5,2,1:2:0:0:
168,191,94257,1,10,0:0:0:0:
109,267,94612,2,0,P|77:233|9:221,2,90,2|10|10,1:2|0:0|1:2,0:0:0:0:
129,310,95322,6,0,P|197:302|272:300,1,120,2|8,1:2|0:0,0:0:0:0:
344,307,96032,2,0,L|355:190,2,90,2|8|8,1:2|0:0|1:2,0:0:0:0:
362,351,96743,5,2,1:2:0:0:
451,317,97098,2,0,L|440:240,1,60,8|2,0:0|0:0,0:0:0:0:
436,209,97453,1,0,1:0:0:0:
497,135,97808,1,2,0:0:0:0:
480,40,98163,6,0,P|474:96|360:85,1,180,2|2,1:2|0:0,0:0:0:0:
340,63,98873,2,0,P|379:41|401:-2,2,90,2|8|8,1:2|0:0|1:2,0:0:0:0:
291,60,99583,5,2,1:2:0:0:
228,132,99938,1,10,0:0:0:0:
143,86,100293,2,0,P|44:63|9:68,1,120,2|2,1:2|0:0,0:0:0:0:
44,114,100825,1,8,1:2:0:0:
44,114,101003,5,2,1:2:0:0:
9,203,101358,1,2,0:0:0:0:
44,292,101713,1,2,0:0:0:0:
233,306,102424,5,6,1:2:0:0:
216,211,102778,2,0,L|282:179,1,60,10|2,0:0|0:0,0:0:0:0:
277,137,103133,1,2,1:2:0:0:
260,42,103487,1,10,0:0:0:0:
356,37,103843,6,0,L|428:22,1,60,2|0,1:2|0:0,0:0:0:0:
468,47,104198,1,10,0:0:0:0:
468,47,104376,1,2,0:0:0:0:
468,47,104553,2,0,P|458:111|454:192,1,120,2|8,1:2|0:0,0:0:0:0:
462,266,105264,5,2,1:2:0:0:
462,266,105441,2,0,L|339:252,1,120,2|2,0:0|0:0,0:0:0:0:
294,247,105974,1,2,1:2:0:0:
207,288,106329,1,10,0:0:0:0:
161,209,106684,5,2,1:2:0:0:
161,209,106861,2,0,P|102:195|30:188,1,120,2|2,0:0|0:0,0:0:0:0:
0,204,107394,1,2,1:2:0:0:
22,110,107749,2,0,P|39:85|61:65,1,60,10|2,0:0|1:2,0:0:0:0:
106,46,108104,5,2,1:2:0:0:
197,75,108459,2,0,L|270:67,1,60,10|2,0:0|0:0,0:0:0:0:
296,41,108814,2,0,L|438:57,1,120,2|10,1:2|0:0,0:0:0:0:
509,72,109524,5,2,1:2:0:0:
510,167,109879,2,0,L|437:175,1,60,10|2,0:0|0:0,0:0:0:0:
411,201,110234,2,0,L|269:185,1,120,2|8,1:2|0:0,0:0:0:0:
200,177,110944,5,2,1:2:0:0:
200,177,111122,2,0,L|206:301,1,120,2|2,0:0|0:0,0:0:0:0:
210,344,111654,2,0,P|260:304|323:293,1,120,2|10,1:2|0:0,0:0:0:0:
413,295,112364,5,2,1:2:0:0:
413,295,112542,2,0,L|429:152,1,120,2|2,0:0|0:0,0:0:0:0:
427,127,113074,2,0,B|391:98|391:98|296:117,1,120,2|10,1:2|0:0,0:0:0:0:
228,144,113784,5,6,1:2:0:0:
210,49,114139,1,2,1:2:0:0:
115,67,114494,1,2,1:2:0:0:
133,161,114849,1,2,1:2:0:0:
39,179,115204,5,2,1:2:0:0:
57,273,115559,1,2,1:2:0:0:
151,255,115914,2,0,L|289:268,1,120,2|0,1:2|1:0,0:0:0:0:
363,243,116625,5,2,1:2:0:0:
337,150,116980,1,2,1:2:0:0:
413,92,117334,1,2,1:2:0:0:
387,0,117689,1,2,1:2:0:0:
292,17,118044,6,0,P|238:6|163:1,1,120,2|2,1:2|1:2,0:0:0:0:
103,66,118754,2,0,L|115:141,1,60,2|0,1:2|0:0,0:0:0:0:
142,162,119109,2,0,L|130:237,1,60,2|0,1:2|0:0,0:0:0:0:
123,268,119465,5,2,1:2:0:0:
201,323,119820,1,2,1:2:0:0:
291,290,120175,1,2,1:2:0:0:
369,345,120530,1,2,1:2:0:0:
460,316,120885,6,0,P|496:286|495:206,1,120,2|2,1:2|1:2,0:0:0:0:
470,125,121595,2,0,P|413:142|341:144,1,120,2|0,1:2|1:0,0:0:0:0:
261,116,122305,5,2,1:2:0:0:
275,210,122660,1,2,1:2:0:0:
181,224,123015,1,2,1:2:0:0:
167,130,123370,1,2,1:2:0:0:
73,144,123725,5,2,1:2:0:0:
87,238,124080,1,2,1:2:0:0:
101,332,124435,1,2,1:2:0:0:
195,318,124790,2,2,L|277:330,1,60,14|0,0:0|0:0,0:1:0:0:
292,355,125145,5,6,1:2:0:0:
332,267,125500,2,0,L|317:135,1,120,10|2,0:0|1:2,0:0:0:0:
309,52,126210,2,0,L|239:43,1,60,10|2,0:0|1:2,0:0:0:0:
204,59,126565,5,2,1:2:0:0:
117,18,126920,1,10,0:0:0:0:
43,79,127275,2,0,L|53:158,1,60,2|0,1:2|0:0,0:0:0:0:
78,178,127630,2,0,L|68:257,1,60,10|2,0:0|1:2,0:0:0:0:
62,285,127985,5,2,1:2:0:0:
151,318,128340,2,0,P|203:312|278:288,1,120,10|2,0:0|1:2,0:0:0:0:
349,243,129051,1,10,0:0:0:0:
282,173,129405,6,0,L|293:30,1,120,2|10,1:2|0:0,0:0:0:0:
386,62,130115,2,0,L|375:205,1,120,2|10,1:2|0:0,0:0:0:0:
394,231,130648,1,2,1:2:0:0:
394,231,130826,5,2,1:2:0:0:
489,221,131180,2,0,L|495:308,1,60,10|0,0:0|0:0,0:0:0:0:
474,325,131535,2,0,P|415:311|343:316,1,120,2|10,1:2|0:0,0:0:0:0:
263,340,132246,5,2,1:2:0:0:
183,285,132601,1,10,0:0:0:0:
100,333,132956,2,0,L|27:326,1,60,2|0,1:2|0:0,0:0:0:0:
15,285,133311,2,0,L|24:214,1,60,10|2,0:0|1:2,0:0:0:0:
29,178,133666,5,2,1:2:0:0:
124,185,134021,2,0,P|176:175|240:151,1,120,10|2,0:0|1:2,0:0:0:0:
321,103,134731,1,10,0:0:0:0:
331,198,135086,6,0,L|343:332,1,120,2|10,1:2|0:0,0:0:0:0:
418,374,135796,2,0,P|469:359|493:340,1,60,2|0,1:2|0:0,0:0:0:0:
509,323,136151,2,0,P|487:289|471:253,1,60,10|2,0:0|1:2,0:0:0:0:
481,223,136506,5,6,1:2:0:0:
385,235,136861,2,0,L|304:245,1,60,10|2,0:0|0:0,0:0:0:0:
285,269,137216,2,0,L|204:259,1,60,2|2,1:2|0:0,0:0:0:0:
177,254,137571,1,10,0:0:0:0:
118,178,137926,5,2,1:2:0:0:
179,104,138281,2,0,L|169:22,1,60,10|2,0:0|0:0,0:0:0:0:
167,1,138636,1,2,1:2:0:0:
258,31,138991,2,0,L|268:113,1,60,10|2,0:0|1:2,0:0:0:0:
270,139,139346,5,2,1:2:0:0:
286,233,139701,2,0,L|367:243,1,60,10|2,0:0|0:0,0:0:0:0:
386,267,140056,2,0,L|467:257,1,60,2|2,1:2|0:0,0:0:0:0:
494,252,140411,1,10,0:0:0:0:
463,342,140766,5,6,1:2:0:0:
368,356,141121,2,0,L|286:366,1,60,10|2,0:0|0:0,0:0:0:0:
260,368,141476,1,6,1:2:0:0:
179,315,141831,2,0,L|97:305,1,60,10|2,0:0|1:2,0:0:0:0:
71,303,142186,5,6,1:2:0:0:
54,208,142542,2,0,L|44:127,1,60,10|2,0:0|0:0,0:0:0:0:
41,100,142897,2,0,L|122:90,1,60,2|2,1:2|0:0,0:0:0:0:
148,88,143252,1,10,0:0:0:0:
230,136,143607,5,2,1:2:0:0:
313,89,143962,2,0,L|323:171,1,60,10|2,0:0|0:0,0:0:0:0:
325,197,144317,1,2,1:2:0:0:
402,253,144672,2,0,L|392:335,1,60,10|2,0:0|1:2,0:0:0:0:
390,361,145027,5,2,1:2:0:0:
480,328,145382,2,0,L|490:246,1,60,10|2,0:0|0:0,0:0:0:0:
491,220,145737,2,0,L|481:139,1,60,2|2,1:2|0:0,0:0:0:0:
476,112,146092,1,10,0:0:0:0:
396,57,146447,5,6,1:2:0:0:
396,57,146624,2,0,P|334:73|263:79,1,120,2|2,0:0|0:0,0:0:0:0:
231,69,147157,1,2,1:2:0:0:
249,163,147512,1,10,0:0:0:0:
267,257,147867,5,6,1:2:0:0:
231,69,148577,1,0,0:0:0:0:
64,160,149287,5,2,0:0:0:0:
231,69,149997,1,0,0:0:0:0:
267,257,150707,5,2,0:0:0:0:
231,69,151417,1,0,0:0:0:0:
64,160,152127,5,2,0:0:0:0:
231,69,152837,1,0,0:0:0:0:
267,257,153547,5,2,0:0:0:0:
231,69,154257,1,0,0:0:0:0:
64,160,154967,5,2,0:0:0:0:
231,69,155677,1,0,0:0:0:0:
267,257,156388,5,2,0:0:0:0:
99,350,157098,2,0,L|108:218,1,120,2|2,0:0|0:0,0:0:0:0:
27,171,157808,1,2,0:0:0:0:
31,175,159228,5,6,1:2:0:0:
31,175,159405,2,0,B|60:210|60:210|145:187,1,120,2|2,0:0|0:0,0:0:0:0:
177,176,159938,2,0,L|183:259,2,60,2|10|10,1:2|0:0|0:0,0:0:0:0:
177,132,160470,1,2,1:2:0:0:
177,132,160648,5,2,1:2:0:0:
239,59,161003,1,10,0:0:0:0:
337,97,161358,1,2,1:2:0:0:
337,97,161535,1,10,0:0:0:0:
337,97,161713,2,0,L|410:88,1,60,10|2,0:0|1:2,0:0:0:0:
448,88,162068,5,2,1:2:0:0:
448,88,162246,2,0,P|431:141|425:209,1,120,2|2,0:0|0:0,0:0:0:0:
432,252,162778,2,0,P|474:232|498:230,2,60,2|10|10,1:2|0:0|0:0,0:0:0:0:
352,305,163488,6,0,P|307:288|224:282,1,120,2|10,1:2|0:0,0:0:0:0:
172,353,164198,2,0,P|127:370|44:376,1,120,2|10,1:2|0:0,0:0:0:0:
36,287,164908,5,2,1:2:0:0:
36,287,165086,2,0,P|76:256|73:166,1,120,2|2,0:0|0:0,0:0:0:0:
71,144,165618,2,0,L|-3:156,2,60,2|10|10,1:2|0:0|0:0,0:0:0:0:
106,112,166151,1,2,1:2:0:0:
106,112,166328,5,2,1:2:0:0:
191,155,166683,1,10,0:0:0:0:
281,113,167038,1,2,1:2:0:0:
281,113,167216,1,10,0:0:0:0:
281,113,167393,2,0,L|288:195,1,60,10|2,0:0|1:2,0:0:0:0:
296,224,167748,5,2,1:2:0:0:
296,224,167926,2,0,P|340:208|427:195,1,120,2|2,0:0|0:0,0:0:0:0:
459,198,168459,1,2,1:2:0:0:
425,108,168814,2,0,L|441:10,1,90,10|2,0:0|0:0,0:0:0:0:
444,22,170589,5,6,1:2:0:0:
444,22,170766,2,0,P|374:36|300:39,1,120,2|2,0:0|0:0,0:0:0:0:
277,41,171299,2,0,L|286:112,2,60,2|10|10,1:2|0:0|0:0,0:0:0:0:
239,21,171831,1,2,1:2:0:0:
239,21,172009,5,2,1:2:0:0:
183,98,172364,1,10,0:0:0:0:
237,189,172719,1,2,1:2:0:0:
237,189,172896,1,10,0:0:0:0:
237,189,173074,2,0,L|228:262,1,60,10|2,0:0|1:2,0:0:0:0:
253,296,173429,5,2,1:2:0:0:
253,296,173607,2,0,P|343:269|384:260,1,120,2|2,0:0|0:0,0:0:0:0:
415,256,174139,2,0,L|408:182,2,60,2|10|10,1:2|0:0|0:0,0:0:0:0:
422,351,174849,6,0,L|285:340,1,120,2|10,1:2|0:0,0:0:0:0:
209,365,175559,2,0,L|72:376,1,120,2|10,1:2|0:0,0:0:0:0:
19,316,176269,5,2,1:2:0:0:
19,316,176447,2,0,B|42:264|42:264|127:274,1,120,2|2,0:0|0:0,0:0:0:0:
152,276,176979,2,0,L|161:196,2,60,2|10|10,1:2|0:0|0:0,0:0:0:0:
177,322,177512,1,2,1:2:0:0:
177,322,177689,5,2,1:2:0:0:
266,288,178044,1,10,0:0:0:0:
343,345,178399,1,2,1:2:0:0:
343,345,178577,1,10,0:0:0:0:
343,345,178754,2,0,L|428:334,1,60,10|2,0:0|1:2,0:0:0:0:
453,329,179109,5,2,1:2:0:0:
453,329,179287,2,0,P|437:285|424:198,1,120,2|2,0:0|0:0,0:0:0:0:
428,165,179819,2,0,P|459:127|467:89,2,60,2|10|10,1:2|0:0|0:0,0:0:0:0:
337,132,180530,5,2,1:2:0:0:
273,204,180885,1,10,0:0:0:0:
201,140,181240,1,2,1:2:0:0:
265,68,181595,1,10,0:0:0:0:
337,132,181950,5,6,1:2:0:0:
337,132,183370,5,2,0:0:0:0:
337,132,184790,5,2,0:0:0:0:
337,132,186210,5,2,0:0:0:0:
337,132,187630,5,2,0:0:0:0:
337,132,189050,5,2,0:0:0:0:
337,132,190470,5,2,0:0:0:0:
337,132,191890,5,2,0:0:0:0:
148,350,192956,2,2,L|76:338,1,60,14|0,0:0|0:0,0:1:0:0:
46,362,193310,5,6,1:2:0:0:
9,273,193666,2,0,P|57:231|115:209,1,120,10|2,0:0|1:2,0:0:0:0:
203,227,194376,2,0,L|213:159,1,60,10|2,0:0|1:2,0:0:0:0:
199,121,194731,5,2,1:2:0:0:
250,39,195086,1,10,0:0:0:0:
338,75,195441,2,0,P|418:62|476:60,1,120,2|10,1:2|0:0,0:0:0:0:
508,70,195973,1,2,1:2:0:0:
508,70,196151,5,2,1:2:0:0:
472,159,196507,2,0,L|485:296,1,120,10|2,0:0|1:2,0:0:0:0:
497,373,197217,1,10,0:0:0:0:
406,342,197571,6,0,P|345:351|269:377,1,120,2|10,1:2|0:0,0:0:0:0:
204,322,198281,2,0,P|146:304|87:295,1,120,2|10,1:2|0:0,0:0:0:0:
43,308,198814,1,2,1:2:0:0:
43,308,198992,5,2,1:2:0:0:
2,221,199346,2,0,L|8:153,1,60,10|0,0:0|0:0,0:0:0:0:
11,113,199702,2,0,L|137:102,1,120,2|10,1:2|0:0,0:0:0:0:
226,97,200412,5,2,1:2:0:0:
282,174,200767,1,10,0:0:0:0:
368,132,201122,2,0,L|359:61,1,60,2|0,1:2|0:0,0:0:0:0:
356,24,201476,2,0,L|287:11,1,60,10|2,0:0|1:2,0:0:0:0:
254,36,201832,5,2,1:2:0:0:
160,13,202186,2,0,P|110:24|40:45,1,120,10|2,0:0|1:2,0:0:0:0:
18,136,202897,1,10,0:0:0:0:
112,122,203251,6,0,L|103:255,1,120,2|10,1:2|0:0,0:0:0:0:
94,337,203961,2,0,L|163:323,1,60,2|0,1:2|0:0,0:0:0:0:
194,349,204317,2,0,L|263:363,1,60,10|2,0:0|1:2,0:0:0:0:
298,345,204672,5,6,1:2:0:0:
272,252,205027,2,0,P|279:186|292:106,1,120,10|2,0:0|1:2,0:0:0:0:
305,38,205737,2,0,P|270:16|234:13,1,60,10|2,0:0|1:2,0:0:0:0:
216,44,206092,6,0,L|90:63,1,120,2|10,1:2|0:0,0:0:0:0:
2,49,206802,1,2,1:2:0:0:
23,142,207157,2,2,L|15:221,1,60,14|0,0:0|0:0,0:1:0:0:
30,247,207512,5,6,1:2:0:0:
124,265,207867,2,0,L|205:275,1,60,10|2,0:0|0:0,0:0:0:0:
224,299,208222,2,0,L|305:289,1,60,2|2,1:2|0:0,0:0:0:0:
332,284,208577,1,10,0:0:0:0:
393,210,208932,5,2,1:2:0:0:
306,169,209287,2,0,L|296:87,1,60,10|2,0:0|0:0,0:0:0:0:
294,61,209642,1,2,1:2:0:0:
378,16,209997,2,0,L|388:98,1,60,10|2,0:0|1:2,0:0:0:0:
390,124,210352,5,2,1:2:0:0:
400,219,210707,2,0,L|481:229,1,60,10|2,0:0|0:0,0:0:0:0:
507,234,211062,2,0,L|497:315,1,60,2|2,1:2|0:0,0:0:0:0:
492,342,211417,1,10,0:0:0:0:
401,373,211772,5,6,1:2:0:0:
317,326,212127,2,0,L|235:336,1,60,10|2,0:0|0:0,0:0:0:0:
209,338,212482,1,6,1:2:0:0:
203,242,212837,2,0,L|285:232,1,60,10|2,0:0|1:2,0:0:0:0:
311,230,213192,5,6,1:2:0:0:
301,134,213548,2,0,L|220:144,1,60,10|2,0:0|0:0,0:0:0:0:
205,109,213903,2,0,L|124:99,1,60,2|2,1:2|0:0,0:0:0:0:
97,94,214258,1,10,0:0:0:0:
21,153,214612,5,2,1:2:0:0:
29,248,214968,2,0,L|39:330,1,60,10|2,0:0|0:0,0:0:0:0:
41,356,215323,1,2,1:2:0:0:
136,344,215678,2,0,L|126:262,1,60,10|2,0:0|1:2,0:0:0:0:
124,236,216033,5,2,1:2:0:0:
199,176,216388,2,0,L|280:186,1,60,10|2,0:0|0:0,0:0:0:0:
306,191,216743,2,0,L|296:272,1,60,2|2,1:2|0:0,0:0:0:0:
291,299,217098,1,10,0:0:0:0:
380,346,217453,5,6,1:2:0:0:
380,346,217630,2,0,P|430:328|442:256,1,120,2|2,0:0|0:0,0:0:0:0:
431,222,218163,1,2,1:2:0:0:
368,148,218518,2,0,L|378:66,1,60,10|2,0:0|1:2,0:0:0:0:
384,41,218873,5,6,1:2:0:0:
292,71,219228,2,0,P|257:55|213:55,1,60,10|2,0:0|0:0,0:0:0:0:
203,88,219583,2,0,P|184:111|158:127,1,60,2|2,1:2|0:0,0:0:0:0:
110,125,219938,1,10,0:0:0:0:
38,61,220293,5,2,1:2:0:0:
3,150,220648,2,0,L|15:231,1,60,10|2,0:0|0:0,0:0:0:0:
19,258,221003,1,2,1:2:0:0:
100,308,221358,2,0,L|112:226,1,60,10|2,0:0|1:2,0:0:0:0:
116,200,221713,5,2,1:2:0:0:
211,210,222068,2,0,L|292:220,1,60,10|2,0:0|0:0,0:0:0:0:
311,244,222423,2,0,L|392:234,1,60,2|2,1:2|0:0,0:0:0:0:
419,229,222778,1,10,0:0:0:0:
479,154,223133,5,6,1:2:0:0:
395,107,223488,2,0,L|405:25,1,60,10|2,0:0|0:0,0:0:0:0:
407,0,223843,1,6,1:2:0:0:
311,8,224198,2,0,L|229:18,1,60,10|2,0:0|1:2,0:0:0:0:
203,20,224553,5,6,1:2:0:0:
131,84,224909,2,0,P|116:128|120:152,1,60,10|2,0:0|0:0,0:0:0:0:
148,177,225264,2,0,P|163:221|159:245,1,60,2|2,1:2|0:0,0:0:0:0:
145,278,225619,1,10,0:0:0:0:
222,335,225974,5,2,1:2:0:0:
291,268,226329,2,0,L|373:258,1,60,10|2,0:0|0:0,0:0:0:0:
398,256,226684,1,2,1:2:0:0:
430,166,227038,2,0,L|348:176,1,60,10|2,0:0|1:2,0:0:0:0:
323,181,227393,5,2,1:2:0:0:
259,108,227749,2,0,L|178:98,1,60,10|2,0:0|0:0,0:0:0:0:
164,68,228104,2,0,L|83:78,1,60,2|2,1:2|0:0,0:0:0:0:
58,84,228459,1,10,0:0:0:0:
1,161,228814,5,6,1:2:0:0:
1,161,228991,2,0,P|17:209|31:287,1,120,2|2,0:0|0:0,0:0:0:0:
25,325,229524,1,2,1:2:0:0:
114,290,229879,1,10,0:0:0:0:
173,365,230234,6,0,P|233:353|302:346,1,120,6|2,1:2|1:2,0:0:0:0:
343,349,230766,1,2,0:0:0:0:
343,349,230944,2,0,L|354:268,1,60,2|2,1:2|0:0,0:0:0:0:
357,241,231299,1,2,1:2:0:0:
298,166,231654,6,0,P|238:178|169:185,1,120,2|2,1:2|1:2,0:0:0:0:
128,182,232186,1,2,0:0:0:0:
128,182,232364,2,0,L|117:263,1,60,2|2,1:2|0:0,0:0:0:0:
118,294,232719,1,2,1:2:0:0:
118,294,232896,5,2,0:0:0:0:
