osu file format v14

[General]
AudioFilename: audio.mp3
AudioLeadIn: 0
PreviewTime: 54139
Countdown: 0
SampleSet: Soft
StackLeniency: 0.7
Mode: 0
LetterboxInBreaks: 0
WidescreenStoryboard: 1

[Editor]
Bookmarks: 175,11535,22896,34257,45618,56979,67985,68340,91062,102423,113784,125145,136151,136506,147867,159228,169080,170589,181950,193311,204672,207512,230234,232896
DistanceSpacing: 0.9
BeatDivisor: 4
GridSize: 32
TimelineZoom: 1

[Metadata]
Title:Last of Me
TitleUnicode:Last of Me
Artist:CircusP
ArtistUnicode:CircusP
Creator:eiri-
Version:Easy
Source:osu!
Tags:Ayyri Trynna Circus-P Featured Artist FA English Electronic Vocaloid Megurine Luka 巡音ルカ
BeatmapID:2441267
BeatmapSetID:1165972

[Difficulty]
HPDrainRate:3
CircleSize:3
OverallDifficulty:4
ApproachRate:5
SliderMultiplier:1
SliderTickRate:1

[Events]
//Background and Video events
0,0,"Luka 385.jpg",0,0
//Break Periods
//Storyboard Layer 0 (Background)
//Storyboard Layer 1 (Fail)
//Storyboard Layer 2 (Pass)
//Storyboard Layer 3 (Foreground)
//Storyboard Layer 4 (Overlay)
//Storyboard Sound Samples

[TimingPoints]
175,355.029585798817,4,2,1,50,1,0
10115,-100,4,2,1,75,0,0
11535,-100,4,2,1,90,0,1
22896,-100,4,2,1,75,0,0
34257,-100,4,2,1,80,0,0
45618,-100,4,2,1,60,0,0
56624,-100,4,2,1,100,0,0
56979,-100,4,2,1,90,0,1
67985,-100,4,2,1,90,0,0
68340,-100,4,2,1,95,0,1
91062,-100,4,2,1,75,0,0
102423,-100,4,2,1,80,0,0
113784,-100,4,2,1,60,0,0
124790,-100,4,2,1,100,0,0
125145,-100,4,2,1,90,0,1
136151,-100,4,2,1,90,0,0
136506,-100,4,2,1,95,0,1
147867,-100,4,2,1,60,0,0
159228,-100,4,2,1,90,0,1
169080,-100,4,2,1,50,0,0
170589,-100,4,2,1,95,0,1
181950,-100,4,2,1,60,0,0
192956,-100,4,2,1,100,0,0
193311,-100,4,2,1,80,0,1
204672,-100,4,2,1,75,0,0
207157,-100,4,2,1,100,0,0
207512,-100,4,2,1,95,0,1
230234,-100,4,2,1,75,0,0

[Colours]
Combo1 : 126,179,237
Combo2 : 155,208,106
Combo3 : 179,136,230
Combo4 : 240,142,182

[HitObjects]
448,320,175,5,2,0:0:0:0:
412,237,530,2,0,L|421:118,2,100,2|0|2,0:0|0:0|0:0,0:0:0:0:
325,261,1595,1,2,0:0:0:0:
322,350,1950,2,0,P|226:320|122:306,1,200,2|2,0:0|0:0,0:0:0:0:
42,333,3015,5,2,0:0:0:0:
25,244,3370,2,0,P|8:203|-6:135,2,100,2|2|0,0:0|0:0|0:0,0:0:0:0:
110,216,4435,2,0,L|218:205,1,100,2|0,0:0|0:0,0:0:0:0:
283,154,5145,2,0,L|391:165,1,100,2|2,0:0|0:0,0:0:0:0:
471,178,5855,5,2,0:0:0:0:
451,90,6210,2,0,P|426:62|272:16,1,200,2|2,0:0|0:0,0:0:0:0:
191,46,7275,1,2,0:0:0:0:
210,133,7630,2,0,L|98:125,2,100,2|0|2,0:0|0:0|0:0,0:0:0:0:
295,103,8695,5,2,0:0:0:0:
349,174,9050,2,0,P|328:273|317:381,1,200,2|0,0:0|0:0,0:0:0:0:
232,340,10115,5,2,0:0:0:0:
54,369,10825,1,2,0:0:0:0:
32,281,11180,1,2,0:0:0:0:
75,201,11535,6,0,P|151:177|181:158,1,100,6|8,1:2|0:0,0:0:0:0:
227,99,12246,1,2,1:2:0:0:
178,22,12601,1,10,0:0:0:0:
266,5,12956,2,0,P|313:8|386:19,1,100,2|10,1:2|0:0,0:0:0:0:
443,60,13666,1,2,1:2:0:0:
397,137,14021,1,10,0:0:0:0:
450,209,14376,6,0,P|456:293|456:324,1,100,2|10,1:2|0:0,0:0:0:0:
387,366,15086,1,2,1:2:0:0:
312,315,15441,1,10,0:0:0:0:
238,367,15796,2,0,L|126:354,1,100,2|10,1:2|0:0,0:0:0:0:
49,344,16506,1,2,1:2:0:0:
67,256,16861,2,0,L|58:199,1,50,10|2,0:0|1:2,0:0:0:0:
50,162,17216,6,0,P|94:139|143:129,1,100,2|10,1:2|0:0,0:0:0:0:
232,133,17926,1,2,1:2:0:0:
281,57,18281,1,10,0:0:0:0:
206,6,18636,2,0,L|100:32,1,100,2|10,1:2|0:0,0:0:0:0:
19,20,19346,1,2,1:2:0:0:
4,108,19701,1,10,0:0:0:0:
93,117,20056,6,0,P|103:174|107:230,1,100,2|10,1:2|0:0,0:0:0:0:
110,306,20766,1,2,1:2:0:0:
193,272,21121,1,10,0:0:0:0:
271,315,21476,2,0,P|306:304|389:288,1,100,2|8,1:2|0:0,0:0:0:0:
457,299,22186,1,2,1:2:0:0:
504,222,22541,2,0,L|496:162,1,50,10|2,0:0|1:2,0:0:0:0:
474,133,22896,6,0,L|489:26,1,100,6|8,1:2|0:0,0:0:0:0:
399,51,23606,2,0,P|355:36|315:29,1,75,2|8,1:2|0:0,0:0:0:0:
219,63,24317,2,0,P|261:155|282:258,1,200,2|2,1:2|1:2,0:0:0:0:
143,366,25737,5,2,1:2:0:0:
163,278,26092,1,10,0:0:0:0:
89,225,26447,2,0,P|69:171|67:138,1,75,2|10,1:2|0:0,0:0:0:0:
97,45,27157,2,0,P|189:79|303:64,1,200,2|2,1:2|1:2,0:0:0:0:
461,19,28577,6,0,L|453:124,1,100,2|8,1:2|0:0,0:0:0:0:
442,208,29287,2,0,P|415:165|265:149,1,200,2|2,1:2|1:2,0:0:0:0:
219,210,30352,1,8,0:0:0:0:
259,290,30707,1,2,1:2:0:0:
89,351,31417,5,2,1:2:0:0:
31,281,31772,1,10,0:0:0:0:
79,205,32127,2,0,P|89:151|84:96,1,100,2|2,1:2|0:0,0:0:0:0:
16,46,32837,2,0,P|59:61|224:45,1,200,2|2,1:2|1:2,0:0:0:0:
384,2,34257,6,0,B|328:35|328:35|347:168,1,200,6|2,1:2|1:2,0:0:0:0:
364,257,35322,1,10,0:0:0:0:
282,294,35677,2,0,P|261:258|113:237,1,200,2|2,1:2|1:2,0:0:0:0:
40,281,36743,1,8,0:0:0:0:
16,194,37098,6,0,P|21:163|27:136,1,50,2|2,1:2|0:0,0:0:0:0:
96,30,37808,2,0,P|164:22|211:22,1,100,2|10,1:2|0:0,0:0:0:0:
286,23,38518,2,0,L|280:93,1,50,2|2,1:2|0:0,0:0:0:0:
264,206,39228,1,2,1:2:0:0:
283,293,39583,1,10,0:0:0:0:
358,341,39938,6,0,P|416:338|462:215,1,200,2|2,1:2|1:2,0:0:0:0:
421,142,41003,1,10,0:0:0:0:
341,187,41358,2,0,P|244:164|151:115,1,200,2|2,1:2|1:2,0:0:0:0:
89,56,42423,1,8,0:0:0:0:
21,115,42778,6,0,L|32:186,1,50,2|2,1:2|0:0,0:0:0:0:
52,297,43488,2,0,P|92:278|157:266,1,100,2|10,1:2|0:0,0:0:0:0:
224,313,44198,2,0,L|294:320,1,50,2|2,1:2|0:0,0:0:0:0:
402,275,44908,1,2,1:2:0:0:
436,193,45263,1,10,0:0:0:0:
414,104,45618,5,6,1:2:0:0:
237,137,46328,1,2,1:2:0:0:
60,170,47038,2,0,L|81:278,1,100,2|2,1:2|1:2,0:0:0:0:
71,357,47748,1,2,1:2:0:0:
250,367,48459,6,0,P|271:331|278:253,1,100,2|2,1:2|1:2,0:0:0:0:
237,195,49169,2,0,P|216:159|209:81,1,100,2|2,1:2|1:2,0:0:0:0:
240,18,49879,2,0,P|340:8|453:11,1,200,2|2,1:2|1:2,0:0:0:0:
507,68,50944,1,2,1:2:0:0:
458,143,51299,5,2,1:2:0:0:
475,322,52009,1,2,1:2:0:0:
295,337,52719,2,0,L|320:224,1,100,2|2,1:2|1:2,0:0:0:0:
296,151,53429,1,2,1:2:0:0:
127,206,54139,6,0,L|19:184,2,100,2|2|2,1:2|1:2|1:2,0:0:0:0:
216,194,55204,1,2,1:2:0:0:
204,104,55559,2,0,P|264:87|423:71,1,200,2|2,1:2|1:2,0:0:0:0:
483,104,56624,1,14,0:0:0:0:
444,185,56979,5,6,1:2:0:0:
480,267,57334,2,0,B|443:224|392:224|392:224|379:281|308:296,1,200,10|10,0:0|0:0,0:0:0:0:
236,280,58399,1,2,1:2:0:0:
268,195,58754,1,10,0:0:0:0:
200,135,59109,2,0,L|211:23,1,100,2|10,1:2|0:0,0:0:0:0:
123,11,59819,5,2,1:2:0:0:
69,83,60175,2,0,B|33:128|-12:142|-12:142|28:178|26:244,1,200,10|10,0:0|0:0,0:0:0:0:
1,316,61240,1,2,1:2:0:0:
82,355,61595,1,10,0:0:0:0:
160,311,61950,2,0,P|198:302|274:295,1,100,2|10,1:2|0:0,0:0:0:0:
348,299,62660,5,2,1:2:0:0:
412,235,63015,2,0,B|353:240|324:195|324:195|378:157|356:92,1,200,10|10,0:0|0:0,0:0:0:0:
339,23,64080,1,2,1:2:0:0:
261,68,64435,1,10,0:0:0:0:
174,42,64790,2,0,L|62:53,1,100,2|10,1:2|0:0,0:0:0:0:
11,115,65500,5,2,1:2:0:0:
72,181,65855,2,0,B|125:184|170:162|170:162|197:217|159:274,1,200,10|10,0:0|0:0,0:0:0:0:
128,338,66921,1,2,1:2:0:0:
211,372,67276,1,10,0:0:0:0:
289,327,67631,2,0,P|327:318|403:311,1,100,2|14,1:2|0:0,0:0:0:0:
477,318,68341,5,6,1:2:0:0:
458,230,68695,2,0,P|477:178|485:118,2,100,10|2|10,0:0|1:2|0:0,0:0:0:0:
368,222,69760,1,2,1:2:0:0:
301,282,70115,2,0,P|263:273|187:266,1,100,10|2,0:0|1:2,0:0:0:0:
114,286,70825,1,10,0:0:0:0:
77,203,71180,5,2,1:2:0:0:
131,131,71535,2,0,L|116:25,2,100,10|2|10,0:0|1:2|0:0,0:0:0:0:
220,142,72601,2,0,P|281:125|337:118,1,100,6|10,1:2|0:0,0:0:0:0:
337,207,73311,2,0,P|276:224|220:231,1,100,6|10,1:2|0:0,0:0:0:0:
153,205,74021,5,6,1:2:0:0:
115,286,74376,2,0,B|102:254|102:254|20:273,2,100,10|2|10,0:0|1:2|0:0,0:0:0:0:
136,373,75441,1,2,1:2:0:0:
222,347,75796,2,0,L|342:363,1,100,10|2,0:0|1:2,0:0:0:0:
407,333,76506,1,10,0:0:0:0:
364,253,76861,5,2,1:2:0:0:
405,172,77216,2,0,L|506:186,2,100,10|2|10,0:0|1:2|0:0,0:0:0:0:
343,106,78281,1,6,1:2:0:0:
254,123,78636,2,0,L|153:137,1,100,8|2,0:0|1:2,0:0:0:0:
66,153,79346,2,0,P|48:190|49:207,1,50,10|2,0:0|1:2,0:0:0:0:
65,240,79701,5,6,1:2:0:0:
147,274,80056,2,0,L|158:384,2,100,10|2|10,0:0|1:2|0:0,0:0:0:0:
138,184,81121,1,2,1:2:0:0:
220,147,81476,2,0,P|258:138|334:131,1,100,10|2,0:0|1:2,0:0:0:0:
408,139,82186,1,10,0:0:0:0:
480,85,82541,5,2,1:2:0:0:
503,171,82896,2,0,L|496:285,2,100,10|2|10,0:0|1:2|0:0,0:0:0:0:
480,85,83962,2,0,P|419:68|363:61,1,100,6|10,1:2|0:0,0:0:0:0:
303,105,84672,2,0,P|242:122|186:129,1,100,6|10,1:2|0:0,0:0:0:0:
119,103,85382,5,6,1:2:0:0:
90,188,85737,2,0,P|76:150|4:138,2,100,10|2|10,0:0|1:2|0:0,0:0:0:0:
110,275,86802,1,2,1:2:0:0:
198,290,87157,2,0,L|318:306,1,100,10|2,0:0|1:2,0:0:0:0:
383,279,87867,1,10,0:0:0:0:
451,338,88222,5,2,1:2:0:0:
494,259,88577,2,0,L|484:157,2,100,10|2|10,0:0|1:2|0:0,0:0:0:0:
451,338,89642,1,6,1:2:0:0:
385,277,89997,2,0,L|284:291,1,100,8|2,0:0|1:2,0:0:0:0:
197,305,90707,2,0,P|179:268|180:251,1,50,10|2,0:0|1:2,0:0:0:0:
196,218,91062,5,6,1:2:0:0:
268,165,91417,2,0,L|258:94,1,50,8|2,0:0|0:0,0:0:0:0:
137,61,92127,1,0,0:0:0:0:
80,131,92482,2,0,B|16:139|16:139|4:240|68:280,1,200,2|2,1:2|1:2,0:0:0:0:
218,325,93902,6,0,P|278:314|320:312,1,100,2|10,1:2|0:0,0:0:0:0:
405,327,94612,2,0,P|426:302|430:240,1,75,2|10,1:2|0:0,0:0:0:0:
396,155,95322,2,0,P|296:167|193:134,1,200,2|2,1:2|1:2,0:0:0:0:
47,46,96743,5,2,1:2:0:0:
42,135,97098,2,0,L|40:199,1,50,8|2,0:0|0:0,0:0:0:0:
33,319,97808,1,0,0:0:0:0:
123,300,98163,2,0,P|205:354|316:355,1,200,2|2,1:2|1:2,0:0:0:0:
478,314,99583,6,0,P|465:244|446:199,1,100,2|10,1:2|0:0,0:0:0:0:
376,172,100293,2,0,P|389:102|408:57,1,100,2|2,1:2|0:0,0:0:0:0:
459,8,101003,5,2,1:2:0:0:
459,8,102423,6,0,B|359:-1|359:-1|372:112,1,200,6|2,1:2|1:2,0:0:0:0:
384,186,103488,1,10,0:0:0:0:
308,235,103843,2,0,P|287:199|139:178,1,200,2|2,1:2|1:2,0:0:0:0:
83,242,104909,1,8,0:0:0:0:
143,308,105263,6,0,L|211:297,1,50,2|2,1:2|0:0,0:0:0:0:
319,346,105973,2,0,P|370:329|418:295,1,100,2|10,1:2|0:0,0:0:0:0:
461,230,106683,2,0,P|433:213|398:201,1,50,2|2,1:2|0:0,0:0:0:0:
280,217,107393,1,2,1:2:0:0:
306,130,107749,1,10,0:0:0:0:
251,58,108103,6,0,P|214:43|46:32,1,200,2|2,1:2|1:2,0:0:0:0:
38,118,109169,1,10,0:0:0:0:
113,166,109524,2,0,P|165:237|205:361,1,200,2|2,1:2|1:2,0:0:0:0:
289,321,110589,1,8,0:0:0:0:
377,337,110944,6,0,L|385:270,1,50,2|2,1:2|0:0,0:0:0:0:
399,153,111654,2,0,L|287:168,1,100,2|10,1:2|0:0,0:0:0:0:
221,210,112364,2,0,L|154:202,1,50,2|2,1:2|0:0,0:0:0:0:
37,183,113074,1,2,1:2:0:0:
6,98,113429,1,10,0:0:0:0:
56,22,113784,5,6,1:2:0:0:
230,67,114494,1,2,1:2:0:0:
124,212,115204,2,0,L|137:325,1,100,2|2,1:2|1:2,0:0:0:0:
209,362,115914,1,2,1:2:0:0:
389,359,116625,6,0,P|410:323|417:245,1,100,2|2,1:2|1:2,0:0:0:0:
351,207,117335,2,0,P|330:171|323:93,1,100,2|2,1:2|1:2,0:0:0:0:
340,26,118045,2,0,P|240:16|127:19,1,200,2|2,1:2|1:2,0:0:0:0:
64,66,119110,1,2,1:2:0:0:
106,145,119465,5,2,1:2:0:0:
277,89,120175,1,2,1:2:0:0:
333,260,120885,1,2,1:2:0:0:
162,316,121595,1,2,1:2:0:0:
106,145,122305,6,0,P|197:99|296:83,1,200,2|2,1:2|1:2,0:0:0:0:
471,101,123725,1,2,1:2:0:0:
465,280,124435,2,0,L|350:275,1,100,2|14,1:2|0:0,0:0:0:0:
280,307,125145,5,6,1:2:0:0:
225,235,125500,2,0,B|188:192|137:192|137:192|124:249|53:264,1,200,10|10,0:0|0:0,0:0:0:0:
51,171,126565,1,2,1:2:0:0:
31,83,126920,1,10,0:0:0:0:
120,79,127275,2,0,P|200:57|222:54,1,100,2|10,1:2|0:0,0:0:0:0:
306,59,127985,5,2,1:2:0:0:
317,147,128340,2,0,B|388:78|388:78|491:108,1,200,10|10,0:0|0:0,0:0:0:0:
489,196,129405,1,2,1:2:0:0:
494,286,129760,1,10,0:0:0:0:
426,346,130116,2,0,P|388:337|312:330,1,100,2|10,1:2|0:0,0:0:0:0:
238,334,130826,5,2,1:2:0:0:
154,368,131181,2,0,B|95:373|66:328|66:328|120:290|98:225,1,200,10|10,0:0|0:0,0:0:0:0:
62,163,132246,1,2,1:2:0:0:
127,101,132601,1,10,0:0:0:0:
83,22,132956,2,0,L|195:11,1,100,2|10,1:2|0:0,0:0:0:0:
268,37,133666,5,2,1:2:0:0:
270,126,134021,2,0,B|320:132|368:107|368:107|395:162|357:219,1,200,10|10,0:0|0:0,0:0:0:0:
325,282,135087,1,2,1:2:0:0:
261,218,135442,1,10,0:0:0:0:
180,258,135796,2,0,P|142:249|66:242,1,100,2|14,1:2|0:0,0:0:0:0:
20,308,136506,5,6,1:2:0:0:
87,367,136861,2,0,P|136:362|185:351,2,100,10|2|10,0:0|1:2|0:0,0:0:0:0:
20,308,137926,1,2,1:2:0:0:
81,242,138281,2,0,L|65:127,1,100,10|2,0:0|1:2,0:0:0:0:
54,53,138991,1,10,0:0:0:0:
135,15,139346,5,2,1:2:0:0:
205,70,139701,2,0,P|200:121|190:176,2,100,10|2|10,0:0|1:2|0:0,0:0:0:0:
278,17,140767,2,0,P|327:25|375:39,1,100,6|10,1:2|0:0,0:0:0:0:
375,129,141476,2,0,P|327:143|277:151,1,100,6|10,1:2|0:0,0:0:0:0:
188,139,142187,5,6,1:2:0:0:
118,195,142541,2,0,P|70:180|20:172,2,100,10|2|10,0:0|1:2|0:0,0:0:0:0:
163,272,143607,1,2,1:2:0:0:
237,220,143962,2,0,L|357:204,1,100,10|2,0:0|1:2,0:0:0:0:
422,232,144672,1,10,0:0:0:0:
460,150,145027,5,2,1:2:0:0:
374,124,145382,2,0,L|388:23,2,100,10|2|10,0:0|1:2|0:0,0:0:0:0:
308,186,146447,1,6,1:2:0:0:
242,124,146802,2,0,L|141:138,1,100,8|2,0:0|1:2,0:0:0:0:
54,152,147512,2,0,P|36:189|37:206,1,50,10|2,0:0|1:2,0:0:0:0:
53,239,147867,5,6,1:2:0:0:
223,181,148577,1,0,0:0:0:0:
114,37,149287,5,2,0:0:0:0:
223,181,149997,1,0,0:0:0:0:
53,239,150707,5,2,0:0:0:0:
223,181,151417,1,0,0:0:0:0:
114,37,152127,5,2,0:0:0:0:
223,181,152837,1,0,0:0:0:0:
53,239,153547,5,2,0:0:0:0:
223,181,154257,1,0,0:0:0:0:
114,37,154967,5,2,0:0:0:0:
223,181,155677,1,0,0:0:0:0:
53,239,156388,5,2,0:0:0:0:
132,77,157098,2,0,L|238:63,1,100,2|2,0:0|0:0,0:0:0:0:
288,133,157808,1,2,0:0:0:0:
288,133,159228,6,0,P|278:199|273:256,1,100,6|8,1:2|0:0,0:0:0:0:
307,315,159938,2,0,P|375:305|425:295,1,100,2|10,1:2|0:0,0:0:0:0:
484,258,160648,1,2,1:2:0:0:
464,170,161003,1,10,0:0:0:0:
444,82,161358,2,0,P|394:73|345:66,1,100,2|10,1:2|0:0,0:0:0:0:
255,75,162068,5,2,1:2:0:0:
178,27,162423,1,8,0:0:0:0:
111,87,162778,2,0,L|52:94,2,50,2|10|10,1:2|0:0|0:0,0:0:0:0:
188,135,163488,2,0,P|201:176|209:242,1,100,2|10,1:2|0:0,0:0:0:0:
297,249,164198,2,0,P|323:206|356:169,1,100,2|10,1:2|0:0,0:0:0:0:
434,123,164908,5,2,1:2:0:0:
480,200,165263,1,8,0:0:0:0:
440,280,165618,2,0,L|330:264,1,100,2|10,1:2|0:0,0:0:0:0:
264,312,166328,1,2,1:2:0:0:
192,256,166683,1,10,0:0:0:0:
114,301,167038,2,0,L|15:315,1,100,2|10,1:2|0:0,0:0:0:0:
33,227,167748,5,2,1:2:0:0:
94,161,168103,1,8,0:0:0:0:
36,91,168458,2,0,L|29:32,1,50,2|10,1:2|0:0,0:0:0:0:
57,5,168814,2,0,L|151:16,1,75,10|2,0:0|0:0,0:0:0:0:
132,14,170589,6,0,P|122:80|117:137,1,100,6|8,1:2|0:0,0:0:0:0:
114,202,171299,2,0,P|163:194|213:188,1,100,2|10,1:2|0:0,0:0:0:0:
300,208,172009,1,2,1:2:0:0:
384,176,172364,1,10,0:0:0:0:
468,144,172719,2,0,L|459:260,1,100,2|10,1:2|0:0,0:0:0:0:
451,333,173429,5,2,1:2:0:0:
367,300,173784,1,8,0:0:0:0:
284,336,174139,2,0,L|277:277,2,50,2|10|10,1:2|0:0|0:0,0:0:0:0:
201,372,174849,2,0,P|151:362|104:345,1,100,2|10,1:2|0:0,0:0:0:0:
84,258,175559,2,0,P|108:214|140:175,1,100,2|10,1:2|0:0,0:0:0:0:
206,113,176269,5,2,1:2:0:0:
289,80,176624,1,8,0:0:0:0:
303,168,176979,2,0,L|316:285,1,100,2|10,1:2|0:0,0:0:0:0:
325,356,177689,1,2,1:2:0:0:
412,336,178044,1,10,0:0:0:0:
499,316,178399,2,0,P|508:255|508:201,1,100,2|10,1:2|0:0,0:0:0:0:
478,131,179109,5,2,1:2:0:0:
393,161,179464,1,8,0:0:0:0:
334,92,179819,2,0,L|340:24,2,50,2|10|10,1:2|0:0|0:0,0:0:0:0:
244,102,180530,2,0,L|256:212,1,100,2|10,1:2|0:0,0:0:0:0:
335,241,181240,2,0,L|323:351,1,100,2|10,1:2|0:0,0:0:0:0:
240,373,181950,5,6,1:2:0:0:
240,373,183370,5,2,0:0:0:0:
240,373,184790,5,2,0:0:0:0:
240,373,186210,5,2,0:0:0:0:
240,373,187630,5,2,0:0:0:0:
240,373,189050,5,2,0:0:0:0:
240,373,190470,5,2,0:0:0:0:
240,373,191890,5,2,0:0:0:0:
51,179,192956,2,2,L|59:110,1,50,14|0,0:0|0:0,0:1:0:0:
62,84,193311,5,6,1:2:0:0:
151,72,193666,2,0,B|194:109|194:160|194:160|137:173|122:244,1,200,10|10,0:0|0:0,0:0:0:0:
144,314,194731,1,2,1:2:0:0:
229,285,195086,1,10,0:0:0:0:
292,349,195441,2,0,L|406:333,1,100,2|10,1:2|0:0,0:0:0:0:
480,322,196151,5,2,1:2:0:0:
437,242,196506,2,0,B|404:192|406:148|406:148|464:101|454:53,1,200,10|10,0:0|0:0,0:0:0:0:
385,8,197572,1,2,1:2:0:0:
304,48,197927,1,10,0:0:0:0:
216,25,198282,2,0,L|102:9,1,100,2|10,1:2|0:0,0:0:0:0:
28,13,198992,5,2,1:2:0:0:
15,101,199346,2,0,B|115:90|115:90|104:200,1,200,10|10,0:0|0:0,0:0:0:0:
96,278,200412,1,2,1:2:0:0:
181,250,200767,1,10,0:0:0:0:
253,303,201122,2,0,L|365:292,1,100,2|10,1:2|0:0,0:0:0:0:
429,246,201832,5,2,1:2:0:0:
357,191,202187,2,0,B|304:188|259:210|259:210|232:155|270:98,1,200,10|10,0:0|0:0,0:0:0:0:
311,40,203251,1,2,1:2:0:0:
382,93,203606,1,10,0:0:0:0:
460,49,203961,2,0,P|469:87|476:163,1,100,2|10,1:2|0:0,0:0:0:0:
470,237,204672,5,6,1:2:0:0:
382,215,205027,2,0,L|394:337,2,100,10|2|10,0:0|1:2|0:0,0:0:0:0:
374,125,206092,2,0,P|285:81|181:80,1,200,2|2,1:2|1:2,0:0:0:0:
104,117,207157,1,14,0:0:0:0:
142,198,207512,5,6,1:2:0:0:
223,159,207866,2,0,P|242:211|250:271,2,100,10|2|10,0:0|1:2|0:0,0:0:0:0:
157,97,208931,1,2,1:2:0:0:
99,166,209286,2,0,P|61:157|-15:150,1,100,10|2,0:0|1:2,0:0:0:0:
20,238,209996,1,10,0:0:0:0:
39,325,210352,5,2,1:2:0:0:
118,282,210706,2,0,L|123:173,2,100,10|2|10,0:0|1:2|0:0,0:0:0:0:
187,339,211772,2,0,P|236:330|284:316,1,100,6|10,1:2|0:0,0:0:0:0:
264,228,212482,2,0,P|214:236|166:250,1,100,6|10,1:2|0:0,0:0:0:0:
101,312,213192,5,6,1:2:0:0:
45,241,213547,2,0,B|28:208|28:208|40:136,2,100,10|2|10,0:0|1:2|0:0,0:0:0:0:
101,312,214612,1,2,1:2:0:0:
175,261,214967,2,0,L|295:245,1,100,10|2,0:0|1:2,0:0:0:0:
360,272,215677,1,10,0:0:0:0:
410,197,216032,5,2,1:2:0:0:
367,117,216388,2,0,L|381:16,2,100,10|2|10,0:0|1:2|0:0,0:0:0:0:
286,155,217452,1,6,1:2:0:0:
232,82,217807,2,0,L|128:93,1,100,8|2,0:0|1:2,0:0:0:0:
43,102,218517,2,0,P|25:139|26:156,1,50,10|2,0:0|1:2,0:0:0:0:
42,189,218872,5,6,1:2:0:0:
115,240,219227,2,0,L|126:350,2,100,10|2|10,0:0|1:2|0:0,0:0:0:0:
184,182,220292,1,2,1:2:0:0:
273,170,220647,2,0,L|392:185,1,100,10|2,0:0|1:2,0:0:0:0:
461,170,221357,1,10,0:0:0:0:
472,259,221712,5,2,1:2:0:0:
411,326,222068,2,0,P|377:303|300:283,2,100,10|2|10,0:0|1:2|0:0,0:0:0:0:
472,259,223133,2,0,P|463:209|449:161,1,100,6|10,1:2|0:0,0:0:0:0:
401,85,223843,2,0,P|340:102|284:109,1,100,6|10,1:2|0:0,0:0:0:0:
215,87,224553,5,6,1:2:0:0:
164,161,224908,2,0,L|48:150,2,100,10|2|10,0:0|1:2|0:0,0:0:0:0:
217,233,225973,1,2,1:2:0:0:
301,203,226328,2,0,L|417:192,1,100,10|2,0:0|1:2,0:0:0:0:
487,216,227038,1,10,0:0:0:0:
442,294,227393,5,2,1:2:0:0:
353,311,227748,2,0,L|237:300,2,100,10|2|10,0:0|1:2|0:0,0:0:0:0:
418,372,228813,1,6,1:2:0:0:
457,291,229168,2,0,L|443:190,1,100,8|2,0:0|1:2,0:0:0:0:
430,102,229878,2,0,P|393:84|376:85,1,50,10|2,0:0|1:2,0:0:0:0:
343,101,230233,5,6,1:2:0:0:
268,49,230589,1,2,1:2:0:0:
193,98,230944,2,0,P|141:89|73:84,1,100,2|2,1:2|1:2,0:0:0:0:
12,122,231654,1,2,1:2:0:0:
43,206,232010,1,2,1:2:0:0:
124,168,232364,2,0,P|133:220|138:288,1,100,2|2,1:2|1:2,0:0:0:0:
133,311,232896,5,2,0:0:0:0:
