osu file format v14

[General]
AudioFilename: audio.mp3
AudioLeadIn: 0
PreviewTime: 54139
Countdown: 0
SampleSet: Soft
StackLeniency: 0.5
Mode: 0
LetterboxInBreaks: 0
WidescreenStoryboard: 0

[Editor]
Bookmarks: 175,11535,22896,34257,45618,56979,67985,68340,91062,102423,113784,125145,136151,136506,147867,159228,169080,170589,181950,193311,204672,207512,230234,232896
DistanceSpacing: 1
BeatDivisor: 4
GridSize: 32
TimelineZoom: 2.1

[Metadata]
Title:Last of Me
TitleUnicode:Last of Me
Artist:CircusP
ArtistUnicode:CircusP
Creator:eiri-
Version:Despair
Source:osu!
Tags:Ayyri Trynna Circus-P Featured Artist FA English Electronic Vocaloid Megurine Luka 巡音ルカ
BeatmapID:2431763
BeatmapSetID:1165972

[Difficulty]
HPDrainRate:5
CircleSize:4.5
OverallDifficulty:8.5
ApproachRate:9
SliderMultiplier:1.8
SliderTickRate:1

[Events]
//Background and Video events
0,0,"Luka 385.jpg",0,0
//Break Periods
//Storyboard Layer 0 (Background)
//Storyboard Layer 1 (Fail)
//Storyboard Layer 2 (Pass)
//Storyboard Layer 3 (Foreground)
//Storyboard Layer 4 (Overlay)
//Storyboard Sound Samples

[TimingPoints]
175,355.029585798817,4,2,1,50,1,0
10115,-100,4,2,1,75,0,0
11535,-76.9230769230769,4,2,1,90,0,1
22896,-125,4,2,1,75,0,0
34257,-100,4,2,1,80,0,0
45618,-100,4,2,1,60,0,0
56624,-50,4,2,1,100,0,0
56979,-76.9230769230769,4,2,1,90,0,1
67985,-76.9230769230769,4,2,1,90,0,0
68340,-76.9230769230769,4,2,1,95,0,1
91062,-100,4,2,1,75,0,0
102423,-90.9090909090909,4,2,1,80,0,0
113784,-90.9090909090909,4,2,1,60,0,0
124790,-50,4,2,1,100,0,0
125145,-76.9230769230769,4,2,1,90,0,1
136151,-76.9230769230769,4,2,1,90,0,0
136506,-76.9230769230769,4,2,1,95,0,1
147867,-100,4,2,1,60,0,0
159228,-76.9230769230769,4,2,1,90,0,1
169080,-100,4,2,1,50,0,0
170589,-76.9230769230769,4,2,1,95,0,1
181950,-100,4,2,1,60,0,0
192956,-50,4,2,1,100,0,0
193311,-83.3333333333333,4,2,1,80,0,1
204672,-100,4,2,1,75,0,0
207157,-50,4,2,1,100,0,0
207512,-76.9230769230769,4,2,1,95,0,1
230234,-100,4,2,1,75,0,0

[Colours]
Combo1 : 126,179,237
Combo2 : 155,208,106
Combo3 : 179,136,230
Combo4 : 240,142,182

[HitObjects]
38,280,175,6,0,P|127:265|175:256,1,135,2|0,0:0|0:0,0:0:0:0:
218,237,530,1,2,0:0:0:0:
114,188,707,1,0,0:0:0:0:
107,316,885,1,2,0:0:0:0:
107,316,1062,1,2,0:0:0:0:
28,269,1240,1,2,0:0:0:0:
187,298,1417,1,0,0:0:0:0:
150,377,1595,6,0,P|171:274|189:227,1,135,2|0,0:0|0:0,0:0:0:0:
210,204,1950,1,2,0:0:0:0:
227,357,2127,1,0,0:0:0:0:
152,261,2305,1,2,0:0:0:0:
152,261,2482,1,2,0:0:0:0:
325,232,2660,1,2,0:0:0:0:
247,335,2837,1,2,0:0:0:0:
266,170,3015,6,0,P|272:239|292:319,1,135,2|0,0:0|0:0,0:0:0:0:
315,342,3370,1,2,0:0:0:0:
431,257,3547,1,2,0:0:0:0:
304,200,3725,1,2,0:0:0:0:
304,200,3902,1,2,0:0:0:0:
403,334,4080,1,2,0:0:0:0:
428,144,4257,1,0,0:0:0:0:
438,245,4435,6,0,P|417:175|326:96,1,180,2|0,0:0|0:0,0:0:0:0:
341,102,4967,1,0,0:0:0:0:
218,155,5145,2,0,P|239:85|330:6,1,180,2|2,0:0|0:0,0:0:0:0:
314,12,5677,1,2,0:0:0:0:
197,65,5855,6,0,P|145:47|38:42,1,135,2|0,0:0|0:0,0:0:0:0:
19,63,6210,1,2,0:0:0:0:
193,145,6388,1,2,0:0:0:0:
75,198,6565,1,2,0:0:0:0:
75,198,6743,1,2,0:0:0:0:
149,259,6920,1,2,0:0:0:0:
103,323,7098,1,0,0:0:0:0:
88,166,7275,6,0,P|110:242|120:316,1,135,2|0,0:0|0:0,0:0:0:0:
114,347,7630,1,2,0:0:0:0:
0,278,7808,1,2,0:0:0:0:
157,230,7985,1,2,0:0:0:0:
157,230,8163,1,2,0:0:0:0:
223,290,8340,1,2,0:0:0:0:
342,251,8518,1,2,0:0:0:0:
329,104,8695,6,0,P|321:177|327:271,1,135,2|0,0:0|0:0,0:0:0:0:
332,288,9050,1,2,0:0:0:0:
291,171,9228,1,2,0:0:0:0:
451,121,9405,1,2,0:0:0:0:
451,121,9583,1,2,0:0:0:0:
392,52,9760,1,2,0:0:0:0:
254,103,9938,1,0,0:0:0:0:
62,77,10115,5,2,0:0:0:0:
186,46,10293,2,0,P|121:39|63:56,1,90,2|0,0:0|0:0,0:0:0:0:
114,234,10648,1,2,0:0:0:0:
134,120,10825,1,2,0:0:0:0:
162,303,11003,1,0,0:0:0:0:
138,144,11180,1,2,0:0:0:0:
114,234,11358,1,2,0:0:0:0:
327,210,11535,6,0,B|267:188|267:188|291:345,1,175.499991966248,6|0,1:2|0:0,0:0:0:0:
294,346,11890,2,0,P|358:288|427:270,1,116.999994644165,8|2,0:0|0:0,0:0:0:0:
507,352,12246,2,0,P|431:314|428:243,1,116.999994644165,2|2,1:2|0:0,0:0:0:0:
488,180,12512,1,2,1:2:0:0:
488,180,12601,2,0,P|477:100|445:43,1,116.999994644165,10|2,0:0|1:2,0:0:0:0:
208,104,12956,6,0,P|308:108|400:130,1,175.499991966248,2|0,1:2|0:0,0:0:0:0:
317,147,13311,1,10,0:0:0:0:
209,25,13488,1,2,0:0:0:0:
124,176,13666,2,0,P|119:117|68:31,1,116.999994644165,2|2,1:2|0:0,0:0:0:0:
9,218,13932,1,2,1:2:0:0:
9,218,14021,2,0,P|80:207|160:203,1,116.999994644165,10|2,0:0|1:2,0:0:0:0:
210,358,14376,6,0,B|152:338|152:338|172:189,1,175.499991966248,2|0,1:2|0:0,0:0:0:0:
180,236,14731,2,0,L|318:217,1,116.999994644165,10|2,0:0|0:0,0:0:0:0:
448,352,15086,1,2,1:2:0:0:
326,309,15263,1,2,0:0:0:0:
352,339,15352,1,2,1:2:0:0:
376,304,15441,2,0,P|314:288|242:335,1,116.999994644165,10|2,0:0|1:2,0:0:0:0:
461,250,15796,6,0,P|490:167|443:61,1,175.499991966248,2|0,1:2|0:0,0:0:0:0:
330,69,16151,2,0,P|428:89|446:193,1,175.499991966248,10|0,0:0|0:0,0:0:0:0:
373,257,16506,2,0,P|269:245|163:212,1,175.499991966248,2|2,1:2|1:2,0:0:0:0:
269,208,16861,1,10,0:0:0:0:
220,375,17038,1,2,1:2:0:0:
206,149,17216,6,0,B|313:127|313:127|353:218,1,175.499991966248,2|0,1:2|0:0,0:0:0:0:
269,208,17571,1,10,0:0:0:0:
218,10,17748,1,2,0:0:0:0:
81,143,17926,2,0,P|36:82|-18:55,1,116.999994644165,2|2,1:2|0:0,0:0:0:0:
42,259,18192,1,2,1:2:0:0:
42,259,18281,2,0,P|132:242|204:243,1,116.999994644165,10|2,0:0|1:2,0:0:0:0:
354,366,18636,6,0,B|315:325|315:325|149:360,1,175.499991966248,2|0,1:2|0:0,0:0:0:0:
154,356,18991,2,0,P|234:296|302:286,1,116.999994644165,10|2,0:0|0:0,0:0:0:0:
480,352,19346,1,2,1:2:0:0:
506,144,19524,1,2,0:0:0:0:
478,165,19612,1,2,1:2:0:0:
458,127,19701,2,0,P|475:45|503:-1,1,116.999994644165,10|2,0:0|1:2,0:0:0:0:
320,64,20056,6,0,P|223:35|120:31,1,175.499991966248,2|0,1:2|0:0,0:0:0:0:
208,65,20411,1,10,0:0:0:0:
399,14,20589,1,2,0:0:0:0:
366,194,20766,2,0,P|317:97|280:74,1,116.999994644165,2|2,1:2|0:0,0:0:0:0:
176,257,21032,1,2,1:2:0:0:
176,257,21121,2,0,P|276:245|321:235,1,116.999994644165,10|2,0:0|1:2,0:0:0:0:
67,142,21476,5,2,1:2:0:0:
105,333,21654,1,2,0:0:0:0:
133,236,21831,1,8,0:0:0:0:
5,317,22009,1,2,0:0:0:0:
299,285,22186,1,2,1:2:0:0:
253,362,22364,1,2,0:0:0:0:
246,347,22453,1,2,1:2:0:0:
263,316,22541,1,10,0:0:0:0:
483,348,22719,1,2,1:2:0:0:
512,121,22896,5,6,1:2:0:0:
490,192,23074,2,0,P|482:141|455:103,1,72,2|8,0:0|0:0,0:0:0:0:
375,85,23429,2,0,P|383:34|410:-4,1,72,2|0,0:0|1:0,0:0:0:0:
403,210,23784,1,2,0:0:0:0:
403,210,23873,2,0,P|352:202|290:201,1,108,8|2,0:0|1:2,0:0:0:0:
189,265,24317,6,0,P|235:239|225:137,1,144,2|8,1:2|0:0,0:0:0:0:
194,50,24849,1,2,0:0:0:0:
151,108,25027,2,0,P|100:122|38:128,2,108,2|8|8,1:2|0:0|1:2,0:0:0:0:
187,230,25737,6,0,P|141:213|109:194,1,72,2|0,1:2|0:0,0:0:0:0:
167,370,26092,2,0,P|146:325|137:289,1,72,10|0,0:0|0:0,0:0:0:0:
302,319,26447,2,0,P|351:303|411:272,2,108,2|10|10,1:2|0:0|1:2,0:0:0:0:
175,273,27157,6,0,P|247:283|245:362,1,144,2|8,1:2|0:0,0:0:0:0:
198,378,27689,1,2,0:0:0:0:
256,256,27867,1,2,1:2:0:0:
26,302,28133,1,8,0:0:0:0:
33,316,28399,1,8,1:2:0:0:
28,356,28577,5,2,1:2:0:0:
28,356,28754,2,0,P|76:337|126:332,1,72,2|8,0:0|0:0,0:0:0:0:
170,307,29109,2,0,P|218:326|268:331,1,72,2|0,0:0|1:0,0:0:0:0:
358,310,29464,1,2,0:0:0:0:
358,310,29553,2,0,P|370:214|375:185,1,108,8|10,0:0|1:2,0:0:0:0:
393,101,29997,6,0,P|367:153|277:142,1,144,2|8,1:2|0:0,0:0:0:0:
240,99,30530,1,2,0:0:0:0:
138,203,30707,2,0,P|88:195|5:172,2,108,2|8|8,1:2|0:0|1:2,0:0:0:0:
215,192,31417,6,0,L|229:333,1,108,2|0,1:2|0:0,0:0:0:0:
238,294,31772,2,0,L|228:395,1,72,10|0,0:0|0:0,0:0:0:0:
360,328,32127,2,0,P|412:341|487:368,2,108,2|8|8,1:2|0:0|1:2,0:0:0:0:
198,377,32837,5,2,1:2:0:0:
238,294,33015,1,2,0:0:0:0:
289,344,33192,1,8,0:0:0:0:
289,344,33547,2,0,P|286:291|290:219,1,108,2|8,1:2|0:0,0:0:0:0:
304,93,34080,1,10,1:2:0:0:
304,93,34257,6,0,P|253:79|205:74,1,90,6|0,1:2|0:0,0:0:0:0:
57,110,34612,1,10,0:0:0:0:
57,110,34790,1,2,0:0:0:0:
99,207,34967,2,0,P|82:132|90:40,1,135,2|10,1:2|0:0,0:0:0:0:
75,64,35322,2,0,P|136:36|170:29,1,90,2|10,1:2|0:0,0:0:0:0:
327,55,35677,6,0,L|313:158,1,90,2|0,1:2|0:0,0:0:0:0:
408,280,36032,1,10,0:0:0:0:
408,280,36210,1,2,0:0:0:0:
477,219,36388,2,0,P|410:242|343:300,1,135,2|10,1:2|0:0,0:0:0:0:
386,301,36743,2,0,P|422:361|436:417,1,90,2|10,1:2|0:0,0:0:0:0:
205,352,37098,5,2,1:2:0:0:
135,379,37275,2,0,P|182:310|207:201,1,180,2|2,0:0|0:0,0:0:0:0:
168,97,37808,2,0,P|62:126|10:132,1,135,2|10,1:2|0:0,0:0:0:0:
0,117,38163,1,2,1:2:0:0:
112,192,38340,1,10,0:0:0:0:
213,25,38518,6,0,P|319:54|371:60,1,135,2|2,1:2|0:0,0:0:0:0:
381,45,38873,1,8,0:0:0:0:
269,120,39050,1,2,0:0:0:0:
142,29,39228,2,0,P|149:113|159:175,1,135,2|10,1:2|0:0,0:0:0:0:
174,233,39583,1,2,1:2:0:0:
242,106,39760,1,10,0:0:0:0:
277,318,39938,6,0,P|341:306|397:304,1,90,2|0,1:2|0:0,0:0:0:0:
504,313,40293,1,10,0:0:0:0:
504,313,40470,1,2,0:0:0:0:
446,205,40648,2,0,P|472:267|460:360,1,135,2|10,1:2|0:0,0:0:0:0:
429,365,41003,2,0,P|438:311|420:258,1,90,2|10,1:2|0:0,0:0:0:0:
262,351,41358,6,0,L|136:334,1,90,2|0,1:2|0:0,0:0:0:0:
34,325,41713,1,10,0:0:0:0:
34,325,41890,1,2,0:0:0:0:
93,372,42068,2,0,P|60:309|74:208,1,135,2|10,1:2|0:0,0:0:0:0:
77,214,42423,2,0,L|178:199,1,90,2|10,1:2|0:0,0:0:0:0:
353,181,42778,6,0,P|274:140|202:131,1,135,2|2,1:2|0:0,0:0:0:0:
163,154,43133,1,8,0:0:0:0:
320,64,43311,1,2,0:0:0:0:
256,228,43488,2,0,L|256:388,1,135,2|10,1:2|0:0,0:0:0:0:
256,376,43843,1,2,1:2:0:0:
328,320,44021,1,10,0:0:0:0:
159,181,44198,6,0,P|238:140|310:131,1,135,2|2,1:2|0:0,0:0:0:0:
349,154,44553,1,8,0:0:0:0:
192,64,44731,1,2,0:0:0:0:
256,228,44908,2,0,L|256:388,1,135,2|10,1:2|0:0,0:0:0:0:
256,376,45263,1,2,1:2:0:0:
184,320,45441,1,10,0:0:0:0:
416,288,45618,5,6,1:2:0:0:
326,256,45973,1,2,1:2:0:0:
358,166,46328,1,2,1:2:0:0:
448,198,46683,1,2,1:2:0:0:
191,233,47038,5,2,1:2:0:0:
358,166,47393,1,2,1:2:0:0:
119,109,47748,1,2,1:2:0:0:
119,109,48103,1,0,1:0:0:0:
119,109,48459,5,2,1:2:0:0:
151,199,48814,1,2,1:2:0:0:
241,167,49169,1,2,1:2:0:0:
209,77,49524,1,2,1:2:0:0:
209,77,49879,5,2,1:2:0:0:
241,167,50234,1,2,1:2:0:0:
151,199,50589,1,2,1:2:0:0:
119,109,50944,1,2,1:2:0:0:
416,288,51299,5,2,1:2:0:0:
326,256,51654,1,2,1:2:0:0:
358,166,52009,1,2,1:2:0:0:
448,198,52364,1,2,1:2:0:0:
191,233,52719,5,2,1:2:0:0:
358,166,53074,1,2,1:2:0:0:
119,109,53429,1,2,1:2:0:0:
119,109,53784,1,0,1:0:0:0:
119,109,54140,5,2,1:2:0:0:
393,109,54494,1,2,1:2:0:0:
256,352,54849,1,2,1:2:0:0:
256,32,55204,1,2,1:2:0:0:
256,192,55559,5,2,1:2:0:0:
256,224,55914,1,2,1:2:0:0:
256,292,56269,1,2,1:2:0:0:
256,384,56624,6,2,L|287:58,1,270,14|0,0:0|0:0,0:1:0:0:
293,44,56979,5,6,1:2:0:0:
83,95,57157,1,0,0:0:0:0:
180,77,57334,2,0,P|103:64|12:80,1,116.999994644165,10|0,0:0|0:0,0:0:0:0:
108,299,57689,2,0,B|164:276|164:276|127:123,1,175.499991966248,2|2,1:2|1:2,0:0:0:0:
132,178,58044,2,0,P|63:224|-5:224,1,116.999994644165,10|2,0:0|1:2,0:0:0:0:
276,292,58399,6,0,P|286:189|256:71,1,175.499991966248,2|0,1:2|0:0,0:0:0:0:
244,78,58754,1,10,0:0:0:0:
213,220,58932,1,2,0:0:0:0:
486,223,59109,2,0,B|515:195|501:163|501:163|362:192,1,175.499991966248,2|2,1:2|1:2,0:0:0:0:
404,197,59464,2,0,L|391:335,1,116.999994644165,10|2,0:0|1:2,0:0:0:0:
126,359,59819,6,0,P|220:325|342:352,1,175.499991966248,2|0,1:2|0:0,0:0:0:0:
293,345,60175,2,0,P|237:290|250:210,1,116.999994644165,10|0,0:0|0:0,0:0:0:0:
331,89,60530,2,0,P|235:80|121:112,1,175.499991966248,2|2,1:2|1:2,0:0:0:0:
132,130,60885,2,0,P|205:146|277:179,1,116.999994644165,10|2,0:0|1:2,0:0:0:0:
165,351,61240,6,0,B|32:333|32:333|91:372,1,175.499991966248,2|0,1:2|0:0,0:0:0:0:
76,364,61595,1,10,0:0:0:0:
147,244,61772,1,0,0:0:0:0:
298,360,61950,2,0,P|313:276|351:153,1,175.499991966248,2|2,1:2|1:2,0:0:0:0:
368,156,62305,2,0,P|356:78|338:15,1,116.999994644165,10|2,0:0|1:2,0:0:0:0:
122,90,62660,5,2,1:2:0:0:
122,90,62837,1,2,0:0:0:0:
155,0,63015,2,0,B|163:161,1,116.999994644165,10|0,0:0|0:0,0:0:0:0:
300,166,63370,2,0,B|290:357,1,175.499991966248,2|2,1:2|1:2,0:0:0:0:
291,354,63725,2,0,P|357:323|447:316,1,116.999994644165,10|2,0:0|1:2,0:0:0:0:
306,142,64080,6,0,P|371:203|498:192,1,175.499991966248,2|0,1:2|0:0,0:0:0:0:
495,192,64435,2,0,P|479:123|414:145,1,116.999994644165,10|0,0:0|0:0,0:0:0:0:
210,240,64790,2,0,L|16:258,1,175.499991966248,2|2,1:2|1:2,0:0:0:0:
112,284,65145,1,10,0:0:0:0:
160,116,65322,1,2,1:2:0:0:
428,144,65500,6,0,P|354:124|228:121,1,175.499991966248,2|0,1:2|0:0,0:0:0:0:
267,126,65855,2,0,P|289:198|294:254,1,116.999994644165,10|0,0:0|0:0,0:0:0:0:
135,370,66210,2,0,L|158:158,1,175.499991966248,2|2,1:2|1:2,0:0:0:0:
160,208,66565,2,0,L|25:240,1,116.999994644165,10|2,0:0|1:2,0:0:0:0:
267,335,66920,6,0,B|407:335|353:227|499:250,1,233.999989288331,2|10,1:2|0:0,0:0:0:0:
471,370,67453,1,0,0:0:0:0:
384,224,67630,2,0,L|407:24,1,175.499991966248,2|2,1:2|1:2,0:0:0:0:
410,5,67985,1,10,0:0:0:0:
510,108,68163,1,2,1:2:0:0:
269,144,68340,6,0,B|209:132|209:132|225:-16,1,175.499991966248,6|0,1:2|0:0,0:0:0:0:
227,28,68695,2,0,L|87:55,1,116.999994644165,10|2,0:0|0:0,0:0:0:0:
114,193,69050,2,0,L|-26:166,1,116.999994644165,2|2,1:2|0:0,0:0:0:0:
144,164,69317,1,2,1:2:0:0:
144,164,69405,2,0,L|129:289,1,116.999994644165,10|2,0:0|1:2,0:0:0:0:
265,371,69760,6,0,P|250:280|218:161,1,175.499991966248,2|0,1:2|0:0,0:0:0:0:
226,214,70115,2,0,P|298:189|385:189,1,116.999994644165,10|2,0:0|0:0,0:0:0:0:
509,253,70470,1,2,1:2:0:0:
386,294,70648,1,2,0:0:0:0:
386,294,70737,1,2,1:2:0:0:
386,294,70825,1,10,0:0:0:0:
433,110,71003,1,2,1:2:0:0:
383,1,71180,6,0,P|399:64|411:157,1,116.999994644165,2|0,1:2|0:0,0:0:0:0:
250,73,71535,2,0,P|167:88|114:112,1,116.999994644165,10|2,0:0|0:0,0:0:0:0:
16,18,71890,2,0,P|49:82|48:148,1,116.999994644165,2|2,1:2|0:0,0:0:0:0:
14,227,72157,1,2,1:2:0:0:
14,227,72246,1,10,0:0:0:0:
192,288,72423,1,2,1:2:0:0:
161,129,72601,6,0,P|150:219|159:322,1,175.499991966248,6|0,1:2|0:0,0:0:0:0:
191,376,72956,2,0,P|177:295|191:216,1,116.999994644165,10|2,0:0|0:0,0:0:0:0:
351,129,73311,2,0,P|362:219|353:322,1,175.499991966248,6|2,1:2|1:2,0:0:0:0:
321,376,73666,2,0,P|335:295|321:216,1,116.999994644165,10|2,0:0|1:2,0:0:0:0:
256,64,74021,6,0,L|256:256,1,175.499991966248,6|0,1:2|0:0,0:0:0:0:
256,288,74376,1,10,0:0:0:0:
416,256,74553,1,2,0:0:0:0:
220,168,74731,2,0,L|71:157,1,116.999994644165,2|2,1:2|0:0,0:0:0:0:
2,158,74997,1,2,1:2:0:0:
2,158,75086,2,0,L|25:288,1,116.999994644165,10|2,0:0|1:2,0:0:0:0:
227,379,75441,6,0,P|286:328|277:223,1,175.499991966248,2|0,1:2|0:0,0:0:0:0:
249,200,75796,1,10,0:0:0:0:
428,174,75973,1,2,0:0:0:0:
399,59,76151,2,0,L|387:217,1,116.999994644165,2|2,1:2|0:0,0:0:0:0:
376,283,76417,1,2,1:2:0:0:
376,283,76506,2,0,L|342:117,1,116.999994644165,10|2,0:0|1:2,0:0:0:0:
152,258,76861,6,0,P|76:240|6:210,1,116.999994644165,2|0,1:2|0:0,0:0:0:0:
207,181,77216,1,10,0:0:0:0:
192,48,77393,1,2,0:0:0:0:
328,81,77571,2,0,P|247:75|162:64,1,116.999994644165,2|2,1:2|0:0,0:0:0:0:
105,40,77837,1,2,1:2:0:0:
105,40,77926,2,0,L|256:21,1,116.999994644165,10|2,0:0|1:2,0:0:0:0:
194,197,78281,5,6,1:2:0:0:
240,55,78459,1,2,0:0:0:0:
266,272,78636,1,8,0:0:0:0:
77,239,78814,1,2,0:0:0:0:
300,197,78991,1,2,1:2:0:0:
224,355,79169,1,2,0:0:0:0:
224,355,79257,1,2,1:2:0:0:
224,355,79346,1,10,0:0:0:0:
179,239,79524,1,2,1:2:0:0:
442,210,79701,6,0,L|458:14,1,175.499991966248,6|0,1:2|0:0,0:0:0:0:
449,45,80056,2,0,L|321:31,1,116.999994644165,10|2,0:0|0:0,0:0:0:0:
160,131,80411,2,0,L|288:117,1,116.999994644165,2|2,1:2|0:0,0:0:0:0:
376,116,80677,1,2,1:2:0:0:
376,116,80766,1,10,0:0:0:0:
352,288,80944,1,2,1:2:0:0:
192,221,81121,6,0,L|-1:200,1,175.499991966248,2|0,1:2|0:0,0:0:0:0:
4,200,81476,1,10,0:0:0:0:
40,332,81653,1,2,0:0:0:0:
103,177,81831,2,0,L|73:27,1,116.999994644165,2|2,1:2|0:0,0:0:0:0:
221,119,82098,1,2,1:2:0:0:
221,119,82186,2,0,L|198:233,1,116.999994644165,10|2,0:0|1:2,0:0:0:0:
159,369,82541,6,0,P|246:338|375:325,1,175.499991966248,2|0,1:2|0:0,0:0:0:0:
367,354,82896,2,0,P|438:341|452:257,1,116.999994644165,10|2,0:0|0:0,0:0:0:0:
456,187,83251,2,0,P|380:198|317:193,1,116.999994644165,2|2,1:2|0:0,0:0:0:0:
241,174,83518,1,2,1:2:0:0:
241,174,83606,1,10,0:0:0:0:
370,111,83784,1,2,1:2:0:0:
160,64,83961,6,0,P|149:154|158:257,1,175.499991966248,6|0,1:2|0:0,0:0:0:0:
190,311,84316,2,0,P|176:230|190:151,1,116.999994644165,10|2,0:0|0:0,0:0:0:0:
352,64,84672,2,0,P|363:154|354:257,1,175.499991966248,6|2,1:2|1:2,0:0:0:0:
322,311,85027,2,0,P|336:230|322:151,1,116.999994644165,10|2,0:0|1:2,0:0:0:0:
256,32,85382,6,0,L|256:256,1,175.499991966248,6|0,1:2|0:0,0:0:0:0:
256,288,85737,1,10,0:0:0:0:
96,256,85914,1,2,0:0:0:0:
231,127,86092,2,0,L|380:116,1,116.999994644165,2|2,1:2|0:0,0:0:0:0:
445,224,86358,1,2,1:2:0:0:
445,224,86447,2,0,L|296:235,1,116.999994644165,10|2,0:0|1:2,0:0:0:0:
477,68,86802,6,0,P|404:29|287:17,1,175.499991966248,2|0,1:2|0:0,0:0:0:0:
266,31,87157,1,10,0:0:0:0:
374,130,87334,1,2,0:0:0:0:
218,221,87512,2,0,L|69:210,1,116.999994644165,2|2,1:2|0:0,0:0:0:0:
5,208,87778,1,2,1:2:0:0:
5,208,87867,1,10,0:0:0:0:
149,143,88044,1,2,1:2:0:0:
44,26,88222,6,0,P|92:90|190:59,1,175.499991966248,2|0,1:2|0:0,0:0:0:0:
211,36,88577,2,0,P|145:45|145:88,1,116.999994644165,10|2,0:0|0:0,0:0:0:0:
326,132,88932,2,0,P|332:61|344:5,1,116.999994644165,2|2,1:2|0:0,0:0:0:0:
434,95,89198,1,2,1:2:0:0:
434,95,89287,1,10,0:0:0:0:
256,160,89464,1,2,1:2:0:0:
500,209,89642,5,6,1:2:0:0:
464,62,89819,1,2,0:0:0:0:
396,275,89997,1,8,0:0:0:0:
499,223,90175,1,2,0:0:0:0:
256,192,90352,1,2,1:2:0:0:
274,364,90530,1,2,0:0:0:0:
274,364,90618,1,2,1:2:0:0:
274,364,90707,1,10,0:0:0:0:
277,114,90885,1,2,1:2:0:0:
256,192,91062,5,6,1:2:0:0:
256,192,91417,2,0,L|243:63,1,90,8|2,0:0|0:0,0:0:0:0:
237,7,91772,1,0,1:0:0:0:
98,51,92038,1,8,0:0:0:0:
98,51,92127,2,0,P|45:39|-18:36,1,90,0|10,0:0|0:0,0:0:0:0:
0,186,92482,6,0,P|85:149|178:124,1,180,2|8,1:2|0:0,0:0:0:0:
247,117,93015,1,2,0:0:0:0:
179,256,93192,1,2,1:2:0:0:
406,274,93459,2,0,L|385:123,1,135,8|8,0:0|1:2,0:0:0:0:
366,24,93902,6,0,P|387:79|512:98,1,180,2|10,1:2|0:0,0:0:0:0:
490,280,94612,2,0,L|518:113,2,135,2|10|10,1:2|0:0|1:2,0:0:0:0:
409,347,95322,6,0,P|314:323|192:311,1,180,2|8,1:2|0:0,0:0:0:0:
86,339,95855,1,2,0:0:0:0:
133,232,96032,1,2,1:2:0:0:
323,259,96299,2,0,L|292:116,1,135,8|8,0:0|1:2,0:0:0:0:
273,21,96743,6,0,B|308:27|349:-3|349:-3|372:31|331:66,1,135,2|0,1:2|0:0,0:0:0:0:
295,99,97098,1,8,0:0:0:0:
128,64,97275,1,2,0:0:0:0:
150,180,97453,1,0,1:0:0:0:
120,364,97719,1,8,0:0:0:0:
120,364,97808,2,0,P|90:287|67:254,1,90,0|10,0:0|1:2,0:0:0:0:
286,212,98163,6,0,B|230:249|230:249|252:375,1,180,2|8,1:2|0:0,0:0:0:0:
309,286,98695,1,2,0:0:0:0:
160,214,98873,1,2,1:2:0:0:
384,160,99139,1,8,0:0:0:0:
391,174,99405,1,8,1:2:0:0:
386,214,99583,6,0,P|444:205|492:204,1,90,2|0,1:2|0:0,0:0:0:0:
440,337,99938,2,0,P|386:304|294:262,1,135,10|0,0:0|0:0,0:0:0:0:
274,257,100293,1,2,1:2:0:0:
59,300,100559,1,8,0:0:0:0:
73,268,100825,1,8,1:2:0:0:
42,207,101003,5,2,1:2:0:0:
45,210,102246,1,2,0:0:0:0:
45,210,102423,6,0,L|182:226,1,99.0000030212403,6|0,1:2|0:0,0:0:0:0:
302,196,102778,1,10,0:0:0:0:
302,196,102956,1,2,0:0:0:0:
254,309,103133,2,0,L|285:128,1,148.50000453186,2|10,1:2|0:0,0:0:0:0:
283,123,103488,2,0,L|146:139,1,99.0000030212403,2|10,1:2|0:0,0:0:0:0:
24,38,103843,6,0,P|87:22|125:100,1,148.50000453186,2|0,1:2|0:0,0:0:0:0:
115,159,104198,1,10,0:0:0:0:
115,159,104376,1,2,0:0:0:0:
284,212,104553,2,0,P|353:194|362:96,1,148.50000453186,2|10,1:2|0:0,0:0:0:0:
347,86,104908,1,2,1:2:0:0:
183,146,105086,1,10,0:0:0:0:
215,348,105263,5,2,1:2:0:0:
186,261,105441,2,0,L|211:38,1,198.000006042481,2|2,0:0|0:0,0:0:0:0:
36,9,105973,2,0,P|95:23|102:114,1,148.50000453186,2|10,1:2|0:0,0:0:0:0:
85,134,106328,2,0,P|35:119|8:158,1,99.0000030212403,2|10,1:2|0:0,0:0:0:0:
74,268,106683,5,2,1:2:0:0:
128,167,106861,2,0,P|107:252|132:375,1,198.000006042481,2|2,0:0|0:0,0:0:0:0:
312,329,107393,2,0,P|257:282|166:340,1,148.50000453186,2|10,1:2|0:2,0:0:0:0:
242,349,107748,1,2,1:2:0:0:
206,169,107926,1,10,0:0:0:0:
433,189,108103,6,0,L|408:9,1,148.50000453186,2|0,1:2|0:0,0:0:0:0:
409,57,108459,2,0,P|376:107|315:116,1,99.0000030212403,10|2,0:0|0:0,0:0:0:0:
166,65,108814,2,0,B|250:41|250:41|235:128,1,148.50000453186,2|10,1:2|0:0,0:0:0:0:
232,137,109169,1,2,1:2:0:0:
205,5,109346,1,10,0:0:0:0:
90,176,109524,6,0,P|43:130|-16:109,1,99.0000030212403,2|0,1:2|0:0,0:0:0:0:
16,303,109879,2,0,P|87:268|138:259,1,99.0000030212403,10|2,0:0|0:0,0:0:0:0:
286,357,110234,2,0,P|212:338|121:335,1,148.50000453186,2|10,1:2|0:0,0:0:0:0:
96,345,110589,1,2,1:2:0:0:
153,208,110766,1,10,0:0:0:0:
383,241,110944,5,2,1:2:0:0:
288,128,111121,2,0,L|492:165,1,198.000006042481,2|2,0:0|0:0,0:0:0:0:
481,318,111654,2,0,P|437:372|346:345,1,148.50000453186,2|10,1:2|0:0,0:0:0:0:
327,333,112009,2,0,P|371:283|372:236,1,99.0000030212403,2|10,1:2|0:0,0:0:0:0:
129,241,112364,5,2,1:2:0:0:
224,128,112541,2,0,L|20:165,1,198.000006042481,2|2,0:0|0:0,0:0:0:0:
31,318,113074,2,0,P|75:372|166:345,1,148.50000453186,2|10,1:2|0:0,0:0:0:0:
185,333,113429,2,0,P|141:283|140:236,1,99.0000030212403,2|10,1:2|0:0,0:0:0:0:
352,256,113784,5,6,1:2:0:0:
160,256,114139,1,2,1:2:0:0:
160,128,114494,1,2,1:2:0:0:
352,128,114849,1,2,1:2:0:0:
96,192,115204,5,2,1:2:0:0:
256,64,115559,1,2,1:2:0:0:
256,320,115914,1,2,1:2:0:0:
256,320,116269,1,0,1:0:0:0:
256,320,116624,5,2,1:2:0:0:
66,286,116979,1,2,1:2:0:0:
89,160,117334,1,2,1:2:0:0:
278,193,117689,1,2,1:2:0:0:
278,193,118044,5,2,1:2:0:0:
89,160,118399,1,2,1:2:0:0:
66,286,118754,1,2,1:2:0:0:
256,320,119109,1,2,1:2:0:0:
352,256,119464,5,2,1:2:0:0:
160,256,119819,1,2,1:2:0:0:
160,128,120174,1,2,1:2:0:0:
352,128,120529,1,2,1:2:0:0:
96,192,120884,5,2,1:2:0:0:
256,64,121239,1,2,1:2:0:0:
256,320,121594,1,2,1:2:0:0:
256,320,121949,1,2,1:2:0:0:
256,320,122305,5,2,1:2:0:0:
134,298,122660,1,2,1:2:0:0:
149,217,123015,1,2,1:2:0:0:
270,238,123370,1,2,1:2:0:0:
256,320,123725,5,2,1:2:0:0:
265,330,124080,1,2,1:2:0:0:
262,353,124435,1,2,1:2:0:0:
241,378,124790,6,2,L|272:52,1,270,14|0,0:0|0:0,0:1:0:0:
278,38,125145,5,6,1:2:0:0:
429,95,125323,1,0,0:0:0:0:
182,139,125500,2,0,P|128:98|94:43,1,116.999994644165,10|0,0:0|0:0,0:0:0:0:
23,249,125855,2,0,P|119:200|190:237,1,175.499991966248,2|2,1:2|1:2,0:0:0:0:
179,297,126210,2,0,P|123:238|62:280,1,116.999994644165,10|2,0:0|1:2,0:0:0:0:
272,370,126565,6,0,P|336:313|457:289,1,175.499991966248,2|0,1:2|0:0,0:0:0:0:
469,301,126920,1,10,0:0:0:0:
270,244,127098,1,0,0:0:0:0:
430,143,127275,2,0,P|350:132|304:207,1,175.499991966248,2|2,1:2|1:2,0:0:0:0:
329,234,127630,2,0,L|297:93,1,116.999994644165,10|2,0:0|1:2,0:0:0:0:
176,30,127985,6,0,P|254:31|372:7,1,175.499991966248,2|0,1:2|0:0,0:0:0:0:
337,6,128340,2,0,P|333:67|341:126,1,116.999994644165,10|0,0:0|0:0,0:0:0:0:
397,273,128695,2,0,P|420:188|488:72,1,175.499991966248,2|2,1:2|1:2,0:0:0:0:
491,75,129051,2,0,P|436:54|378:43,1,116.999994644165,10|2,0:0|1:2,0:0:0:0:
214,172,129405,6,0,B|270:160|270:160|248:28,1,175.499991966248,2|0,1:2|0:0,0:0:0:0:
248,30,129761,1,10,0:0:0:0:
102,133,129938,1,0,0:0:0:0:
175,310,130115,2,0,B|166:257|116:250|116:250|119:302|60:326,1,175.499991966248,2|2,1:2|1:2,0:0:0:0:
30,314,130470,2,0,P|9:288|20:203,1,116.999994644165,10|2,0:0|1:2,0:0:0:0:
109,80,130826,5,2,1:2:0:0:
109,80,131003,1,2,0:0:0:0:
127,215,131180,2,0,L|147:52,1,116.999994644165,10|0,0:0|0:0,0:0:0:0:
288,287,131535,2,0,L|263:90,1,175.499991966248,2|2,1:2|1:2,0:0:0:0:
260,66,131890,2,0,P|326:35|416:28,1,116.999994644165,10|2,0:0|1:2,0:0:0:0:
456,210,132246,6,0,P|370:200|308:141,1,175.499991966248,2|0,1:2|0:0,0:0:0:0:
335,109,132601,2,0,P|386:126|386:181,1,116.999994644165,10|0,0:0|0:0,0:0:0:0:
205,259,132956,2,0,L|11:241,1,175.499991966248,2|2,1:2|1:2,0:0:0:0:
100,279,133311,1,10,0:0:0:0:
144,103,133488,1,2,1:2:0:0:
310,179,133666,6,0,P|385:157|402:55,1,175.499991966248,2|0,1:2|0:0,0:0:0:0:
385,41,134021,2,0,L|243:29,1,116.999994644165,10|0,0:0|0:0,0:0:0:0:
203,187,134376,2,0,L|15:212,1,175.499991966248,2|2,1:2|1:2,0:0:0:0:
1,187,134731,2,0,P|37:133|92:115,1,116.999994644165,10|2,0:0|1:2,0:0:0:0:
249,285,135086,6,0,B|228:208|228:208|256:148|256:148|226:47,1,233.999989288331,2|10,1:2|0:0,0:0:0:0:
85,127,135619,1,0,0:0:0:0:
304,216,135796,2,0,P|384:190|386:88,1,175.499991966248,2|2,1:2|1:2,0:0:0:0:
380,58,136151,1,10,0:0:0:0:
493,126,136329,1,2,1:2:0:0:
423,347,136506,6,0,B|441:310|441:310|304:331,1,175.499991966248,6|0,1:2|0:0,0:0:0:0:
261,335,136861,2,0,L|281:175,1,116.999994644165,10|2,0:0|0:0,0:0:0:0:
392,188,137216,2,0,L|372:28,1,116.999994644165,2|2,1:2|0:0,0:0:0:0:
266,0,137482,1,2,1:2:0:0:
266,0,137571,2,0,L|251:116,1,116.999994644165,10|2,0:0|1:2,0:0:0:0:
221,272,137926,6,0,P|135:250|49:236,1,175.499991966248,2|0,1:2|0:0,0:0:0:0:
35,234,138281,2,0,P|107:209|194:209,1,116.999994644165,10|2,0:0|0:0,0:0:0:0:
352,256,138636,1,2,1:2:0:0:
238,312,138814,1,2,0:0:0:0:
238,312,138903,1,2,1:2:0:0:
238,312,138991,1,10,0:0:0:0:
288,96,139169,1,2,1:2:0:0:
394,190,139346,6,0,L|526:179,1,116.999994644165,2|0,1:2|0:0,0:0:0:0:
340,276,139701,2,0,L|208:265,1,116.999994644165,10|2,0:0|0:0,0:0:0:0:
76,356,140056,2,0,P|43:292|44:226,1,116.999994644165,2|2,1:2|0:0,0:0:0:0:
78,147,140323,1,2,1:2:0:0:
78,147,140412,1,10,0:0:0:0:
210,241,140589,1,2,1:2:0:0:
128,64,140767,6,0,P|117:154|126:257,1,175.499991966248,6|0,1:2|0:0,0:0:0:0:
158,311,141122,2,0,P|144:230|158:151,1,116.999994644165,10|2,0:0|0:0,0:0:0:0:
384,64,141476,2,0,P|395:154|386:257,1,175.499991966248,6|2,1:2|1:2,0:0:0:0:
354,311,141831,2,0,P|368:230|354:151,1,116.999994644165,10|2,0:0|1:2,0:0:0:0:
256,32,142187,6,0,L|256:224,1,175.499991966248,6|0,1:2|0:0,0:0:0:0:
256,256,142542,1,10,0:0:0:0:
448,160,142719,1,2,0:0:0:0:
224,128,142897,2,0,L|75:149,1,116.999994644165,2|2,1:2|0:0,0:0:0:0:
9,81,143163,1,2,1:2:0:0:
9,81,143251,2,0,P|75:48|68:-17,1,116.999994644165,10|2,0:0|1:2,0:0:0:0:
5,214,143606,6,0,P|33:274|159:328,1,175.499991966248,2|0,1:2|0:0,0:0:0:0:
198,321,143961,1,10,0:0:0:0:
143,166,144139,1,2,0:0:0:0:
362,94,144317,2,0,L|350:252,1,116.999994644165,2|2,1:2|0:0,0:0:0:0:
457,304,144583,1,2,1:2:0:0:
457,304,144672,2,0,L|469:146,1,116.999994644165,10|2,0:0|1:2,0:0:0:0:
224,256,145027,6,0,P|148:238|78:208,1,116.999994644165,2|0,1:2|0:0,0:0:0:0:
288,192,145382,1,10,0:0:0:0:
160,96,145559,1,2,0:0:0:0:
334,11,145737,2,0,L|346:169,1,116.999994644165,2|2,1:2|0:0,0:0:0:0:
188,62,146003,1,2,1:2:0:0:
188,62,146092,2,0,L|346:50,1,116.999994644165,10|2,0:0|1:2,0:0:0:0:
192,224,146447,5,6,1:2:0:0:
253,101,146625,1,2,0:0:0:0:
276,305,146802,1,8,0:0:0:0:
395,238,146980,1,2,0:0:0:0:
173,201,147157,1,2,1:2:0:0:
422,160,147335,1,2,0:0:0:0:
422,160,147423,1,2,1:2:0:0:
422,160,147512,1,10,0:0:0:0:
377,44,147690,1,2,1:2:0:0:
352,320,147867,5,6,1:2:0:0:
384,256,148222,5,2,0:0:0:0:
352,192,148577,5,2,0:0:0:0:
384,128,148843,1,2,0:0:0:0:
384,128,148932,5,2,0:0:0:0:
352,192,149109,1,2,0:0:0:0:
288,160,149287,5,2,0:0:0:0:
224,192,149642,5,2,0:0:0:0:
192,128,149997,5,2,0:0:0:0:
128,160,150263,1,2,0:0:0:0:
128,160,150352,5,2,0:0:0:0:
192,128,150530,1,2,0:0:0:0:
160,64,150707,5,2,0:0:0:0:
224,32,151062,5,2,0:0:0:0:
256,96,151417,5,2,0:0:0:0:
320,64,151683,1,2,0:0:0:0:
320,64,151772,5,2,0:0:0:0:
256,96,151950,1,2,0:0:0:0:
288,160,152127,5,2,0:0:0:0:
224,192,152482,5,2,0:0:0:0:
256,256,152837,5,2,0:0:0:0:
224,320,153103,1,2,0:0:0:0:
224,320,153192,5,2,0:0:0:0:
256,256,153370,1,2,0:0:0:0:
320,288,153547,5,2,0:0:0:0:
384,256,153902,5,2,0:0:0:0:
416,320,154257,5,2,0:0:0:0:
480,288,154524,1,2,0:0:0:0:
480,288,154612,5,2,0:0:0:0:
416,320,154790,1,2,0:0:0:0:
384,256,154967,5,2,0:0:0:0:
416,192,155322,5,2,0:0:0:0:
384,128,155677,5,2,0:0:0:0:
416,64,155944,1,2,0:0:0:0:
416,64,156032,5,2,0:0:0:0:
384,128,156210,1,0,0:0:0:0:
320,96,156388,5,2,0:0:0:0:
384,128,156565,1,0,0:0:0:0:
352,192,156743,5,2,0:0:0:0:
384,128,156920,1,0,0:0:0:0:
288,160,157098,5,2,0:0:0:0:
224,224,157275,1,2,0:0:0:0:
160,192,157453,1,2,0:0:0:0:
96,160,157630,1,2,0:0:0:0:
64,224,157808,5,2,0:0:0:0:
64,224,158163,5,2,0:0:0:0:
64,224,158518,5,2,0:0:0:0:
32,288,158695,1,2,0:0:0:0:
96,320,158873,2,0,L|160:313,3,45,2|2|2|2,0:0|0:0|0:0|0:0,0:0:0:0:
177,288,159228,5,6,1:2:0:0:
138,189,159405,2,0,P|152:124|188:47,1,116.999994644165,2|8,0:0|0:0,0:0:0:0:
230,10,159760,1,2,0:0:0:0:
401,48,159938,1,2,1:2:0:0:
401,48,160115,2,0,L|326:64,1,58.4999973220826,10|2,0:0|1:2,0:0:0:0:
363,172,160293,2,0,L|438:156,1,58.4999973220826,10|0,0:0|0:0,0:0:0:0:
398,35,160470,2,0,L|323:51,1,58.4999973220826,2|0,1:2|0:0,0:0:0:0:
366,185,160648,6,0,L|489:159,1,116.999994644165,2|0,1:2|0:0,0:0:0:0:
328,300,161003,2,0,L|451:274,1,116.999994644165,10|0,0:0|0:0,0:0:0:0:
177,231,161358,2,0,L|252:247,1,58.4999973220826,2|0,1:2|0:0,0:0:0:0:
86,309,161535,2,0,L|11:325,1,58.4999973220826,10|2,0:0|1:2,0:0:0:0:
210,377,161713,1,10,0:0:0:0:
207,359,161801,1,2,0:0:0:0:
205,342,161890,1,2,1:2:0:0:
203,324,161979,1,2,0:0:0:0:
226,288,162068,5,2,1:2:0:0:
114,341,162246,2,0,P|62:291|79:199,1,116.999994644165,2|8,0:0|0:0,0:0:0:0:
87,149,162601,1,2,0:0:0:0:
288,128,162778,1,2,1:2:0:0:
288,128,162956,2,0,L|298:38,1,58.4999973220826,10|2,0:0|1:2,0:0:0:0:
192,192,163133,2,0,L|182:102,1,58.4999973220826,10|0,0:0|0:0,0:0:0:0:
352,256,163311,2,0,L|362:166,1,58.4999973220826,2|0,1:2|0:0,0:0:0:0:
160,320,163488,6,0,P|96:256|0:256,1,175.499991966248,2|0,1:2|0:0,0:0:0:0:
13,261,163843,2,0,P|69:259|93:187,1,116.999994644165,10|2,0:0|1:2,0:0:0:0:
13,110,164198,2,0,P|77:46|173:46,1,175.499991966248,2|0,1:2|0:0,0:0:0:0:
160,51,164553,1,10,0:0:0:0:
103,48,164641,1,2,0:0:0:0:
75,0,164730,1,2,1:2:0:0:
96,192,164908,5,2,1:2:0:0:
271,163,165086,2,0,P|198:141|103:129,1,116.999994644165,2|8,0:0|0:0,0:0:0:0:
224,256,165441,1,2,0:0:0:0:
384,160,165618,1,2,1:2:0:0:
384,160,165796,2,0,L|366:64,1,58.4999973220826,10|2,0:0|1:2,0:0:0:0:
231,122,165973,2,0,L|249:218,1,58.4999973220826,10|0,0:0|0:0,0:0:0:0:
403,157,166151,2,0,L|385:61,1,58.4999973220826,2|0,1:2|0:0,0:0:0:0:
212,125,166328,6,0,L|239:273,1,116.999994644165,2|2,1:2|1:2,0:0:0:0:
285,10,166683,2,0,L|312:158,1,116.999994644165,10|2,0:0|1:2,0:0:0:0:
117,38,167038,2,0,L|130:112,1,58.4999973220826,2|0,1:2|0:0,0:0:0:0:
158,249,167216,1,10,0:0:0:0:
131,221,167305,1,2,1:2:0:0:
83,226,167393,1,10,0:0:0:0:
101,316,167571,1,2,1:2:0:0:
130,124,167748,5,2,1:2:0:0:
241,169,167926,2,0,P|313:146|394:133,1,116.999994644165,2|8,0:0|0:0,0:0:0:0:
466,130,168281,1,2,0:0:0:0:
384,288,168459,1,2,1:2:0:0:
384,288,168636,2,0,L|369:208,1,58.4999973220826,10|2,0:0|1:2,0:0:0:0:
493,354,168814,2,0,L|508:274,1,58.4999973220826,10|0,0:0|0:0,0:0:0:0:
283,378,168991,2,0,L|268:298,1,58.4999973220826,2|2,1:2|0:0,0:0:0:0:
272,320,170589,5,6,1:2:0:0:
324,246,170766,2,0,P|261:211|205:192,1,116.999994644165,2|8,0:0|0:0,0:0:0:0:
64,256,171121,1,2,0:0:0:0:
64,256,171299,1,2,1:2:0:0:
29,55,171476,2,0,L|45:133,1,58.4999973220826,10|2,0:0|1:2,0:0:0:0:
111,31,171654,2,0,L|127:109,1,58.4999973220826,10|0,0:0|0:0,0:0:0:0:
193,7,171831,2,0,L|209:85,1,58.4999973220826,2|0,1:2|0:0,0:0:0:0:
239,231,172009,6,0,P|252:151|320:147,1,116.999994644165,2|0,1:2|0:0,0:0:0:0:
222,268,172364,2,0,P|142:255|138:187,1,116.999994644165,10|0,0:0|0:0,0:0:0:0:
259,285,172719,2,0,P|268:331|235:374,1,58.4999973220826,2|0,1:2|0:0,0:0:0:0:
276,248,172896,2,0,P|322:239|365:272,1,58.4999973220826,10|2,0:0|1:2,0:0:0:0:
227,77,173074,1,10,0:0:0:0:
230,94,173162,1,2,0:0:0:0:
234,111,173251,1,2,1:2:0:0:
237,128,173340,1,2,0:0:0:0:
271,162,173429,5,2,1:2:0:0:
365,128,173606,2,0,L|507:150,1,116.999994644165,2|8,0:0|0:0,0:0:0:0:
416,32,173961,1,0,0:0:0:0:
416,32,174139,1,2,1:2:0:0:
355,156,174317,2,0,L|369:232,1,58.4999973220826,10|2,0:0|1:2,0:0:0:0:
146,213,174494,2,0,L|157:156,1,58.4999973220826,10|0,0:0|0:0,0:0:0:0:
256,288,174672,2,0,L|256:352,1,58.4999973220826,2|0,1:2|0:0,0:0:0:0:
162,124,174849,6,0,P|109:56|7:112,1,175.499991966248,2|0,1:2|0:0,0:0:0:0:
37,80,175204,2,0,L|176:49,1,116.999994644165,10|2,0:0|0:0,0:0:0:0:
350,124,175559,2,0,P|403:56|505:112,1,175.499991966248,2|2,1:2|1:2,0:0:0:0:
475,80,175914,2,0,L|336:49,1,116.999994644165,10|2,0:0|1:2,0:0:0:0:
256,32,176269,5,2,1:2:0:0:
256,128,176447,2,0,P|220:185|153:189,1,116.999994644165,2|8,0:0|0:0,0:0:0:0:
82,166,176802,1,2,0:0:0:0:
82,166,176979,1,2,1:2:0:0:
39,357,177157,2,0,L|27:299,1,58.4999973220826,10|2,0:0|1:2,0:0:0:0:
121,333,177334,2,0,L|109:275,1,58.4999973220826,10|0,0:0|0:0,0:0:0:0:
203,309,177512,2,0,L|191:251,1,58.4999973220826,2|0,1:2|0:0,0:0:0:0:
159,77,177689,6,0,L|27:103,1,116.999994644165,2|2,1:2|1:2,0:0:0:0:
185,217,178044,2,0,L|159:85,1,116.999994644165,10|2,0:0|1:2,0:0:0:0:
45,243,178399,2,0,L|177:217,1,116.999994644165,2|10,1:2|0:0,0:0:0:0:
19,103,178666,1,2,1:2:0:0:
19,103,178754,2,0,L|38:199,1,58.4999973220826,10|0,0:0|0:0,0:0:0:0:
194,125,178932,2,0,L|182:67,1,58.4999973220826,2|0,1:2|0:0,0:0:0:0:
133,261,179109,5,2,1:2:0:0:
218,210,179287,2,0,L|365:227,1,116.999994644165,2|8,0:0|0:0,0:0:0:0:
256,352,179642,1,2,0:0:0:0:
256,352,179819,1,2,1:2:0:0:
128,192,179997,2,0,L|160:96,1,58.4999973220826,10|2,0:0|1:2,0:0:0:0:
365,136,180175,2,0,L|384:192,1,58.4999973220826,10|0,0:0|0:0,0:0:0:0:
256,320,180352,2,0,L|256:256,1,58.4999973220826,2|0,1:2|0:0,0:0:0:0:
256,32,180530,6,0,P|196:105|96:96,1,175.499991966248,2|0,1:2|0:0,0:0:0:0:
110,98,180885,2,0,P|167:65|197:104,1,116.999994644165,10|0,0:0|0:0,0:0:0:0:
110,254,181240,2,0,P|170:327|270:318,1,175.499991966248,2|2,1:2|1:2,0:0:0:0:
256,320,181595,2,0,P|199:287|169:326,1,116.999994644165,10|2,0:0|1:2,0:0:0:0:
256,192,181950,5,6,1:2:0:0:
256,192,182305,1,0,0:0:0:0:
256,192,182660,1,2,0:0:0:0:
256,192,183015,1,0,0:0:0:0:
256,32,183370,5,2,0:0:0:0:
256,32,183725,1,0,0:0:0:0:
256,32,184080,1,2,0:0:0:0:
256,32,184435,1,0,0:0:0:0:
256,352,184790,5,2,0:0:0:0:
256,352,185145,1,0,0:0:0:0:
256,352,185500,1,2,0:0:0:0:
256,352,185855,1,0,0:0:0:0:
480,192,186210,5,2,0:0:0:0:
480,192,186565,1,0,0:0:0:0:
480,192,186920,1,2,0:0:0:0:
480,192,187275,1,0,0:0:0:0:
256,192,187630,5,2,0:0:0:0:
256,192,187985,1,0,0:0:0:0:
256,192,188340,1,2,0:0:0:0:
256,192,188695,1,0,0:0:0:0:
256,32,189050,5,2,0:0:0:0:
256,32,189405,1,0,0:0:0:0:
256,32,189760,1,2,0:0:0:0:
256,32,190115,1,0,0:0:0:0:
256,352,190470,5,2,0:0:0:0:
256,352,190825,1,2,0:0:0:0:
256,352,191180,1,2,0:0:0:0:
256,352,191535,1,2,0:0:0:0:
32,192,191890,5,2,0:0:0:0:
32,192,192245,1,2,0:0:0:0:
32,192,192600,1,2,0:0:0:0:
32,192,192956,6,2,B|185:201|127:67|315:101,1,270,14|0,0:0|0:0,0:1:0:0:
365,126,193311,5,6,1:2:0:0:
224,224,193488,1,0,0:0:0:0:
236,84,193666,2,0,L|251:231,1,107.999996704102,10|0,0:0|0:0,0:0:0:0:
268,351,194021,2,0,P|314:268|384:294,1,161.999995056153,2|2,1:2|1:2,0:0:0:0:
372,292,194376,2,0,P|313:265|250:274,1,107.999996704102,10|2,0:0|1:2,0:0:0:0:
50,350,194731,6,0,P|153:348|213:286,1,161.999995056153,2|0,1:2|0:0,0:0:0:0:
228,268,195085,1,10,0:0:0:0:
52,215,195263,1,0,0:0:0:0:
203,121,195441,2,0,B|186:81|186:81|173:231,1,161.999995056153,2|2,1:2|1:2,0:0:0:0:
175,209,195796,2,0,P|116:181|128:140,1,107.999996704102,10|2,0:0|1:2,0:0:0:0:
350,72,196151,6,0,P|385:126|367:234,1,161.999995056153,2|0,1:2|0:0,0:0:0:0:
347,255,196506,2,0,P|321:228|231:207,1,107.999996704102,10|0,0:0|0:0,0:0:0:0:
199,55,196861,2,0,P|272:19|389:35,1,161.999995056153,2|2,1:2|1:2,0:0:0:0:
389,40,197216,2,0,L|373:163,1,107.999996704102,10|2,0:0|1:2,0:0:0:0:
347,313,197571,6,0,P|456:279|448:219,1,161.999995056153,2|0,1:2|0:0,0:0:0:0:
446,203,197926,1,10,0:0:0:0:
243,242,198103,1,0,0:0:0:0:
293,373,198281,2,0,P|308:289|344:173,1,161.999995056153,2|2,1:2|1:2,0:0:0:0:
353,178,198636,2,0,P|338:94|322:39,1,107.999996704102,10|2,0:0|1:2,0:0:0:0:
148,40,198991,5,2,1:2:0:0:
148,40,199168,1,2,0:0:0:0:
164,136,199346,2,0,P|179:52|195:-3,1,107.999996704102,10|0,0:0|0:0,0:0:0:0:
219,224,199701,2,0,P|170:175|60:174,1,161.999995056153,2|2,1:2|1:2,0:0:0:0:
72,179,200056,2,0,L|90:301,1,107.999996704102,10|2,0:0|1:2,0:0:0:0:
237,374,200411,6,0,L|262:199,1,161.999995056153,2|0,1:2|0:0,0:0:0:0:
266,176,200766,2,0,L|394:200,1,107.999996704102,10|0,0:0|0:0,0:0:0:0:
175,243,201121,2,0,L|-3:277,1,161.999995056153,2|2,1:2|1:2,0:0:0:0:
88,286,201476,1,10,0:0:0:0:
128,112,201653,1,2,1:2:0:0:
310,143,201831,6,0,P|259:98|136:102,1,161.999995056153,2|0,1:2|0:0,0:0:0:0:
202,113,202186,2,0,P|236:171|244:242,1,107.999996704102,10|0,0:0|0:0,0:0:0:0:
165,369,202541,2,0,B|143:349|153:324|153:324|213:369|278:335,1,161.999995056153,2|2,1:2|1:2,0:0:0:0:
297,329,202896,2,0,L|161:294,1,107.999996704102,10|2,0:0|1:2,0:0:0:0:
0,256,203251,6,0,P|42:213|204:209,1,215.999993408203,2|10,1:2|0:0,0:0:0:0:
0,160,203784,1,0,0:0:0:0:
192,26,203961,2,0,L|208:208,1,161.999995056153,2|2,1:2|1:2,0:0:0:0:
207,198,204317,1,10,0:0:0:0:
78,81,204494,1,2,1:2:0:0:
352,32,204672,5,6,1:2:0:0:
352,32,205027,2,0,L|449:21,1,90,10|0,0:0|0:0,0:0:0:0:
358,118,205382,2,0,L|209:101,1,135,2|2,1:2|1:2,0:0:0:0:
234,112,205737,2,0,L|245:237,1,90,10|2,0:0|1:2,0:0:0:0:
256,342,206092,6,0,P|281:288|357:308,1,135,2|0,1:2|0:0,0:0:0:0:
349,307,206447,2,0,L|467:289,1,90,10|0,0:0|0:0,0:0:0:0:
502,337,206802,1,2,1:2:0:0:
502,337,207157,6,2,B|349:346|407:212|219:246,1,270,14|0,0:0|0:0,0:1:0:0:
169,271,207512,6,0,P|106:226|139:98,1,175.499991966248,6|0,1:2|0:0,0:0:0:0:
135,101,207867,2,0,L|274:119,1,116.999994644165,10|2,0:0|0:0,0:0:0:0:
336,56,208222,2,0,L|475:38,1,116.999994644165,2|2,1:2|0:0,0:0:0:0:
455,191,208488,1,2,1:2:0:0:
455,191,208577,2,0,L|316:173,1,116.999994644165,10|2,0:0|1:2,0:0:0:0:
183,306,208932,6,0,P|274:279|253:209,1,175.499991966248,2|0,1:2|0:0,0:0:0:0:
225,183,209287,2,0,P|297:158|384:158,1,116.999994644165,10|2,0:0|0:0,0:0:0:0:
496,255,209642,1,2,1:2:0:0:
379,341,209820,1,2,0:0:0:0:
379,341,209909,1,2,1:2:0:0:
379,341,209997,1,10,0:0:0:0:
433,148,210175,1,2,1:2:0:0:
215,194,210352,6,0,P|160:152|160:77,1,116.999994644165,2|0,1:2|0:0,0:0:0:0:
302,9,210707,2,0,P|219:24|166:48,1,116.999994644165,10|2,0:0|0:0,0:0:0:0:
2,6,211062,2,0,L|34:136,1,116.999994644165,2|2,1:2|0:0,0:0:0:0:
58,212,211329,1,2,1:2:0:0:
58,212,211418,1,10,0:0:0:0:
202,17,211595,1,2,1:2:0:0:
161,129,211773,6,0,P|150:219|159:322,1,175.499991966248,6|0,1:2|0:0,0:0:0:0:
191,376,212128,2,0,P|177:295|191:216,1,116.999994644165,10|2,0:0|0:0,0:0:0:0:
351,129,212483,2,0,P|362:219|353:322,1,175.499991966248,6|0,1:2|0:0,0:0:0:0:
321,376,212838,2,0,P|335:295|321:216,1,116.999994644165,10|2,0:0|1:2,0:0:0:0:
256,64,213193,6,0,L|256:256,1,175.499991966248,6|0,1:2|0:0,0:0:0:0:
256,288,213548,1,10,0:0:0:0:
400,174,213725,1,2,0:0:0:0:
170,227,213903,2,0,L|25:204,1,116.999994644165,2|2,1:2|0:0,0:0:0:0:
144,147,214169,1,2,1:2:0:0:
144,147,214258,2,0,L|121:17,1,116.999994644165,10|2,0:0|1:2,0:0:0:0:
45,236,214612,6,0,P|63:317|176:317,1,175.499991966248,2|0,1:2|0:0,0:0:0:0:
187,316,214967,1,10,0:0:0:0:
13,242,215145,1,2,0:0:0:0:
231,173,215322,2,0,L|376:196,1,116.999994644165,2|2,1:2|0:0,0:0:0:0:
451,209,215589,1,2,1:2:0:0:
451,209,215678,2,0,L|417:43,1,116.999994644165,10|2,0:0|1:2,0:0:0:0:
290,6,216032,6,0,P|216:34|170:65,1,116.999994644165,2|0,1:2|0:0,0:0:0:0:
78,138,216388,1,10,0:0:0:0:
115,13,216565,1,2,0:0:0:0:
247,162,216743,2,0,L|230:328,1,116.999994644165,2|2,1:2|0:0,0:0:0:0:
108,218,217009,1,2,1:2:0:0:
108,218,217098,2,0,L|259:199,1,116.999994644165,10|2,0:0|1:2,0:0:0:0:
388,190,217453,5,6,1:2:0:0:
201,160,217631,1,2,0:0:0:0:
288,288,217808,1,8,0:0:0:0:
320,64,217986,1,2,0:0:0:0:
356,196,218163,1,2,1:2:0:0:
174,132,218341,1,2,0:0:0:0:
174,132,218429,1,2,1:2:0:0:
174,132,218518,1,10,0:0:0:0:
404,77,218696,1,2,1:2:0:0:
288,288,218873,6,0,L|272:92,1,175.499991966248,6|0,1:2|0:0,0:0:0:0:
270,67,219228,2,0,L|142:53,1,116.999994644165,10|2,0:0|0:0,0:0:0:0:
7,224,219583,6,0,L|135:210,1,116.999994644165,2|2,1:2|0:0,0:0:0:0:
228,209,219849,1,2,1:2:0:0:
228,209,219938,1,10,0:0:0:0:
114,334,220116,1,2,1:2:0:0:
0,147,220293,6,0,P|49:66|135:82,1,175.499991966248,2|0,1:2|0:0,0:0:0:0:
161,98,220648,1,10,0:0:0:0:
0,241,220825,1,2,0:0:0:0:
215,306,221003,2,0,L|193:149,1,116.999994644165,2|2,1:2|0:0,0:0:0:0:
350,107,221269,1,2,1:2:0:0:
350,107,221358,2,0,L|333:222,1,116.999994644165,10|2,0:0|1:2,0:0:0:0:
183,368,221713,6,0,P|126:357|1:349,1,175.499991966248,2|0,1:2|0:0,0:0:0:0:
11,359,222068,2,0,P|99:323|135:317,1,116.999994644165,10|2,0:0|0:0,0:0:0:0:
302,266,222423,2,0,P|245:251|192:225,1,116.999994644165,2|2,1:2|0:0,0:0:0:0:
131,158,222690,1,2,1:2:0:0:
131,158,222778,1,10,0:0:0:0:
358,123,222956,1,2,1:2:0:0:
160,64,223133,6,0,P|149:154|158:257,1,175.499991966248,6|0,1:2|0:0,0:0:0:0:
190,311,223488,2,0,P|176:230|190:151,1,116.999994644165,10|2,0:0|0:0,0:0:0:0:
352,64,223844,2,0,P|363:154|354:257,1,175.499991966248,6|0,1:2|0:0,0:0:0:0:
322,311,224199,2,0,P|336:230|322:151,1,116.999994644165,10|2,0:0|1:2,0:0:0:0:
256,32,224554,6,0,L|256:256,1,175.499991966248,6|0,1:2|0:0,0:0:0:0:
256,288,224909,1,10,0:0:0:0:
75,238,225086,1,2,0:0:0:0:
160,128,225264,2,0,L|309:139,1,116.999994644165,2|2,1:2|0:0,0:0:0:0:
345,266,225530,1,2,1:2:0:0:
345,266,225618,2,0,L|196:277,1,116.999994644165,10|2,0:0|1:2,0:0:0:0:
409,364,225973,6,0,P|493:330|465:246,1,175.499991966248,2|0,1:2|0:0,0:0:0:0:
438,238,226329,1,10,0:0:0:0:
288,352,226506,1,2,0:0:0:0:
168,230,226684,2,0,L|179:81,1,116.999994644165,2|2,1:2|0:0,0:0:0:0:
185,19,226950,1,2,1:2:0:0:
185,19,227039,1,10,0:0:0:0:
271,67,227216,1,2,1:2:0:0:
58,176,227393,6,0,P|88:261|182:241,1,175.499991966248,2|0,1:2|0:0,0:0:0:0:
189,234,227749,2,0,P|123:243|123:286,1,116.999994644165,10|2,0:0|0:0,0:0:0:0:
288,352,228104,2,0,P|294:281|306:225,1,116.999994644165,2|2,1:2|0:0,0:0:0:0:
396,315,228370,1,2,1:2:0:0:
396,315,228459,1,10,0:0:0:0:
201,369,228636,1,2,1:2:0:0:
243,147,228814,5,6,1:2:0:0:
269,270,228991,1,2,0:0:0:0:
147,208,229169,1,8,0:0:0:0:
352,160,229347,1,2,0:0:0:0:
301,338,229524,1,2,1:2:0:0:
125,312,229702,1,2,0:0:0:0:
125,312,229790,1,2,1:2:0:0:
125,312,229879,1,10,0:0:0:0:
361,237,230057,1,2,1:2:0:0:
256,192,230234,6,0,P|246:125|226:46,1,135,6|0,1:2|0:0,0:0:0:0:
220,72,230589,2,0,P|167:56|118:49,1,90,2|2,1:2|0:0,0:0:0:0:
39,75,230944,1,2,1:2:0:0:
39,75,231121,1,2,0:0:0:0:
112,176,231299,2,0,L|109:213,6,22.5,2|2|2|2|2|2|2,1:2|0:0|0:0|0:0|0:0|0:0|0:0,0:0:0:0:
140,240,231654,6,0,P|199:239|266:196,1,135,2|0,1:2|0:0,0:0:0:0:
286,157,232009,2,0,P|249:121|204:148,1,90,2|2,1:2|0:0,0:0:0:0:
274,292,232364,1,2,1:2:0:0:
274,292,232541,2,0,L|312:283,3,22.5,2|2|2|2,0:0|0:0|0:0|0:0,0:0:0:0:
324,301,232719,1,2,1:2:0:0:
209,378,232896,5,2,0:0:0:0:
