osu file format v14

[General]
AudioFilename: audio.mp3
AudioLeadIn: 0
PreviewTime: 54139
Countdown: 0
SampleSet: Soft
StackLeniency: 0.7
Mode: 0
LetterboxInBreaks: 0
WidescreenStoryboard: 0

[Editor]
Bookmarks: 175,159228,232896
DistanceSpacing: 1.2
BeatDivisor: 4
GridSize: 32
TimelineZoom: 1.9

[Metadata]
Title:Last of Me
TitleUnicode:Last of Me
Artist:CircusP
ArtistUnicode:CircusP
Creator:eiri-
Version:Ayynna's Hard
Source:osu!
Tags:Ayyri Trynna Circus-P Featured Artist FA English Electronic Vocaloid Megurine Luka 巡音ルカ
BeatmapID:2431765
BeatmapSetID:1165972

[Difficulty]
HPDrainRate:5
CircleSize:4
OverallDifficulty:7
ApproachRate:8
SliderMultiplier:1.6
SliderTickRate:1

[Events]
//Background and Video events
0,0,"Luka 385.jpg",0,0
//Break Periods
//Storyboard Layer 0 (Background)
//Storyboard Layer 1 (Fail)
//Storyboard Layer 2 (Pass)
//Storyboard Layer 3 (Foreground)
//Storyboard Layer 4 (Overlay)
//Storyboard Sound Samples

[TimingPoints]
175,355.029585798817,4,2,1,50,1,0
175,-133.333333333333,4,2,1,50,0,0
10115,-114.942528735632,4,2,1,75,0,0
11535,-100,4,2,1,90,0,1
22896,-114.942528735632,4,2,1,75,0,0
34257,-100,4,2,1,80,0,0
45618,-133.333333333333,4,2,1,60,0,0
56624,-114.942528735632,4,2,1,100,0,0
56979,-100,4,2,1,90,0,1
67985,-100,4,2,1,90,0,0
68340,-100,4,2,1,95,0,1
91062,-114.942528735632,4,2,1,75,0,0
102423,-100,4,2,1,80,0,0
113784,-133.333333333333,4,2,1,60,0,0
124790,-114.942528735632,4,2,1,100,0,0
125145,-100,4,2,1,90,0,1
136151,-100,4,2,1,90,0,0
136506,-100,4,2,1,95,0,1
147867,-114.942528735632,4,2,1,60,0,0
159228,-100,4,2,1,90,0,1
169080,-100,4,2,1,50,0,0
170589,-100,4,2,1,95,0,1
181950,-100,4,2,1,60,0,0
192956,-114.942528735632,4,2,1,100,0,0
193311,-100,4,2,1,80,0,1
204672,-133.333333333333,4,2,1,75,0,0
207157,-114.942528735632,4,2,1,100,0,0
207512,-100,4,2,1,95,0,1
230234,-114.942528735632,4,2,1,75,0,0

[Colours]
Combo1 : 123,211,240
Combo2 : 166,235,124
Combo3 : 218,138,249
Combo4 : 254,129,129

[HitObjects]
81,122,175,5,2,0:0:0:0:
199,103,530,2,0,L|264:94,1,60.0000022888184,2|0,0:0|0:0,0:0:0:0:
287,114,885,2,0,L|352:105,1,60.0000022888184,2|0,0:0|0:0,0:0:0:0:
377,123,1240,1,2,0:0:0:0:
377,123,1417,1,2,0:0:0:0:
424,48,1595,5,2,0:0:0:0:
461,162,1950,2,0,L|444:227,1,60.0000022888184,2|0,0:0|0:0,0:0:0:0:
462,245,2305,2,0,L|445:310,1,60.0000022888184,2|0,0:0|0:0,0:0:0:0:
425,325,2660,1,2,0:0:0:0:
425,325,2837,1,2,0:0:0:0:
333,322,3015,5,2,0:0:0:0:
319,203,3370,2,0,L|311:141,1,60.0000022888184,2|0,0:0|0:0,0:0:0:0:
328,118,3725,2,0,L|320:56,1,60.0000022888184,2|0,0:0|0:0,0:0:0:0:
340,34,4080,1,2,0:0:0:0:
340,34,4257,1,2,0:0:0:0:
261,2,4435,6,0,B|217:23|217:23|139:7,1,120.000004577637,2|0,0:0|0:0,0:0:0:0:
123,126,5145,2,0,L|259:159,1,120.000004577637,2|2,0:0|0:0,0:0:0:0:
253,183,5677,1,2,0:0:0:0:
253,183,5855,5,2,0:0:0:0:
331,273,6210,2,0,L|319:334,1,60.0000022888184,2|0,0:0|0:0,0:0:0:0:
402,347,6565,2,0,L|413:288,1,60.0000022888184,2|0,0:0|0:0,0:0:0:0:
386,208,6920,1,2,0:0:0:0:
386,208,7098,1,2,0:0:0:0:
468,162,7275,5,2,0:0:0:0:
341,49,7630,2,0,P|312:55|289:73,1,60.0000022888184,2|0,0:0|0:0,0:0:0:0:
210,44,7985,2,0,P|200:72|204:101,1,60.0000022888184,2|0,0:0|0:0,0:0:0:0:
136,152,8340,1,2,0:0:0:0:
136,152,8518,1,2,0:0:0:0:
223,193,8695,5,2,0:0:0:0:
256,192,8784,12,0,9760,0:0:0:0:
256,192,10115,6,0,L|256:122,2,69.6000005841065,2|2|0,0:0|0:0|0:0,0:0:0:0:
256,289,10648,1,0,0:0:0:0:
177,243,10825,2,0,P|136:230|100:236,1,69.6000005841065,2|0,0:0|0:0,0:0:0:0:
100,322,11180,2,0,P|141:335|177:329,1,69.6000005841065,2|2,0:0|0:0,0:0:0:0:
29,257,11535,6,0,B|10:208|38:176|38:176|71:165,1,120,6|0,1:2|0:0,0:0:0:0:
86,139,11890,2,0,L|74:59,1,80,8|2,0:0|0:0,0:0:0:0:
161,17,12246,2,0,P|209:30|233:65,1,80,2|2,1:2|0:0,0:0:0:0:
246,81,12512,1,2,1:2:0:0:
246,81,12601,2,0,L|233:168,1,80,10|2,0:0|1:2,0:0:0:0:
324,194,12956,6,0,P|379:178|377:118,1,120,2|0,1:2|0:0,0:0:0:0:
368,95,13311,2,0,B|362:56|362:56|378:15,1,80,10|2,0:0|0:0,0:0:0:0:
481,30,13666,2,0,B|487:74|487:74|470:108,1,80,2|0,1:2|0:0,0:0:0:0:
485,134,13932,1,2,1:2:0:0:
485,134,14021,2,0,L|487:215,1,80,10|2,0:0|1:2,0:0:0:0:
492,310,14376,1,2,1:2:0:0:
304,353,14731,5,10,0:0:0:0:
354,271,14908,1,2,0:0:0:0:
269,224,15086,1,2,1:2:0:0:
228,314,15263,1,2,0:0:0:0:
228,314,15352,1,2,1:2:0:0:
228,314,15441,2,0,L|131:332,1,80,10|2,0:0|1:2,0:0:0:0:
92,250,15796,6,0,P|110:176|184:158,2,160,2|10|2,1:2|0:0|1:2,0:0:0:0:
80,154,16683,2,0,L|83:107,1,40,2|2,0:0|1:2,0:0:0:0:
108,97,16861,1,10,0:0:0:0:
184,158,17038,1,2,1:2:0:0:
255,93,17216,6,0,B|321:79|306:123|369:112,1,120,2|0,1:2|0:0,0:0:0:0:
392,132,17571,2,0,L|391:45,1,80,10|2,0:0|0:0,0:0:0:0:
488,175,17926,2,0,P|449:199|447:253,1,80,2|2,1:2|0:0,0:0:0:0:
422,253,18192,1,2,1:2:0:0:
422,253,18281,1,10,0:0:0:0:
482,327,18459,1,2,1:2:0:0:
386,332,18636,2,0,B|337:336|337:336|314:353|314:353|271:354,1,120,2|0,1:2|0:0,0:0:0:0:
246,372,18991,6,0,L|239:288,1,80,10|2,0:0|0:0,0:0:0:0:
305,222,19346,2,0,L|298:138,1,80,2|2,1:2|0:0,0:0:0:0:
279,120,19612,1,2,1:2:0:0:
279,120,19701,1,10,0:0:0:0:
335,41,19879,1,2,1:2:0:0:
240,24,20056,1,2,1:2:0:0:
85,138,20411,5,10,0:0:0:0:
31,57,20589,1,2,0:0:0:0:
111,4,20766,1,2,1:2:0:0:
165,85,20944,2,0,L|216:101,2,40,2|2|10,0:0|1:2|0:0,0:0:0:0:
85,138,21299,1,2,1:2:0:0:
139,216,21476,6,0,P|133:255|119:292,1,80,2|2,1:2|0:0,0:0:0:0:
190,357,21831,2,0,P|227:342|266:335,1,80,8|2,0:0|0:0,0:0:0:0:
287,243,22186,2,0,P|255:218|230:187,1,80,2|2,1:2|0:0,0:0:0:0:
237,159,22453,1,2,1:2:0:0:
237,159,22541,1,10,0:0:0:0:
310,97,22719,1,2,1:2:0:0:
385,155,22896,6,0,B|484:151|484:151|471:133|470:113,1,139.200001168213,6|8,1:2|0:0,0:0:0:0:
440,292,23606,2,0,P|407:277|367:286,1,69.6000005841065,2|2,1:2|0:0,0:0:0:0:
346,268,23873,2,0,L|344:353,1,69.6000005841065,10|0,0:0|0:0,0:0:0:0:
327,360,24139,1,2,1:2:0:0:
248,314,24317,6,0,B|193:313|193:313|164:328|164:328|109:328,1,139.200001168213,2|8,1:2|0:0,0:0:0:0:
140,242,24849,1,2,0:0:0:0:
58,203,25027,2,0,P|83:158|132:145,2,104.40000087616,2|8|8,1:2|0:0|1:2,0:0:0:0:
140,242,25737,6,0,L|209:233,1,69.6000005841065,2|0,1:2|0:0,0:0:0:0:
275,171,26092,2,0,L|344:179,1,69.6000005841065,10|0,0:0|0:0,0:0:0:0:
422,224,26447,2,0,P|433:191|430:157,1,69.6000005841065,2|0,1:2|0:0,0:0:0:0:
415,125,26713,2,0,P|403:92|406:58,1,69.6000005841065,10|0,0:0|0:0,0:0:0:0:
421,34,26979,1,10,1:2:0:0:
330,26,27157,6,0,L|195:21,1,104.40000087616,2|0,1:2|0:0,0:0:0:0:
206,42,27512,1,8,0:0:0:0:
271,103,27689,1,2,0:0:0:0:
234,185,27867,2,0,L|226:307,1,104.40000087616,2|8,1:2|0:0,0:0:0:0:
104,347,28399,1,8,1:2:0:0:
104,347,28577,6,0,P|60:324|46:275,1,104.40000087616,2|0,1:2|0:0,0:0:0:0:
58,250,28932,2,0,L|52:169,1,69.6000005841065,8|2,0:0|0:0,0:0:0:0:
46,90,29287,2,0,P|81:91|111:108,1,69.6000005841065,2|2,1:2|0:0,0:0:0:0:
135,128,29553,2,0,P|169:126|199:109,1,69.6000005841065,8|0,0:0|0:0,0:0:0:0:
217,88,29819,1,10,1:2:0:0:
304,42,29997,6,0,L|296:150,1,104.40000087616,2|0,1:2|0:0,0:0:0:0:
314,170,30352,2,0,L|392:172,1,69.6000005841065,8|2,0:0|0:0,0:0:0:0:
456,118,30707,2,0,B|488:147|488:147|476:207,2,104.40000087616,2|8|8,1:2|0:0|1:2,0:0:0:0:
463,27,31417,6,0,P|429:36|394:39,1,69.6000005841065,2|0,1:2|0:0,0:0:0:0:
304,42,31772,2,0,P|269:39|235:29,1,69.6000005841065,10|0,0:0|0:0,0:0:0:0:
170,92,32127,2,0,P|197:131|196:196,1,104.40000087616,2|8,1:2|0:0,0:0:0:0:
246,318,32660,1,8,1:2:0:0:
246,318,32837,6,0,L|177:327,1,69.6000005841065,2|2,1:2|0:0,0:0:0:0:
104,381,33192,1,8,0:0:0:0:
11,225,33547,2,0,L|25:137,1,69.6000005841065,2|0,1:2|0:0,0:0:0:0:
44,134,33814,2,0,P|81:139|101:179,1,69.6000005841065,8|0,0:0|0:0,0:0:0:0:
122,183,34080,1,10,1:2:0:0:
217,210,34257,6,0,L|340:190,1,120,6|0,1:2|0:0,0:0:0:0:
366,207,34612,2,0,L|349:119,1,80,10|2,0:0|0:0,0:0:0:0:
333,32,34967,2,0,P|372:30|405:51,1,80,2|0,1:2|0:0,0:0:0:0:
416,78,35234,2,0,L|504:63,1,80,10|0,0:0|0:0,0:0:0:0:
503,91,35500,1,10,0:0:0:0:
471,181,35677,6,0,L|482:274,1,80,2|0,1:2|0:0,0:0:0:0:
448,351,36032,1,10,0:0:0:0:
366,300,36210,1,2,0:0:0:0:
277,336,36388,2,0,P|209:356|197:367,1,80,2|0,1:2|0:0,0:0:0:0:
180,344,36654,2,0,L|190:264,1,80,10|0,0:0|0:0,0:0:0:0:
181,239,36920,1,10,0:0:0:0:
263,190,37098,5,2,1:2:0:0:
183,135,37275,1,2,0:0:0:0:
106,189,37453,2,0,P|91:224|97:268,1,80,8|2,0:0|0:0,0:0:0:0:
25,332,37808,2,0,B|-2:304|-2:304|-1:262,1,80,2|2,1:2|0:0,0:0:0:0:
16,240,38074,1,10,0:0:0:0:
16,240,38163,2,0,B|18:197|18:197|-6:168,1,80,2|10,1:2|0:0,0:0:0:0:
23,76,38518,6,0,L|101:89,1,80,2|2,1:2|0:0,0:0:0:0:
128,70,38784,2,0,L|206:56,1,80,2|0,0:0|0:0,0:0:0:0:
235,69,39050,1,2,0:0:0:0:
305,134,39228,2,0,P|332:90|322:38,1,80,2|2,1:2|0:0,0:0:0:0:
363,50,39494,1,10,0:0:0:0:
363,50,39583,2,0,P|407:77|459:66,1,80,2|10,1:2|0:0,0:0:0:0:
479,161,39938,6,0,B|437:173|437:173|430:249,1,120,2|0,1:2|0:0,0:0:0:0:
430,280,40293,2,0,L|509:283,1,80,10|2,0:0|0:0,0:0:0:0:
375,361,40648,2,0,P|349:332|312:318,1,80,2|2,1:2|0:0,0:0:0:0:
288,301,40914,1,10,0:0:0:0:
288,301,41003,2,0,P|251:315|224:344,1,80,2|10,1:2|0:0,0:0:0:0:
130,365,41358,6,0,B|121:318|121:318|127:294|127:294|119:245,1,120,2|0,1:2|0:0,0:0:0:0:
129,221,41713,2,0,L|114:133,1,80,10|2,0:0|0:0,0:0:0:0:
172,64,42068,1,2,1:2:0:0:
224,144,42246,1,2,0:0:0:0:
224,144,42334,1,10,0:0:0:0:
224,144,42423,2,0,L|318:132,1,80,2|10,1:2|0:0,0:0:0:0:
380,76,42778,6,0,B|407:114|407:114|394:195,2,120,2|2|2,1:2|0:0|0:0,0:0:0:0:
303,133,43488,2,0,L|285:235,1,80,2|2,1:2|0:0,0:0:0:0:
301,243,43754,1,10,0:0:0:0:
301,243,43843,2,0,L|284:333,1,80,2|10,1:2|0:0,0:0:0:0:
373,361,44198,6,0,P|413:332|441:342,1,80,2|0,1:2|0:0,0:0:0:0:
460,359,44464,2,0,L|454:274,1,80,2|0,0:0|0:0,0:0:0:0:
468,259,44731,1,2,0:0:0:0:
489,165,44908,2,0,B|495:125|495:125|479:88,1,80,2|2,1:2|0:0,0:0:0:0:
460,73,45175,1,10,0:0:0:0:
460,73,45263,2,0,L|370:89,1,80,2|10,1:2|0:0,0:0:0:0:
321,145,45618,5,6,1:2:0:0:
267,80,45973,1,2,1:2:0:0:
184,95,46328,1,2,1:2:0:0:
160,178,46683,1,2,1:2:0:0:
214,243,47038,1,2,1:2:0:0:
297,228,47393,1,2,1:2:0:0:
321,145,47748,5,2,1:2:0:0:
316,309,48103,1,0,1:0:0:0:
469,239,48459,6,0,L|407:243,1,60.0000022888184,2|0,1:2|0:0,0:0:0:0:
433,162,48814,2,0,L|429:102,1,60.0000022888184,2|0,1:2|0:0,0:0:0:0:
427,17,49169,2,0,B|358:15|380:59|317:56,1,120.000004577637,2|2,1:2|1:2,0:0:0:0:
179,103,49879,5,2,1:2:0:0:
256,136,50234,1,2,1:2:0:0:
288,54,50589,1,2,1:2:0:0:
211,21,50944,1,2,1:2:0:0:
103,125,51299,5,2,1:2:0:0:
115,208,51654,1,2,1:2:0:0:
183,256,52009,1,2,1:2:0:0:
265,242,52364,1,2,1:2:0:0:
323,181,52719,1,2,1:2:0:0:
241,162,53074,1,2,1:2:0:0:
265,242,53429,5,2,1:2:0:0:
301,88,53784,1,0,1:0:0:0:
422,203,54139,6,0,L|415:275,1,60.0000022888184,2|0,1:2|0:0,0:0:0:0:
442,342,54494,2,0,L|370:335,1,60.0000022888184,2|0,1:2|0:0,0:0:0:0:
306,372,54849,2,0,P|276:343|194:352,1,120.000004577637,2|2,1:2|1:2,0:0:0:0:
36,375,55559,6,0,B|52:330|52:330|32:260,1,120.000004577637,2|2,1:2|1:2,0:0:0:0:
102,214,56092,1,2,0:0:0:0:
102,214,56269,2,0,L|206:229,1,90.0000034332277,2|0,1:2|0:0,0:0:0:0:
212,251,56624,6,2,L|226:134,1,104.40000087616,14|0,0:0|0:0,0:1:0:0:
251,131,56979,6,0,P|306:143|337:214,1,120,6|0,1:2|0:0,0:0:0:0:
363,220,57334,2,0,L|378:122,1,80,10|0,0:0|0:0,0:0:0:0:
469,96,57689,2,0,L|453:12,1,80,2|2,1:2|0:0,0:0:0:0:
431,3,57956,1,2,1:2:0:0:
431,3,58044,1,10,0:0:0:0:
341,38,58222,1,2,1:2:0:0:
249,10,58399,6,0,P|240:48|255:85,1,80,2|0,1:2|0:0,0:0:0:0:
337,135,58754,2,0,P|345:173|330:210,1,80,10|0,0:0|0:0,0:0:0:0:
352,303,59109,2,0,L|273:286,1,80,2|2,1:2|0:0,0:0:0:0:
246,304,59376,1,2,1:2:0:0:
246,304,59464,2,0,L|141:319,1,80,10|2,0:0|1:2,0:0:0:0:
73,337,59819,6,0,P|69:298|92:266,1,80,2|0,1:2|0:0,0:0:0:0:
147,186,60175,2,0,L|132:93,1,80,10|0,0:0|0:0,0:0:0:0:
229,90,60530,2,0,L|241:168,1,80,2|2,1:2|0:0,0:0:0:0:
269,187,60796,1,2,1:2:0:0:
269,187,60885,2,0,P|306:176|327:143,1,80,10|2,0:0|1:2,0:0:0:0:
416,181,61240,6,0,P|433:125|401:77,1,120,2|0,1:2|0:0,0:0:0:0:
402,47,61595,2,0,L|296:58,1,80,10|0,0:0|0:0,0:0:0:0:
232,21,61950,1,2,1:2:0:0:
153,71,62127,1,2,0:0:0:0:
153,71,62216,1,2,1:2:0:0:
153,71,62305,1,10,0:0:0:0:
236,117,62482,1,2,1:2:0:0:
183,197,62660,6,0,L|171:285,1,80,2|0,1:2|0:0,0:0:0:0:
196,369,63015,2,0,L|117:352,1,80,10|0,0:0|0:0,0:0:0:0:
21,354,63370,2,0,B|24:287|56:305|61:243,1,120,2|2,1:2|1:2,0:0:0:0:
50,219,63725,2,0,B|55:179|55:179|38:143,1,80,10|2,0:0|1:2,0:0:0:0:
88,60,64080,6,0,L|206:80,1,120,2|0,1:2|0:0,0:0:0:0:
227,104,64435,2,0,L|239:19,1,80,10|0,0:0|0:0,0:0:0:0:
333,36,64790,2,0,L|323:115,1,80,2|2,1:2|0:0,0:0:0:0:
338,142,65056,1,2,1:2:0:0:
338,142,65145,1,10,0:0:0:0:
273,213,65322,1,2,1:2:0:0:
365,239,65500,6,0,L|449:228,1,80,2|0,1:2|0:0,0:0:0:0:
417,320,65855,2,0,P|369:286|311:297,1,120,10|0,0:0|0:0,0:0:0:0:
295,317,66210,2,0,L|190:327,1,80,2|2,1:2|0:0,0:0:0:0:
197,349,66476,1,2,1:2:0:0:
197,349,66565,1,10,0:0:0:0:
112,303,66743,1,2,1:2:0:0:
30,353,66920,6,0,P|9:314|20:277,1,80,2|0,1:2|0:0,0:0:0:0:
86,213,67275,2,0,L|165:222,1,80,10|0,0:0|0:0,0:0:0:0:
240,162,67630,2,0,P|249:123|162:75,1,120,2|2,1:2|1:2,0:0:0:0:
182,48,67985,2,0,L|164:125,1,80,10|2,0:0|1:2,0:0:0:0:
165,222,68340,6,0,B|222:241|221:285|221:285|198:314,1,120,6|0,1:2|0:0,0:0:0:0:
212,334,68695,2,0,L|291:324,1,80,10|2,0:0|0:0,0:0:0:0:
354,251,69050,2,0,L|433:241,1,80,2|2,1:2|0:0,0:0:0:0:
458,257,69317,1,2,1:2:0:0:
458,257,69405,1,10,0:0:0:0:
431,164,69583,1,2,1:2:0:0:
399,73,69760,6,0,B|331:74|351:108|286:107,1,120,2|0,1:2|0:0,0:0:0:0:
261,123,70115,2,0,L|254:23,1,80,10|2,0:0|0:0,0:0:0:0:
159,49,70470,2,0,L|164:128,1,80,2|2,1:2|0:0,0:0:0:0:
151,158,70737,1,2,1:2:0:0:
151,158,70825,1,10,0:0:0:0:
73,100,71003,1,2,1:2:0:0:
32,186,71180,1,2,1:2:0:0:
134,348,71535,5,10,0:0:0:0:
229,362,71713,1,2,0:0:0:0:
245,267,71890,1,2,1:2:0:0:
150,253,72068,1,2,0:0:0:0:
150,253,72157,1,2,1:2:0:0:
150,253,72246,2,0,L|141:162,1,80,10|2,0:0|1:2,0:0:0:0:
213,107,72601,6,0,B|274:86|311:123|311:123|297:146|302:176,2,160,6|10|6,1:2|0:0|1:2,0:0:0:0:
144,56,73488,1,2,0:0:0:0:
144,56,73577,1,2,1:2:0:0:
144,56,73666,1,10,0:0:0:0:
232,18,73843,1,2,1:2:0:0:
327,33,74021,6,0,P|375:60|403:130,1,120,6|0,1:2|0:0,0:0:0:0:
434,114,74376,2,0,L|427:211,1,80,10|2,0:0|0:0,0:0:0:0:
460,284,74731,2,0,L|380:277,1,80,2|2,1:2|0:0,0:0:0:0:
355,296,74997,1,2,1:2:0:0:
355,296,75086,1,10,0:0:0:0:
285,229,75263,1,2,1:2:0:0:
228,307,75441,6,0,P|178:275|119:281,1,120,2|0,1:2|0:0,0:0:0:0:
90,277,75796,2,0,L|103:360,1,80,10|2,0:0|0:0,0:0:0:0:
13,319,76151,1,2,1:2:0:0:
16,223,76328,1,2,0:0:0:0:
16,223,76417,1,2,1:2:0:0:
16,223,76506,2,0,L|7:142,1,80,10|2,0:0|1:2,0:0:0:0:
62,64,76861,6,0,B|110:72|110:72|131:90|131:90|173:101,1,120,2|0,1:2|0:0,0:0:0:0:
187,128,77216,2,0,L|200:39,1,80,10|2,0:0|0:0,0:0:0:0:
294,49,77571,1,2,1:2:0:0:
290,151,77748,1,2,0:0:0:0:
290,151,77837,1,2,1:2:0:0:
290,151,77926,2,0,P|351:127|366:103,1,80,10|2,0:0|1:2,0:0:0:0:
408,36,78281,5,6,1:2:0:0:
454,120,78459,1,2,0:0:0:0:
358,117,78636,1,8,0:0:0:0:
406,200,78814,1,2,0:0:0:0:
367,285,78991,2,0,P|406:295|445:286,1,80,2|2,1:2|0:0,0:0:0:0:
469,271,79257,1,2,1:2:0:0:
469,271,79346,1,10,0:0:0:0:
472,367,79524,1,2,1:2:0:0:
375,373,79701,6,0,P|318:360|286:311,1,120,6|0,1:2|0:0,0:0:0:0:
266,298,80056,2,0,L|274:209,1,80,10|2,0:0|0:0,0:0:0:0:
183,253,80411,2,0,L|191:164,1,80,2|2,1:2|0:0,0:0:0:0:
212,154,80677,1,2,1:2:0:0:
212,154,80766,2,0,P|200:116|166:98,1,80,10|2,0:0|1:2,0:0:0:0:
88,42,81121,1,2,1:2:0:0:
30,225,81476,5,10,0:0:0:0:
55,317,81654,1,2,0:0:0:0:
148,295,81831,1,2,1:2:0:0:
123,203,82009,1,2,0:0:0:0:
123,203,82098,1,2,1:2:0:0:
123,203,82186,2,0,L|203:178,1,80,10|2,0:0|1:2,0:0:0:0:
286,216,82541,6,0,B|260:249|260:249|282:323,1,120,2|0,1:2|0:0,0:0:0:0:
313,340,82896,2,0,L|395:311,1,80,10|2,0:0|0:0,0:0:0:0:
480,342,83251,1,2,1:2:0:0:
453,249,83429,1,2,0:0:0:0:
453,249,83518,1,2,1:2:0:0:
453,249,83606,2,0,L|466:169,1,80,10|2,0:0|1:2,0:0:0:0:
476,74,83961,6,0,P|399:83|368:153,2,160,6|10|6,1:2|0:0|1:2,0:0:0:0:
379,68,84849,2,0,L|331:55,1,40,2|2,0:0|1:2,0:0:0:0:
325,32,85027,1,10,0:0:0:0:
235,64,85204,1,2,1:2:0:0:
278,150,85382,6,0,L|258:267,1,80,6|0,1:2|0:0,0:0:0:0:
289,321,85737,2,0,L|206:305,1,80,10|2,0:0|0:0,0:0:0:0:
161,222,86092,1,2,1:2:0:0:
98,294,86269,2,0,L|105:342,1,40,2|2,0:0|1:2,0:0:0:0:
75,362,86447,2,0,L|65:282,1,80,10|2,0:0|1:2,0:0:0:0:
54,186,86802,1,2,1:2:0:0:
166,30,87157,5,10,0:0:0:0:
260,46,87334,1,2,0:0:0:0:
241,140,87512,1,2,1:2:0:0:
147,124,87689,1,2,0:0:0:0:
147,124,87778,1,2,1:2:0:0:
147,124,87867,2,0,L|160:213,1,80,10|2,0:0|1:2,0:0:0:0:
177,297,88222,6,0,B|243:293|230:335|287:333,1,120,2|0,1:2|0:0,0:0:0:0:
311,355,88577,2,0,B|324:316|324:316|314:278,1,80,10|2,0:0|0:0,0:0:0:0:
357,191,88932,2,0,L|339:109,1,80,2|2,1:2|0:0,0:0:0:0:
333,82,89198,1,2,1:2:0:0:
333,82,89287,2,0,P|357:52|395:53,1,80,10|2,0:0|1:2,0:0:0:0:
487,25,89642,5,6,1:2:0:0:
466,118,89819,1,2,0:0:0:0:
395,53,89997,1,8,0:0:0:0:
466,118,90175,1,2,0:0:0:0:
387,172,90352,2,0,L|308:156,1,80,2|2,1:2|0:0,0:0:0:0:
291,142,90618,1,2,1:2:0:0:
291,142,90707,2,0,B|255:165|255:165|255:202,1,80,10|2,0:0|1:2,0:0:0:0:
269,288,91062,5,6,1:2:0:0:
98,348,91417,2,0,L|21:331,1,69.6000005841065,8|2,0:0|0:0,0:0:0:0:
81,258,91772,2,0,B|82:217|82:217|90:201|90:201|89:156,2,104.40000087616,0|8|10,1:0|0:0|0:0,0:0:0:0:
12,178,92482,6,0,L|12:102,1,69.6000005841065,2|0,1:2|0:0,0:0:0:0:
96,75,92837,2,0,P|129:83|152:108,1,69.6000005841065,10|2,0:0|0:0,0:0:0:0:
216,173,93192,2,0,L|288:157,1,69.6000005841065,2|0,1:2|0:0,0:0:0:0:
312,169,93459,2,0,L|299:100,1,69.6000005841065,8|0,0:0|0:0,0:0:0:0:
312,74,93725,1,8,1:2:0:0:
389,27,93902,6,0,B|462:18|452:73|518:63,1,139.200001168213,2|10,1:2|0:0,0:0:0:0:
504,243,94612,2,0,P|452:242|409:214,2,104.40000087616,2|10|10,1:2|0:0|1:2,0:0:0:0:
433,320,95322,2,0,L|316:342,1,104.40000087616,2|0,1:2|0:0,0:0:0:0:
310,363,95677,5,10,0:0:0:0:
287,275,95855,1,2,0:0:0:0:
264,187,96032,2,0,L|282:113,1,69.6000005841065,2|0,1:2|0:0,0:0:0:0:
268,93,96299,2,0,L|286:19,1,69.6000005841065,8|0,0:0|0:0,0:0:0:0:
273,0,96565,1,8,1:2:0:0:
195,47,96743,6,0,B|161:2|109:14|109:14|97:30|78:45,1,139.200001168213,2|8,1:2|0:0,0:0:0:0:
135,114,97275,1,2,0:0:0:0:
57,161,97453,2,0,P|13:168|-15:222,2,104.40000087616,0|8|10,1:0|0:0|1:2,0:0:0:0:
133,208,98163,6,0,L|284:189,1,139.200001168213,2|8,1:2|0:0,0:0:0:0:
337,251,98695,1,2,0:0:0:0:
351,161,98873,2,0,P|335:130|306:114,1,69.6000005841065,2|0,1:2|0:0,0:0:0:0:
308,82,99139,2,0,L|384:65,1,69.6000005841065,8|0,0:0|0:0,0:0:0:0:
388,40,99405,1,8,1:2:0:0:
456,99,99583,6,0,B|477:173,1,69.6000005841065,2|0,1:2|0:0,0:0:0:0:
435,247,99938,2,0,L|364:265,1,69.6000005841065,10|0,0:0|0:0,0:0:0:0:
296,320,100293,2,0,P|265:280|215:282,2,104.40000087616,2|8|8,1:2|0:0|1:2,0:0:0:0:
224,375,101003,5,2,1:2:0:0:
48,330,101358,1,2,0:0:0:0:
89,153,101713,2,0,B|99:76|59:98|66:18,1,139.200001168213,2|0,0:0|0:0,0:0:0:0:
154,40,102246,1,2,0:0:0:0:
154,40,102423,6,0,P|213:37|251:83,1,120,6|0,1:2|0:0,0:0:0:0:
273,94,102778,2,0,L|360:74,1,80,10|2,0:0|0:0,0:0:0:0:
443,123,103133,2,0,B|415:151|415:151|426:189,1,80,2|2,1:2|0:0,0:0:0:0:
439,217,103399,1,10,0:0:0:0:
439,217,103488,2,0,L|358:250,1,80,2|10,1:2|0:0,0:0:0:0:
280,308,103843,6,0,B|269:349|269:349|187:329,1,120,2|0,1:2|0:0,0:0:0:0:
169,351,104198,2,0,L|163:271,1,80,10|2,0:0|0:0,0:0:0:0:
153,166,104553,2,0,P|115:176|89:206,1,80,2|0,1:2|0:0,0:0:0:0:
75,232,104819,2,0,L|60:153,1,80,10|0,0:0|0:0,0:0:0:0:
40,136,105086,1,10,0:0:0:0:
114,63,105263,5,2,1:2:0:0:
213,94,105441,1,2,0:0:0:0:
315,75,105618,2,0,P|350:44|355:7,1,80,8|2,0:0|0:0,0:0:0:0:
459,21,105973,2,0,P|456:73|403:128,1,120,2|10,1:2|0:0,0:0:0:0:
411,157,106328,2,0,L|434:243,1,80,2|10,1:2|0:0,0:0:0:0:
395,332,106683,6,0,P|373:299|335:290,1,80,2|2,1:2|0:0,0:0:0:0:
311,318,106950,2,0,L|216:338,1,80,2|0,0:0|0:0,0:0:0:0:
209,362,107216,1,2,0:0:0:0:
150,276,107393,2,0,P|144:222|173:198,1,80,2|2,1:2|0:0,0:0:0:0:
184,196,107660,1,10,0:0:0:0:
216,201,107748,2,0,L|219:112,1,80,2|10,1:2|0:0,0:0:0:0:
213,16,108103,6,0,B|144:19|168:57|103:57,1,120,2|0,1:2|0:0,0:0:0:0:
83,39,108459,2,0,P|42:66|46:99,1,80,10|2,0:0|0:0,0:0:0:0:
10,191,108814,2,0,P|31:238|32:297,1,80,2|2,1:2|0:0,0:0:0:0:
57,298,109080,1,10,0:0:0:0:
57,298,109169,1,2,1:2:0:0:
155,264,109346,1,10,0:0:0:0:
222,343,109524,6,0,P|263:336|316:347,1,80,2|0,1:2|0:0,0:0:0:0:
400,369,109879,2,0,P|409:331|393:296,1,80,10|2,0:0|0:0,0:0:0:0:
305,239,110234,2,0,B|283:192|283:192|303:127,1,120,2|10,1:2|0:0,0:0:0:0:
331,127,110589,1,2,1:2:0:0:
309,25,110766,1,10,0:0:0:0:
406,61,110944,6,0,P|454:73|476:129,1,80,2|2,1:2|0:0,0:0:0:0:
457,126,111210,2,0,L|451:224,1,80,2|0,0:0|0:0,0:0:0:0:
433,231,111476,1,2,0:0:0:0:
483,322,111654,2,0,P|443:322|404:332,1,80,2|2,1:2|0:0,0:0:0:0:
374,356,111920,1,10,0:0:0:0:
374,356,112009,2,0,P|326:329|341:277,1,80,2|10,1:2|0:0,0:0:0:0:
292,209,112364,6,0,P|317:169|306:116,1,80,2|2,1:2|0:0,0:0:0:0:
296,109,112630,2,0,P|248:107|208:143,1,80,2|0,0:0|0:0,0:0:0:0:
212,153,112896,1,2,0:0:0:0:
196,256,113074,2,0,L|184:348,1,80,2|2,1:2|0:0,0:0:0:0:
148,347,113340,1,10,0:0:0:0:
116,325,113429,2,0,L|128:233,1,80,2|10,1:2|0:0,0:0:0:0:
68,183,113784,5,6,1:2:0:0:
46,100,114139,1,2,1:2:0:0:
109,36,114494,1,2,1:2:0:0:
192,59,114849,1,2,1:2:0:0:
216,146,115204,1,2,1:2:0:0:
155,206,115559,1,2,1:2:0:0:
129,124,115914,5,2,1:2:0:0:
302,172,116269,1,0,1:0:0:0:
449,221,116624,6,0,L|465:153,1,60.0000022888184,2|0,1:2|0:0,0:0:0:0:
389,120,116979,2,0,P|405:95|432:82,1,60.0000022888184,2|0,1:2|0:0,0:0:0:0:
455,1,117334,2,0,P|410:5|365:5,1,90.0000034332277,2|0,1:2|0:0,0:0:0:0:
335,25,117689,2,0,L|259:22,1,60.0000022888184,2|0,1:2|0:0,0:0:0:0:
210,77,118044,5,2,1:2:0:0:
240,159,118399,1,2,1:2:0:0:
151,192,118754,1,2,1:2:0:0:
121,110,119109,1,2,1:2:0:0:
73,258,119464,5,2,1:2:0:0:
160,297,119819,1,2,1:2:0:0:
247,256,120175,1,2,1:2:0:0:
240,159,120530,1,2,1:2:0:0:
335,151,120885,1,2,1:2:0:0:
345,252,121240,1,2,1:2:0:0:
438,279,121595,5,2,1:2:0:0:
422,111,121950,1,0,1:0:0:0:
261,62,122305,6,0,L|184:54,1,60.0000022888184,2|0,1:2|0:0,0:0:0:0:
150,123,122660,2,0,L|90:129,1,60.0000022888184,2|0,1:2|0:0,0:0:0:0:
46,201,123015,2,0,B|43:253|72:244|70:286,1,90.0000034332277,2|0,1:2|0:0,0:0:0:0:
57,320,123370,2,0,L|129:314,1,60.0000022888184,2|0,1:2|0:0,0:0:0:0:
187,267,123725,6,0,P|244:276|272:327,1,120.000004577637,2|2,1:2|1:2,0:0:0:0:
353,331,124257,1,2,0:0:0:0:
353,331,124435,2,0,L|353:255,1,60.0000022888184,2|0,1:2|0:0,0:0:0:0:
422,205,124790,6,2,P|426:149|373:118,1,104.40000087616,14|0,0:0|0:0,0:1:0:0:
398,89,125145,6,0,L|292:107,1,80,6|0,1:2|0:0,0:0:0:0:
243,161,125500,2,0,L|164:147,1,80,10|0,0:0|0:0,0:0:0:0:
78,191,125855,2,0,P|62:150|109:73,1,120,2|2,1:2|1:2,0:0:0:0:
108,67,126210,2,0,P|133:40|111:1,1,80,10|2,0:0|1:2,0:0:0:0:
210,44,126565,6,0,P|247:29|286:20,1,80,2|0,1:2|0:0,0:0:0:0:
322,109,126920,2,0,P|361:110|401:118,1,80,10|0,0:0|0:0,0:0:0:0:
388,213,127275,2,0,P|348:211|308:203,1,80,2|2,1:2|0:0,0:0:0:0:
281,225,127541,1,2,1:2:0:0:
281,225,127630,2,0,L|276:320,1,80,10|2,0:0|1:2,0:0:0:0:
195,356,127985,6,0,P|155:370|88:332,1,120,2|0,1:2|0:0,0:0:0:0:
105,314,128340,2,0,P|80:286|86:247,1,80,10|0,0:0|0:0,0:0:0:0:
154,179,128695,2,0,B|161:140|161:140|144:103,1,80,2|2,1:2|0:0,0:0:0:0:
158,76,128961,1,2,1:2:0:0:
158,76,129050,2,0,L|72:68,1,80,10|2,0:0|1:2,0:0:0:0:
6,132,129405,6,0,L|8:216,1,80,2|0,1:2|0:0,0:0:0:0:
100,238,129760,2,0,L|102:322,1,80,10|0,0:0|0:0,0:0:0:0:
190,354,130115,2,0,P|237:346|256:277,1,120,2|2,1:2|1:2,0:0:0:0:
254,257,130470,1,10,0:0:0:0:
220,166,130648,1,2,1:2:0:0:
305,122,130825,6,0,B|356:132|356:132|372:148|372:148|416:158,1,120,2|0,1:2|0:0,0:0:0:0:
437,186,131180,2,0,L|450:96,1,80,10|0,0:0|0:0,0:0:0:0:
412,17,131535,1,2,1:2:0:0:
323,35,131713,1,2,0:0:0:0:
323,35,131802,1,2,1:2:0:0:
323,35,131890,2,0,P|284:29|250:50,1,80,10|2,0:0|1:2,0:0:0:0:
156,26,132246,6,0,P|139:80|180:140,1,120,2|0,1:2|0:0,0:0:0:0:
197,126,132601,2,0,L|183:222,1,80,10|0,0:0|0:0,0:0:0:0:
222,293,132956,1,2,1:2:0:0:
159,366,133133,1,2,0:0:0:0:
159,366,133222,1,2,1:2:0:0:
159,366,133311,1,10,0:0:0:0:
63,354,133488,1,2,1:2:0:0:
29,265,133666,6,0,P|31:225|48:189,1,80,2|0,1:2|0:0,0:0:0:0:
131,141,134021,2,0,P|128:101|111:65,1,80,10|0,0:0|0:0,0:0:0:0:
199,27,134376,2,0,P|233:74|290:88,1,120,2|2,1:2|1:2,0:0:0:0:
315,111,134731,2,0,P|360:82|355:27,1,80,10|2,0:0|1:2,0:0:0:0:
451,15,135086,6,0,L|468:93,1,80,2|0,1:2|0:0,0:0:0:0:
414,173,135441,2,0,L|396:251,1,80,10|0,0:0|0:0,0:0:0:0:
467,315,135796,2,0,P|417:306|357:338,1,120,2|2,1:2|1:2,0:0:0:0:
329,337,136151,2,0,P|293:311|307:264,1,80,10|2,0:0|1:2,0:0:0:0:
214,225,136506,6,0,P|237:178|232:91,1,120,6|0,1:2|0:0,0:0:0:0:
255,86,136861,2,0,P|238:50|202:36,1,80,10|2,0:0|0:0,0:0:0:0:
106,30,137216,1,2,1:2:0:0:
113,126,137393,2,0,L|104:187,1,40,2|2,0:0|1:2,0:0:0:0:
129,194,137571,2,0,P|90:199|53:216,1,80,10|2,0:0|1:2,0:0:0:0:
80,308,137926,6,0,P|137:312|175:269,1,120,2|0,1:2|0:0,0:0:0:0:
208,258,138281,2,0,L|216:343,1,80,10|2,0:0|0:0,0:0:0:0:
311,327,138636,1,2,1:2:0:0:
303,239,138814,1,2,0:0:0:0:
303,239,138902,1,2,1:2:0:0:
303,239,138991,2,0,L|318:146,1,80,10|2,0:0|1:2,0:0:0:0:
333,65,139346,6,0,B|392:72|378:110|434:122,1,120,2|0,1:2|0:0,0:0:0:0:
466,108,139701,2,0,L|452:186,1,80,10|2,0:0|0:0,0:0:0:0:
490,275,140056,1,2,1:2:0:0:
423,344,140234,2,0,L|383:347,1,40,2|0,0:0|1:0,0:0:0:0:
355,349,140411,1,10,0:0:0:0:
285,282,140589,1,2,1:2:0:0:
207,338,140766,6,0,P|153:322|144:266,1,120,6|0,1:2|0:0,0:0:0:0:
165,249,141121,2,0,L|174:158,1,80,10|2,0:0|0:0,0:0:0:0:
179,73,141476,1,6,1:2:0:0:
95,111,141654,1,2,0:0:0:0:
95,111,141743,1,2,1:2:0:0:
95,111,141831,1,10,0:0:0:0:
172,169,142009,1,2,1:2:0:0:
259,131,142186,6,0,P|307:121|334:60,1,120,6|0,1:2|0:0,0:0:0:0:
364,42,142541,2,0,P|368:81|389:115,1,80,10|2,0:0|0:0,0:0:0:0:
485,112,142896,2,0,P|481:151|460:185,1,80,2|2,1:2|0:0,0:0:0:0:
432,197,143163,1,2,1:2:0:0:
432,197,143251,1,10,0:0:0:0:
367,268,143429,1,2,1:2:0:0:
421,346,143606,6,0,P|369:320|298:339,1,120,2|0,1:2|0:0,0:0:0:0:
282,342,143961,1,10,0:0:0:0:
296,246,144139,1,2,0:0:0:0:
200,234,144317,1,2,1:2:0:0:
188,335,144494,1,2,0:0:0:0:
188,335,144583,1,2,1:2:0:0:
188,335,144672,2,0,P|133:364|99:365,1,80,10|2,0:0|1:2,0:0:0:0:
36,313,145027,6,0,P|8:275|22:193,1,120,2|0,1:2|0:0,0:0:0:0:
41,194,145382,2,0,P|60:158|41:118,1,80,10|2,0:0|0:0,0:0:0:0:
125,67,145737,2,0,P|146:101|190:104,1,80,2|2,1:2|0:0,0:0:0:0:
216,98,146003,1,2,1:2:0:0:
216,98,146092,1,10,0:0:0:0:
306,129,146269,1,2,1:2:0:0:
272,219,146447,6,0,L|280:308,1,80,6|2,1:2|0:0,0:0:0:0:
375,290,146802,2,0,L|367:210,1,80,8|2,0:0|0:0,0:0:0:0:
434,141,147157,1,2,1:2:0:0:
392,66,147334,1,2,0:0:0:0:
392,66,147423,1,2,1:2:0:0:
392,66,147512,1,10,0:0:0:0:
297,80,147689,1,2,1:2:0:0:
283,162,147867,6,0,P|222:134|209:68,2,139.200001168213,6|2|2,1:2|0:0|0:0,0:0:0:0:
312,298,148843,1,2,0:0:0:0:
312,298,148932,2,0,L|289:384,1,69.6000005841065,2|2,0:0|0:0,0:0:0:0:
203,354,149287,6,0,P|141:332|140:266,1,139.200001168213,2|2,0:0|0:0,0:0:0:0:
48,104,149997,2,0,P|54:155|35:203,1,104.40000087616,2|2,0:0|0:0,0:0:0:0:
56,233,150352,2,0,L|137:245,1,69.6000005841065,2|2,0:0|0:0,0:0:0:0:
198,190,150707,6,0,B|190:145|190:145|203:112|203:112|190:55,1,139.200001168213,2|2,0:0|0:0,0:0:0:0:
358,121,151417,2,0,L|439:108,1,69.6000005841065,2|0,0:0|0:0,0:0:0:0:
463,123,151683,1,2,0:0:0:0:
463,123,151772,1,2,0:0:0:0:
422,203,151950,1,2,0:0:0:0:
490,262,152127,6,0,P|440:250|400:280,1,104.40000087616,2|0,0:0|0:0,0:0:0:0:
394,313,152482,2,0,L|265:300,1,104.40000087616,2|0,0:0|0:0,0:0:0:0:
271,326,152837,1,2,0:0:0:0:
137,352,153103,1,2,0:0:0:0:
137,352,153192,1,2,0:0:0:0:
101,268,153370,1,2,0:0:0:0:
29,320,153547,6,0,L|51:183,1,139.200001168213,2|2,0:0|0:0,0:0:0:0:
185,64,154257,2,0,P|240:69|250:84,1,69.6000005841065,2|0,0:0|0:0,0:0:0:0:
263,119,154524,1,2,0:0:0:0:
263,119,154612,1,2,0:0:0:0:
322,187,154790,1,2,0:0:0:0:
402,145,154967,6,0,P|432:102|399:21,1,139.200001168213,2|2,0:0|0:0,0:0:0:0:
485,187,155677,1,2,0:0:0:0:
467,321,155944,1,2,0:0:0:0:
467,321,156032,1,2,0:0:0:0:
382,289,156210,1,2,0:0:0:0:
307,341,156388,6,0,B|234:346|258:291|181:295,1,139.200001168213,2|2,0:0|0:0,0:0:0:0:
31,193,157098,1,2,0:0:0:0:
256,192,157186,12,2,158873,0:0:0:0:
256,192,159228,5,6,1:2:0:0:
307,111,159405,2,0,P|291:213|293:284,1,160,2|2,0:0|0:0,0:0:0:0:
312,363,159938,2,0,L|425:343,1,80,2|10,1:2|0:0,0:0:0:0:
421,335,160204,1,2,1:2:0:0:
421,335,160293,2,0,L|525:348,1,80,10|2,0:0|1:2,0:0:0:0:
483,242,160648,6,0,L|466:143,1,80,2|0,1:2|0:0,0:0:0:0:
384,102,161003,2,0,L|367:3,1,80,10|0,0:0|0:0,0:0:0:0:
285,84,161358,2,0,L|182:71,1,80,2|10,1:2|0:0,0:0:0:0:
177,72,161624,1,2,1:2:0:0:
177,72,161713,1,10,0:0:0:0:
190,174,161890,1,2,1:2:0:0:
87,187,162068,5,2,1:2:0:0:
38,270,162246,2,0,P|44:202|12:96,1,160,2|2,0:0|0:0,0:0:0:0:
73,33,162778,2,0,L|176:20,1,80,2|10,1:2|0:0,0:0:0:0:
184,41,163044,1,2,1:2:0:0:
184,41,163133,2,0,L|287:28,1,80,10|2,0:0|1:2,0:0:0:0:
365,16,163488,6,0,P|313:55|291:134,1,120,2|0,1:2|0:0,0:0:0:0:
308,131,163843,2,0,P|328:175|334:219,1,80,10|2,0:0|1:2,0:0:0:0:
273,288,164198,2,0,P|312:340|391:362,1,120,2|0,1:2|0:0,0:0:0:0:
389,345,164553,2,0,P|433:325|461:320,2,40,10|2|2,0:0|0:0|1:2,0:0:0:0:
416,244,164908,5,2,1:2:0:0:
491,171,165086,2,0,P|422:195|362:131,1,160,2|2,0:0|0:0,0:0:0:0:
335,41,165618,2,0,L|251:29,1,80,2|10,1:2|0:0,0:0:0:0:
234,54,165885,1,2,1:2:0:0:
234,54,165973,2,0,L|150:66,1,80,10|2,0:0|1:2,0:0:0:0:
51,50,166328,6,0,L|78:157,1,80,2|2,1:2|1:2,0:0:0:0:
15,216,166683,2,0,L|42:323,1,80,10|2,0:0|1:2,0:0:0:0:
128,251,167038,2,0,L|232:270,1,80,2|10,1:2|0:0,0:0:0:0:
241,276,167305,1,2,1:2:0:0:
241,276,167393,1,10,0:0:0:0:
215,377,167571,1,2,1:2:0:0:
317,361,167748,5,2,1:2:0:0:
409,312,167926,2,0,P|356:324|291:232,1,160,2|2,0:0|0:0,0:0:0:0:
279,149,168459,2,0,P|304:105|319:65,1,80,2|10,1:2|0:0,0:0:0:0:
315,49,168725,1,2,1:2:0:0:
315,49,168814,2,0,P|261:51|206:24,1,80,10|2,0:0|1:2,0:0:0:0:
210,24,169080,5,2,0:0:0:0:
210,24,170589,5,6,1:2:0:0:
144,104,170766,2,0,P|112:76|-5:45,1,160,2|2,0:0|0:0,0:0:0:0:
18,147,171299,2,0,L|6:238,1,80,2|10,1:2|0:0,0:0:0:0:
22,260,171565,1,2,1:2:0:0:
22,260,171654,2,0,L|10:351,1,80,10|2,0:0|1:2,0:0:0:0:
109,376,172009,6,0,P|165:354|210:349,1,80,2|0,1:2|0:0,0:0:0:0:
272,295,172364,2,0,P|328:317|373:322,1,80,10|0,0:0|0:0,0:0:0:0:
435,264,172719,2,0,L|415:158,1,80,2|10,1:2|0:0,0:0:0:0:
416,157,172985,1,2,1:2:0:0:
416,157,173074,1,10,0:0:0:0:
442,56,173251,1,2,1:2:0:0:
343,23,173429,5,2,1:2:0:0:
317,124,173606,2,0,P|276:95|168:64,1,160,2|2,0:0|0:0,0:0:0:0:
84,121,174139,2,0,P|117:157|138:205,1,80,2|10,1:2|0:0,0:0:0:0:
134,220,174405,1,2,1:2:0:0:
134,220,174494,2,0,P|101:256|80:304,1,80,10|2,0:0|1:2,0:0:0:0:
22,365,174849,6,0,L|-6:274,1,80,2|0,1:2|0:0,0:0:0:0:
44,195,175204,2,0,L|72:104,1,80,10|2,0:0|0:0,0:0:0:0:
17,26,175559,2,0,L|111:3,1,80,2|10,1:2|0:0,0:0:0:0:
128,21,175825,1,2,1:2:0:0:
128,21,175914,1,10,0:0:0:0:
231,10,176092,1,2,1:2:0:0:
263,108,176269,5,2,1:2:0:0:
365,86,176447,2,0,P|363:143|307:255,1,160,2|2,0:0|0:0,0:0:0:0:
235,291,176979,2,0,P|198:258|157:242,1,80,2|10,1:2|0:0,0:0:0:0:
154,275,177246,1,2,1:2:0:0:
154,275,177334,2,0,L|169:366,1,80,10|2,0:0|1:2,0:0:0:0:
266,321,177689,6,0,L|364:337,1,80,2|2,1:2|1:2,0:0:0:0:
430,274,178044,2,0,L|528:258,1,80,10|2,0:0|1:2,0:0:0:0:
451,174,178399,2,0,L|474:78,1,80,2|10,1:2|0:0,0:0:0:0:
480,68,178666,1,2,1:2:0:0:
480,68,178754,1,10,0:0:0:0:
404,8,178932,1,2,1:2:0:0:
311,31,179109,5,2,1:2:0:0:
241,97,179287,2,0,P|187:78|78:54,1,160,2|2,0:0|0:0,0:0:0:0:
18,121,179819,2,0,L|31:227,1,80,2|10,1:2|0:0,0:0:0:0:
47,232,180086,1,2,1:2:0:0:
47,232,180175,2,0,L|34:338,1,80,10|2,0:0|1:2,0:0:0:0:
124,368,180530,6,0,P|168:349|188:311,1,80,2|0,1:2|0:0,0:0:0:0:
276,274,180885,2,0,P|320:293|340:331,1,80,10|0,0:0|0:0,0:0:0:0:
422,361,181240,2,0,B|454:331|454:331|464:281,1,80,2|2,1:2|0:0,0:0:0:0:
466,267,181506,1,2,1:2:0:0:
466,267,181595,2,0,B|434:237|434:237|424:187,1,80,10|2,0:0|1:2,0:0:0:0:
461,110,181950,5,6,1:2:0:0:
461,110,182660,1,2,0:0:0:0:
51,110,183370,5,2,0:0:0:0:
51,110,184080,1,2,0:0:0:0:
51,274,184790,5,2,0:0:0:0:
51,274,185500,1,2,0:0:0:0:
461,274,186210,5,2,0:0:0:0:
461,274,186920,1,2,0:0:0:0:
461,110,187630,5,2,0:0:0:0:
461,110,188340,1,2,0:0:0:0:
51,110,189050,5,2,0:0:0:0:
51,110,189760,1,2,0:0:0:0:
51,274,190470,5,2,0:0:0:0:
51,274,191180,1,2,0:0:0:0:
461,274,191890,5,2,0:0:0:0:
461,274,192600,1,2,0:0:0:0:
497,139,192956,6,2,L|478:14,1,104.40000087616,14|0,0:0|0:0,0:1:0:0:
456,56,193311,6,0,L|311:40,1,120,6|0,1:2|0:0,0:0:0:0:
342,74,193666,2,0,L|358:158,1,80,10|0,0:0|0:0,0:0:0:0:
279,222,194021,2,0,L|263:306,1,80,2|2,1:2|0:0,0:0:0:0:
242,324,194288,1,2,1:2:0:0:
242,324,194376,1,10,0:0:0:0:
171,247,194554,1,2,1:2:0:0:
85,306,194731,6,0,L|-1:295,1,80,2|0,1:2|0:0,0:0:0:0:
5,199,195086,2,0,L|91:188,1,80,10|0,0:0|0:0,0:0:0:0:
187,174,195441,2,0,P|212:132|211:84,1,80,2|2,1:2|0:0,0:0:0:0:
206,75,195707,1,2,1:2:0:0:
206,75,195796,2,0,P|245:55|296:51,1,80,10|2,0:0|1:2,0:0:0:0:
373,92,196151,6,0,L|515:73,1,120,2|0,1:2|0:0,0:0:0:0:
487,108,196507,2,0,L|474:186,1,80,10|0,0:0|0:0,0:0:0:0:
392,251,196862,2,0,L|379:171,1,80,2|2,1:2|0:0,0:0:0:0:
377,144,197128,1,2,1:2:0:0:
377,144,197217,2,0,P|341:121|294:124,1,80,10|2,0:0|1:2,0:0:0:0:
214,172,197571,6,0,L|234:318,1,120,2|0,1:2|0:0,0:0:0:0:
220,321,197927,2,0,L|114:310,1,80,10|0,0:0|0:0,0:0:0:0:
41,345,198281,2,0,P|32:305|27:243,1,80,2|2,1:2|0:0,0:0:0:0:
31,234,198548,1,2,1:2:0:0:
31,234,198637,1,10,0:0:0:0:
125,261,198814,1,2,1:2:0:0:
189,181,198991,6,0,L|174:77,1,80,2|0,1:2|0:0,0:0:0:0:
233,13,199346,2,0,P|275:16|313:42,1,80,10|0,0:0|0:0,0:0:0:0:
381,108,199701,2,0,L|525:88,1,120,2|2,1:2|1:2,0:0:0:0:
486,120,200057,2,0,B|497:226,1,80,10|2,0:0|1:2,0:0:0:0:
418,271,200411,6,0,L|274:251,1,120,2|0,1:2|0:0,0:0:0:0:
313,283,200767,2,0,B|302:389,1,80,10|0,0:0|0:0,0:0:0:0:
200,353,201122,2,0,L|210:274,1,80,2|2,1:2|0:0,0:0:0:0:
195,247,201388,1,2,1:2:0:0:
195,247,201477,1,10,0:0:0:0:
260,176,201654,1,2,1:2:0:0:
204,87,201832,6,0,L|54:105,1,120,2|0,1:2|0:0,0:0:0:0:
58,83,202186,2,0,P|89:35|117:18,1,80,10|0,0:0|0:0,0:0:0:0:
208,51,202541,2,0,L|315:38,1,80,2|2,1:2|0:0,0:0:0:0:
312,20,202808,1,2,1:2:0:0:
312,20,202897,1,10,0:0:0:0:
398,77,203075,1,2,1:2:0:0:
349,168,203252,6,0,L|364:282,1,80,2|0,1:2|0:0,0:0:0:0:
462,278,203606,2,0,L|447:164,1,80,10|0,0:0|0:0,0:0:0:0:
495,104,203961,2,0,B|469:64|469:64|386:79,1,120,2|2,1:2|1:2,0:0:0:0:
365,85,204317,1,10,0:0:0:0:
304,167,204494,1,2,1:2:0:0:
202,143,204672,5,6,1:2:0:0:
244,318,205027,2,0,L|256:239,1,60.0000022888184,10|0,0:0|0:0,0:0:0:0:
301,182,205382,2,0,L|283:72,1,90.0000034332277,2|2,1:2|1:2,0:0:0:0:
280,60,205737,2,0,P|241:41|204:41,1,60.0000022888184,10|2,0:0|1:2,0:0:0:0:
141,74,206092,6,0,L|-4:65,2,120.000004577637,2|10|2,1:2|0:0|1:2,0:0:0:0:
207,149,207157,6,2,P|196:187|117:192,1,104.40000087616,14|0,0:0|0:0,0:1:0:0:
109,192,207512,6,0,L|130:341,1,120,6|0,1:2|0:0,0:0:0:0:
131,342,207867,2,0,L|215:322,1,80,10|2,0:0|0:0,0:0:0:0:
288,256,208222,1,2,1:2:0:0:
222,175,208399,2,0,L|231:114,1,40,2|2,0:0|1:2,0:0:0:0:
206,107,208577,2,0,P|245:102|282:85,1,80,10|2,0:0|1:2,0:0:0:0:
366,24,208932,6,0,L|356:163,1,120,2|0,1:2|0:0,0:0:0:0:
355,175,209287,2,0,L|454:165,1,80,10|2,0:0|0:0,0:0:0:0:
505,243,209642,1,2,1:2:0:0:
445,330,209820,1,2,0:0:0:0:
445,330,209908,1,2,1:2:0:0:
445,330,209997,2,0,L|346:320,1,80,10|2,0:0|1:2,0:0:0:0:
268,361,210352,6,0,P|215:342|217:264,1,120,2|0,1:2|0:0,0:0:0:0:
213,254,210707,2,0,L|199:176,1,80,10|2,0:0|0:0,0:0:0:0:
236,77,211062,2,0,P|195:45|143:40,1,80,2|2,1:2|0:0,0:0:0:0:
141,52,211328,1,2,1:2:0:0:
141,52,211417,1,10,0:0:0:0:
107,150,211595,1,2,1:2:0:0:
4,131,211772,6,0,P|30:182|46:253,1,120,6|0,1:2|0:0,0:0:0:0:
38,274,212127,2,0,P|77:300|117:278,1,80,10|2,0:0|0:0,0:0:0:0:
184,222,212482,1,6,1:2:0:0:
261,306,212660,1,2,0:0:0:0:
261,306,212749,1,2,1:2:0:0:
261,306,212837,1,10,0:0:0:0:
357,266,213015,1,2,1:2:0:0:
343,163,213192,6,0,P|285:148|253:72,1,120,6|0,1:2|0:0,0:0:0:0:
260,68,213547,2,0,L|349:58,1,80,10|2,0:0|0:0,0:0:0:0:
443,51,213902,2,0,P|439:90|418:124,1,80,2|2,1:2|0:0,0:0:0:0:
390,136,214169,1,2,1:2:0:0:
390,136,214257,1,10,0:0:0:0:
410,238,214435,1,2,1:2:0:0:
348,321,214612,6,0,P|296:295|225:314,1,120,2|0,1:2|0:0,0:0:0:0:
214,328,214967,1,10,0:0:0:0:
136,258,215145,1,2,0:0:0:0:
37,293,215323,1,2,1:2:0:0:
48,196,215500,1,2,0:0:0:0:
48,196,215589,1,2,1:2:0:0:
48,196,215678,2,0,L|25:93,1,80,10|2,0:0|1:2,0:0:0:0:
9,16,216032,6,0,P|69:22|160:17,1,120,2|0,1:2|0:0,0:0:0:0:
160,15,216388,2,0,P|185:69|182:113,1,80,10|2,0:0|0:0,0:0:0:0:
150,186,216743,2,0,P|171:220|215:223,1,80,2|2,1:2|0:0,0:0:0:0:
241,217,217009,1,2,1:2:0:0:
241,217,217098,1,10,0:0:0:0:
316,146,217275,1,2,1:2:0:0:
324,249,217453,6,0,L|332:338,1,80,6|2,1:2|0:0,0:0:0:0:
427,320,217808,2,0,L|419:240,1,80,8|2,0:0|0:0,0:0:0:0:
486,171,218163,1,2,1:2:0:0:
444,96,218340,1,2,0:0:0:0:
444,96,218429,1,2,1:2:0:0:
444,96,218518,1,10,0:0:0:0:
349,110,218695,1,2,1:2:0:0:
282,29,218873,6,0,P|304:79|302:169,1,120,6|0,1:2|0:0,0:0:0:0:
293,172,219228,2,0,L|186:158,1,80,10|2,0:0|0:0,0:0:0:0:
128,222,219583,2,0,L|21:236,1,80,2|2,1:2|0:0,0:0:0:0:
30,259,219849,1,2,1:2:0:0:
30,259,219938,2,0,P|26:301|66:330,1,80,10|2,0:0|1:2,0:0:0:0:
152,348,220293,6,0,P|205:319|294:299,1,120,2|0,1:2|0:0,0:0:0:0:
289,319,220648,2,0,P|322:280|321:242,1,80,10|2,0:0|0:0,0:0:0:0:
238,192,221003,2,0,P|205:153|206:115,1,80,2|2,1:2|0:0,0:0:0:0:
217,99,221269,1,2,1:2:0:0:
217,99,221358,1,10,0:0:0:0:
291,27,221535,1,2,1:2:0:0:
378,83,221713,6,0,L|364:219,1,120,2|0,1:2|0:0,0:0:0:0:
361,235,222068,2,0,P|373:277|409:287,1,80,10|2,0:0|0:0,0:0:0:0:
504,257,222423,1,2,1:2:0:0:
507,368,222601,1,2,0:0:0:0:
507,368,222689,1,2,1:2:0:0:
507,368,222778,2,0,P|459:335|405:325,1,80,10|2,0:0|1:2,0:0:0:0:
342,369,223133,6,0,L|198:354,1,120,6|0,1:2|0:0,0:0:0:0:
237,327,223488,2,0,L|221:239,1,80,10|2,0:0|0:0,0:0:0:0:
235,144,223843,2,0,L|91:159,1,120,6|2,1:2|1:2,0:0:0:0:
130,186,224198,2,0,L|114:274,1,80,10|2,0:0|1:2,0:0:0:0:
55,349,224553,6,0,P|-2:294|7:251,1,120,6|0,1:2|0:0,0:0:0:0:
18,231,224908,1,10,0:0:0:0:
1,127,225086,1,2,0:0:0:0:
104,136,225263,1,2,1:2:0:0:
87,41,225441,1,2,0:0:0:0:
87,41,225530,1,2,1:2:0:0:
87,41,225618,2,0,L|179:29,1,80,10|2,0:0|1:2,0:0:0:0:
256,82,225973,6,0,P|229:141|223:220,1,120,2|0,1:2|0:0,0:0:0:0:
235,224,226328,2,0,P|284:213|298:183,1,80,10|2,0:0|0:0,0:0:0:0:
373,118,226683,2,0,P|422:129|436:159,1,80,2|2,1:2|0:0,0:0:0:0:
444,188,226950,1,2,1:2:0:0:
444,188,227038,1,10,0:0:0:0:
401,283,227216,1,2,1:2:0:0:
469,361,227393,6,0,P|494:311|506:229,1,120,2|0,1:2|0:0,0:0:0:0:
500,216,227748,2,0,L|509:112,1,80,10|2,0:0|0:0,0:0:0:0:
410,95,228103,2,0,L|401:-9,1,80,2|2,1:2|0:0,0:0:0:0:
376,30,228370,1,2,1:2:0:0:
376,30,228459,2,0,L|284:16,1,80,10|2,0:0|1:2,0:0:0:0:
198,52,228814,5,6,1:2:0:0:
275,120,228991,2,0,L|287:17,2,80,2|8|2,0:0|0:0|0:0,0:0:0:0:
306,219,229524,1,2,1:2:0:0:
232,292,229701,2,0,L|174:282,1,40,2|2,0:0|1:2,0:0:0:0:
160,281,229879,2,0,L|172:384,1,80,10|2,0:0|1:2,0:0:0:0:
80,377,230234,6,0,P|34:352|35:262,1,139.200001168213,6|2,1:2|1:2,0:0:0:0:
96,213,230766,1,2,0:0:0:0:
49,135,230944,1,2,1:2:0:0:
49,135,231121,1,2,0:0:0:0:
120,79,231299,2,0,P|177:70|252:74,1,104.40000087616,2|0,1:2|0:0,0:0:0:0:
256,80,231654,6,0,P|236:126|230:226,1,139.200001168213,2|2,1:2|1:2,0:0:0:0:
251,301,232186,1,2,0:0:0:0:
340,284,232364,1,2,1:2:0:0:
340,284,232541,2,0,L|348:370,1,69.6000005841065,2|2,0:0|1:2,0:0:0:0:
434,375,232896,5,2,0:0:0:0:
