osu file format v14

[General]
AudioFilename: audio.mp3
AudioLeadIn: 0
PreviewTime: 35613
Countdown: 0
SampleSet: Soft
StackLeniency: 0.7
Mode: 0
LetterboxInBreaks: 0
WidescreenStoryboard: 1

[Editor]
Bookmarks: 7192,21628,72154,73958,101026,129898,158770,173207,187643
DistanceSpacing: 1.4
BeatDivisor: 4
GridSize: 4
TimelineZoom: 1.900002

[Metadata]
Title:Goodbye
TitleUnicode:Goodbye
Artist:CircusP
ArtistUnicode:CircusP
Creator:Shmiklak
Version:waji's Insane
Source:osu!
Tags:marvollo m_a_r_v_o_l_l_o wajinshu daycore mappers' guild fa featured artist vocaloid english electronic pop Five Hatsune Miku Circus-P 初音ミク mpg mg
BeatmapID:2421619
BeatmapSetID:1157992

[Difficulty]
HPDrainRate:6.9
CircleSize:5
OverallDifficulty:7
ApproachRate:8.5
SliderMultiplier:1.6
SliderTickRate:1

[Events]
//Background and Video events
0,0,"Goodbye.jpg",0,0
Video,-180,"Goodbye.avi"
//Break Periods
2,130098,143434
//Storyboard Layer 0 (Background)
//Storyboard Layer 1 (Fail)
//Storyboard Layer 2 (Pass)
//Storyboard Layer 3 (Foreground)
//Storyboard Layer 4 (Overlay)
//Storyboard Sound Samples

[TimingPoints]
-26,451.127819548872,4,2,1,50,1,0
9334,-100,4,2,1,5,0,0
9447,-100,4,2,1,50,0,0
11139,-100,4,2,1,5,0,0
11252,-100,4,2,1,50,0,0
12943,-100,4,2,1,5,0,0
13056,-100,4,2,1,50,0,0
14748,-100,4,2,1,5,0,0
14861,-100,4,2,1,50,0,0
16552,-100,4,2,1,5,0,0
16665,-100,4,2,1,50,0,0
18357,-100,4,2,1,5,0,0
18470,-100,4,2,1,50,0,0
23996,-100,4,2,1,50,0,0
35613,-285.714285714284,4,2,1,50,0,0
35951,-285.714285714284,4,2,1,5,0,0
36064,-117.647058823529,4,2,1,80,0,0
37304,-117.647058823529,4,2,1,5,0,0
37417,-117.647058823529,4,2,1,80,0,0
37755,-117.647058823529,4,2,1,5,0,0
37868,-66.6666666666667,4,2,1,80,0,0
37981,-66.6666666666667,4,2,1,5,0,0
38545,-66.6666666666667,4,2,1,80,0,0
39673,-166.666666666667,4,2,1,80,0,0
40913,-166.666666666667,4,2,1,5,0,0
41026,-166.666666666667,4,2,1,80,0,0
41364,-166.666666666667,4,2,1,5,0,0
41477,-66.6666666666667,4,2,1,80,0,0
41590,-66.6666666666667,4,2,1,5,0,0
43282,-166.666666666667,4,2,1,80,0,0
44522,-166.666666666667,4,2,1,5,0,0
44635,-166.666666666667,4,2,1,80,0,0
44973,-166.666666666667,4,2,1,5,0,0
45086,-66.6666666666667,4,2,1,80,0,0
45199,-66.6666666666667,4,2,1,5,0,0
45763,-66.6666666666667,4,2,1,80,0,0
46891,-166.666666666667,4,2,1,80,0,0
47680,-166.666666666667,4,2,1,5,0,0
47793,-166.666666666667,4,2,1,80,0,0
48583,-166.666666666667,4,2,1,5,0,0
48695,-66.6666666666667,4,2,1,80,0,0
48808,-66.6666666666667,4,2,1,5,0,0
48921,-66.6666666666667,4,2,1,80,0,0
50500,-133.333333333333,4,2,1,80,0,0
52192,-133.333333333333,4,2,1,5,0,0
52304,-66.6666666666667,4,2,1,80,0,0
52417,-66.6666666666667,4,2,1,5,0,0
53207,-133.333333333333,4,2,1,80,0,0
55801,-133.333333333333,4,2,1,5,0,0
55913,-66.6666666666667,4,2,1,80,0,0
56026,-66.6666666666667,4,2,1,5,0,0
56139,-133.333333333333,4,2,1,80,0,0
58958,-133.333333333333,4,2,1,5,0,0
59071,-133.333333333333,4,2,1,80,0,0
59410,-133.333333333333,4,2,1,5,0,0
59522,-66.6666666666667,4,2,1,80,0,0
59635,-66.6666666666667,4,2,1,5,0,0
60199,-133.333333333333,4,2,1,80,0,0
62116,-133.333333333333,4,2,1,5,0,0
62229,-133.333333333333,4,2,1,80,0,0
63019,-133.333333333333,4,2,1,5,0,0
63131,-66.6666666666667,4,2,1,80,0,0
63244,-66.6666666666667,4,2,1,5,0,0
63357,-133.333333333333,4,2,1,80,0,0
72154,-133.333333333333,4,2,1,60,0,0
86590,-117.647058823529,4,2,1,60,0,0
101026,-117.647058823529,4,2,1,80,0,0
102267,-117.647058823529,4,2,1,5,0,0
102380,-117.647058823529,4,2,1,80,0,0
102717,-117.647058823529,4,2,1,5,0,0
102830,-66.6666666666667,4,2,1,80,0,0
102943,-66.6666666666667,4,2,1,5,0,0
103507,-66.6666666666667,4,2,1,80,0,0
104635,-166.666666666667,4,2,1,80,0,0
105876,-166.666666666667,4,2,1,5,0,0
105989,-166.666666666667,4,2,1,80,0,0
106326,-166.666666666667,4,2,1,5,0,0
106439,-66.6666666666667,4,2,1,80,0,0
106552,-66.6666666666667,4,2,1,5,0,0
108244,-166.666666666667,4,2,1,80,0,0
109485,-166.666666666667,4,2,1,5,0,0
109598,-166.666666666667,4,2,1,80,0,0
109935,-166.666666666667,4,2,1,5,0,0
110048,-66.6666666666667,4,2,1,80,0,0
110161,-66.6666666666667,4,2,1,5,0,0
110725,-66.6666666666667,4,2,1,80,0,0
111853,-166.666666666667,4,2,1,80,0,0
112643,-166.666666666667,4,2,1,5,0,0
112755,-166.666666666667,4,2,1,80,0,0
113545,-166.666666666667,4,2,1,5,0,0
113657,-66.6666666666667,4,2,1,80,0,0
113770,-66.6666666666667,4,2,1,5,0,0
113883,-66.6666666666667,4,2,1,80,0,0
115462,-133.333333333333,4,2,1,80,0,0
117266,-66.6666666666667,4,2,1,80,0,0
117379,-66.6666666666667,4,2,1,5,0,0
118169,-133.333333333333,4,2,1,80,0,0
120875,-66.6666666666667,4,2,1,80,0,0
120988,-66.6666666666667,4,2,1,5,0,0
121101,-133.333333333333,4,2,1,80,0,0
123921,-133.333333333333,4,2,1,5,0,0
124034,-133.333333333333,4,2,1,80,0,0
124372,-133.333333333333,4,2,1,5,0,0
124484,-66.6666666666667,4,2,1,80,0,0
124597,-66.6666666666667,4,2,1,5,0,0
125161,-133.333333333333,4,2,1,80,0,0
127079,-133.333333333333,4,2,1,5,0,0
127192,-133.333333333333,4,2,1,80,0,0
127981,-133.333333333333,4,2,1,5,0,0
128093,-66.6666666666667,4,2,1,80,0,0
128206,-66.6666666666667,4,2,1,5,0,0
128319,-133.333333333333,4,2,1,80,0,0
134861,-133.333333333333,4,2,2,80,0,0
136214,-133.333333333333,4,2,1,80,0,0
136665,-133.333333333333,4,2,1,25,0,0
137116,-133.333333333333,4,2,1,80,0,0
144222,-133.333333333333,4,2,1,80,0,0
144334,-133.333333333333,4,2,1,80,0,0
158770,-153.846153846153,4,2,1,80,0,0
160124,-153.846153846153,4,2,1,10,0,0
160349,-153.846153846153,4,2,1,10,0,0
160575,-153.846153846153,4,2,1,80,0,0
161928,-153.846153846153,4,2,1,10,0,0
162154,-153.846153846153,4,2,1,10,0,0
162379,-153.846153846153,4,2,1,80,0,0
163733,-153.846153846153,4,2,1,10,0,0
164184,-153.846153846153,4,2,1,80,0,0
165537,-153.846153846153,4,2,1,10,0,0
165763,-153.846153846153,4,2,1,10,0,0
165988,-166.666666666667,4,2,1,80,0,0
167679,-166.666666666667,4,2,1,5,0,0
167792,-66.6666666666667,4,2,1,80,0,0
167905,-66.6666666666667,4,2,1,5,0,0
169597,-166.666666666667,4,2,1,80,0,0
171289,-166.666666666667,4,2,1,5,0,0
171401,-66.6666666666667,4,2,1,80,0,0
171514,-66.6666666666667,4,2,1,80,0,0
173206,-133.333333333333,4,2,1,80,0,0
174898,-133.333333333333,4,2,1,5,0,0
175010,-66.6666666666667,4,2,1,80,0,0
175123,-66.6666666666667,4,2,1,80,0,0
175913,-133.333333333333,4,2,1,80,0,0
178507,-133.333333333333,4,2,1,5,0,0
178619,-66.6666666666667,4,2,1,80,0,0
178732,-66.6666666666667,4,2,1,5,0,0
178846,-66.6666666666667,4,2,1,80,0,0
180425,-133.333333333333,4,2,1,80,0,0
182116,-133.333333333333,4,2,1,5,0,0
182229,-66.6666666666667,4,2,1,80,0,0
182342,-66.6666666666667,4,2,1,5,0,0
182455,-133.333333333333,4,2,1,80,0,0
185838,-66.6666666666667,4,2,1,80,0,0
185951,-66.6666666666667,4,2,1,5,0,0
186064,-133.333333333333,4,2,1,80,0,0
202079,-133.333333333333,4,2,1,10,0,0

[Colours]
Combo1 : 171,236,140
Combo2 : 255,155,130
Combo3 : 255,174,223
Combo4 : 145,208,255

[HitObjects]
176,176,7192,6,0,B|196:199|252:198|270:165|270:165|244:178|214:163,1,160,6|4,3:0|3:0,0:0:0:0:
108,82,7868,1,2,0:0:0:0:
16,146,8094,2,0,B|2:184|2:184|22:231,1,80,6|0,3:0|0:0,0:0:0:0:
160,320,8545,2,0,B|122:306|122:306|83:316,1,80,6|2,3:0|0:0,0:0:0:0:
264,184,8996,6,0,P|240:208|264:296,1,120,4|0,3:0|0:0,0:0:0:0:
308,316,9447,2,0,P|314:277|300:240,1,80,4|2,3:0|0:0,0:0:0:0:
212,100,9898,5,4,3:0:0:0:
108,82,10124,1,0,0:0:0:0:
17,220,10349,1,4,3:0:0:0:
121,202,10575,1,0,0:0:0:0:
208,352,10801,6,0,B|184:309|184:309|220:231,1,120,6|0,3:0|0:0,0:0:0:0:
256,304,11252,2,0,B|296:288|296:288|340:295,1,80,4|2,3:0|0:0,0:0:0:0:
480,312,11703,1,6,3:0:0:0:
424,172,11928,1,0,0:0:0:0:
404,352,12154,2,0,P|396:308|404:272,1,80,6|0,3:0|0:0,0:0:0:0:
476,96,12605,6,0,P|408:80|356:112,1,120,6|0,3:0|0:0,0:0:0:0:
308,136,13056,2,0,P|300:92|320:48,1,80,4|2,3:0|0:0,0:0:0:0:
424,172,13507,1,6,3:0:0:0:
480,252,13733,1,2,0:0:0:0:
348,328,13958,1,6,3:0:0:0:
404,248,14184,1,2,0:0:0:0:
276,196,14410,6,0,B|196:172|196:172|140:200,1,120,4|0,3:0|0:0,0:0:0:0:
200,244,14861,2,0,L|280:268,1,80,4|2,3:0|0:0,0:0:0:0:
144,352,15312,1,6,3:0:0:0:
88,256,15537,1,2,0:0:0:0:
136,108,15763,2,0,L|148:188,1,80,6|0,3:0|0:0,0:0:0:0:
8,276,16214,6,0,B|-16:233|-16:233|20:155,1,120,4|0,3:0|0:0,0:0:0:0:
56,118,16665,2,0,L|156:105,1,80,4|2,3:0|0:0,0:0:0:0:
239,219,17116,5,4,3:0:0:0:
147,187,17342,1,0,0:0:0:0:
303,147,17567,1,4,3:0:0:0:
383,192,17793,1,2,0:0:0:0:
352,352,18019,6,0,B|380:302|380:302|335:228,1,120,6|0,3:0|0:0,0:0:0:0:
383,192,18470,2,0,L|475:204,1,80,4|2,3:0|0:0,0:0:0:0:
223,157,18921,2,0,L|303:146,1,80,6|2,3:0|0:0,0:0:0:0:
232,240,19372,1,6,3:0:0:0:
144,128,19598,1,2,0:0:0:0:
112,256,19823,6,0,B|140:299|110:355|110:355|107:313|65:291,1,160,4|4,3:0|3:0,0:0:0:0:
32,364,20500,1,2,0:0:0:0:
0,184,20725,2,0,P|39:182|78:193,1,80,6|0,3:0|0:0,0:0:0:0:
232,240,21177,2,0,P|271:241|310:230,1,80,6|0,3:0|0:0,0:0:0:0:
422,152,21628,6,0,P|443:215|447:279,1,120,6|2,3:2|0:0,0:0:0:0:
448,269,22079,1,8,0:0:0:0:
341,371,22304,2,0,L|259:350,1,80,0|4,0:0|3:0,0:0:0:0:
132,256,22755,1,2,0:0:0:0:
76,372,22981,2,0,L|158:351,1,80,10|0,0:0|0:0,0:0:0:0:
216,232,23432,6,0,P|188:184|100:176,1,120,6|2,3:0|0:0,0:0:0:0:
128,166,23883,1,8,0:0:0:0:
21,160,24109,2,0,P|16:108|10:60,1,80,0|6,0:0|3:0,0:0:0:0:
132,256,24560,1,10,0:0:0:0:
240,128,24786,1,10,0:0:0:0:
108,136,25011,1,0,0:0:0:0:
312,188,25237,6,0,P|302:245|296:312,1,120,6|2,3:0|0:0,0:0:0:0:
296,306,25688,1,8,0:0:0:0:
479,253,25913,2,0,P|441:260|400:276,1,80,2|4,0:0|3:0,0:0:0:0:
312,188,26364,1,2,0:0:0:0:
464,116,26590,1,10,0:0:0:0:
348,80,26816,1,0,0:0:0:0:
205,147,27041,22,0,B|254:154|254:154|277:181|277:181|323:190,1,120,6|2,3:0|0:0,0:0:0:0:
311,187,27492,1,8,0:0:0:0:
212,240,27718,1,2,0:0:0:0:
132,88,27943,1,4,3:0:0:0:
68,252,28169,1,10,0:0:0:0:
0,96,28395,2,0,P|48:112|84:128,1,80,10|0,0:0|0:0,0:0:0:0:
212,240,28846,6,0,P|228:168|252:104,1,120,6|2,3:0|0:0,0:0:0:0:
243,124,29297,1,8,0:0:0:0:
344,224,29522,2,0,P|360:272|368:308,1,80,2|4,0:0|3:0,0:0:0:0:
464,352,29973,1,2,0:0:0:0:
284,288,30199,1,10,0:0:0:0:
448,220,30425,1,0,0:0:0:0:
340,116,30650,6,0,P|276:108|192:100,1,120,6|2,3:0|0:0,0:0:0:0:
220,102,31101,1,8,0:0:0:0:
116,204,31327,2,0,P|100:156|76:116,1,80,2|4,0:0|3:0,0:0:0:0:
168,272,31778,1,10,0:0:0:0:
12,208,32004,1,10,0:0:0:0:
184,124,32229,1,0,0:0:0:0:
284,240,32455,6,0,P|296:296|308:360,1,120,6|2,3:0|0:0,0:0:0:0:
307,357,32906,1,8,0:0:0:0:
396,292,33131,2,0,P|440:272|476:268,1,80,2|4,0:0|3:0,0:0:0:0:
388,192,33583,1,2,0:0:0:0:
248,44,33808,1,10,0:0:0:0:
424,56,34034,1,0,0:0:0:0:
256,120,34259,6,0,P|188:84|184:16,1,120,6|2,3:0|0:0,0:0:0:0:
177,46,34710,1,8,0:0:0:0:
360,112,34936,1,2,0:0:0:0:
245,204,35161,1,4,3:0:0:0:
424,240,35387,1,10,0:0:0:0:
292,296,35613,6,0,L|284:248,1,41.9999987182618,10|0,0:0|0:0,0:0:0:0:
289,247,36064,6,0,B|247:272|199:248|199:248|133:214|69:229|41:294|53:347|139:375|219:342|183:256|164:192|121:169|76:181,1,510.000009727478,6|0,0:1|0:0,0:0:0:0:
93,120,37868,2,0,L|82:179,1,60.0000022888184,10|0,0:1|0:0,0:0:0:0:
382,199,39673,6,0,B|415:206|437:166|438:98|380:74|317:84|320:133|262:222|400:162|380:258|343:307,1,360.000013732911,6|0,3:0|0:0,0:0:0:0:
333,363,41477,2,0,P|336:324|345:303,1,60.0000022888184,10|0,0:1|0:0,0:0:0:0:
211,157,43282,6,0,B|236:156|255:177|255:177|289:127|238:55|158:60|116:118|120:169|150:223|206:217,1,360.000013732911,6|0,3:0|0:0,0:0:0:0:
197,276,45086,2,0,L|192:216,1,60.0000022888184,10|0,0:1|0:0,0:0:0:0:
90,300,46891,6,0,B|51:234|51:152|117:74|117:74|184:80|205:144,1,359.999989013672,6|0,3:0|0:0,0:0:0:0:
212,198,48695,2,0,P|208:158|196:122,1,60.0000022888184,10|0,0:1|0:0,0:0:0:0:
512,320,50500,6,0,P|467:306|445:300,1,60.0000022888184,6|0,0:1|0:0,0:0:0:0:
361,259,50951,2,0,P|332:267|303:276,1,60.0000022888184,2|0,0:0|0:0,0:0:0:0:
236,353,51402,2,0,P|207:344|178:335,1,60.0000022888184,2|0,0:0|0:0,0:0:0:0:
32,256,51853,2,0,L|128:240,1,90.0000034332277,2|0,0:0|0:0,0:0:0:0:
180,247,52304,6,0,L|121:241,1,60.0000022888184,10|0,0:1|0:0,0:0:0:0:
288,192,53207,6,0,L|220:178,1,60.0000022888184,2|0,0:0|0:0,0:0:0:0:
96,128,53658,2,0,L|164:114,1,60.0000022888184,2|0,0:0|0:0,0:0:0:0:
292,76,54109,2,0,L|224:62,1,60.0000022888184,6|0,3:0|0:0,0:0:0:0:
376,68,54560,2,0,P|367:39|352:13,1,60.0000022888184,2|0,0:0|0:0,0:0:0:0:
456,112,55011,2,0,P|464:83|479:57,1,60.0000022888184,2|0,0:0|0:0,0:0:0:0:
496,200,55462,2,0,P|440:188|400:184,1,90.0000034332277,2|0,0:0|0:0,0:0:0:0:
348,192,55913,6,0,P|400:184|424:184,1,60.0000022888184,10|0,0:1|0:0,0:0:0:0:
490,209,56590,5,2,0:0:0:0:
468,292,56816,1,2,0:0:0:0:
404,336,57041,1,0,0:0:0:0:
328,348,57267,1,2,0:0:0:0:
328,348,57718,6,0,B|247:319|254:386|155:355|155:355|176:323|211:323,1,240.000009155274,6|0,3:0|0:0,0:0:0:0:
288,240,58846,1,0,0:0:0:0:
176,152,59071,2,0,P|184:184|192:244,1,90.0000034332277,2|0,0:0|0:0,0:0:0:0:
140,270,59522,6,0,P|176:246|216:234,1,60.0000022888184,10|0,0:1|0:0,0:0:0:0:
336,152,60199,5,2,0:0:0:0:
336,152,60425,2,0,P|324:197|313:284,1,120.000004577637,2|2,0:0|0:0,0:0:0:0:
392,108,61327,6,0,P|328:82|276:103,1,120.000004577637,6|0,3:0|0:0,0:0:0:0:
204,148,62004,1,0,0:0:0:0:
120,104,62229,2,0,P|108:60|96:28,1,60.0000022888184,2|0,0:0|0:0,0:0:0:0:
204,148,62680,2,0,P|194:176|187:205,1,60.0000022888184
314,269,63131,6,0,P|354:261|382:257,1,60.0000022888184,10|0,0:1|0:0,0:0:0:0:
410,205,63357,2,0,P|437:258|411:309,1,120.000004577637,2|2,0:0|0:0,0:0:0:0:
465,151,64034,2,0,L|481:23,1,120.000004577637,2|2,0:0|0:0,0:0:0:0:
480,32,64936,6,0,P|433:41|397:50,1,60.0000022888184,4|0,0:1|0:0,0:0:0:0:
256,160,65387,2,0,P|220:152|185:144,1,60.0000022888184,4|0,3:0|0:0,0:0:0:0:
320,96,65838,1,4,3:0:0:0:
198,233,66064,1,0,0:0:0:0:
115,85,66289,2,0,P|101:145|97:167,1,60.0000022888184,4|0,3:0|0:0,0:0:0:0:
93,275,66740,6,0,P|163:231|224:242,1,120.000004577637,4|4,3:0|3:0,0:0:0:0:
176,321,67417,1,0,0:0:0:0:
320,352,67643,2,0,P|283:341|240:336,1,60.0000022888184,4|0,3:0|0:0,0:0:0:0:
339,206,68094,2,0,P|302:217|267:226,1,60.0000022888184,4|0,3:0|0:0,0:0:0:0:
495,260,68545,6,0,P|403:277|352:287,1,120.000004577637,4|4,3:0|3:0,0:0:0:0:
282,361,69222,1,0,0:0:0:0:
196,240,69447,2,0,P|183:187|176:159,1,60.0000022888184,4|0,3:0|0:0,0:0:0:0:
339,206,69898,2,0,P|352:153|359:125,1,60.0000022888184,4|0,3:0|0:0,0:0:0:0:
276,240,70349,6,0,P|296:296|310:354,1,120.000004577637,4|4,3:0|3:0,0:0:0:0:
405,221,71026,1,0,0:0:0:0:
464,368,71252,2,0,P|434:359|402:353,1,60.0000022888184,4|0,3:0|0:0,0:0:0:0:
405,221,71703,2,0,P|377:235|350:254,1,60.0000022888184,4|0,3:0|0:0,0:0:0:0:
288,85,72154,6,0,P|279:115|273:147,1,60.0000022888184,8|0,0:1|0:0,0:0:0:0:
405,221,72605,2,0,P|399:189|390:158,1,60.0000022888184,8|2,0:1|0:0,0:0:0:0:
299,309,73056,1,8,0:1:0:0:
418,331,73282,1,2,0:0:0:0:
312,217,73507,1,8,0:1:0:0:
225,384,73733,1,2,0:0:0:0:
124,264,73958,6,0,P|185:283|208:288,1,60.0000022888184,8|0,0:1|0:0,0:0:0:0:
79,141,74410,2,0,P|48:149|0:167,1,60.0000022888184,8|2,0:1|0:0,0:0:0:0:
199,169,74861,1,10,0:1:0:0:
108,33,75086,1,2,0:0:0:0:
99,242,75312,1,10,0:1:0:0:
217,70,75537,1,2,0:0:0:0:
320,152,75763,6,0,P|311:80|296:10,1,120.000004577637,8|8,0:1|0:1,0:0:0:0:
414,138,76440,1,2,0:0:0:0:
319,240,76665,2,0,P|262:226|234:222,1,60.0000022888184,8|2,0:1|0:0,0:0:0:0:
376,332,77116,2,0,P|411:325|446:315,1,60.0000022888184,8|2,0:1|0:0,0:0:0:0:
334,182,77567,6,0,P|320:232|316:262,1,60.0000022888184,10|0,0:1|0:0,0:0:0:0:
411,126,78018,1,8,0:1:0:0:
235,194,78244,2,0,P|185:176|159:168,1,60.0000022888184,2|8,0:0|0:1,0:0:0:0:
23,237,78695,1,2,0:0:0:0:
73,118,78920,2,0,P|89:180|92:201,1,60.0000022888184,10|0,0:1|0:0,0:0:0:0:
68,368,79372,6,0,P|88:304|116:240,1,120.000004577637,10|8,0:1|0:1,0:0:0:0:
230,232,80049,1,2,0:0:0:0:
180,372,80274,2,0,P|168:322|164:289,1,60.0000022888184,8|2,0:1|0:0,0:0:0:0:
320,228,80725,2,0,P|314:257|306:286,1,60.0000022888184,8|2,0:1|0:0,0:0:0:0:
307,139,81177,6,0,P|379:159|407:219,1,120.000004577637,10|8,0:1|0:1,0:0:0:0:
236,140,81853,2,0,P|224:72|220:56,1,60.0000022888184,2|10,0:0|0:1,0:0:0:0:
320,228,82304,1,2,0:0:0:0:
336,64,82530,2,0,P|365:70|396:84,1,60.0000022888184,10|2,0:1|0:0,0:0:0:0:
468,192,82981,6,0,P|480:140|486:110,1,60.0000022888184,10|0,0:1|0:0,0:0:0:0:
336,196,83432,1,8,0:1:0:0:
434,315,83658,2,0,P|481:305|516:299,1,60.0000022888184,2|8,0:0|0:1,0:0:0:0:
336,196,84109,1,2,0:0:0:0:
479,206,84334,1,8,0:1:0:0:
356,332,84560,2,0,P|364:268|369:245,1,60.0000022888184,2|10,0:0|0:1,0:0:0:0:
204,184,85011,5,0,0:0:0:0:
326,150,85237,1,8,0:1:0:0:
229,299,85462,1,2,0:0:0:0:
120,180,85687,2,0,P|132:122|138:95,1,60.0000022888184,8|2,0:1|0:0,0:0:0:0:
144,272,86139,2,0,P|95:281|74:287,1,60.0000022888184,8|2,0:1|0:0,0:0:0:0:
272,240,86590,6,0,P|296:284|256:372,1,136.000002593994,4|8,3:2|0:0,0:0:0:0:
176,212,87267,2,0,P|185:179|197:147,1,68.0000012969971,2|4,0:0|3:0,0:0:0:0:
84,216,87718,1,2,0:0:0:0:
22,337,87943,2,0,P|12:306|-4:264,1,68.0000012969971,8|0,0:0|0:0,0:0:0:0:
144,272,88395,6,0,P|216:294|278:314,1,136.000002593994,4|8,3:0|0:0,0:0:0:0:
412,259,89071,2,0,P|396:307|392:340,1,68.0000012969971,2|4,0:0|3:0,0:0:0:0:
492,180,89522,1,10,0:0:0:0:
312,168,89748,2,0,P|328:216|336:248,1,68.0000012969971,10|0,0:0|0:0,0:0:0:0:
348,92,90199,6,0,P|289:83|211:69,1,136.000002593994,4|8,3:0|0:0,0:0:0:0:
84,176,90876,2,0,P|145:156|178:148,1,68.0000012969971,2|4,0:0|3:0,0:0:0:0:
247,258,91327,1,2,0:0:0:0:
147,333,91552,2,0,P|154:282|160:241,1,68.0000012969971,8|0,0:0|0:0,0:0:0:0:
244,168,92004,6,0,P|306:148|357:188,1,136.000002593994,4|10,3:0|0:0,0:0:0:0:
280,292,92680,2,0,P|287:236|297:196,1,68.0000012969971,2|4,0:0|3:0,0:0:0:0:
456,127,93131,1,10,0:0:0:0:
391,247,93357,1,10,0:0:0:0:
298,102,93583,1,0,0:0:0:0:
478,142,93808,6,0,P|494:225|506:300,1,136.000002593994,4|8,3:0|0:0,0:0:0:0:
376,372,94485,2,0,P|429:355|460:348,1,68.0000012969971,2|4,0:0|3:0,0:0:0:0:
348,226,94936,1,2,0:0:0:0:
244,306,95161,2,0,P|282:315|320:328,1,68.0000012969971,10|0,0:0|0:0,0:0:0:0:
172,344,95613,6,0,P|160:296|232:224,1,136.000002593994,4|8,3:0|0:0,0:0:0:0:
77,309,96289,2,0,P|44:316|12:328,1,68.0000012969971,2|4,0:0|3:0,0:0:0:0:
244,306,96740,1,10,0:0:0:0:
100,224,96966,2,0,P|110:191|117:158,1,68.0000012969971,10|0,0:0|0:0,0:0:0:0:
256,112,97417,6,0,P|204:80|200:4,1,136.000002593994,4|8,3:0|0:0,0:0:0:0:
344,128,98094,2,0,P|328:176|320:208,1,68.0000012969971,2|4,0:0|3:0,0:0:0:0:
264,40,98545,1,2,0:0:0:0:
187,165,98770,2,0,P|203:213|211:245,1,68.0000012969971,8|0,0:0|0:0,0:0:0:0:
284,344,99222,6,0,P|351:350|417:367,1,136.000002593994,4|8,3:0|0:0,0:0:0:0:
293,249,99898,1,2,0:0:0:0:
360,95,100124,1,4,3:0:0:0:
187,165,100349,1,10,0:0:0:0:
384,232,100575,1,10,0:0:0:0:
248,88,100801,1,2,0:0:0:0:
398,99,101026,6,0,B|423:141|399:189|399:189|365:255|380:319|445:347|498:335|526:249|493:169|407:205|343:224|320:267|332:312,1,510.000009727478,6|0,0:1|0:0,0:0:0:0:
327,364,102831,2,0,P|332:327|328:295,1,60.0000022888184,10|0,0:1|0:0,0:0:0:0:
136,352,104635,6,0,B|102:278|164:229|164:229|248:312|312:232|312:232|329:251|336:280,1,359.999989013672,6|0,3:0|0:0,0:0:0:0:
344,333,106440,2,0,P|341:304|334:275,1,60.0000022888184,10|0,0:1|0:0,0:0:0:0:
236,131,108244,6,0,B|285:121|324:70|324:70|359:127|432:133|432:133|394:206|419:250,1,359.999989013672,6|0,3:0|0:0,0:0:0:0:
476,241,110049,2,0,P|447:240|416:247,1,60.0000022888184,10|0,0:1|0:0,0:0:0:0:
38,191,111853,6,0,P|10:147|110:198,1,359.999989013672,4|0,3:0|0:0,0:0:0:0:
102,247,113658,2,0,P|105:217|121:189,1,60.0000022888184,10|0,0:1|0:0,0:0:0:0:
100,72,115462,6,0,P|112:108|116:144,1,60.0000022888184,6|0,0:1|0:0,0:0:0:0:
208,168,115913,2,0,P|220:204|224:240,1,60.0000022888184,2|0,0:0|0:0,0:0:0:0:
312,272,116364,2,0,P|324:308|328:344,1,60.0000022888184,2|0,0:0|0:0,0:0:0:0:
208,324,116816,2,0,P|160:320|112:308,1,90.0000034332277,2|0,0:0|0:0,0:0:0:0:
121,369,117267,6,0,P|117:339|119:309,1,60.0000022888184,10|0,0:1|0:0,0:0:0:0:
76,212,118169,6,0,L|68:144,1,60.0000022888184,2|0,0:0|0:0,0:0:0:0:
188,80,118620,2,0,L|195:139,1,60.0000022888184,2|0,0:0|0:0,0:0:0:0:
320,80,119071,2,0,L|312:148,1,60.0000022888184,4|0,3:0|0:0,0:0:0:0:
432,212,119522,2,0,L|439:152,1,60.0000022888184,2|0,0:0|0:0,0:0:0:0:
316,232,119973,2,0,P|264:212|192:240,1,120.000004577637,2|2,0:0|0:0,0:0:0:0:
260,348,120876,6,0,L|264:288,1,60.0000022888184,10|0,0:1|0:0,0:0:0:0:
376,268,121552,5,2,0:0:0:0:
376,192,121778,1,2,0:0:0:0:
304,136,122004,1,0,0:0:0:0:
229,106,122229,1,2,0:0:0:0:
229,106,122680,6,0,B|200:187|267:180|236:279|236:279|204:258|204:223,1,240.000009155274,6|0,3:0|0:0,0:0:0:0:
144,104,123808,1,0,0:0:0:0:
268,48,124034,2,0,P|298:96|291:136,1,90.0000034332277,2|0,0:0|0:0,0:0:0:0:
353,121,124485,6,0,L|294:127,1,60.0000022888184,10|0,0:1|0:0,0:0:0:0:
204,229,125161,1,2,0:0:0:0:
204,229,125387,2,0,P|148:221|76:217,1,120.000004577637,2|2,0:0|0:0,0:0:0:0:
296,276,126289,6,0,P|352:268|424:264,1,120.000004577637,6|0,3:0|0:0,0:0:0:0:
356,184,126966,1,0,0:0:0:0:
256,212,127192,2,0,P|228:244|220:272,1,60.0000022888184,2|0,0:0|0:0,0:0:0:0:
288,144,127643,2,0,P|275:116|254:96,1,60.0000022888184
124,76,128094,6,0,P|132:116|136:144,1,60.0000022888184,10|0,0:1|0:0,0:0:0:0:
76,252,128432,1,0,0:0:0:0:
72,260,128545,2,0,P|70:294|66:323,1,60.0000022888184,0|2,0:0|0:0,0:0:0:0:
220,351,128996,6,0,P|212:303|204:227,2,120.000004577637,2|2|4,0:0|0:0|0:0,0:0:0:0:
52,104,144109,6,0,P|56:132|60:148,1,30.0000011444092,4|0,3:0|0:0,0:0:0:0:
76,192,144334,1,4,3:0:0:0:
92,212,146139,1,4,3:0:0:0:
104,224,147943,1,4,3:0:0:0:
120,248,149748,1,4,3:0:0:0:
436,192,151552,5,4,3:0:0:0:
420,212,153357,1,4,3:0:0:0:
408,224,155161,1,4,3:0:0:0:
392,248,156966,1,4,3:0:0:0:
212,64,158770,6,0,B|190:95|190:95|255:190|255:190|325:98|325:98|296:52,1,311.999985717774,4|0,3:1|0:0,0:0:0:0:
307,283,160575,2,0,B|314:282|347:284|362:260|362:260|324:247|268:275|268:275|221:244|164:265|164:265|190:292|219:290,1,311.999985717774,8|0,0:1|0:0,0:0:0:0:
30,152,162380,2,0,P|102:56|105:176,1,311.999985717774,8|0,0:1|0:0,0:0:0:0:
481,152,164184,2,0,P|409:56|407:176,1,311.999985717774,8|0,0:1|0:0,0:0:0:0:
276,131,165989,6,0,B|227:121|188:70|188:70|153:127|80:133|80:133|118:206|93:250,1,359.999989013672,12|0,0:1|0:0,0:0:0:0:
36,241,167794,2,0,P|65:240|96:247,1,60.0000022888184,8|0,0:1|0:0,0:0:0:0:
382,199,169598,6,0,B|415:206|437:166|438:98|380:74|317:84|320:133|262:222|400:162|380:258|343:307,1,360.000013732911,4|0,3:0|0:0,0:0:0:0:
333,363,171402,2,0,P|336:324|345:303,1,60.0000022888184,4|0,3:1|0:0,0:0:0:0:
0,64,173207,6,0,P|45:78|67:84,1,60.0000022888184,4|0,3:0|0:0,0:0:0:0:
151,125,173658,2,0,P|180:117|209:108,1,60.0000022888184
366,100,174109,2,0,P|375:71|384:42,1,60.0000022888184,4|0,3:0|0:0,0:0:0:0:
287,246,174560,2,0,L|271:150,1,90.0000034332277
278,98,175011,6,0,L|272:157,1,60.0000022888184,8|0,0:1|0:0,0:0:0:0:
199,113,175913,6,0,P|186:150|186:177,1,60.0000022888184,4|0,3:0|0:0,0:0:0:0:
329,170,176364,2,0,P|292:157|265:157,1,60.0000022888184,2|0,0:0|0:0,0:0:0:0:
267,301,176816,2,0,P|280:264|280:237,1,60.0000022888184,4|0,3:0|0:0,0:0:0:0:
136,242,177267,2,0,P|173:255|200:255,1,60.0000022888184,2|0,0:0|0:0,0:0:0:0:
199,113,177718,2,0,L|186:173,1,60.0000022888184,4|0,3:0|0:0,0:0:0:0:
159,25,178169,2,0,P|215:37|255:41,1,90.0000034332277,2|0,0:0|0:0,0:0:0:0:
307,33,178620,6,0,P|255:41|231:41,1,60.0000022888184,8|0,0:1|0:0,0:0:0:0:
63,66,179297,5,2,0:0:0:0:
134,102,179523,1,4,0:3:0:0:
178,166,179748,1,0,0:0:0:0:
190,242,179974,1,2,0:0:0:0:
190,242,180425,6,0,B|239:265|288:255|288:255|326:277|326:277|365:249|365:249|422:243,1,240.000009155274,4|4,3:0|3:0,0:0:0:0:
310,141,181553,1,0,0:0:0:0:
198,53,181778,2,0,P|206:85|214:145,1,90.0000034332277,2|0,0:0|0:0,0:0:0:0:
162,171,182229,6,0,P|198:147|238:135,1,60.0000022888184,8|0,0:1|0:0,0:0:0:0:
82,311,182906,1,2,0:0:0:0:
82,311,183131,2,0,P|143:314|215:329,1,120.000004577637,4|2,3:0|0:0,0:0:0:0:
378,356,184034,6,0,P|366:299|344:235,1,120.000004577637,4|0,3:0|0:0,0:0:0:0:
306,159,184711,1,0,0:0:0:0:
227,116,184936,2,0,P|239:72|251:40,1,60.0000022888184,4|0,3:0|0:0,0:0:0:0:
156,165,185387,2,0,L|166:242,1,60.0000022888184
309,309,185838,6,0,P|349:317|377:321,1,60.0000022888184,8|0,0:1|0:0,0:0:0:0:
405,373,186064,2,0,L|385:236,1,120.000004577637,2|2,0:0|0:0,0:0:0:0:
297,118,186740,2,0,P|339:159|398:171,2,120.000004577637,4|2|12,3:0|0:0|0:1,0:0:0:0:
256,192,187868,12,0,202079,0:0:0:0:
