osu file format v14

[General]
AudioFilename: audio.mp3
AudioLeadIn: 0
PreviewTime: 35613
Countdown: 0
SampleSet: Soft
StackLeniency: 0.4
Mode: 0
LetterboxInBreaks: 0
WidescreenStoryboard: 1

[Editor]
Bookmarks: 7192,21628,37868,64936,72154,86590,101026,129898,144334,158770,187643
DistanceSpacing: 1.2
BeatDivisor: 4
GridSize: 4
TimelineZoom: 1.2

[Metadata]
Title:Goodbye
TitleUnicode:Goodbye
Artist:CircusP
ArtistUnicode:CircusP
Creator:Shmiklak
Version:Normal
Source:osu!
Tags:marvollo m_a_r_v_o_l_l_o wajinshu daycore mappers' guild fa featured artist vocaloid english electronic pop Five Hatsune Miku Circus-P 初音ミク mpg mg
BeatmapID:2499585
BeatmapSetID:1157992

[Difficulty]
HPDrainRate:3
CircleSize:3.5
OverallDifficulty:4
ApproachRate:4.5
SliderMultiplier:1.35
SliderTickRate:1

[Events]
//Background and Video events
0,0,"Goodbye.jpg",0,0
Video,-180,"Goodbye.avi"
//Break Periods
2,65136,70894
2,130098,142849
//Storyboard Layer 0 (Background)
//Storyboard Layer 1 (Fail)
//Storyboard Layer 2 (Pass)
//Storyboard Layer 3 (Foreground)
//Storyboard Layer 4 (Overlay)
//Storyboard Sound Samples

[TimingPoints]
-26,451.127819548872,4,2,1,50,1,0
35951,-100,4,2,1,80,0,0
36064,-100,4,2,1,80,0,0
37304,-100,4,2,1,80,0,0
37417,-100,4,2,1,80,0,0
37755,-100,4,2,1,80,0,0
37868,-100,4,2,1,80,0,0
37981,-100,4,2,1,80,0,0
38545,-100,4,2,1,80,0,0
39673,-100,4,2,1,80,0,0
40913,-100,4,2,1,80,0,0
41026,-100,4,2,1,80,0,0
41364,-100,4,2,1,80,0,0
41477,-100,4,2,1,80,0,0
41590,-100,4,2,1,80,0,0
43282,-100,4,2,1,80,0,0
44522,-100,4,2,1,80,0,0
44635,-100,4,2,1,80,0,0
44973,-100,4,2,1,80,0,0
45086,-100,4,2,1,80,0,0
45199,-100,4,2,1,80,0,0
45763,-100,4,2,1,80,0,0
46891,-100,4,2,1,80,0,0
47680,-100,4,2,1,80,0,0
47793,-100,4,2,1,80,0,0
48583,-100,4,2,1,80,0,0
48695,-100,4,2,1,80,0,0
48808,-100,4,2,1,80,0,0
48921,-100,4,2,1,80,0,0
50500,-100,4,2,1,80,0,0
52192,-100,4,2,1,80,0,0
52304,-100,4,2,1,80,0,0
52417,-100,4,2,1,80,0,0
53207,-100,4,2,1,80,0,0
56026,-100,4,2,1,80,0,0
56139,-100,4,2,1,80,0,0
58958,-100,4,2,1,80,0,0
59071,-100,4,2,1,80,0,0
59410,-100,4,2,1,80,0,0
59522,-100,4,2,1,80,0,0
59635,-100,4,2,1,80,0,0
60199,-100,4,2,1,80,0,0
62116,-100,4,2,1,80,0,0
62229,-100,4,2,1,80,0,0
63019,-100,4,2,1,80,0,0
63131,-100,4,2,1,80,0,0
63244,-100,4,2,1,80,0,0
63357,-100,4,2,1,80,0,0
72154,-100,4,2,1,80,0,0
101026,-100,4,2,1,80,0,0
102267,-100,4,2,1,80,0,0
102380,-100,4,2,1,80,0,0
102717,-100,4,2,1,80,0,0
102830,-100,4,2,1,80,0,0
102943,-100,4,2,1,80,0,0
103507,-100,4,2,1,80,0,0
104635,-100,4,2,1,80,0,0
105876,-100,4,2,1,80,0,0
105989,-100,4,2,1,80,0,0
106326,-100,4,2,1,80,0,0
106439,-100,4,2,1,80,0,0
106552,-100,4,2,1,80,0,0
108244,-100,4,2,1,80,0,0
109485,-100,4,2,1,80,0,0
109598,-100,4,2,1,80,0,0
109935,-100,4,2,1,80,0,0
110048,-100,4,2,1,80,0,0
110161,-100,4,2,1,80,0,0
110725,-100,4,2,1,80,0,0
111853,-100,4,2,1,80,0,0
112643,-100,4,2,1,80,0,0
112755,-100,4,2,1,80,0,0
113545,-100,4,2,1,80,0,0
113657,-100,4,2,1,80,0,0
113770,-100,4,2,1,80,0,0
113883,-100,4,2,1,80,0,0
115462,-100,4,2,1,80,0,0
117379,-100,4,2,1,80,0,0
118169,-100,4,2,1,80,0,0
120988,-100,4,2,1,80,0,0
121101,-100,4,2,1,80,0,0
123921,-100,4,2,1,80,0,0
124034,-100,4,2,1,80,0,0
124372,-100,4,2,1,80,0,0
124484,-100,4,2,1,80,0,0
124597,-100,4,2,1,80,0,0
125161,-100,4,2,1,80,0,0
127079,-100,4,2,1,80,0,0
127192,-100,4,2,1,80,0,0
127981,-100,4,2,1,80,0,0
128094,-100,4,2,1,80,0,0
128206,-100,4,2,1,80,0,0
128319,-100,4,2,1,80,0,0
134861,-100,4,2,2,80,0,0
136214,-100,4,2,1,80,0,0
136665,-100,4,2,1,25,0,0
137116,-100,4,2,1,80,0,0
144334,-100,4,2,1,80,0,0
158770,-100,4,2,1,80,0,0
160124,-100,4,2,1,10,0,0
160349,-100,4,2,1,10,0,0
160575,-100,4,2,1,80,0,0
161928,-100,4,2,1,10,0,0
162154,-100,4,2,1,10,0,0
162379,-100,4,2,1,80,0,0
163733,-100,4,2,1,10,0,0
164184,-100,4,2,1,80,0,0
165537,-100,4,2,1,10,0,0
165763,-100,4,2,1,10,0,0
165988,-100,4,2,1,80,0,0
167905,-100,4,2,1,80,0,0
169597,-100,4,2,1,80,0,0
171514,-100,4,2,1,80,0,0
173206,-100,4,2,1,80,0,0
175123,-100,4,2,1,80,0,0
175913,-100,4,2,1,80,0,0
178732,-100,4,2,1,80,0,0
178846,-100,4,2,1,80,0,0
182116,-100,4,2,1,80,0,0
182229,-100,4,2,1,80,0,0
202079,-100,4,2,1,10,0,0

[Colours]
Combo1 : 171,236,140
Combo2 : 255,155,130
Combo3 : 255,174,223
Combo4 : 145,208,255

[HitObjects]
468,368,7192,6,0,P|456:304|396:284,1,135,6|4,3:0|3:0,0:0:0:0:
332,332,7868,1,2,0:0:0:0:
332,332,8094,2,0,L|180:320,1,135,6|6,3:0|3:0,0:0:0:0:
120,316,8770,1,2,0:0:0:0:
120,316,8996,2,0,P|124:248|112:176,1,135,4|4,3:0|3:0,0:0:0:0:
228,68,9898,2,0,P|217:134|221:201,1,135,4|4,3:0|3:0,0:0:0:0:
264,272,10575,1,0,0:0:0:0:
320,332,10801,6,0,L|464:316,1,135,6|4,3:0|3:0,0:0:0:0:
512,260,11477,1,2,0:0:0:0:
512,260,11703,2,0,P|488:216|488:196,1,67.5,6|0,3:0|0:0,0:0:0:0:
512,120,12154,1,6,3:0:0:0:
402,0,12605,2,0,L|262:8,1,135,6|4,3:0|3:0,0:0:0:0:
217,72,13282,1,2,0:0:0:0:
217,72,13507,2,0,P|141:88|77:48,1,135,6|6,3:0|3:0,0:0:0:0:
26,211,14410,6,0,L|166:195,1,135,4|4,3:0|3:0,0:0:0:0:
231,244,15086,1,2,0:0:0:0:
231,244,15312,2,0,P|288:244|366:251,1,135,6|6,3:0|3:0,0:0:0:0:
406,327,15989,1,0,0:0:0:0:
406,327,16214,2,0,P|338:332|273:344,1,135,4|4,3:0|3:0,0:0:0:0:
143,246,17116,2,0,P|152:189|161:175,1,67.5,4|0,3:0|0:0,0:0:0:0:
233,154,17567,2,0,P|290:163|304:172,1,67.5,4|2,3:0|0:0,0:0:0:0:
355,224,18019,6,0,L|345:65,1,135,6|4,3:0|3:0,0:0:0:0:
288,40,18695,1,2,0:0:0:0:
288,40,18921,2,0,L|152:53,1,135,6|6,3:0|3:0,0:0:0:0:
20,144,19823,2,0,L|156:157,1,135,4|4,3:0|3:0,0:0:0:0:
224,207,20500,1,2,0:0:0:0:
224,207,20725,2,0,P|277:236|356:223,1,135,6|6,3:0|3:0,0:0:0:0:
491,146,21628,6,0,L|505:294,2,135,6|8|4,3:2|0:0|3:0,0:0:0:0:
429,93,22755,1,2,0:0:0:0:
429,93,22981,1,10,0:0:0:0:
327,219,23432,6,0,L|313:367,2,135,6|8|6,3:0|0:0|3:0,0:0:0:0:
389,166,24559,1,10,0:0:0:0:
389,166,24785,1,10,0:0:0:0:
254,75,25237,6,0,P|188:57|116:88,1,135,6|8,3:0|0:0,0:0:0:0:
75,140,25913,1,2,0:0:0:0:
75,140,26139,2,0,L|83:217,1,67.5,4|2,3:0|0:0,0:0:0:0:
129,272,26590,2,0,L|121:349,1,67.5,10|0,0:0|0:0,0:0:0:0:
202,347,27041,2,0,L|217:198,1,135,6|8,3:0|0:0,0:0:0:0:
338,107,27943,1,4,3:0:0:0:
416,126,28169,1,10,0:0:0:0:
452,198,28395,2,0,P|454:237|438:272,1,67.5,10|0,0:0|0:0,0:0:0:0:
375,305,28846,6,0,L|216:284,2,135,6|8|4,3:0|0:0|3:0,0:0:0:0:
442,358,29973,1,2,0:0:0:0:
442,358,30199,1,10,0:0:0:0:
367,214,30650,6,0,L|526:193,2,135,6|8|4,3:0|0:0|3:0,0:0:0:0:
300,267,31777,1,10,0:0:0:0:
300,267,32003,1,10,0:0:0:0:
154,195,32455,6,0,P|130:161|154:76,1,135,6|8,3:0|0:0,0:0:0:0:
221,33,33131,1,2,0:0:0:0:
272,95,33357,2,0,L|253:243,1,135,4|10,3:0|0:0,0:0:0:0:
129,331,34259,2,0,P|188:301|252:318,1,135,6|8,3:0|0:0,0:0:0:0:
325,362,34936,1,2,0:0:0:0:
325,362,35161,2,0,L|399:358,2,67.5,4|10|10,3:0|0:0|0:0,0:0:0:0:
209,245,36064,6,0,P|195:189|311:24,1,270,6|0,0:1|0:0,0:0:0:0:
356,179,37417,1,0,0:0:0:0:
209,245,37868,2,0,P|149:249|80:204,1,135,10|0,0:1|0:0,0:0:0:0:
33,150,38545,1,2,0:0:0:0:
33,69,38770,2,0,P|89:33|155:36,1,135,2|2,0:0|0:0,0:0:0:0:
252,166,39673,6,0,B|402:183|340:79|510:102,1,270,6|0,3:0|0:0,0:0:0:0:
402,228,41026,1,2,0:0:0:0:
252,166,41477,2,0,L|184:172,1,67.5,10|2,0:1|0:0,0:0:0:0:
75,291,42154,1,2,0:0:0:0:
13,238,42380,2,0,L|25:96,1,135,2|2,0:0|0:0,0:0:0:0:
170,34,43282,6,0,B|301:13|301:13|434:73,1,270,6|0,3:0|0:0,0:0:0:0:
494,216,44635,1,2,0:0:0:0:
340,259,45086,2,0,P|342:201|383:123,1,135,10|0,0:1|0:0,0:0:0:0:
426,69,45763,1,2,0:0:0:0:
350,38,45989,2,0,P|318:28|295:108,1,135,2|2,0:0|0:0,0:0:0:0:
412,209,46891,5,6,3:0:0:0:
412,209,47793,1,2,0:0:0:0:
412,209,48695,2,0,L|406:127,1,67.5,10|2,0:1|0:0,0:0:0:0:
492,279,49372,1,2,0:0:0:0:
429,330,49598,2,0,P|387:344|298:299,1,135,2|2,0:0|0:0,0:0:0:0:
189,199,50500,6,0,L|45:209,2,135,6|2|2,0:1|0:0|0:0,0:0:0:0:
253,149,51628,1,0,0:0:0:0:
318,101,51853,2,0,P|366:95|466:147,1,135,2|10,0:0|0:1,0:0:0:0:
445,125,53207,1,2,0:0:0:0:
341,0,53658,1,2,0:0:0:0:
198,77,54109,6,0,P|132:88|61:56,2,135,6|2|2,3:0|0:0|0:0,0:0:0:0:
341,0,55462,1,2,0:0:0:0:
445,125,55913,2,0,L|431:211,1,67.5,10|2,0:1|0:0,0:0:0:0:
347,329,56590,1,2,0:0:0:0:
337,248,56816,2,0,L|320:113,1,135,2|2,0:0|0:0,0:0:0:0:
173,27,57718,6,0,P|121:43|52:240,1,270,6|0,3:0|0:0,0:0:0:0:
161,340,59071,1,2,0:0:0:0:
317,300,59522,2,0,P|281:233|220:208,1,135,10|0,0:1|0:0,0:0:0:0:
155,242,60199,1,2,0:0:0:0:
84,201,60425,2,0,P|80:117|114:70,1,135,2|2,0:0|0:0,0:0:0:0:
256,17,61327,5,6,3:0:0:0:
256,17,62229,1,2,0:0:0:0:
256,17,63131,2,0,L|185:29,1,67.5,10|2,0:1|0:0,0:0:0:0:
347,63,63808,1,2,0:0:0:0:
405,119,64034,2,0,P|419:161|374:250,1,135,2|2,0:0|0:0,0:0:0:0:
253,335,64936,5,4,0:1:0:0:
56,88,72154,5,8,0:1:0:0:
188,180,72605,1,8,0:1:0:0:
324,92,73056,1,8,0:1:0:0:
456,184,73507,1,8,0:1:0:0:
340,300,73958,2,0,L|176:288,2,135,8|8|10,0:1|0:1|0:1,0:0:0:0:
500,312,75312,1,10,0:1:0:0:
392,192,75763,6,0,P|380:136|400:48,1,135,8|8,0:1|0:1,0:0:0:0:
460,16,76440,1,2,0:0:0:0:
500,84,76665,2,0,P|496:140|484:164,1,67.5,8|2,0:1|0:0,0:0:0:0:
468,228,77116,2,0,P|472:284|484:308,1,67.5,8|2,0:1|0:0,0:0:0:0:
504,372,77567,2,0,L|356:356,1,135,10|8,0:1|0:1,0:0:0:0:
308,304,78244,1,2,0:0:0:0:
248,248,78470,2,0,L|100:232,1,135,8|10,0:1|0:1,0:0:0:0:
24,368,79372,5,10,0:1:0:0:
180,328,79823,1,8,0:1:0:0:
336,284,80274,1,8,0:1:0:0:
492,244,80725,1,8,0:1:0:0:
400,112,81177,2,0,P|344:84|248:108,2,135,10|8|10,0:1|0:1|0:1,0:0:0:0:
492,244,82530,1,10,0:1:0:0:
380,360,82981,6,0,P|316:364|248:328,1,135,10|8,0:1|0:1,0:0:0:0:
184,292,83658,1,2,0:0:0:0:
128,236,83883,2,0,L|136:156,1,67.5,8|2,0:1|0:0,0:0:0:0:
212,140,84334,2,0,L|218:207,1,67.5,8|2,0:1|0:0,0:0:0:0:
284,256,84786,2,0,B|340:280|340:280|424:244,1,135,10|8,0:1|0:1,0:0:0:0:
480,212,85462,1,2,0:0:0:0:
416,160,85688,2,0,P|408:108|440:24,1,135,8|8,0:1|0:1,0:0:0:0:
276,60,86590,6,0,L|128:46,2,135,4|8|4,3:2|0:0|3:0,0:0:0:0:
336,124,87717,1,2,0:0:0:0:
336,124,87943,1,8,0:0:0:0:
204,224,88394,6,0,L|352:210,2,135,4|8|4,3:0|0:0|3:0,0:0:0:0:
151,286,89521,1,10,0:0:0:0:
151,286,89747,1,10,0:0:0:0:
296,360,90199,6,0,P|362:378|434:347,1,135,4|8,3:0|0:0,0:0:0:0:
476,296,90875,1,2,0:0:0:0:
476,296,91101,2,0,L|468:219,1,67.5,4|2,3:0|0:0,0:0:0:0:
424,164,91552,2,0,L|432:87,1,67.5,8|0,0:0|0:0,0:0:0:0:
372,44,92003,2,0,L|223:59,1,135,4|10,3:0|0:0,0:0:0:0:
124,172,92905,1,4,3:0:0:0:
143,250,93131,1,10,0:0:0:0:
215,286,93357,2,0,P|254:288|289:272,1,67.5,10|0,0:0|0:0,0:0:0:0:
332,216,93808,6,0,L|491:237,2,135,4|8|4,3:0|0:0|3:0,0:0:0:0:
276,158,94935,1,2,0:0:0:0:
276,158,95161,1,10,0:0:0:0:
134,72,95612,6,0,L|-25:93,2,135,4|8|4,3:0|0:0|3:0,0:0:0:0:
203,29,96739,1,10,0:0:0:0:
203,29,96965,1,10,0:0:0:0:
320,152,97417,6,0,P|376:160|452:124,1,135,4|8,3:0|0:0,0:0:0:0:
484,56,98093,1,2,0:0:0:0:
412,20,98319,2,0,P|356:12|280:48,1,135,4|8,3:0|0:0,0:0:0:0:
204,184,99221,2,0,L|208:324,1,135,4|8,3:0|0:0,0:0:0:0:
140,364,99898,1,2,0:0:0:0:
140,364,100123,2,0,L|66:360,2,67.5,4|10|10,3:0|0:0|0:0,0:0:0:0:
296,312,101026,6,0,P|282:256|398:91,1,270,6|0,0:1|0:0,0:0:0:0:
440,248,102379,1,2,0:0:0:0:
296,312,102830,2,0,P|236:308|167:353,1,135,10|0,0:1|0:0,0:0:0:0:
96,368,103507,1,2,0:0:0:0:
36,312,103732,2,0,L|28:168,1,135,2|2,0:0|0:0,0:0:0:0:
136,56,104635,6,0,B|286:39|224:143|394:120,1,270,6|0,3:0|0:0,0:0:0:0:
496,240,105988,1,2,0:0:0:0:
368,340,106439,2,0,L|300:337,1,67.5,10|2,0:1|0:0,0:0:0:0:
163,250,107116,1,2,0:0:0:0:
146,170,107342,2,0,L|157:35,1,135,2|2,0:0|0:0,0:0:0:0:
320,28,108244,6,0,B|300:160|300:160|359:292,1,270,6|0,3:0|0:0,0:0:0:0:
436,144,109597,1,2,0:0:0:0:
320,28,110048,2,0,P|262:26|176:60,1,135,10|0,0:1|0:0,0:0:0:0:
152,124,110725,1,2,0:0:0:0:
128,200,110951,2,0,P|118:232|48:188,1,135,2|2,0:0|0:0,0:0:0:0:
72,48,111853,5,4,3:0:0:0:
72,48,112755,1,2,0:0:0:0:
72,48,113658,2,0,L|-10:37,1,67.5,10|2,0:1|0:0,0:0:0:0:
122,150,114334,1,2,0:0:0:0:
193,111,114560,2,0,P|235:97|336:116,1,135,2|2,0:0|0:0,0:0:0:0:
476,56,115462,6,0,L|486:200,2,135,6|2|2,0:1|0:0|0:0,0:0:0:0:
412,8,116590,1,0,0:0:0:0:
344,48,116815,2,0,P|296:54|196:2,1,135,2|10,0:0|0:1,0:0:0:0:
216,23,118169,1,2,0:0:0:0:
124,156,118620,1,2,0:0:0:0:
240,272,119071,6,0,P|306:261|377:293,2,135,4|2|2,3:0|0:0|0:0,0:0:0:0:
108,364,120424,1,2,0:0:0:0:
4,240,120875,2,0,L|10:161,1,67.5,10|2,0:1|0:0,0:0:0:0:
88,31,121552,1,2,0:0:0:0:
147,86,121778,2,0,P|211:94|282:69,1,135,2|2,0:0|0:0,0:0:0:0:
416,154,122680,6,0,P|324:158|184:294,1,270,6|0,3:0|0:0,0:0:0:0:
308,383,124033,1,2,0:0:0:0:
469,369,124484,2,0,L|449:217,1,135,10|0,0:1|0:0,0:0:0:0:
421,159,125161,1,2,0:0:0:0:
358,107,125387,2,0,P|274:111|227:77,1,135,2|2,0:0|0:0,0:0:0:0:
72,98,126289,5,6,3:0:0:0:
72,98,127191,1,2,0:0:0:0:
72,98,128094,2,0,L|54:21,1,67.5,10|2,0:1|0:0,0:0:0:0:
30,192,128770,1,2,0:0:0:0:
97,237,128996,2,0,P|139:223|232:259,1,135,2|2,0:0|0:0,0:0:0:0:
320,379,129898,5,4,0:0:0:0:
344,332,144109,5,4,3:0:0:0:
344,332,144334,2,0,L|340:256,1,67.5,4|0,3:0|0:0,0:0:0:0:
284,204,144786,2,0,P|232:232|152:196,1,135,2|0,0:0|0:0,0:0:0:0:
108,152,145462,1,2,0:0:0:0:
108,152,145688,1,2,0:0:0:0:
240,56,146139,6,0,P|280:56|328:64,1,67.5,4|0,3:0|0:0,0:0:0:0:
372,108,146591,2,0,P|400:160|364:240,1,135
320,284,147267,1,2,0:0:0:0:
320,284,147493,1,2,0:0:0:0:
464,356,147943,5,4,3:0:0:0:
464,356,149748,5,4,3:0:0:0:
464,356,151552,6,0,L|452:284,1,67.5,4|0,3:0|0:0,0:0:0:0:
396,232,152004,2,0,P|368:180|400:96,1,135
444,52,152680,1,2,0:0:0:0:
444,52,152906,1,2,0:0:0:0:
288,92,153357,6,0,P|244:100|216:92,1,67.5,4|0,3:0|0:0,0:0:0:0:
148,64,153808,2,0,P|108:60|48:152,1,135
68,204,154485,1,2,0:0:0:0:
68,204,154710,1,2,0:0:0:0:
28,360,155161,5,4,3:0:0:0:
28,360,156966,5,4,3:0:0:0:
28,360,158770,6,0,P|100:337|107:59,1,405,4|0,3:1|0:0,0:0:0:0:
22,197,160575,2,0,P|138:250|391:134,1,405,8|0,0:1|0:0,0:0:0:0:
265,35,162380,2,0,P|123:133|211:321,1,405,8|0,0:1|0:0,0:0:0:0:
359,354,164184,2,0,P|432:370|352:214,1,405,8|0,0:1|0:0,0:0:0:0:
196,238,165989,6,0,P|124:274|180:122,1,405,12|0,0:1|0:0,0:0:0:0:
332,165,167793,2,0,L|328:313,1,135,8|0,0:1|0:0,0:0:0:0:
304,376,168470,1,2,0:0:0:0:
241,324,168695,2,0,P|181:320|106:327,1,135,2|2,0:0|0:0,0:0:0:0:
32,182,169598,5,4,3:0:0:0:
32,182,170500,1,2,0:0:0:0:
299,364,171402,2,0,L|223:358,1,67.5,4|0,3:1|0:0,0:0:0:0:
375,283,172079,1,0,0:0:0:0:
425,219,172305,2,0,P|420:165|393:82,1,135
233,87,173207,6,0,L|89:97,2,135,4|0|4,3:0|0:0|3:0,0:0:0:0:
289,29,174334,1,0,0:0:0:0:
351,80,174560,2,0,P|396:110|483:114,1,135,0|8,0:0|0:1,0:0:0:0:
229,341,175914,1,4,3:0:0:0:
390,356,176365,1,2,0:0:0:0:
287,230,176816,6,0,P|221:219|150:251,2,135,4|2|4,3:0|0:0|3:0,0:0:0:0:
390,356,178169,1,2,0:0:0:0:
476,219,178620,2,0,L|486:144,1,67.5,8|2,0:1|0:0,0:0:0:0:
388,21,179297,1,2,0:0:0:0:
325,70,179523,2,0,L|309:206,1,135,4|2,0:3|0:0,0:0:0:0:
231,346,180425,6,0,P|247:298|444:225,1,270,4|4,3:0|3:0,0:0:0:0:
509,78,181778,1,2,0:0:0:0:
352,128,182229,2,0,P|288:128|212:92,1,135,8|0,0:1|0:0,0:0:0:0:
164,44,182906,1,2,0:0:0:0:
92,84,183132,2,0,P|60:142|69:208,1,135,4|2,3:0|0:0,0:0:0:0:
168,336,184034,5,4,3:0:0:0:
168,336,184936,1,4,3:0:0:0:
168,336,185838,2,0,L|78:333,1,67.5,8|2,0:1|0:0,0:0:0:0:
227,232,186515,1,2,0:0:0:0:
167,176,186741,2,0,P|150:125|164:24,1,135,4|2,3:0|0:0,0:0:0:0:
308,99,187643,5,12,0:1:0:0:
256,192,187868,12,0,202079,0:0:0:0:
