osu file format v14

[General]
AudioFilename: audio.mp3
AudioLeadIn: 0
PreviewTime: 35613
Countdown: 0
SampleSet: Soft
StackLeniency: 0.4
Mode: 0
LetterboxInBreaks: 0
WidescreenStoryboard: 1

[Editor]
Bookmarks: 7192,21628,37868,42154,64936,72154,86590,101026,129898,144334,158770,187643
DistanceSpacing: 0.8
BeatDivisor: 4
GridSize: 32
TimelineZoom: 0.6999998

[Metadata]
Title:Goodbye
TitleUnicode:Goodbye
Artist:CircusP
ArtistUnicode:CircusP
Creator:Shmiklak
Version:Easy
Source:osu!
Tags:marvollo m_a_r_v_o_l_l_o wajinshu daycore mappers' guild fa featured artist vocaloid english electronic pop Five Hatsune Miku Circus-P 初音ミク mpg mg
BeatmapID:2541528
BeatmapSetID:1157992

[Difficulty]
HPDrainRate:1
CircleSize:2.5
OverallDifficulty:2
ApproachRate:3
SliderMultiplier:1.15
SliderTickRate:1

[Events]
//Background and Video events
0,0,"Goodbye.jpg",0,0
Video,-180,"Goodbye.avi"
//Break Periods
2,65136,70714
2,130098,142894
//Storyboard Layer 0 (Background)
//Storyboard Layer 1 (Fail)
//Storyboard Layer 2 (Pass)
//Storyboard Layer 3 (Foreground)
//Storyboard Layer 4 (Overlay)
//Storyboard Sound Samples

[TimingPoints]
-26,451.127819548872,4,2,1,50,1,0
35951,-100,4,2,1,80,0,0
36064,-100,4,2,1,80,0,0
37304,-100,4,2,1,80,0,0
37417,-100,4,2,1,80,0,0
37755,-100,4,2,1,80,0,0
37868,-100,4,2,1,80,0,0
37981,-100,4,2,1,80,0,0
38545,-100,4,2,1,80,0,0
39673,-100,4,2,1,80,0,0
40913,-100,4,2,1,80,0,0
41026,-100,4,2,1,80,0,0
41364,-100,4,2,1,80,0,0
41477,-100,4,2,1,80,0,0
41590,-100,4,2,1,80,0,0
43282,-100,4,2,1,80,0,0
44522,-100,4,2,1,80,0,0
44635,-100,4,2,1,80,0,0
44973,-100,4,2,1,80,0,0
45086,-100,4,2,1,80,0,0
45199,-100,4,2,1,80,0,0
45763,-100,4,2,1,80,0,0
46891,-100,4,2,1,80,0,0
47680,-100,4,2,1,80,0,0
47793,-100,4,2,1,80,0,0
48583,-100,4,2,1,80,0,0
48695,-100,4,2,1,80,0,0
48808,-100,4,2,1,80,0,0
48921,-100,4,2,1,80,0,0
50500,-100,4,2,1,80,0,0
52192,-100,4,2,1,80,0,0
52304,-100,4,2,1,80,0,0
52417,-100,4,2,1,80,0,0
53207,-100,4,2,1,80,0,0
56026,-100,4,2,1,80,0,0
56139,-100,4,2,1,80,0,0
58958,-100,4,2,1,80,0,0
59071,-100,4,2,1,80,0,0
59410,-100,4,2,1,80,0,0
59522,-100,4,2,1,80,0,0
59635,-100,4,2,1,80,0,0
60199,-100,4,2,1,80,0,0
62116,-100,4,2,1,80,0,0
62229,-100,4,2,1,80,0,0
63019,-100,4,2,1,80,0,0
63131,-100,4,2,1,80,0,0
63244,-100,4,2,1,80,0,0
63357,-100,4,2,1,80,0,0
72154,-100,4,2,1,80,0,0
101026,-100,4,2,1,80,0,0
102267,-100,4,2,1,80,0,0
102380,-100,4,2,1,80,0,0
102717,-100,4,2,1,80,0,0
102830,-100,4,2,1,80,0,0
102943,-100,4,2,1,80,0,0
103507,-100,4,2,1,80,0,0
104635,-100,4,2,1,80,0,0
105876,-100,4,2,1,80,0,0
105989,-100,4,2,1,80,0,0
106326,-100,4,2,1,80,0,0
106439,-100,4,2,1,80,0,0
106552,-100,4,2,1,80,0,0
108244,-100,4,2,1,80,0,0
109485,-100,4,2,1,80,0,0
109598,-100,4,2,1,80,0,0
109935,-100,4,2,1,80,0,0
110048,-100,4,2,1,80,0,0
110161,-100,4,2,1,80,0,0
110725,-100,4,2,1,80,0,0
111853,-100,4,2,1,80,0,0
112643,-100,4,2,1,80,0,0
112755,-100,4,2,1,80,0,0
113545,-100,4,2,1,80,0,0
113657,-100,4,2,1,80,0,0
113770,-100,4,2,1,80,0,0
113883,-100,4,2,1,80,0,0
115462,-100,4,2,1,80,0,0
117379,-100,4,2,1,80,0,0
118169,-100,4,2,1,80,0,0
120988,-100,4,2,1,80,0,0
121101,-100,4,2,1,80,0,0
123921,-100,4,2,1,80,0,0
124034,-100,4,2,1,80,0,0
124372,-100,4,2,1,80,0,0
124484,-100,4,2,1,80,0,0
124597,-100,4,2,1,80,0,0
125161,-100,4,2,1,80,0,0
127079,-100,4,2,1,80,0,0
127192,-100,4,2,1,80,0,0
127981,-100,4,2,1,80,0,0
128094,-100,4,2,1,80,0,0
128206,-100,4,2,1,80,0,0
128319,-100,4,2,1,80,0,0
134861,-100,4,2,2,80,0,0
136214,-100,4,2,1,80,0,0
136665,-100,4,2,1,25,0,0
137116,-100,4,2,1,80,0,0
144334,-100,4,2,1,80,0,0
158770,-100,4,2,1,80,0,0
160124,-100,4,2,1,10,0,0
160349,-100,4,2,1,10,0,0
160575,-100,4,2,1,80,0,0
161928,-100,4,2,1,10,0,0
162154,-100,4,2,1,10,0,0
162379,-100,4,2,1,80,0,0
163733,-100,4,2,1,10,0,0
164184,-100,4,2,1,80,0,0
165537,-100,4,2,1,10,0,0
165763,-100,4,2,1,10,0,0
165988,-100,4,2,1,80,0,0
167905,-100,4,2,1,80,0,0
169597,-100,4,2,1,80,0,0
171514,-100,4,2,1,80,0,0
173206,-100,4,2,1,80,0,0
175123,-100,4,2,1,80,0,0
175913,-100,4,2,1,80,0,0
178732,-100,4,2,1,80,0,0
178846,-100,4,2,1,80,0,0
182116,-100,4,2,1,80,0,0
182229,-100,4,2,1,80,0,0
202079,-100,4,2,1,10,0,0

[Colours]
Combo1 : 171,236,140
Combo2 : 255,155,130
Combo3 : 255,174,223
Combo4 : 145,208,255

[HitObjects]
295,361,7192,6,0,P|360:366|414:331,2,115,6|4|6,3:0|3:0|3:0,0:0:0:0:
209,327,8545,1,6,3:0:0:0:
130,278,8996,2,0,L|138:159,1,115,4|4,3:0|3:0,0:0:0:0:
207,103,9898,2,0,B|335:128|288:18|420:42,1,230,4|6,3:0|3:0,0:0:0:0:
491,93,11252,5,4,3:0:0:0:
464,181,11703,2,0,P|410:186|349:161,1,115,6|6,3:0|3:0,0:0:0:0:
272,123,12605,2,0,P|213:128|158:274,1,230,6|6,3:0|3:0,0:0:0:0:
205,345,13958,1,6,3:0:0:0:
115,368,14410,6,0,L|-7:355,2,115,4|4|6,3:0|3:0|3:0,0:0:0:0:
205,345,15763,1,6,3:0:0:0:
277,288,16214,2,0,P|326:260|401:265,1,115,4|4,3:0|3:0,0:0:0:0:
472,283,17116,2,0,P|468:172|447:42,1,230,4|6,3:0|3:0,0:0:0:0:
361,27,18470,5,4,3:0:0:0:
324,111,18921,2,0,P|324:173|355:219,1,115,6|6,3:0|3:0,0:0:0:0:
298,291,19823,2,0,P|247:247|121:333,1,230,4|6,3:0|3:0,0:0:0:0:
55,379,21177,1,6,3:0:0:0:
18,294,21628,6,0,L|9:166,2,115,6|8|4,3:2|0:0|3:0,0:0:0:0:
55,379,22981,1,10,0:0:0:0:
140,344,23432,2,0,P|191:330|268:335,1,115,6|8,3:0|0:0,0:0:0:0:
323,273,24334,2,0,P|374:287|451:282,1,115,6|10,3:0|0:0,0:0:0:0:
494,214,25237,5,6,3:0:0:0:
502,122,25688,1,8,0:0:0:0:
439,54,26139,2,0,P|384:45|324:71,1,115,4|10,3:0|0:0,0:0:0:0:
280,143,27041,2,0,B|152:168|199:58|67:82,1,230,6|4,3:0|3:0,0:0:0:0:
8,148,28395,1,10,0:0:0:0:
52,228,28846,6,0,L|189:215,2,115,6|8|4,3:0|0:0|3:0,0:0:0:0:
8,148,30199,1,10,0:0:0:0:
65,75,30650,2,0,P|116:71|184:92,1,115,6|8,3:0|0:0,0:0:0:0:
244,150,31552,2,0,P|295:154|363:133,1,115,4|10,3:0|0:0,0:0:0:0:
424,75,32455,5,6,3:0:0:0:
455,161,32906,1,8,0:0:0:0:
436,251,33357,2,0,P|381:242|321:268,1,115,4|10,3:0|0:0,0:0:0:0:
279,341,34259,2,0,B|151:366|198:256|66:280,1,230,6|4,3:0|3:0,0:0:0:0:
6,212,35613,1,10,0:0:0:0:
22,121,36064,6,0,P|74:78|302:180,1,345,6|0,0:1|0:0,0:0:0:0:
332,256,37868,2,0,P|406:312|473:202,1,230,10|2,0:1|0:0,0:0:0:0:
448,137,39222,1,2,0:0:0:0:
409,53,39673,6,0,B|281:28|328:138|196:114,1,230,6|0,3:0|0:0,0:0:0:0:
119,71,41026,1,2,0:0:0:0:
51,133,41477,2,0,L|64:198,1,57.5,10|2,0:1|0:0,0:0:0:0:
11,266,42154,2,0,L|-2:331,1,57.5,2|2,0:0|0:0,0:0:0:0:
78,369,42831,1,2,0:0:0:0:
154,317,43282,6,0,P|229:229|438:280,1,345,6|2,3:0|0:0,0:0:0:0:
506,217,45086,2,0,P|507:169|512:100,1,115,10|0,0:1|0:0,0:0:0:0:
452,31,45989,2,0,P|394:35|337:36,1,115,2|2,0:0|0:0,0:0:0:0:
265,95,46891,6,0,B|157:67|157:67|43:114,1,230,6|2,3:0|0:0,0:0:0:0:
78,293,48695,2,0,L|146:283,1,57.5,10|2,0:1|0:0,0:0:0:0:
211,336,49372,2,0,L|279:346,1,57.5,2|2,0:0|0:0,0:0:0:0:
346,296,50049,1,2,0:0:0:0:
310,211,50500,6,0,P|309:165|328:89,2,115,6|2|2,0:1|0:0|0:0,0:0:0:0:
363,285,51853,1,2,0:0:0:0:
337,373,52304,2,0,P|246:326|121:360,1,230,10|2,0:1|0:0,0:0:0:0:
45,312,53658,1,2,0:0:0:0:
97,236,54109,6,0,P|92:195|60:114,1,115,6|2,3:0|0:0,0:0:0:0:
126,56,55011,2,0,P|183:48|236:27,1,115,2|2,0:0|0:0,0:0:0:0:
323,55,55913,2,0,B|410:42|410:42|486:91,2,172.5,10|2|2,0:1|0:0|0:0,0:0:0:0:
269,130,57718,6,0,B|141:155|188:45|56:69,1,230,6|0,3:0|0:0,0:0:0:0:
17,151,59071,1,2,0:0:0:0:
57,231,59522,2,0,P|110:280|256:244,1,230,10|2,0:1|0:0,0:0:0:0:
308,175,60876,1,2,0:0:0:0:
241,111,61327,6,0,B|160:125|160:125|97:97|97:97|13:106,1,230,6|2,3:0|0:0,0:0:0:0:
5,289,63131,2,0,L|65:298,1,57.5,10|2,0:1|0:0,0:0:0:0:
147,331,63808,2,0,L|207:322,1,57.5,2|2,0:0|0:0,0:0:0:0:
287,361,64485,1,2,0:0:0:0:
360,305,64936,5,4,0:1:0:0:
183,290,72154,6,0,L|45:303,2,115,8|8|8,0:1|0:1|0:1,0:0:0:0:
251,229,73507,1,8,0:1:0:0:
316,163,73958,2,0,L|430:152,2,115,8|8|10,0:1|0:1|0:1,0:0:0:0:
251,229,75312,1,10,0:1:0:0:
170,183,75763,6,0,P|156:143|172:50,1,115,8|8,0:1|0:1,0:0:0:0:
238,20,76665,2,0,P|294:12|349:28,1,115,8|8,0:1|0:1,0:0:0:0:
410,97,77567,2,0,P|424:137|408:230,1,115,10|8,0:1|0:1,0:0:0:0:
342,260,78469,2,0,P|285:267|230:251,1,115,8|10,0:1|0:1,0:0:0:0:
168,182,79372,5,10,0:1:0:0:
104,248,79823,2,0,L|100:364,2,115,8|8|8,0:1|0:1|0:1,0:0:0:0:
46,175,81177,2,0,L|36:55,1,115,10|8,0:1|0:1,0:0:0:0:
120,23,82079,2,0,L|129:137,1,115,10|10,0:1|0:1,0:0:0:0:
183,212,82981,5,10,0:1:0:0:
228,292,83432,2,0,L|354:301,1,115,8|8,0:1|0:1,0:0:0:0:
424,258,84334,1,8,0:1:0:0:
481,185,84786,2,0,P|469:136|435:80,1,115,10|8,0:1|0:1,0:0:0:0:
359,30,85688,1,8,0:1:0:0:
273,63,86139,1,8,0:1:0:0:
185,28,86590,6,0,L|57:36,2,115,4|8|4,3:2|0:0|3:0,0:0:0:0:
271,63,87943,1,8,0:0:0:0:
218,138,88394,2,0,P|167:124|90:129,1,115,4|8,3:0|0:0,0:0:0:0:
27,175,89297,2,0,P|13:226|18:303,1,115,4|10,3:0|0:0,0:0:0:0:
69,361,90199,5,4,3:0:0:0:
159,344,90650,1,8,0:0:0:0:
244,310,91101,2,0,P|253:255|227:195,1,115,4|8,3:0|0:0,0:0:0:0:
276,120,92003,2,0,B|404:145|357:35|489:59,1,230,4|4,3:0|3:0,0:0:0:0:
457,146,93357,1,10,0:0:0:0:
408,224,93808,6,0,L|395:361,2,115,4|8|4,3:0|0:0|3:0,0:0:0:0:
357,147,95161,1,10,0:0:0:0:
282,93,95612,2,0,P|227:76|168:73,1,115,4|8,3:0|0:0,0:0:0:0:
82,106,96514,2,0,P|65:160|68:217,1,115,4|10,3:0|0:0,0:0:0:0:
127,289,97417,5,4,3:0:0:0:
210,327,97868,1,8,0:0:0:0:
287,277,98319,2,0,P|296:222|270:162,1,115,4|8,3:0|0:0,0:0:0:0:
211,101,99221,2,0,B|83:126|130:16|-2:40,1,230,4|4,3:0|3:0,0:0:0:0:
25,128,100575,1,10,0:0:0:0:
52,215,101026,6,0,P|104:258|332:156,1,345,6|2,0:1|0:0,0:0:0:0:
356,77,102830,2,0,P|407:29|486:131,1,230,10|2,0:1|0:0,0:0:0:0:
417,184,104184,1,2,0:0:0:0:
329,212,104635,6,0,B|204:224|251:114|119:138,1,230,6|0,3:0|0:0,0:0:0:0:
37,165,105988,1,2,0:0:0:0:
31,256,106439,2,0,L|48:324,1,57.5,10|2,0:1|0:0,0:0:0:0:
122,361,107116,2,0,L|139:293,1,57.5,2|2,0:0|0:0,0:0:0:0:
201,239,107793,1,2,0:0:0:0:
253,163,108244,6,0,P|395:124|461:301,1,345,6|2,3:0|0:0,0:0:0:0:
408,343,110048,2,0,P|360:342|291:337,1,115,10|0,0:1|0:0,0:0:0:0:
212,293,110951,2,0,P|213:246|218:176,1,115,2|2,0:0|0:0,0:0:0:0:
230,87,111853,6,0,B|339:132|339:132|451:72,1,230,4|2,3:0|0:0,0:0:0:0:
485,256,113657,2,0,L|413:247,1,57.5,10|2,0:1|0:0,0:0:0:0:
355,305,114334,2,0,L|283:314,1,57.5,2|2,0:0|0:0,0:0:0:0:
217,357,115011,1,2,0:0:0:0:
174,275,115462,6,0,P|175:229|156:153,2,115,6|2|2,0:1|0:0|0:0,0:0:0:0:
112,343,116815,1,2,0:0:0:0:
29,301,117266,2,0,P|1:192|19:64,1,230,10|2,0:1|0:0,0:0:0:0:
94,30,118620,1,2,0:0:0:0:
173,75,119071,6,0,P|216:87|295:55,1,115,4|2,3:0|0:0,0:0:0:0:
348,130,119973,2,0,P|391:118|470:150,1,115,2|2,0:0|0:0,0:0:0:0:
472,228,120875,2,0,B|393:260|393:260|311:221,2,172.5,10|2|2,0:1|0:0|0:0,0:0:0:0:
456,138,122680,6,0,B|328:162|375:52|248:77,1,230,6|0,3:0|0:0,0:0:0:0:
157,93,124033,1,2,0:0:0:0:
76,137,124484,2,0,P|46:239|141:333,1,230,10|2,0:1|0:0,0:0:0:0:
209,347,125838,1,2,0:0:0:0:
298,326,126289,6,0,B|306:247|306:247|288:186|288:186|301:99,1,230,6|2,3:0|0:0,0:0:0:0:
464,15,128094,2,0,P|450:58|447:87,1,57.5,10|2,0:1|0:0,0:0:0:0:
397,146,128770,2,0,P|411:189|414:218,1,57.5,2|2,0:0|0:0,0:0:0:0:
462,278,129447,1,2,0:0:0:0:
396,343,129898,5,4,0:0:0:0:
412,80,144334,5,4,3:0:0:0:
122,172,146139,5,4,3:0:0:0:
327,314,147943,5,4,3:0:0:0:
253,140,149748,5,4,3:0:0:0:
253,140,151552,5,4,3:0:0:0:
437,326,153357,5,4,3:0:0:0:
77,248,155161,5,4,3:0:0:0:
428,137,156966,5,4,3:0:0:0:
428,137,158770,6,0,B|376:149|347:204|359:288|279:315|186:296|147:237,1,345,4|0,3:1|0:0,0:0:0:0:
101,178,160575,2,0,P|72:129|185:178,1,345,8|0,0:1|0:0,0:0:0:0:
158,251,162380,2,0,P|160:293|320:218,1,345,8|0,0:1|0:0,0:0:0:0:
295,135,164184,2,0,P|423:63|445:209,1,345,8|0,0:1|0:0,0:0:0:0:
374,267,165989,6,0,P|283:289|111:124,1,345,12|0,0:1|0:0,0:0:0:0:
25,105,167793,2,0,L|14:342,1,230,8|2,0:1|0:0,0:0:0:0:
102,360,169146,1,2,0:0:0:0:
186,323,169598,6,0,B|158:215|158:215|205:101,1,230,4|2,3:0|0:0,0:0:0:0:
391,27,171402,2,0,L|380:92,1,57.5,4|0,3:1|0:0,0:0:0:0:
455,138,172079,2,0,L|466:203,1,57.5
430,279,172755,1,0,0:0:0:0:
370,349,173207,6,0,P|324:350|248:331,2,115,4|0|4,3:0|0:0|3:0,0:0:0:0:
430,279,174560,1,0,0:0:0:0:
366,212,175011,2,0,P|252:198|141:226,1,230,8|4,0:1|3:0,0:0:0:0:
103,309,176365,1,2,0:0:0:0:
45,236,176816,6,0,P|40:195|8:114,1,115,4|2,3:0|0:0,0:0:0:0:
79,60,177718,2,0,P|132:81|188:90,1,115,4|2,3:0|0:0,0:0:0:0:
277,64,178620,2,0,B|364:51|364:51|440:100,2,172.5,8|2|2,0:1|0:0|0:0,0:0:0:0:
207,119,180425,6,0,B|79:144|126:34|-6:58,1,230,4|4,3:0|0:3,0:0:0:0:
31,145,181778,1,2,0:0:0:0:
8,234,182229,2,0,P|80:325|193:293,1,230,8|4,0:1|3:0,0:0:0:0:
237,231,183583,1,2,0:0:0:0:
254,140,184034,6,0,P|326:49|439:81,1,230,4|4,3:0|3:0,0:0:0:0:
493,240,185838,2,0,P|444:232|431:230,1,57.5,8|2,0:1|0:0,0:0:0:0:
357,278,186515,2,0,P|310:295|298:300,1,57.5,2|4,0:0|3:0,0:0:0:0:
246,371,187192,1,2,0:0:0:0:
168,321,187643,5,12,0:1:0:0:
256,192,187868,12,0,202079,0:0:0:0:
