osu file format v14

[General]
AudioFilename: audio.mp3
AudioLeadIn: 0
PreviewTime: 35792
Countdown: 0
SampleSet: Soft
StackLeniency: 0.4
Mode: 0
LetterboxInBreaks: 0
WidescreenStoryboard: 1

[Editor]
Bookmarks: 7371,21807,36243,50679,65115,72333,86769,101205,115641,130077,144513,158949,173386,187822
DistanceSpacing: 1.3
BeatDivisor: 4
GridSize: 32
TimelineZoom: 1.1

[Metadata]
Title:Goodbye
TitleUnicode:Goodbye
Artist:CircusP
ArtistUnicode:CircusP
Creator:Pachiru
Version:Noffy's Hard
Source:osu!
Tags:hatsune miku 初音ミク english pop electronic vocaloid fa featured artist noffy blastthekidd circus-p
BeatmapID:2634976
BeatmapSetID:1155610

[Difficulty]
HPDrainRate:4
CircleSize:3.5
OverallDifficulty:5
ApproachRate:6.5
SliderMultiplier:1.6
SliderTickRate:1

[Events]
//Background and Video events
0,0,"siroton.jpg",0,0
//Break Periods
2,65325,71368
2,130287,134075
//Storyboard Layer 0 (Background)
//Storyboard Layer 1 (Fail)
//Storyboard Layer 2 (Pass)
//Storyboard Layer 3 (Foreground)
//Storyboard Layer 4 (Overlay)
//Storyboard Sound Samples

[TimingPoints]
163,451.127819548872,4,2,0,40,1,0
7381,-133.333333333333,4,2,1,50,0,0
10425,-133.333333333333,4,2,1,5,0,0
10538,-133.333333333333,4,2,1,50,0,0
17643,-133.333333333333,4,2,1,5,0,0
17756,-133.333333333333,4,2,1,50,0,0
21252,-133.333333333333,4,2,1,5,0,0
21366,-133.333333333333,4,2,1,50,0,0
21817,-100,4,2,1,60,0,0
22831,-100,4,2,1,5,0,0
22944,-100,4,2,1,60,0,0
24636,-100,4,2,1,5,0,0
24749,-100,4,2,1,60,0,0
26440,-100,4,2,1,5,0,0
26553,-100,4,2,1,60,0,0
30049,-100,4,2,1,5,0,0
30162,-100,4,2,1,60,0,0
31854,-100,4,2,1,5,0,0
31967,-100,4,2,1,60,0,0
33658,-100,4,2,1,5,0,0
33772,-100,4,2,1,60,0,0
36140,-100,4,2,1,5,0,0
36253,-80,4,2,1,70,0,0
37944,-80,4,2,1,5,0,0
38057,-80,4,2,1,70,0,0
38620,-80,4,2,1,5,0,0
38734,-80,4,2,1,70,0,0
39297,-80,4,2,1,5,0,0
39411,-80,4,2,1,70,0,0
39749,-80,4,2,1,5,0,0
39862,-80,4,2,1,70,0,0
41553,-80,4,2,1,5,0,0
41666,-80,4,2,1,70,0,0
41778,-80,4,2,1,5,0,0
41892,-80,4,2,1,70,0,0
42230,-80,4,2,1,5,0,0
42343,-80,4,2,1,70,0,0
42907,-80,4,2,1,5,0,0
43020,-80,4,2,1,70,0,0
43358,-80,4,2,1,5,0,0
43471,-80,4,2,1,70,0,0
45162,-80,4,2,1,5,0,0
45275,-80,4,2,1,70,0,0
45838,-80,4,2,1,5,0,0
45952,-80,4,2,1,70,0,0
46516,-80,4,2,1,5,0,0
46629,-80,4,2,1,70,0,0
46967,-80,4,2,1,5,0,0
47080,-80,4,2,1,70,0,0
47418,-80,4,2,1,5,0,0
47531,-80,4,2,1,70,0,0
48996,-80,4,2,1,5,0,0
49110,-80,4,2,1,70,0,0
49448,-80,4,2,1,5,0,0
49561,-80,4,2,1,70,0,0
50125,-80,4,2,1,5,0,0
50238,-80,4,2,1,70,0,0
50576,-80,4,2,1,5,0,0
50689,-80,4,2,1,70,0,0
51027,-80,4,2,1,5,0,0
51140,-80,4,2,1,70,0,0
51478,-80,4,2,1,5,0,0
51591,-80,4,2,1,70,0,0
51929,-80,4,2,1,5,0,0
52042,-80,4,2,1,70,0,0
52380,-80,4,2,1,5,0,0
52493,-80,4,2,1,70,0,0
53282,-80,4,2,1,5,0,0
53396,-80,4,2,1,70,0,0
53734,-80,4,2,1,5,0,0
53847,-80,4,2,1,70,0,0
54185,-80,4,2,1,5,0,0
54298,-80,4,2,1,70,0,0
54636,-80,4,2,1,5,0,0
54749,-80,4,2,1,70,0,0
55087,-80,4,2,1,5,0,0
55200,-80,4,2,1,70,0,0
55989,-80,4,2,1,5,0,0
56102,-80,4,2,1,70,0,0
56214,-80,4,2,1,5,0,0
56328,-80,4,2,1,70,0,0
56666,-80,4,2,1,5,0,0
56779,-80,4,2,1,70,0,0
57343,-80,4,2,1,5,0,0
57456,-80,4,2,1,70,0,0
57794,-80,4,2,1,5,0,0
57907,-80,4,2,1,70,0,0
59598,-80,4,2,1,5,0,0
59711,-80,4,2,1,70,0,0
60274,-80,4,2,1,5,0,0
60388,-80,4,2,1,70,0,0
60952,-80,4,2,1,5,0,0
61065,-80,4,2,1,70,0,0
61403,-80,4,2,1,5,0,0
61516,-80,4,2,1,70,0,0
61854,-80,4,2,1,5,0,0
61967,-80,4,2,1,70,0,0
63432,-80,4,2,1,5,0,0
63546,-80,4,2,1,70,0,0
63884,-80,4,2,1,5,0,0
63997,-80,4,2,1,70,0,0
64561,-80,4,2,1,5,0,0
64674,-80,4,2,1,70,0,0
65012,-80,4,2,1,5,0,0
65125,-80,4,2,1,70,0,0
66027,-80,4,2,1,65,0,0
66929,-80,4,2,1,60,0,0
67832,-80,4,2,1,55,0,0
68734,-80,4,2,1,50,0,0
69636,-80,4,2,1,45,0,0
70538,-80,4,2,1,40,0,0
71441,-80,4,2,1,35,0,0
72343,-80,4,2,1,70,0,0
86779,-80,4,2,1,75,0,0
87794,-80,4,2,1,5,0,0
87907,-80,4,2,1,75,0,0
89598,-80,4,2,1,5,0,0
89711,-80,4,2,1,75,0,0
91403,-80,4,2,1,5,0,0
91516,-80,4,2,1,75,0,0
95012,-80,4,2,1,5,0,0
95125,-80,4,2,1,75,0,0
96816,-80,4,2,1,5,0,0
96929,-80,4,2,1,75,0,0
98621,-80,4,2,1,5,0,0
98734,-80,4,2,1,75,0,0
101102,-80,4,2,1,5,0,0
101215,-74.0740740740741,4,2,1,70,0,0
102455,-74.0740740740741,4,2,1,5,0,0
102569,-74.0740740740741,4,2,1,70,0,0
102907,-74.0740740740741,4,2,1,5,0,0
103020,-74.0740740740741,4,2,1,70,0,0
103583,-74.0740740740741,4,2,1,5,0,0
103696,-74.0740740740741,4,2,1,70,0,0
104260,-74.0740740740741,4,2,1,5,0,0
104373,-74.0740740740741,4,2,1,70,0,0
104711,-74.0740740740741,4,2,1,5,0,0
104824,-74.0740740740741,4,2,1,70,0,0
106516,-74.0740740740741,4,2,1,5,0,0
106629,-74.0740740740741,4,2,1,70,0,0
106741,-74.0740740740741,4,2,1,5,0,0
106854,-74.0740740740741,4,2,1,70,0,0
107192,-74.0740740740741,4,2,1,5,0,0
107305,-74.0740740740741,4,2,1,70,0,0
107869,-74.0740740740741,4,2,1,5,0,0
107982,-74.0740740740741,4,2,1,70,0,0
108320,-74.0740740740741,4,2,1,5,0,0
108433,-74.0740740740741,4,2,1,70,0,0
110125,-74.0740740740741,4,2,1,5,0,0
110238,-74.0740740740741,4,2,1,70,0,0
110801,-74.0740740740741,4,2,1,5,0,0
110914,-74.0740740740741,4,2,1,70,0,0
111478,-74.0740740740741,4,2,1,5,0,0
111591,-74.0740740740741,4,2,1,70,0,0
111929,-74.0740740740741,4,2,1,5,0,0
112042,-74.0740740740741,4,2,1,70,0,0
112831,-74.0740740740741,4,2,1,5,0,0
112944,-74.0740740740741,4,2,1,70,0,0
113959,-74.0740740740741,4,2,1,5,0,0
114072,-74.0740740740741,4,2,1,70,0,0
114410,-74.0740740740741,4,2,1,5,0,0
114523,-74.0740740740741,4,2,1,70,0,0
115087,-74.0740740740741,4,2,1,5,0,0
115200,-74.0740740740741,4,2,1,70,0,0
115538,-74.0740740740741,4,2,1,5,0,0
115651,-74.0740740740741,4,2,1,70,0,0
115989,-74.0740740740741,4,2,1,5,0,0
116102,-74.0740740740741,4,2,1,70,0,0
116440,-74.0740740740741,4,2,1,5,0,0
116553,-74.0740740740741,4,2,1,70,0,0
116891,-74.0740740740741,4,2,1,5,0,0
117005,-74.0740740740741,4,2,1,70,0,0
117343,-74.0740740740741,4,2,1,5,0,0
117456,-74.0740740740741,4,2,1,70,0,0
118696,-74.0740740740741,4,2,1,5,0,0
118809,-74.0740740740741,4,2,1,70,0,0
119147,-74.0740740740741,4,2,1,5,0,0
119260,-74.0740740740741,4,2,1,70,0,0
119598,-74.0740740740741,4,2,1,5,0,0
119711,-74.0740740740741,4,2,1,70,0,0
120049,-74.0740740740741,4,2,1,5,0,0
120162,-74.0740740740741,4,2,1,70,0,0
120500,-74.0740740740741,4,2,1,5,0,0
120613,-74.0740740740741,4,2,1,70,0,0
120951,-74.0740740740741,4,2,1,5,0,0
121065,-74.0740740740741,4,2,1,70,0,0
121177,-74.0740740740741,4,2,1,5,0,0
121290,-74.0740740740741,4,2,1,70,0,0
121628,-74.0740740740741,4,2,1,5,0,0
121741,-74.0740740740741,4,2,1,70,0,0
122305,-74.0740740740741,4,2,1,5,0,0
122418,-74.0740740740741,4,2,1,70,0,0
122756,-74.0740740740741,4,2,1,5,0,0
122869,-74.0740740740741,4,2,1,70,0,0
124561,-74.0740740740741,4,2,1,5,0,0
124674,-74.0740740740741,4,2,1,70,0,0
125237,-74.0740740740741,4,2,1,5,0,0
125350,-74.0740740740741,4,2,1,70,0,0
125914,-74.0740740740741,4,2,1,5,0,0
126027,-74.0740740740741,4,2,1,70,0,0
126365,-74.0740740740741,4,2,1,5,0,0
126478,-74.0740740740741,4,2,1,70,0,0
126816,-74.0740740740741,4,2,1,5,0,0
126929,-74.0740740740741,4,2,1,70,0,0
128395,-74.0740740740741,4,2,1,5,0,0
128508,-74.0740740740741,4,2,1,70,0,0
128846,-74.0740740740741,4,2,1,5,0,0
128959,-74.0740740740741,4,2,1,70,0,0
129523,-74.0740740740741,4,2,1,5,0,0
129636,-74.0740740740741,4,2,1,70,0,0
129974,-74.0740740740741,4,2,1,5,0,0
130087,-74.0740740740741,4,2,1,60,0,0
135050,-133.333333333333,4,2,1,60,0,0
137305,-142.857142857143,4,2,1,60,0,0
138208,-153.846153846154,4,2,1,60,0,0
139110,-166.666666666667,4,2,1,60,0,0
140012,-181.818181818182,4,2,1,60,0,0
140914,-200,4,2,1,60,0,0
141817,-222.222222222222,4,2,1,60,0,0
142719,-250,4,2,1,60,0,0
143621,-285.714285714286,4,2,1,60,0,0
144523,-100,4,2,1,60,0,0
146215,-100,4,2,1,5,0,0
146328,-100,4,2,1,60,0,0
148019,-100,4,2,1,5,0,0
148132,-100,4,2,1,60,0,0
149824,-100,4,2,1,5,0,0
149937,-100,4,2,1,60,0,0
151628,-100,4,2,1,5,0,0
151741,-100,4,2,1,60,0,0
153433,-100,4,2,1,5,0,0
153546,-100,4,2,1,60,0,0
155237,-100,4,2,1,5,0,0
155350,-100,4,2,1,60,0,0
157042,-100,4,2,1,5,0,0
157155,-100,4,2,1,60,0,0
158846,-100,4,2,1,5,0,0
158959,-74.0740740740741,4,2,1,75,0,0
160651,-74.0740740740741,4,2,1,5,0,0
160764,-74.0740740740741,4,2,1,75,0,0
161327,-74.0740740740741,4,2,1,5,0,0
161441,-74.0740740740741,4,2,1,75,0,0
162004,-74.0740740740741,4,2,1,5,0,0
162117,-74.0740740740741,4,2,1,75,0,0
162455,-74.0740740740741,4,2,1,5,0,0
162569,-74.0740740740741,4,2,1,75,0,0
164260,-74.0740740740741,4,2,1,5,0,0
164373,-74.0740740740741,4,2,1,75,0,0
164485,-74.0740740740741,4,2,1,5,0,0
164599,-74.0740740740741,4,2,1,75,0,0
164937,-74.0740740740741,4,2,1,5,0,0
165050,-74.0740740740741,4,2,1,75,0,0
165613,-74.0740740740741,4,2,1,5,0,0
165726,-74.0740740740741,4,2,1,75,0,0
166064,-74.0740740740741,4,2,1,5,0,0
166178,-74.0740740740741,4,2,1,75,0,0
167869,-74.0740740740741,4,2,1,5,0,0
167982,-74.0740740740741,4,2,1,75,0,0
168545,-74.0740740740741,4,2,1,5,0,0
168659,-74.0740740740741,4,2,1,75,0,0
169222,-74.0740740740741,4,2,1,5,0,0
169335,-74.0740740740741,4,2,1,75,0,0
169673,-74.0740740740741,4,2,1,5,0,0
169787,-74.0740740740741,4,2,1,75,0,0
170576,-74.0740740740741,4,2,1,5,0,0
170689,-74.0740740740741,4,2,1,75,0,0
171703,-74.0740740740741,4,2,1,5,0,0
171817,-74.0740740740741,4,2,1,75,0,0
172155,-74.0740740740741,4,2,1,5,0,0
172268,-74.0740740740741,4,2,1,75,0,0
172831,-74.0740740740741,4,2,1,5,0,0
172944,-74.0740740740741,4,2,1,75,0,0
173282,-74.0740740740741,4,2,1,5,0,0
173396,-66.6666666666667,4,2,1,80,0,0
173734,-66.6666666666667,4,2,1,5,0,0
173847,-66.6666666666667,4,2,1,80,0,0
174185,-66.6666666666667,4,2,1,5,0,0
174298,-66.6666666666667,4,2,1,80,0,0
175087,-66.6666666666667,4,2,1,5,0,0
175200,-66.6666666666667,4,2,1,80,0,0
176440,-66.6666666666667,4,2,1,5,0,0
176553,-66.6666666666667,4,2,1,80,0,0
176891,-66.6666666666667,4,2,1,5,0,0
177005,-66.6666666666667,4,2,1,80,0,0
177343,-66.6666666666667,4,2,1,5,0,0
177456,-66.6666666666667,4,2,1,80,0,0
177794,-66.6666666666667,4,2,1,5,0,0
177907,-66.6666666666667,4,2,1,80,0,0
178245,-66.6666666666667,4,2,1,5,0,0
178358,-66.6666666666667,4,2,1,80,0,0
178696,-66.6666666666667,4,2,1,5,0,0
178809,-66.6666666666667,4,2,1,80,0,0
178921,-66.6666666666667,4,2,1,5,0,0
179035,-66.6666666666667,4,2,1,80,0,0
179373,-66.6666666666667,4,2,1,5,0,0
179486,-66.6666666666667,4,2,1,80,0,0
180049,-66.6666666666667,4,2,1,5,0,0
180162,-66.6666666666667,4,2,1,80,0,0
180500,-66.6666666666667,4,2,1,5,0,0
180614,-66.6666666666667,4,2,1,80,0,0
181403,-66.6666666666667,4,2,1,5,0,0
181516,-66.6666666666667,4,2,1,80,0,0
182305,-66.6666666666667,4,2,1,5,0,0
182418,-66.6666666666667,4,2,1,80,0,0
182981,-66.6666666666667,4,2,1,5,0,0
183095,-66.6666666666667,4,2,1,80,0,0
183658,-66.6666666666667,4,2,1,5,0,0
183772,-66.6666666666667,4,2,1,80,0,0
184110,-66.6666666666667,4,2,1,5,0,0
184223,-66.6666666666667,4,2,1,80,0,0
185012,-66.6666666666667,4,2,1,5,0,0
185125,-66.6666666666667,4,2,1,80,0,0
186139,-66.6666666666667,4,2,1,5,0,0
186253,-66.6666666666667,4,2,1,80,0,0
186591,-66.6666666666667,4,2,1,5,0,0
186704,-66.6666666666667,4,2,1,80,0,0
187267,-66.6666666666667,4,2,1,5,0,0
187381,-66.6666666666667,4,2,1,80,0,0
187719,-66.6666666666667,4,2,1,5,0,0
187832,-66.6666666666667,4,2,1,80,0,0

[Colours]
Combo1 : 159,55,105
Combo2 : 34,168,131
Combo3 : 186,134,86

[HitObjects]
52,145,7381,6,0,L|47:83,2,60.0000022888184,2|0|0,3:0|0:0|3:0,0:0:0:0:
100,206,8057,1,2,0:2:0:0:
71,278,8283,2,0,P|97:312|130:322,1,60.0000022888184,0|2,3:0|0:2,0:0:0:0:
188,301,8734,2,0,P|202:274|202:245,1,60.0000022888184,2|2,3:2|0:3,0:0:0:0:
209,139,9185,6,0,L|203:76,2,60.0000022888184,2|0|0,3:0|0:0|3:0,0:0:0:0:
286,131,9862,2,0,L|272:-15,1,120.000004577637,2|0,0:2|0:0,0:0:0:0:
351,1,10538,2,0,L|356:60,1,60.0000022888184,2|2,3:2|0:3,0:0:0:0:
441,112,10990,6,0,L|435:49,2,60.0000022888184,2|0|0,3:0|0:0|3:0,0:0:0:0:
449,189,11666,1,2,0:2:0:0:
420,261,11892,1,0,3:0:0:0:
350,295,12117,1,2,0:2:0:0:
275,272,12343,1,2,3:2:0:0:
232,206,12569,1,2,0:3:0:0:
226,88,12794,6,0,L|163:93,2,60.0000022888184,2|0|0,3:0|0:0|3:0,0:0:0:0:
303,82,13471,1,2,0:2:0:0:
314,159,13696,2,0,P|309:188|291:212,1,60.0000022888184,0|2,3:2|0:2,0:0:0:0:
214,220,14147,2,0,P|191:201|179:173,1,60.0000022888184,0|2,3:2|0:3,0:0:0:0:
242,51,14599,6,0,L|245:111,2,60.0000022888184,2|0|0,3:0|0:0|3:0,0:0:0:0:
171,18,15275,1,2,0:2:0:0:
110,67,15501,2,0,L|115:142,1,60.0000022888184,0|2,3:0|0:2,0:0:0:0:
170,181,15952,2,0,P|175:216|167:254,1,60.0000022888184,2|2,3:2|0:3,0:0:0:0:
29,226,16403,6,0,L|88:221,2,60.0000022888184,2|0|0,3:0|0:0|3:0,0:0:0:0:
7,301,17080,2,0,L|147:316,1,120.000004577637,2|0,0:2|0:0,0:0:0:0:
203,301,17756,2,0,L|262:307,1,60.0000022888184,2|2,3:2|0:3,0:0:0:0:
393,236,18208,6,0,L|467:246,2,60.0000022888184,2|0|0,3:0|0:0|3:0,0:0:0:0:
339,292,18884,1,2,0:2:0:0:
262,307,19110,1,0,3:0:0:0:
185,292,19335,1,2,0:2:0:0:
131,236,19561,1,2,3:2:0:0:
120,158,19787,1,2,0:3:0:0:
235,122,20012,6,0,L|240:62,2,60.0000022888184,2|0|0,3:0|0:0|3:0,0:0:0:0:
279,186,20689,1,2,0:2:0:0:
257,260,20914,2,0,L|251:319,1,60.0000022888184,2|0,3:2|0:0,0:0:0:0:
172,312,21366,2,0,L|177:252,1,60.0000022888184,2|2,3:2|0:3,0:0:0:0:
113,160,21817,6,0,P|167:136|254:183,1,160,2|8,3:0|3:1,0:0:0:0:
315,270,22493,2,0,P|241:293|176:251,1,160,2|2,0:2|0:1,0:0:0:0:
263,99,23170,2,0,L|251:178,1,80,10|2,3:1|0:3,0:0:0:0:
315,270,23621,2,0,P|369:293|456:246,1,160,2|8,3:0|3:1,0:0:0:0:
512,160,24298,2,0,P|438:136|373:178,1,160,2|10,0:2|0:1,0:0:0:0:
465,328,24975,2,0,L|453:248,1,80,10|2,3:1|0:3,0:0:0:0:
373,177,25426,6,0,L|351:335,1,160,2|8,3:0|3:1,0:0:0:0:
260,371,26102,2,0,L|282:212,1,160,2|2,0:2|0:1,0:0:0:0:
260,54,26779,2,0,L|278:141,1,80,10|2,3:1|0:3,0:0:0:0:
188,189,27230,2,0,B|109:225|108:155|33:202,2,160,2|8|0,3:0|3:1|3:0,0:0:0:0:
149,114,28358,1,10,0:1:0:0:
149,114,28584,1,10,3:1:0:0:
300,74,29035,6,0,P|324:128|277:215,1,160,2|8,3:0|3:1,0:0:0:0:
190,276,29711,2,0,P|167:202|209:137,1,160,2|2,0:2|0:1,0:0:0:0:
361,224,30388,2,0,L|282:212,1,80,10|2,3:1|0:3,0:0:0:0:
209,136,30839,2,0,P|155:112|68:159,1,160,2|8,3:0|3:1,0:0:0:0:
7,246,31516,2,0,P|81:269|146:227,1,160,2|10,0:2|0:1,0:0:0:0:
59,75,32193,2,0,L|71:154,1,80,10|2,3:1|0:3,0:0:0:0:
146,226,32644,6,0,L|168:68,1,160,2|8,3:0|3:1,0:0:0:0:
256,29,33320,2,0,L|234:188,1,160,2|2,0:2|0:1,0:0:0:0:
257,347,33997,2,0,L|239:260,1,80,10|2,3:1|0:3,0:0:0:0:
235,188,34448,2,0,B|314:152|315:222|390:175,2,160,2|8|0,3:0|3:1|3:0,0:0:0:0:
284,266,35576,1,10,0:1:0:0:
284,266,35802,1,10,3:1:0:0:
14,87,36253,6,0,B|105:137|105:137|248:131,2,200,4|0|0,3:1|0:0|0:0,0:0:0:0:
230,223,37606,2,0,L|93:227,1,100,2|0,0:2|0:0,0:0:0:0:
201,132,38057,2,0,P|303:161|330:259,1,200,4|0,1:1|0:0,0:0:0:0:
231,227,38734,1,2,0:2:0:0:
294,334,38959,2,0,L|332:241,1,100,2|0,0:2|0:0,0:0:0:0:
201,132,39411,2,0,L|233:232,1,100,2|0,0:2|0:0,0:0:0:0:
391,359,39862,6,0,B|436:265|436:265|541:265,2,200,4|0|0,3:1|0:0|0:0,0:0:0:0:
391,359,41215,2,0,L|438:261,1,100,2|0,0:2|0:0,0:0:0:0:
498,155,41666,1,4,1:1:0:0:
434,268,41892,2,0,L|390:177,1,100,2|0,0:2|0:0,0:0:0:0:
342,56,42343,1,2,0:2:0:0:
390,177,42569,2,0,L|433:86,1,100,2|0,0:2|0:0,0:0:0:0:
274,171,43020,2,0,L|317:261,1,100,2|0,0:2|0:0,0:0:0:0:
326,90,43471,6,0,P|231:75|173:152,2,200,4|0|0,3:1|0:0|0:0,0:0:0:0:
265,264,44824,2,0,L|261:127,1,100,2|0,0:2|0:0,0:0:0:0:
356,235,45275,2,0,P|327:337|229:364,1,200,4|0,1:1|0:0,0:0:0:0:
265,264,45952,1,2,0:2:0:0:
154,328,46178,2,0,L|247:366,1,100,2|0,0:2|0:0,0:0:0:0:
356,235,46629,2,0,L|256:267,1,100,2|0,0:2|0:0,0:0:0:0:
75,191,47080,6,0,L|282:274,1,200,4|0,3:1|0:0,0:0:0:0:
441,80,47982,2,0,L|255:154,1,200,2|0,0:2|0:0,0:0:0:0:
255,154,48884,1,4,1:1:0:0:
305,274,49110,2,0,P|256:284|207:274,1,100,2|0,0:2|0:0,0:0:0:0:
255,154,49561,1,2,0:2:0:0:
336,52,49787,2,0,P|346:100|336:149,1,100,2|0,0:2|0:0,0:0:0:0:
176,51,50238,2,0,P|165:100|175:149,1,100,2|0,0:2|0:0,0:0:0:0:
163,299,50689,6,0,L|256:261,1,100,4|0,3:1|0:0,0:0:0:0:
375,313,51140,2,0,L|282:351,1,100,2|0,0:2|0:0,0:0:0:0:
330,230,51591,2,0,L|423:192,1,100,2|0,0:2|0:0,0:0:0:0:
467,69,52042,2,0,L|374:107,1,100,2|0,0:2|0:0,0:0:0:0:
232,149,52493,2,0,P|167:69|253:68,1,200,4|0,1:1|0:0,0:0:0:0:
467,69,53396,6,0,P|456:118|429:162,1,100,2|0,0:2|0:0,0:0:0:0:
379,280,53847,2,0,P|360:234|326:196,1,100,2|0,0:2|0:0,0:0:0:0:
271,78,54298,2,0,P|260:126|234:169,1,100,4|0,3:1|0:0,0:0:0:0:
183,289,54749,2,0,P|163:242|130:205,1,100,2|0,0:2|0:0,0:0:0:0:
5,240,55200,2,0,P|-5:288|3:338,1,100,2|0,0:2|0:0,0:0:0:0:
57,175,55651,2,0,P|64:125|55:76,1,100,2|0,0:2|0:0,0:0:0:0:
170,111,56102,5,4,1:1:0:0:
57,175,56328,2,0,L|148:219,1,100,2|0,0:2|0:0,0:0:0:0:
266,270,56779,1,2,0:2:0:0:
148,219,57005,2,0,L|239:176,1,100,2|0,0:2|0:0,0:0:0:0:
154,335,57456,2,0,L|64:292,1,100,2|0,0:2|0:0,0:0:0:0:
237,175,57907,6,0,P|317:227|311:323,2,200,4|0|0,3:1|0:0|0:0,0:0:0:0:
87,291,59260,2,0,L|205:264,1,100,2|0,0:2|0:0,0:0:0:0:
84,199,59711,2,0,P|3:250|11:345,1,200,4|0,1:1|0:0,0:0:0:0:
87,291,60388,1,2,0:2:0:0:
84,199,60614,2,0,L|174:156,1,100,2|0,0:2|0:0,0:0:0:0:
241,68,61065,2,0,L|284:158,1,100,2|0,0:2|0:0,0:0:0:0:
439,190,61516,6,0,L|256:272,1,200,4|0,3:1|0:0,0:0:0:0:
73,69,62418,2,0,L|256:150,1,200,2|0,0:2|0:0,0:0:0:0:
255,149,63320,1,4,1:1:0:0:
305,269,63546,2,0,P|256:279|207:269,1,100,2|0,0:2|0:0,0:0:0:0:
255,149,63997,1,2,0:2:0:0:
336,47,64223,2,0,P|346:95|336:144,1,100,2|0,0:2|0:0,0:0:0:0:
176,46,64674,2,0,P|165:95|175:144,1,100,2|0,0:2|0:0,0:0:0:0:
256,278,65125,5,4,3:1:0:0:
509,272,72343,6,0,P|455:347|315:291,1,200,0|0,1:0|1:0,0:0:0:0:
304,242,73020,1,2,0:2:0:0:
304,242,73245,1,0,1:0:0:0:
217,182,73471,1,2,0:2:0:0:
217,182,73696,1,2,1:2:0:0:
106,181,73922,1,2,0:3:0:0:
152,314,74147,6,0,P|56:321|-1:244,1,200,0|0,1:0|1:0,0:0:0:0:
16,135,74824,1,2,0:2:0:0:
70,28,75050,2,0,P|165:20|222:97,1,200,0|2,1:0|1:2,0:0:0:0:
106,181,75952,6,0,L|121:384,1,200,0|0,1:0|1:0,0:0:0:0:
220,329,76629,1,2,0:2:0:0:
220,329,76854,1,0,1:0:0:0:
316,369,77080,1,2,0:2:0:0:
316,369,77305,1,2,1:2:0:0:
406,306,77531,1,2,0:3:0:0:
502,250,77756,6,0,P|443:200|317:238,1,200,0|0,1:0|1:0,0:0:0:0:
406,306,78433,1,2,0:2:0:0:
502,250,78659,2,0,L|478:136,1,100,0|2,1:2|0:2,0:0:0:0:
413,15,79110,2,0,L|392:112,1,100,2|2,1:2|0:3,0:0:0:0:
262,232,79561,6,0,L|314:26,1,200,0|0,1:0|1:0,0:0:0:0:
208,69,80238,1,2,0:2:0:0:
208,69,80463,1,0,1:0:0:0:
108,37,80689,1,2,0:2:0:0:
108,37,80914,1,2,1:2:0:0:
21,105,81140,1,2,0:3:0:0:
123,146,81366,6,0,P|118:240|67:344,1,200,0|0,1:0|1:0,0:0:0:0:
272,354,82042,2,0,P|229:264|222:165,1,200,2|0,0:2|0:0,0:0:0:0:
298,85,82719,2,0,L|309:188,1,100,2|2,1:2|0:3,0:0:0:0:
410,297,83170,6,0,L|387:85,1,200,0|0,1:0|1:0,0:0:0:0:
480,31,83847,1,2,0:2:0:0:
480,31,84072,1,0,1:0:0:0:
503,138,84298,1,2,0:2:0:0:
503,138,84523,1,2,1:2:0:0:
482,245,84749,1,2,0:3:0:0:
356,284,84975,6,0,P|261:265|216:179,1,200,0|0,1:0|1:0,0:0:0:0:
326,169,85651,1,2,0:2:0:0:
356,284,85877,2,0,L|343:393,1,100,2|0,1:2|0:0,0:0:0:0:
451,357,86328,2,0,L|467:242,1,100,2|0,1:2|0:0,0:0:0:0:
512,141,86779,6,0,P|439:109|322:172,1,200,2|2,1:3|1:0,0:0:0:0:
284,252,87456,2,0,P|316:179|253:62,1,200,2|2,0:2|0:1,0:0:0:0:
134,170,88132,2,0,L|233:165,1,100,2|2,1:2|0:3,0:0:0:0:
83,86,88584,2,0,P|53:178|101:263,1,200,2|2,1:3|1:0,0:0:0:0:
183,347,89260,2,0,P|212:254|164:169,1,200,2|10,0:2|0:1,0:0:0:0:
1,271,89937,2,0,L|100:263,1,100,10|2,1:2|0:3,0:0:0:0:
164,169,90388,6,0,L|368:152,1,200,2|2,1:3|1:0,0:0:0:0:
436,69,91065,2,0,L|236:52,1,200,2|2,0:2|0:1,0:0:0:0:
55,92,91741,2,0,L|161:84,1,100,2|2,1:2|0:3,0:0:0:0:
228,165,92193,2,0,B|275:266|185:267|245:363,2,200,2|2|0,1:3|1:0|1:2,0:0:0:0:
154,84,93320,1,10,0:1:0:0:
154,84,93546,2,0,P|133:143|154:195,1,100,10|2,1:2|0:3,0:0:0:0:
76,266,93997,6,0,P|149:234|266:297,1,200,2|2,1:3|1:0,0:0:0:0:
304,377,94674,2,0,P|272:304|335:187,1,200,2|2,0:2|0:1,0:0:0:0:
471,300,95350,2,0,L|372:295,1,100,2|2,1:2|0:3,0:0:0:0:
317,199,95802,2,0,P|349:107|303:21,1,200,2|2,1:3|1:0,0:0:0:0:
223,109,96478,2,0,P|177:195|209:286,1,200,2|10,0:2|0:1,0:0:0:0:
416,204,97155,2,0,L|317:199,1,100,10|2,1:2|0:3,0:0:0:0:
209,286,97606,6,0,L|426:296,1,200,2|2,1:3|1:0,0:0:0:0:
475,195,98283,2,0,L|275:204,1,200,2|2,0:2|0:1,0:0:0:0:
86,176,98959,2,0,L|202:184,1,100,2|2,1:2|0:3,0:0:0:0:
275,204,99411,2,0,B|322:103|232:102|292:6,2,200,2|2|0,1:3|1:0|1:2,0:0:0:0:
171,143,100538,1,10,0:1:0:0:
171,143,100764,1,10,1:2:0:0:
498,297,101215,6,0,B|399:347|399:347|278:310,2,216.000000823975,4|0|0,3:1|0:0|0:0,0:0:0:0:
377,67,102569,2,0,L|388:206,1,108.000000411987,2|0,0:2|0:0,0:0:0:0:
484,213,103020,2,0,P|388:174|299:228,1,216.000000823975,4|0,1:1|0:0,0:0:0:0:
398,311,103696,1,2,0:2:0:0:
299,228,103922,2,0,L|326:117,1,108.000000411987,2|0,0:2|0:0,0:0:0:0:
203,37,104373,2,0,L|228:141,1,108.000000411987,2|0,0:2|0:0,0:0:0:0:
42,126,104824,6,0,P|138:87|228:141,2,216.000000823975,4|0|0,3:1|0:0|0:0,0:0:0:0:
152,337,106178,2,0,L|105:239,1,108.000000411987,2|0,0:2|0:0,0:0:0:0:
42,126,106629,1,4,1:1:0:0:
106,239,106854,2,0,L|156:130,1,108.000000411987,2|0,0:2|0:0,0:0:0:0:
218,30,107305,1,2,0:2:0:0:
151,140,107531,2,0,L|99:38,1,108.000000411987,2|0,0:2|0:0,0:0:0:0:
266,142,107982,2,0,L|215:247,1,108.000000411987,2|0,0:2|0:0,0:0:0:0:
217,57,108433,6,0,P|325:58|378:157,2,216.000000823975,4|0|0,3:1|0:0|0:0,0:0:0:0:
456,210,109787,2,0,P|482:162|477:71,1,108.000000411987,2|0,0:2|0:0,0:0:0:0:
284,128,110238,2,0,P|287:236|356:326,1,216.000000823975,4|0,1:1|0:0,0:0:0:0:
399,201,110914,1,2,0:2:0:0:
348,320,111140,2,0,L|232:368,1,108.000000411987,2|0,0:2|0:0,0:0:0:0:
68,287,111591,2,0,L|184:335,1,108.000000411987,2|0,0:2|0:0,0:0:0:0:
58,190,112042,6,0,L|284:281,1,216.000000823975,4|0,3:1|0:0,0:0:0:0:
457,70,112944,2,0,L|254:150,1,216.000000823975,2|0,0:2|0:0,0:0:0:0:
256,149,113847,1,4,1:1:0:0:
309,29,114072,2,0,P|257:19|204:29,1,108.000000411987,2|0,0:2|0:0,0:0:0:0:
256,149,114524,1,2,0:2:0:0:
337,256,114750,2,0,P|347:204|337:150,1,108.000000411987,2|0,0:2|0:0,0:0:0:0:
176,150,115201,2,0,P|167:204|177:256,1,108.000000411987,2|0,0:2|0:0,0:0:0:0:
337,256,115651,6,0,P|322:316|279:370,1,108.000000411987,4|0,3:1|0:0,0:0:0:0:
453,293,116102,2,0,P|424:247|412:195,1,108.000000411987,2|0,0:2|0:0,0:0:0:0:
296,41,116553,2,0,P|325:86|337:139,1,108.000000411987,2|0,0:2|0:0,0:0:0:0:
453,97,117004,2,0,P|424:142|412:194,1,108.000000411987,2|0,0:2|0:0,0:0:0:0:
499,291,117456,2,0,P|422:356|333:307,1,216.000000823975,4|0,1:1|0:0,0:0:0:0:
294,49,118358,6,0,L|341:167,1,108.000000411987,2|0,0:2|0:0,0:0:0:0:
400,260,118809,2,0,L|425:150,1,108.000000411987,2|0,0:2|0:0,0:0:0:0:
320,233,119260,2,0,L|296:338,1,108.000000411987,4|0,3:1|0:0,0:0:0:0:
240,221,119711,2,0,L|265:111,1,108.000000411987,2|0,0:2|0:0,0:0:0:0:
383,54,120162,2,0,L|422:154,1,108.000000411987,2|0,0:2|0:0,0:0:0:0:
378,276,120614,2,0,L|338:175,1,108.000000411987,2|0,0:2|0:0,0:0:0:0:
220,107,121065,5,4,1:1:0:0:
338,175,121290,2,0,L|241:222,1,108.000000411987,2|0,0:2|0:0,0:0:0:0:
127,283,121741,1,2,0:2:0:0:
241,222,121967,2,0,L|144:175,1,108.000000411987,2|0,0:2|0:0,0:0:0:0:
234,348,122418,2,0,L|331:301,1,108.000000411987,2|0,0:2|0:0,0:0:0:0:
467,172,122869,6,0,P|369:209|269:174,2,216.000000823975,4|0|0,3:1|0:0|0:0,0:0:0:0:
190,122,124223,2,0,P|175:168|195:229,1,108.000000411987,2|0,0:2|0:0,0:0:0:0:
131,340,124674,2,0,P|233:305|346:359,1,216.000000823975,4|0,1:1|0:0,0:0:0:0:
380,223,125350,1,2,0:2:0:0:
199,145,125576,2,0,L|311:187,1,108.000000411987,2|0,0:2|0:0,0:0:0:0:
343,324,126027,2,0,L|385:212,1,108.000000411987,2|0,0:2|0:0,0:0:0:0:
454,114,126478,6,0,L|228:23,1,216.000000823975,4|0,3:1|0:0,0:0:0:0:
55,234,127381,2,0,L|258:154,1,216.000000823975,2|0,0:2|0:0,0:0:0:0:
255,154,128283,1,4,1:1:0:0:
306,34,128509,2,0,P|253:24|201:34,1,108.000000411987,2|0,0:2|0:0,0:0:0:0:
255,154,128960,1,2,0:2:0:0:
336,261,129186,2,0,P|346:209|336:156,1,108.000000411987,2|0,0:2|0:0,0:0:0:0:
175,156,129637,2,0,P|166:209|176:261,1,108.000000411987,2|0,0:2|0:0,0:0:0:0:
255,154,130087,5,4,3:1:0:0:
139,280,135050,6,0,L|156:212,1,60.0000022888184,2|0,0:2|0:0,0:0:0:0:
183,133,135501,1,2,0:0:0:0:
183,133,135726,1,2,0:0:0:0:
329,133,136178,1,0,0:0:0:0:
358,221,136403,2,0,L|373:280,1,60.0000022888184,2|0,0:0|0:0,0:0:0:0:
271,358,136854,2,0,L|285:299,1,60.0000022888184,2|0,0:0|0:0,0:0:0:0:
256,192,137305,6,0,L|296:81,1,111.999996582031
256,192,138208,2,0,L|354:145,1,103.999995239258
256,192,139110,2,0,L|367:232,1,95.9999970703126
256,192,140012,2,0,L|298:281,1,88.000002685547
256,192,140914,2,0,L|228:268,1,80
256,192,141817,2,0,L|182:226,1,71.9999978027344
256,192,142719,2,0,L|192:169,1,64
256,192,143621,2,0,L|227:130,1,55.9999982910157,0|2,0:0|0:0,0:0:0:0:
78,221,144298,5,0,3:0:0:0:
78,221,144523,6,0,P|97:268|131:291,1,80,0|0,3:0|0:0,0:0:0:0:
219,269,144975,1,0,0:0:0:0:
197,128,145200,1,2,0:0:0:0:
256,192,145426,1,0,0:0:0:0:
161,206,145651,1,2,0:0:0:0:
307,264,145877,1,2,0:0:0:0:
485,235,146328,6,0,P|466:188|432:165,1,80,0|0,3:0|0:0,0:0:0:0:
344,187,146779,1,0,0:0:0:0:
366,328,147005,1,2,0:0:0:0:
307,264,147230,1,0,0:0:0:0:
402,250,147456,1,2,0:0:0:0:
256,192,147681,1,2,0:0:0:0:
256,192,148132,6,0,P|177:206|91:165,1,160,0|0,3:0|0:0,0:0:0:0:
256,360,149486,2,0,L|256:277,1,80,2|0,0:0|0:0,0:0:0:0:
256,192,149937,2,0,P|335:178|356:182,1,80,0|0,3:0|0:0,0:0:0:0:
256,24,151290,2,0,L|256:107,1,80,2|0,0:0|0:0,0:0:0:0:
412,157,151741,6,0,P|391:105|353:80,1,80,0|0,3:0|0:0,0:0:0:0:
256,104,152193,1,0,0:0:0:0:
281,259,152418,1,2,0:0:0:0:
216,188,152644,1,0,0:0:0:0:
320,173,152869,1,2,0:0:0:0:
160,109,153095,1,2,0:0:0:0:
4,144,153546,6,0,P|24:195|62:221,1,80,0|0,3:0|0:0,0:0:0:0:
160,197,153997,1,0,0:0:0:0:
135,42,154223,1,2,0:0:0:0:
200,113,154448,1,0,0:0:0:0:
96,128,154674,1,2,0:0:0:0:
256,192,154899,1,2,0:0:0:0:
256,192,155350,6,0,P|242:113|283:27,1,160,0|0,3:0|0:0,0:0:0:0:
88,192,156704,2,0,L|171:192,1,80,2|0,0:0|0:0,0:0:0:0:
256,192,157155,2,0,P|270:271|229:357,1,160,0|0,3:0|0:0,0:0:0:0:
424,192,158508,2,0,L|341:192,1,80,2|0,0:0|0:0,0:0:0:0:
184,85,158959,6,0,P|194:174|93:264,2,216.000000823975,4|0|0,3:1|0:0|0:0,0:0:0:0:
421,124,160313,2,0,P|375:98|322:100,1,108.000000411987,2|0,0:2|0:0,0:0:0:0:
249,276,160764,2,0,P|239:187|340:97,1,216.000000823975,4|0,1:1|0:0,0:0:0:0:
380,217,161441,1,2,0:2:0:0:
321,101,161666,2,0,L|272:-5,1,108.000000411987,6|0,0:2|0:0,0:0:0:0:
159,178,162117,2,0,L|206:80,1,108.000000411987,2|0,0:2|0:0,0:0:0:0:
63,189,162569,6,0,P|115:269|224:246,2,216.000000823975,4|0|0,3:1|0:0|0:0,0:0:0:0:
204,80,163922,2,0,L|158:177,1,108.000000411987,2|0,0:2|0:0,0:0:0:0:
288,178,164373,1,4,1:1:0:0:
158,178,164599,2,0,L|207:283,1,108.000000411987,2|0,0:2|0:0,0:0:0:0:
73,275,165050,1,2,0:2:0:0:
203,275,165275,2,0,L|157:372,1,108.000000411987,2|0,0:2|0:0,0:0:0:0:
304,281,165726,2,0,L|251:177,1,108.000000411987,2|0,0:2|0:0,0:0:0:0:
359,375,166178,6,0,B|404:277|404:277|527:277,2,216.000000823975,4|0|0,3:1|0:0|0:0,0:0:0:0:
360,124,167531,2,0,L|318:226,1,108.000000411987,2|0,0:2|0:0,0:0:0:0:
294,38,167982,2,0,P|397:29|466:108,1,216.000000823975,4|0,1:1|0:0,0:0:0:0:
360,124,168659,1,2,0:2:0:0:
383,229,168884,2,0,L|485:193,1,108.000000411987,6|0,0:2|0:0,0:0:0:0:
338,307,169335,2,0,L|223:267,1,108.000000411987,2|0,0:2|0:0,0:0:0:0:
58,194,169787,6,0,L|284:103,1,216.000000823975,4|0,3:1|0:0,0:0:0:0:
457,314,170689,2,0,L|254:234,1,216.000000823975,2|0,0:2|0:0,0:0:0:0:
256,235,171591,1,4,1:1:0:0:
256,30,171817,2,0,L|256:159,1,108.000000411987,2|0,0:2|0:0,0:0:0:0:
256,235,172268,1,2,0:2:0:0:
333,131,172493,2,0,P|343:76|332:22,1,108.000000411987,2|0,0:2|0:0,0:0:0:0:
178,25,172944,2,0,P|168:78|179:131,1,108.000000411987,2|0,0:2|0:0,0:0:0:0:
143,322,173396,6,0,P|176:288|201:189,1,120.000004577637,4|0,3:1|0:0,0:0:0:0:
60,189,173847,2,0,P|102:209|204:203,1,120.000004577637,2|0,0:2|0:0,0:0:0:0:
171,67,174298,2,0,P|164:113|202:208,1,120.000004577637,2|0,3:2|0:0,0:0:0:0:
322,143,174749,2,0,P|275:151|196:216,1,120.000004577637,2|0,0:2|0:0,0:0:0:0:
372,313,175200,2,0,P|349:271|127:235,1,240.000009155274,4|0,1:1|0:0,0:0:0:0:
379,8,176102,6,0,P|346:42|321:141,1,120.000004577637,2|0,3:2|0:0,0:0:0:0:
451,170,176553,2,0,P|409:150|307:156,1,120.000004577637,2|0,0:2|0:0,0:0:0:0:
344,291,177005,2,0,P|351:245|313:150,1,120.000004577637,4|0,3:1|0:0,0:0:0:0:
196,224,177456,2,0,P|243:216|322:151,1,120.000004577637,2|0,0:2|0:0,0:0:0:0:
208,68,177907,2,0,P|230:110|316:165,1,120.000004577637,2|0,3:2|0:0,0:0:0:0:
366,35,178358,2,0,P|333:69|308:168,1,120.000004577637,2|0,0:2|0:0,0:0:0:0:
451,152,178809,5,4,1:1:0:0:
307,136,179035,2,0,L|355:265,1,120.000004577637,2|0,0:2|0:0,0:0:0:0:
202,239,179486,1,2,0:2:0:0:
348,248,179711,2,0,L|306:360,1,120.000004577637,2|0,3:2|0:0,0:0:0:0:
202,239,180162,2,0,L|160:126,1,120.000004577637,2|0,0:2|0:0,0:0:0:0:
395,105,180614,6,0,L|318:332,2,240.000009155274,4|0|0,3:1|0:0|3:0,0:0:0:0:
173,99,181967,2,0,L|131:211,1,120.000004577637,2|0,0:2|0:0,0:0:0:0:
203,335,182418,2,0,P|107:253|2:268,1,240.000009155274,4|0,1:1|0:0,0:0:0:0:
131,211,183095,1,2,0:2:0:0:
0,153,183320,2,0,L|112:111,1,120.000004577637,2|0,3:2|0:0,0:0:0:0:
243,170,183772,2,0,L|130:211,1,120.000004577637,2|0,0:2|0:0,0:0:0:0:
253,270,184223,6,0,L|476:180,1,240.000009155274,4|0,3:1|0:0,0:0:0:0:
255,149,185125,2,0,L|31:59,1,240.000009155274,2|0,3:2|0:0,0:0:0:0:
256,149,186027,1,4,1:1:0:0:
256,354,186253,2,0,L|256:234,1,120.000004577637,2|0,0:2|0:0,0:0:0:0:
256,149,186704,1,2,0:2:0:0:
333,247,186929,2,0,P|343:308|332:368,1,120.000004577637,2|0,3:2|0:0,0:0:0:0:
178,363,187381,2,0,P|168:304|179:247,1,120.000004577637,2|0,0:2|0:0,0:0:0:0:
256,149,187832,5,4,3:1:0:0:
