osu file format v14

[General]
AudioFilename: audio.mp3
AudioLeadIn: 0
PreviewTime: 35792
Countdown: 0
SampleSet: Soft
StackLeniency: 0.8
Mode: 0
LetterboxInBreaks: 0
WidescreenStoryboard: 1

[Editor]
Bookmarks: 7371,101205
DistanceSpacing: 0.9
BeatDivisor: 4
GridSize: 4
TimelineZoom: 1.54

[Metadata]
Title:Goodbye
TitleUnicode:Goodbye
Artist:CircusP
ArtistUnicode:CircusP
Creator:Pachiru
Version:Noffichiru's Normal
Source:osu!
Tags:hatsune miku 初音ミク english pop electronic vocaloid fa featured artist noffy blastthekidd circus-p
BeatmapID:2424764
BeatmapSetID:1155610

[Difficulty]
HPDrainRate:3
CircleSize:3
OverallDifficulty:4
ApproachRate:5
SliderMultiplier:1.2
SliderTickRate:1

[Events]
//Background and Video events
0,0,"siroton.jpg",0,0
//Break Periods
2,130287,143323
//Storyboard Layer 0 (Background)
//Storyboard Layer 1 (Fail)
//Storyboard Layer 2 (Pass)
//Storyboard Layer 3 (Foreground)
//Storyboard Layer 4 (Overlay)
//Storyboard Sound Samples

[TimingPoints]
163,451.127819548872,4,2,0,40,1,0
7381,-100,4,2,1,50,0,0
10425,-100,4,2,1,5,0,0
10538,-100,4,2,1,50,0,0
17643,-100,4,2,1,5,0,0
17756,-100,4,2,1,50,0,0
21252,-100,4,2,1,5,0,0
21366,-100,4,2,1,50,0,0
21817,-100,4,2,1,60,0,0
22831,-100,4,2,1,5,0,0
22944,-100,4,2,1,60,0,0
24636,-100,4,2,1,5,0,0
24749,-100,4,2,1,60,0,0
26440,-100,4,2,1,5,0,0
26553,-100,4,2,1,60,0,0
30049,-100,4,2,1,5,0,0
30162,-100,4,2,1,60,0,0
31854,-100,4,2,1,5,0,0
31967,-100,4,2,1,60,0,0
33658,-100,4,2,1,5,0,0
33772,-100,4,2,1,60,0,0
36140,-100,4,2,1,5,0,0
36253,-133.333333333333,4,2,1,70,0,0
37944,-133.333333333333,4,2,1,5,0,0
38057,-133.333333333333,4,2,1,70,0,0
38620,-133.333333333333,4,2,1,5,0,0
38734,-133.333333333333,4,2,1,70,0,0
39297,-133.333333333333,4,2,1,5,0,0
39411,-133.333333333333,4,2,1,70,0,0
39749,-133.333333333333,4,2,1,5,0,0
39862,-133.333333333333,4,2,1,70,0,0
41553,-133.333333333333,4,2,1,5,0,0
41666,-133.333333333333,4,2,1,70,0,0
41778,-133.333333333333,4,2,1,5,0,0
41892,-133.333333333333,4,2,1,70,0,0
42230,-133.333333333333,4,2,1,5,0,0
42343,-133.333333333333,4,2,1,70,0,0
42907,-133.333333333333,4,2,1,5,0,0
43020,-133.333333333333,4,2,1,70,0,0
43358,-133.333333333333,4,2,1,5,0,0
43471,-133.333333333333,4,2,1,70,0,0
45162,-133.333333333333,4,2,1,5,0,0
45275,-133.333333333333,4,2,1,70,0,0
45838,-133.333333333333,4,2,1,5,0,0
45952,-133.333333333333,4,2,1,70,0,0
46516,-133.333333333333,4,2,1,5,0,0
46629,-133.333333333333,4,2,1,70,0,0
46967,-133.333333333333,4,2,1,5,0,0
47080,-133.333333333333,4,2,1,70,0,0
47418,-133.333333333333,4,2,1,5,0,0
47531,-133.333333333333,4,2,1,70,0,0
48996,-133.333333333333,4,2,1,5,0,0
49110,-133.333333333333,4,2,1,70,0,0
49448,-133.333333333333,4,2,1,5,0,0
49561,-133.333333333333,4,2,1,70,0,0
50125,-133.333333333333,4,2,1,5,0,0
50238,-133.333333333333,4,2,1,70,0,0
50576,-133.333333333333,4,2,1,5,0,0
50689,-133.333333333333,4,2,1,70,0,0
51027,-133.333333333333,4,2,1,5,0,0
51140,-133.333333333333,4,2,1,70,0,0
51478,-133.333333333333,4,2,1,5,0,0
51591,-133.333333333333,4,2,1,70,0,0
51929,-133.333333333333,4,2,1,5,0,0
52042,-133.333333333333,4,2,1,70,0,0
52380,-133.333333333333,4,2,1,5,0,0
52493,-133.333333333333,4,2,1,70,0,0
53282,-133.333333333333,4,2,1,5,0,0
53396,-133.333333333333,4,2,1,70,0,0
53734,-133.333333333333,4,2,1,5,0,0
53847,-133.333333333333,4,2,1,70,0,0
54185,-133.333333333333,4,2,1,5,0,0
54298,-133.333333333333,4,2,1,70,0,0
54636,-133.333333333333,4,2,1,5,0,0
54749,-133.333333333333,4,2,1,70,0,0
55087,-133.333333333333,4,2,1,5,0,0
55200,-133.333333333333,4,2,1,70,0,0
55989,-133.333333333333,4,2,1,5,0,0
56102,-133.333333333333,4,2,1,70,0,0
56214,-133.333333333333,4,2,1,5,0,0
56328,-133.333333333333,4,2,1,70,0,0
56666,-133.333333333333,4,2,1,5,0,0
56779,-133.333333333333,4,2,1,70,0,0
57343,-133.333333333333,4,2,1,5,0,0
57456,-133.333333333333,4,2,1,70,0,0
57794,-133.333333333333,4,2,1,5,0,0
57907,-133.333333333333,4,2,1,70,0,0
59598,-133.333333333333,4,2,1,5,0,0
59711,-133.333333333333,4,2,1,70,0,0
60274,-133.333333333333,4,2,1,5,0,0
60388,-133.333333333333,4,2,1,70,0,0
60952,-133.333333333333,4,2,1,5,0,0
61065,-133.333333333333,4,2,1,70,0,0
61403,-133.333333333333,4,2,1,5,0,0
61516,-133.333333333333,4,2,1,70,0,0
61854,-133.333333333333,4,2,1,5,0,0
61967,-133.333333333333,4,2,1,70,0,0
63432,-133.333333333333,4,2,1,5,0,0
63546,-133.333333333333,4,2,1,70,0,0
63884,-133.333333333333,4,2,1,5,0,0
63997,-133.333333333333,4,2,1,70,0,0
64561,-133.333333333333,4,2,1,5,0,0
64674,-133.333333333333,4,2,1,70,0,0
65012,-133.333333333333,4,2,1,5,0,0
65125,-100,4,2,1,70,0,0
66027,-100,4,2,1,65,0,0
66929,-100,4,2,1,60,0,0
67832,-100,4,2,1,55,0,0
68734,-100,4,2,1,50,0,0
69636,-100,4,2,1,45,0,0
70538,-100,4,2,1,40,0,0
71441,-100,4,2,1,35,0,0
72343,-100,4,2,1,70,0,0
86779,-100,4,2,1,75,0,0
87794,-100,4,2,1,5,0,0
87907,-100,4,2,1,75,0,0
89598,-100,4,2,1,5,0,0
89711,-100,4,2,1,75,0,0
91403,-100,4,2,1,5,0,0
91516,-100,4,2,1,75,0,0
95012,-100,4,2,1,5,0,0
95125,-100,4,2,1,75,0,0
96816,-100,4,2,1,5,0,0
96929,-100,4,2,1,75,0,0
98621,-100,4,2,1,5,0,0
98734,-100,4,2,1,75,0,0
101102,-100,4,2,1,5,0,0
101215,-100,4,2,1,70,0,0
102455,-100,4,2,1,5,0,0
102569,-100,4,2,1,70,0,0
102907,-100,4,2,1,5,0,0
103020,-100,4,2,1,70,0,0
103583,-100,4,2,1,5,0,0
103696,-100,4,2,1,70,0,0
104260,-100,4,2,1,5,0,0
104373,-100,4,2,1,70,0,0
104711,-100,4,2,1,5,0,0
104824,-100,4,2,1,70,0,0
106516,-100,4,2,1,5,0,0
106629,-100,4,2,1,70,0,0
106741,-100,4,2,1,5,0,0
106854,-100,4,2,1,70,0,0
107192,-100,4,2,1,5,0,0
107305,-100,4,2,1,70,0,0
107869,-100,4,2,1,5,0,0
107982,-100,4,2,1,70,0,0
108320,-100,4,2,1,5,0,0
108433,-100,4,2,1,70,0,0
110125,-100,4,2,1,5,0,0
110238,-100,4,2,1,70,0,0
110801,-100,4,2,1,5,0,0
110914,-100,4,2,1,70,0,0
111478,-100,4,2,1,5,0,0
111591,-100,4,2,1,70,0,0
111929,-100,4,2,1,5,0,0
112042,-100,4,2,1,70,0,0
112831,-100,4,2,1,5,0,0
112944,-100,4,2,1,70,0,0
113959,-100,4,2,1,5,0,0
114072,-100,4,2,1,70,0,0
114410,-100,4,2,1,5,0,0
114523,-100,4,2,1,70,0,0
115087,-100,4,2,1,5,0,0
115200,-100,4,2,1,70,0,0
115538,-100,4,2,1,5,0,0
115651,-100,4,2,1,70,0,0
115989,-100,4,2,1,5,0,0
116102,-100,4,2,1,70,0,0
116440,-100,4,2,1,5,0,0
116553,-100,4,2,1,70,0,0
116891,-100,4,2,1,5,0,0
117005,-100,4,2,1,70,0,0
117343,-100,4,2,1,5,0,0
117456,-100,4,2,1,70,0,0
118696,-100,4,2,1,5,0,0
118809,-100,4,2,1,70,0,0
119147,-100,4,2,1,5,0,0
119260,-100,4,2,1,70,0,0
119598,-100,4,2,1,5,0,0
119711,-100,4,2,1,70,0,0
120049,-100,4,2,1,5,0,0
120162,-100,4,2,1,70,0,0
120500,-100,4,2,1,5,0,0
120613,-100,4,2,1,70,0,0
120951,-100,4,2,1,5,0,0
121065,-100,4,2,1,70,0,0
121177,-100,4,2,1,5,0,0
121290,-100,4,2,1,70,0,0
121628,-100,4,2,1,5,0,0
121741,-100,4,2,1,70,0,0
122305,-100,4,2,1,5,0,0
122418,-100,4,2,1,70,0,0
122756,-100,4,2,1,5,0,0
122869,-100,4,2,1,70,0,0
124561,-100,4,2,1,5,0,0
124674,-100,4,2,1,70,0,0
125237,-100,4,2,1,5,0,0
125350,-100,4,2,1,70,0,0
125914,-100,4,2,1,5,0,0
126027,-100,4,2,1,70,0,0
126365,-100,4,2,1,5,0,0
126478,-100,4,2,1,70,0,0
126816,-100,4,2,1,5,0,0
126929,-100,4,2,1,70,0,0
128395,-100,4,2,1,5,0,0
128508,-100,4,2,1,70,0,0
128846,-100,4,2,1,5,0,0
128959,-100,4,2,1,70,0,0
129523,-100,4,2,1,5,0,0
129636,-100,4,2,1,70,0,0
129974,-100,4,2,1,5,0,0
130087,-100,4,2,1,60,0,0
135501,-133.333333333333,4,2,1,60,0,0
144523,-100,4,2,1,60,0,0
146215,-100,4,2,1,5,0,0
146328,-100,4,2,1,60,0,0
148019,-100,4,2,1,5,0,0
148132,-100,4,2,1,60,0,0
149824,-100,4,2,1,5,0,0
149937,-100,4,2,1,60,0,0
151628,-100,4,2,1,5,0,0
151741,-100,4,2,1,60,0,0
153433,-100,4,2,1,5,0,0
153546,-100,4,2,1,60,0,0
155237,-100,4,2,1,5,0,0
155350,-100,4,2,1,60,0,0
157042,-100,4,2,1,5,0,0
157155,-100,4,2,1,60,0,0
158846,-100,4,2,1,5,0,0
158959,-100,4,2,1,75,0,0
160651,-100,4,2,1,5,0,0
160764,-100,4,2,1,75,0,0
161327,-100,4,2,1,5,0,0
161441,-100,4,2,1,75,0,0
162004,-100,4,2,1,5,0,0
162117,-100,4,2,1,75,0,0
162455,-100,4,2,1,5,0,0
162569,-100,4,2,1,75,0,0
164260,-100,4,2,1,5,0,0
164373,-100,4,2,1,75,0,0
164485,-100,4,2,1,5,0,0
164599,-100,4,2,1,75,0,0
164937,-100,4,2,1,5,0,0
165050,-100,4,2,1,75,0,0
165613,-100,4,2,1,5,0,0
165726,-100,4,2,1,75,0,0
166064,-100,4,2,1,5,0,0
166178,-100,4,2,1,75,0,0
167869,-100,4,2,1,5,0,0
167982,-100,4,2,1,75,0,0
168545,-100,4,2,1,5,0,0
168659,-100,4,2,1,75,0,0
169222,-100,4,2,1,5,0,0
169335,-100,4,2,1,75,0,0
169673,-100,4,2,1,5,0,0
169787,-100,4,2,1,75,0,0
170576,-100,4,2,1,5,0,0
170689,-100,4,2,1,75,0,0
171703,-100,4,2,1,5,0,0
171817,-100,4,2,1,75,0,0
172155,-100,4,2,1,5,0,0
172268,-100,4,2,1,75,0,0
172831,-100,4,2,1,5,0,0
172944,-100,4,2,1,75,0,0
173282,-100,4,2,1,5,0,0
173396,-100,4,2,1,80,0,0
173734,-100,4,2,1,5,0,0
173847,-100,4,2,1,80,0,0
174185,-100,4,2,1,5,0,0
174298,-100,4,2,1,80,0,0
175087,-100,4,2,1,5,0,0
175200,-100,4,2,1,80,0,0
176440,-100,4,2,1,5,0,0
176553,-100,4,2,1,80,0,0
176891,-100,4,2,1,5,0,0
177005,-100,4,2,1,80,0,0
177343,-100,4,2,1,5,0,0
177456,-100,4,2,1,80,0,0
177794,-100,4,2,1,5,0,0
177907,-100,4,2,1,80,0,0
178245,-100,4,2,1,5,0,0
178358,-100,4,2,1,80,0,0
178696,-100,4,2,1,5,0,0
178809,-100,4,2,1,80,0,0
178921,-100,4,2,1,5,0,0
179035,-100,4,2,1,80,0,0
179373,-100,4,2,1,5,0,0
179486,-100,4,2,1,80,0,0
180049,-100,4,2,1,5,0,0
180162,-100,4,2,1,80,0,0
180500,-100,4,2,1,5,0,0
180614,-100,4,2,1,80,0,0
181403,-100,4,2,1,5,0,0
181516,-100,4,2,1,80,0,0
182305,-100,4,2,1,5,0,0
182418,-100,4,2,1,80,0,0
182981,-100,4,2,1,5,0,0
183095,-100,4,2,1,80,0,0
183658,-100,4,2,1,5,0,0
183772,-100,4,2,1,80,0,0
184110,-100,4,2,1,5,0,0
184223,-100,4,2,1,80,0,0
185012,-100,4,2,1,5,0,0
185125,-100,4,2,1,80,0,0
186139,-100,4,2,1,5,0,0
186253,-100,4,2,1,80,0,0
186591,-100,4,2,1,5,0,0
186704,-100,4,2,1,80,0,0
187267,-100,4,2,1,5,0,0
187381,-100,4,2,1,80,0,0
187719,-100,4,2,1,5,0,0
187832,-100,4,2,1,80,0,0

[Colours]
Combo1 : 159,55,105
Combo2 : 34,168,131
Combo3 : 186,134,86

[HitObjects]
137,251,163,6,0,P|96:243|52:264,2,90,0|0|2,3:0|3:0|3:2,0:0:0:0:
174,290,1065,2,0,L|164:350,2,60,0|0|2,3:0|3:0|3:2,0:0:0:0:
254,218,1967,2,0,L|242:124,2,90,0|0|2,3:0|3:0|3:2,0:0:0:0:
294,254,2869,2,0,L|301:317,2,60,0|0|2,3:0|3:0|3:2,0:0:0:0:
381,191,3772,6,0,P|433:198|465:183,2,90,0|0|2,3:0|3:0|3:2,0:0:0:0:
336,159,4674,2,0,P|328:132|337:92,2,60,0|0|2,3:0|3:0|3:2,0:0:0:0:
267,242,5576,2,0,P|283:287|263:344,2,90,0|0|2,3:0|3:0|3:2,0:0:0:0:
227,205,6478,2,0,L|160:210,2,60,0|0|2,3:0|3:0|3:2,0:0:0:0:
218,97,7381,6,0,B|179:89|156:106|156:106|130:122|95:113,1,120,2|0,3:0|3:0,0:0:0:0:
55,100,8057,1,2,0:2:0:0:
55,100,8283,2,0,L|65:171,1,60,0|2,3:0|0:2,0:0:0:0:
33,204,8734,2,0,L|43:275,1,60,2|2,3:2|0:3,0:0:0:0:
50,316,9185,1,2,3:0:0:0:
156,296,9636,5,0,3:0:0:0:
156,296,9862,2,0,B|210:267|267:303|267:303|282:272|314:262,1,180,2|2,0:2|3:2,0:0:0:0:
368,256,10764,1,2,0:3:0:0:
368,256,10990,6,0,P|402:220|352:168,1,120,2|0,3:0|3:0,0:0:0:0:
318,148,11666,1,2,0:2:0:0:
318,148,11892,2,0,L|252:157,2,60,0|2|2,3:0|0:2|3:2,0:0:0:0:
349,103,12569,1,2,0:3:0:0:
349,103,12794,1,2,3:0:0:0:
276,22,13245,5,0,3:0:0:0:
276,22,13471,2,0,L|205:32,1,60,2|0,0:2|3:2,0:0:0:0:
176,66,13922,1,2,0:2:0:0:
176,66,14147,2,0,L|106:60,1,60,0|2,3:2|0:3,0:0:0:0:
61,57,14599,6,0,P|34:118|53:171,1,120,2|0,3:0|3:0,0:0:0:0:
81,209,15275,1,2,0:2:0:0:
81,209,15501,2,0,P|89:244|79:274,1,60,0|2,3:0|0:2,0:0:0:0:
63,316,15952,2,0,L|126:335,1,60,2|2,3:2|0:3,0:0:0:0:
171,351,16403,1,2,3:0:0:0:
276,296,16854,5,0,3:0:0:0:
276,296,17080,2,0,B|241:260|252:211|252:211|282:177|274:128,1,180,2|2,0:2|3:2,0:0:0:0:
265,76,17982,1,2,0:3:0:0:
265,76,18208,6,0,P|311:104|381:98,1,120,2|0,3:0|3:0,0:0:0:0:
420,71,18884,1,2,0:2:0:0:
420,71,19110,2,0,P|411:99|419:138,1,60,0|2,3:0|0:2,0:0:0:0:
432,179,19561,2,0,P|435:208|426:236,1,60,2|2,3:2|0:3,0:0:0:0:
398,282,20012,1,2,3:0:0:0:
294,251,20463,5,0,3:0:0:0:
295,305,20689,1,2,0:2:0:0:
297,350,20914,2,0,P|245:322|177:333,1,120,2|2,3:2|3:2,0:0:0:0:
79,348,21817,6,0,B|56:307|56:307|76:224,1,120,2|8,3:0|3:1,0:0:0:0:
63,183,22493,2,0,L|97:66,1,120,2|2,0:2|0:1,0:0:0:0:
139,35,23170,1,10,3:1:0:0:
219,107,23621,6,0,P|264:78|336:72,1,120,2|8,3:0|3:1,0:0:0:0:
379,90,24298,2,0,P|408:135|414:207,1,120,2|10,0:2|0:1,0:0:0:0:
411,253,24975,1,10,3:1:0:0:
336,330,25426,6,0,B|304:316|275:334|275:334|246:349|207:336,1,120,2|8,3:0|3:1,0:0:0:0:
168,323,26102,2,0,P|144:289|190:234,1,120,2|2,0:2|0:1,0:0:0:0:
239,228,26779,1,10,3:1:0:0:
199,127,27231,5,2,3:0:0:0:
95,156,27681,1,8,3:1:0:0:
60,53,28132,1,0,3:0:0:0:
112,38,28358,1,10,0:1:0:0:
164,24,28584,1,10,3:1:0:0:
267,53,29035,6,0,B|311:47|311:47|341:58|341:58|387:47,1,120,2|8,3:0|3:1,0:0:0:0:
435,34,29711,2,0,L|412:160,1,120,2|2,0:2|0:1,0:0:0:0:
403,205,30388,1,10,3:1:0:0:
460,296,30839,6,0,P|418:313|337:288,1,120,2|8,3:0|3:1,0:0:0:0:
303,265,31516,2,0,P|252:235|193:240,1,120,2|10,0:2|0:1,0:0:0:0:
145,265,32193,1,10,3:1:0:0:
65,337,32644,6,0,L|47:209,1,120,2|8,3:0|3:1,0:0:0:0:
89,183,33320,2,0,L|71:55,1,120,2|2,0:2|0:1,0:0:0:0:
98,16,33997,1,10,3:1:0:0:
192,68,34448,5,2,3:0:0:0:
288,19,34899,1,8,3:1:0:0:
382,71,35350,1,0,3:0:0:0:
374,124,35576,1,10,0:1:0:0:
365,177,35802,1,10,3:1:0:0:
423,267,36253,6,0,B|373:264|345:300|345:300|319:335|252:331,1,180.000006866455,4|0,3:1|0:0,0:0:0:0:
182,258,37606,1,2,0:2:0:0:
254,178,38057,2,0,B|273:137|273:137|247:46,1,135.000005149841,4|2,1:1|0:2,0:0:0:0:
202,21,38959,2,0,P|156:21|111:54,1,90.0000034332277,2|2,0:2|0:2,0:0:0:0:
91,148,39862,2,0,P|99:180|218:244,1,180.000006866455,4|0,3:1|0:0,0:0:0:0:
317,199,41215,1,2,0:2:0:0:
372,297,41666,5,4,1:1:0:0:
372,297,41892,1,2,0:2:0:0:
472,252,42343,1,2,0:2:0:0:
472,252,42569,1,2,0:2:0:0:
430,152,43020,1,2,0:2:0:0:
389,51,43471,6,0,B|307:72|307:72|301:81|301:81|218:103,1,180.000006866455,4|0,3:1|0:0,0:0:0:0:
131,39,44824,1,2,0:2:0:0:
62,122,45275,2,0,L|87:213,1,90.0000034332277,4|0,1:1|0:0,0:0:0:0:
130,238,45952,1,2,0:2:0:0:
130,238,46178,2,0,L|153:336,1,90.0000034332277,2|2,0:2|0:2,0:0:0:0:
249,367,47080,2,0,P|298:369|339:338,1,90.0000034332277,4|0,3:1|0:0,0:0:0:0:
347,240,47982,2,0,P|303:237|265:259,1,90.0000034332277,2|0,0:2|0:0,0:0:0:0:
179,324,48884,5,4,1:1:0:0:
179,324,49110,2,0,L|81:318,1,90.0000034332277,2|2,0:2|0:2,0:0:0:0:
35,315,49787,1,2,0:2:0:0:
80,216,50238,1,2,0:2:0:0:
10,133,50689,6,0,P|-6:93|4:46,2,90.0000034332277,4|2|2,3:1|0:2|0:2,0:0:0:0:
106,85,52042,1,2,0:2:0:0:
188,154,52493,2,0,B|233:135|274:167|274:167|321:198|377:176,1,180.000006866455,4|2,1:1|0:2,0:0:0:0:
451,126,53847,1,2,0:2:0:0:
506,218,54298,2,0,L|496:324,1,90.0000034332277,4|2,3:1|0:2,0:0:0:0:
413,375,55200,1,2,0:2:0:0:
337,298,55651,1,2,0:2:0:0:
229,310,56102,5,4,1:1:0:0:
229,310,56328,1,2,0:2:0:0:
168,227,56779,1,2,0:2:0:0:
168,227,57005,1,2,0:2:0:0:
62,247,57456,1,2,0:2:0:0:
34,142,57907,6,0,B|66:104|66:104|201:111,1,180.000006866455,4|0,3:1|0:0,0:0:0:0:
303,116,59260,1,2,0:2:0:0:
244,206,59711,2,0,B|284:202|306:226|306:226|328:253|368:251,1,135.000005149841,4|2,1:1|0:2,0:0:0:0:
419,244,60614,2,0,P|395:275|390:327,1,90.0000034332277,2|2,0:2|0:2,0:0:0:0:
291,369,61516,2,0,P|251:333|203:331,1,90.0000034332277,4|0,3:1|0:0,0:0:0:0:
120,378,62418,1,2,0:2:0:0:
51,173,63320,5,4,1:1:0:0:
51,173,63546,2,0,B|92:167|92:167|98:171|98:171|141:165,1,90.0000034332277,2|2,0:2|0:2,0:0:0:0:
184,194,64223,2,0,P|234:177|255:139,1,90.0000034332277,2|2,0:2|0:2,0:0:0:0:
359,130,65125,5,4,3:1:0:0:
401,229,65576,1,2,3:2:0:0:
299,266,66027,1,0,3:0:0:0:
341,365,66478,1,2,3:2:0:0:
234,346,66929,6,0,P|201:318|121:312,1,120,0|2,3:0|3:2,0:0:0:0:
19,327,67832,2,0,L|30:205,1,120,0|2,3:0|3:2,0:0:0:0:
43,100,68734,5,0,3:0:0:0:
124,170,69185,1,2,3:2:0:0:
203,96,69636,1,0,3:0:0:0:
286,164,70087,1,2,3:2:0:0:
207,237,70538,5,0,3:0:0:0:
280,316,70990,1,2,3:2:0:0:
362,245,71441,2,0,P|394:196|390:126,1,120,0|2,3:0|3:2,0:0:0:0:
324,53,72343,6,0,P|270:77|199:62,1,120,0|0,1:0|1:0,0:0:0:0:
157,40,73020,1,2,0:2:0:0:
157,40,73245,2,0,P|93:23|26:52,1,120,0|2,1:0|1:2,0:0:0:0:
8,80,73922,2,0,B|-9:131|24:164|24:164|62:200|47:245,1,180,2|0,0:3|1:0,0:0:0:0:
30,295,74824,2,0,P|81:272|175:347,1,180,2|2,0:2|1:2,0:0:0:0:
281,337,75952,6,0,B|257:303|257:303|270:217,1,120,0|0,1:0|1:0,0:0:0:0:
314,196,76629,1,2,0:2:0:0:
314,196,76854,2,0,L|335:71,1,120,0|2,1:0|1:2,0:0:0:0:
344,24,77531,2,0,B|400:48|448:18|448:18|434:52|450:97,1,180,2|0,0:3|1:0,0:0:0:0:
467,138,78433,1,2,0:2:0:0:
467,138,78659,2,0,B|486:180|486:180|462:269,1,120,0|2,1:2|1:2,0:0:0:0:
435,354,79561,6,0,P|388:323|315:326,1,120,0|0,1:0|1:0,0:0:0:0:
276,343,80238,1,2,0:2:0:0:
276,343,80463,2,0,L|297:213,1,120,0|2,1:0|1:2,0:0:0:0:
304,171,81140,2,0,B|216:159|216:159|206:165|206:165|127:153,1,180,2|0,0:3|1:0,0:0:0:0:
74,143,82042,2,0,P|4:185|47:254,1,180,2|2,0:2|1:2,0:0:0:0:
121,333,83170,6,0,B|167:307|167:307|234:316,1,120,0|0,1:0|1:0,0:0:0:0:
261,362,83847,1,2,0:2:0:0:
261,362,84072,2,0,L|388:348,1,120,0|2,1:0|1:2,0:0:0:0:
434,343,84749,2,0,B|419:296|445:260|445:260|476:213|458:163,1,180,2|0,0:3|1:0,0:0:0:0:
442,120,85651,1,2,0:2:0:0:
442,120,85877,2,0,P|402:128|348:188,1,120,2|2,1:2|1:2,0:0:0:0:
242,196,86779,6,0,P|182:215|119:195,1,120,2|2,1:3|1:0,0:0:0:0:
84,169,87456,2,0,P|70:111|88:55,1,120,2|2,0:2|0:1,0:0:0:0:
115,8,88132,1,2,1:2:0:0:
203,69,88584,6,0,B|241:92|241:92|336:79,1,120,2|2,1:3|1:0,0:0:0:0:
356,117,89260,2,0,L|477:101,1,120,2|10,0:2|0:1,0:0:0:0:
508,58,89937,1,10,1:2:0:0:
493,183,90388,6,0,P|449:228|445:297,1,120,2|2,1:3|1:0,0:0:0:0:
456,334,91065,2,0,B|418:324|394:346|394:346|369:366|328:358,1,120,2|2,0:2|0:1,0:0:0:0:
291,346,91741,1,2,1:2:0:0:
187,377,92193,5,2,1:3:0:0:
96,318,92644,1,2,1:0:0:0:
191,267,93095,1,0,1:2:0:0:
199,213,93320,1,10,0:1:0:0:
206,159,93546,1,10,1:2:0:0:
114,101,93997,6,0,P|146:65|218:50,1,120,2|2,1:3|1:0,0:0:0:0:
267,58,94674,2,0,P|310:97|322:155,1,120,2|2,0:2|0:1,0:0:0:0:
324,209,95350,1,2,1:2:0:0:
431,199,95802,6,0,P|414:245|416:321,1,120,2|2,1:3|1:0,0:0:0:0:
428,367,96478,2,0,P|382:350|306:352,1,120,2|10,0:2|0:1,0:0:0:0:
259,362,97155,1,10,1:2:0:0:
176,291,97606,6,0,P|126:294|109:227,1,120,2|2,1:3|1:0,0:0:0:0:
132,189,98283,2,0,P|116:135|60:134,1,120,2|2,0:2|0:1,0:0:0:0:
17,166,98959,1,2,1:2:0:0:
17,57,99411,5,2,1:3:0:0:
120,27,99862,1,2,1:0:0:0:
198,101,100313,1,0,1:2:0:0:
250,86,100538,1,10,0:1:0:0:
301,70,100764,1,10,1:2:0:0:
403,36,101215,6,0,B|469:123|338:189|397:269,1,240,4|0,3:1|0:0,0:0:0:0:
439,359,102569,1,2,0:2:0:0:
332,339,103020,2,0,B|282:324|282:324|149:346,1,180,4|2,1:1|0:2,0:0:0:0:
105,361,103922,1,2,0:2:0:0:
130,255,104373,1,2,0:2:0:0:
22,260,104824,6,0,B|3:195|3:195|45:151|45:151|14:85|42:25,1,240,4|0,3:1|0:0,0:0:0:0:
130,94,106178,1,2,0:2:0:0:
226,154,106629,1,4,1:1:0:0:
226,154,106854,1,2,0:2:0:0:
323,212,107305,1,2,0:2:0:0:
323,212,107531,1,2,0:2:0:0:
388,126,107982,1,2,0:2:0:0:
494,126,108433,6,0,P|436:224|323:212,1,240,4|0,3:1|0:0,0:0:0:0:
226,154,109787,1,2,0:2:0:0:
120,131,110238,2,0,B|105:181|105:181|127:314,1,180,4|2,1:1|0:2,0:0:0:0:
177,327,111140,1,2,0:2:0:0:
256,254,111591,1,2,0:2:0:0:
335,327,112042,6,0,P|367:283|360:199,1,120,4|0,3:1|0:0,0:0:0:0:
313,126,112944,2,0,P|256:143|200:126,1,120,2|0,0:2|0:0,0:0:0:0:
98,154,113847,1,4,1:1:0:0:
98,154,114072,2,0,P|98:94|131:46,1,120,2|2,0:2|0:2,0:0:0:0:
177,17,114749,1,2,0:2:0:0:
253,93,115200,1,2,0:2:0:0:
349,52,115651,6,0,B|389:51|428:70|440:108|431:151|431:151|402:250,1,240,4|2,3:1|0:2,0:0:0:0:
378,340,117005,1,2,0:2:0:0:
272,317,117456,2,0,L|318:181,1,120,4|0,1:1|0:0,0:0:0:0:
349,102,118358,1,2,0:2:0:0:
260,39,118809,1,2,0:2:0:0:
195,125,119260,6,0,P|97:171|28:59,1,240,4|2,3:1|0:2,0:0:0:0:
125,42,120614,1,2,0:2:0:0:
235,27,121065,1,4,1:1:0:0:
235,27,121290,1,2,0:2:0:0:
339,71,121741,1,2,0:2:0:0:
339,71,121966,1,2,0:2:0:0:
447,71,122418,1,2,0:2:0:0:
465,179,122869,6,0,B|378:245|312:114|232:173,1,240,4|0,3:1|0:0,0:0:0:0:
269,272,124223,1,2,0:2:0:0:
175,325,124674,2,0,P|94:340|8:277,1,180,4|2,1:1|0:2,0:0:0:0:
10,235,125576,1,2,0:2:0:0:
59,139,126027,1,2,0:2:0:0:
148,77,126478,6,0,P|194:127|199:197,1,120,4|0,3:1|0:0,0:0:0:0:
310,176,127381,2,0,P|322:118|364:76,1,120,2|0,0:2|0:0,0:0:0:0:
467,42,128283,1,4,1:1:0:0:
456,94,128508,2,0,L|432:211,1,120,2|2,0:0|0:0,0:0:0:0:
419,264,129185,1,2,0:2:0:0:
393,368,129636,1,2,0:2:0:0:
315,293,130087,5,0,0:0:0:0:
468,156,144523,5,0,3:0:0:0:
379,217,144975,2,0,L|382:300,1,60,0|2,0:0|0:0,0:0:0:0:
332,304,145426,1,0,0:0:0:0:
336,308,145651,2,0,L|276:310,1,60,2|2,0:0|0:0,0:0:0:0:
167,313,146328,5,0,3:0:0:0:
106,224,146779,2,0,L|23:227,1,60,0|2,0:0|0:0,0:0:0:0:
15,181,147231,1,0,0:0:0:0:
15,181,147456,2,0,L|12:121,1,60,2|2,0:0|0:0,0:0:0:0:
98,54,148132,2,0,L|103:179,1,120,0|0,3:0|0:0,0:0:0:0:
313,276,149486,5,2,0:0:0:0:
414,330,149937,2,0,L|410:241,1,60,0|0,3:0|0:0,0:0:0:0:
404,15,151741,5,0,3:0:0:0:
334,97,152193,2,0,P|309:122|262:140,1,60,0|2,0:0|0:0,0:0:0:0:
232,132,152644,1,0,0:0:0:0:
232,132,152869,2,0,P|207:118|186:96,1,60,2|2,0:0|0:0,0:0:0:0:
116,178,153546,5,0,3:0:0:0:
186,260,153997,2,0,P|211:285|258:303,1,60,0|2,0:0|0:0,0:0:0:0:
287,296,154449,1,0,0:0:0:0:
287,296,154674,2,0,P|313:281|334:259,1,60,2|2,0:0|0:0,0:0:0:0:
419,193,155350,2,0,L|423:312,1,120,0|0,3:0|0:0,0:0:0:0:
198,121,156704,5,2,0:0:0:0:
93,191,157155,2,0,L|88:71,1,120,0|0,3:0|0:0,0:0:0:0:
411,93,158959,6,0,P|424:198|310:199,1,240,4|0,3:1|0:0,0:0:0:0:
256,114,160313,1,2,0:2:0:0:
197,205,160764,2,0,B|158:184|158:184|22:196,1,180,4|2,1:1|0:2,0:0:0:0:
14,250,161666,1,6,0:2:0:0:
6,357,162117,1,2,0:2:0:0:
109,326,162568,6,0,B|356:303,1,240,4|0,3:1|0:0,0:0:0:0:
455,293,163922,1,2,0:2:0:0:
502,198,164373,1,4,1:1:0:0:
502,198,164599,1,2,0:2:0:0:
398,206,165050,1,2,0:2:0:0:
398,206,165275,1,2,0:2:0:0:
455,293,165726,1,2,0:2:0:0:
502,198,166177,6,0,P|501:94|379:30,1,240,4|0,3:1|0:0,0:0:0:0:
289,46,167531,1,2,0:2:0:0:
238,141,167982,2,0,B|302:153|302:153|424:131,1,180,4|2,1:1|0:2,0:0:0:0:
467,118,168884,1,6,0:2:0:0:
469,225,169335,1,2,0:2:0:0:
424,323,169786,6,0,P|364:309|289:347,1,120,4|0,3:1|0:0,0:0:0:0:
202,327,170689,2,0,P|145:308|88:322,1,120,2|0,0:2|0:0,0:0:0:0:
29,231,171591,1,4,1:1:0:0:
29,231,171816,1,2,0:2:0:0:
130,188,172267,1,2,0:2:0:0:
130,188,172493,1,2,0:2:0:0:
199,272,172944,1,2,0:2:0:0:
307,272,173396,5,4,3:1:0:0:
344,170,173847,1,2,0:2:0:0:
382,69,174298,1,2,3:2:0:0:
275,87,174749,1,2,0:0:0:0:
246,191,175200,2,0,P|180:210|122:181,1,120,4|0,1:1|0:0,0:0:0:0:
99,89,176103,1,2,3:2:0:0:
5,142,176554,1,2,0:2:0:0:
43,237,177005,5,4,3:1:0:0:
139,188,177456,1,2,0:2:0:0:
239,228,177907,1,2,3:2:0:0:
341,194,178359,1,2,0:2:0:0:
387,291,178809,1,4,1:1:0:0:
338,315,179035,1,2,0:2:0:0:
243,367,179486,1,2,0:2:0:0:
193,344,179712,1,2,3:2:0:0:
96,295,180163,1,2,0:2:0:0:
37,204,180614,6,0,B|124:138|190:269|270:210,1,240,4|0,3:1|3:0,0:0:0:0:
358,163,181968,1,2,0:2:0:0:
421,75,182419,2,0,P|353:58|241:84,1,180,4|2,1:1|0:2,0:0:0:0:
213,122,183321,1,2,3:2:0:0:
120,67,183772,1,2,0:2:0:0:
55,153,184223,6,0,L|64:286,1,120,4|0,3:1|0:0,0:0:0:0:
159,322,185125,2,0,L|167:202,1,120,2|0,3:2|0:0,0:0:0:0:
275,202,186027,1,4,1:1:0:0:
280,255,186252,1,2,0:2:0:0:
375,306,186704,1,2,0:2:0:0:
380,253,186929,1,2,3:2:0:0:
390,145,187381,1,2,0:2:0:0:
399,37,187832,5,4,3:1:0:0:
