osu file format v14

[General]
AudioFilename: audio.mp3
AudioLeadIn: 0
PreviewTime: 35792
Countdown: 0
SampleSet: Soft
StackLeniency: 0.8
Mode: 0
LetterboxInBreaks: 0
WidescreenStoryboard: 1

[Editor]
Bookmarks: 7371,65115,101205,130077,144513,158949,187822
DistanceSpacing: 0.9
BeatDivisor: 4
GridSize: 4
TimelineZoom: 1.54

[Metadata]
Title:Goodbye
TitleUnicode:Goodbye
Artist:CircusP
ArtistUnicode:CircusP
Creator:Pachiru
Version:Easy
Source:osu!
Tags:hatsune miku 初音ミク english pop electronic vocaloid fa featured artist noffy blastthekidd circus-p
BeatmapID:2577107
BeatmapSetID:1155610

[Difficulty]
HPDrainRate:2.5
CircleSize:2.5
OverallDifficulty:3
ApproachRate:3.5
SliderMultiplier:1
SliderTickRate:1

[Events]
//Background and Video events
0,0,"siroton.jpg",0,0
//Break Periods
2,130287,133670
2,137505,142692
//Storyboard Layer 0 (Background)
//Storyboard Layer 1 (Fail)
//Storyboard Layer 2 (Pass)
//Storyboard Layer 3 (Foreground)
//Storyboard Layer 4 (Overlay)
//Storyboard Sound Samples

[TimingPoints]
163,451.127819548872,4,2,0,40,1,0
7381,-100,4,2,1,50,0,0
10425,-100,4,2,1,5,0,0
10538,-100,4,2,1,50,0,0
17643,-100,4,2,1,5,0,0
17756,-100,4,2,1,50,0,0
21252,-100,4,2,1,5,0,0
21366,-100,4,2,1,50,0,0
21817,-100,4,2,1,60,0,0
22831,-100,4,2,1,5,0,0
22944,-100,4,2,1,60,0,0
24636,-100,4,2,1,5,0,0
24749,-100,4,2,1,60,0,0
26440,-100,4,2,1,5,0,0
26553,-100,4,2,1,60,0,0
30049,-100,4,2,1,5,0,0
30162,-100,4,2,1,60,0,0
31854,-100,4,2,1,5,0,0
31967,-100,4,2,1,60,0,0
33658,-100,4,2,1,5,0,0
33772,-100,4,2,1,60,0,0
36140,-100,4,2,1,5,0,0
36253,-100,4,2,1,70,0,0
37944,-100,4,2,1,5,0,0
38057,-100,4,2,1,70,0,0
38620,-100,4,2,1,5,0,0
38734,-100,4,2,1,70,0,0
39297,-100,4,2,1,5,0,0
39411,-100,4,2,1,70,0,0
39749,-100,4,2,1,5,0,0
39862,-100,4,2,1,70,0,0
41553,-100,4,2,1,5,0,0
41666,-100,4,2,1,70,0,0
41778,-100,4,2,1,5,0,0
41892,-100,4,2,1,70,0,0
42230,-100,4,2,1,5,0,0
42343,-100,4,2,1,70,0,0
42907,-100,4,2,1,5,0,0
43020,-100,4,2,1,70,0,0
43358,-100,4,2,1,5,0,0
43471,-100,4,2,1,70,0,0
45162,-100,4,2,1,5,0,0
45275,-100,4,2,1,70,0,0
45838,-100,4,2,1,5,0,0
45952,-100,4,2,1,70,0,0
46516,-100,4,2,1,5,0,0
46629,-100,4,2,1,70,0,0
46967,-100,4,2,1,5,0,0
47080,-100,4,2,1,70,0,0
47418,-100,4,2,1,5,0,0
47531,-100,4,2,1,70,0,0
48996,-100,4,2,1,5,0,0
49110,-100,4,2,1,70,0,0
49448,-100,4,2,1,5,0,0
49561,-100,4,2,1,70,0,0
50125,-100,4,2,1,5,0,0
50238,-100,4,2,1,70,0,0
50576,-100,4,2,1,5,0,0
50689,-100,4,2,1,70,0,0
51027,-100,4,2,1,5,0,0
51140,-100,4,2,1,70,0,0
51478,-100,4,2,1,5,0,0
51591,-100,4,2,1,70,0,0
51929,-100,4,2,1,5,0,0
52042,-100,4,2,1,70,0,0
52380,-100,4,2,1,5,0,0
52493,-100,4,2,1,70,0,0
53282,-100,4,2,1,5,0,0
53396,-100,4,2,1,70,0,0
53734,-100,4,2,1,5,0,0
53847,-100,4,2,1,70,0,0
54185,-100,4,2,1,5,0,0
54298,-100,4,2,1,70,0,0
54636,-100,4,2,1,5,0,0
54749,-100,4,2,1,70,0,0
55087,-100,4,2,1,5,0,0
55200,-100,4,2,1,70,0,0
55989,-100,4,2,1,5,0,0
56102,-100,4,2,1,70,0,0
56214,-100,4,2,1,5,0,0
56328,-100,4,2,1,70,0,0
56666,-100,4,2,1,5,0,0
56779,-100,4,2,1,70,0,0
57343,-100,4,2,1,5,0,0
57456,-100,4,2,1,70,0,0
57794,-100,4,2,1,5,0,0
57907,-100,4,2,1,70,0,0
59598,-100,4,2,1,5,0,0
59711,-100,4,2,1,70,0,0
60274,-100,4,2,1,5,0,0
60388,-100,4,2,1,70,0,0
60952,-100,4,2,1,5,0,0
61065,-100,4,2,1,70,0,0
61403,-100,4,2,1,5,0,0
61516,-100,4,2,1,70,0,0
61854,-100,4,2,1,5,0,0
61967,-100,4,2,1,70,0,0
63432,-100,4,2,1,5,0,0
63546,-100,4,2,1,70,0,0
63884,-100,4,2,1,5,0,0
63997,-100,4,2,1,70,0,0
64561,-100,4,2,1,5,0,0
64674,-100,4,2,1,70,0,0
65012,-100,4,2,1,5,0,0
65125,-100,4,2,1,70,0,0
66027,-100,4,2,1,65,0,0
66929,-100,4,2,1,60,0,0
67832,-100,4,2,1,55,0,0
68734,-100,4,2,1,50,0,0
69636,-100,4,2,1,45,0,0
70538,-100,4,2,1,40,0,0
71441,-100,4,2,1,35,0,0
72343,-100,4,2,1,70,0,0
86779,-100,4,2,1,75,0,0
87794,-100,4,2,1,5,0,0
87907,-100,4,2,1,75,0,0
89598,-100,4,2,1,5,0,0
89711,-100,4,2,1,75,0,0
91403,-100,4,2,1,5,0,0
91516,-100,4,2,1,75,0,0
95012,-100,4,2,1,5,0,0
95125,-100,4,2,1,75,0,0
96816,-100,4,2,1,5,0,0
96929,-100,4,2,1,75,0,0
98621,-100,4,2,1,5,0,0
98734,-100,4,2,1,75,0,0
101102,-100,4,2,1,5,0,0
101215,-100,4,2,1,70,0,0
102455,-100,4,2,1,5,0,0
102569,-100,4,2,1,70,0,0
102907,-100,4,2,1,5,0,0
103020,-100,4,2,1,70,0,0
103583,-100,4,2,1,5,0,0
103696,-100,4,2,1,70,0,0
104260,-100,4,2,1,5,0,0
104373,-100,4,2,1,70,0,0
104711,-100,4,2,1,5,0,0
104824,-100,4,2,1,70,0,0
106516,-100,4,2,1,5,0,0
106629,-100,4,2,1,70,0,0
106741,-100,4,2,1,5,0,0
106854,-100,4,2,1,70,0,0
107192,-100,4,2,1,5,0,0
107305,-100,4,2,1,70,0,0
107869,-100,4,2,1,5,0,0
107982,-100,4,2,1,70,0,0
108320,-100,4,2,1,5,0,0
108433,-100,4,2,1,70,0,0
110125,-100,4,2,1,5,0,0
110238,-100,4,2,1,70,0,0
110801,-100,4,2,1,5,0,0
110914,-100,4,2,1,70,0,0
111478,-100,4,2,1,5,0,0
111591,-100,4,2,1,70,0,0
111929,-100,4,2,1,5,0,0
112042,-100,4,2,1,70,0,0
112831,-100,4,2,1,5,0,0
112944,-100,4,2,1,70,0,0
113959,-100,4,2,1,5,0,0
114072,-100,4,2,1,70,0,0
114410,-100,4,2,1,5,0,0
114523,-100,4,2,1,70,0,0
115087,-100,4,2,1,5,0,0
115200,-100,4,2,1,70,0,0
115538,-100,4,2,1,5,0,0
115651,-100,4,2,1,70,0,0
115989,-100,4,2,1,5,0,0
116102,-100,4,2,1,70,0,0
116440,-100,4,2,1,5,0,0
116553,-100,4,2,1,70,0,0
116891,-100,4,2,1,5,0,0
117005,-100,4,2,1,70,0,0
117343,-100,4,2,1,5,0,0
117456,-100,4,2,1,70,0,0
118696,-100,4,2,1,5,0,0
118809,-100,4,2,1,70,0,0
119147,-100,4,2,1,5,0,0
119260,-100,4,2,1,70,0,0
119598,-100,4,2,1,5,0,0
119711,-100,4,2,1,70,0,0
120049,-100,4,2,1,5,0,0
120162,-100,4,2,1,70,0,0
120500,-100,4,2,1,5,0,0
120613,-100,4,2,1,70,0,0
120951,-100,4,2,1,5,0,0
121065,-100,4,2,1,70,0,0
121177,-100,4,2,1,5,0,0
121290,-100,4,2,1,70,0,0
121628,-100,4,2,1,5,0,0
121741,-100,4,2,1,70,0,0
122305,-100,4,2,1,5,0,0
122418,-100,4,2,1,70,0,0
122756,-100,4,2,1,5,0,0
122869,-100,4,2,1,70,0,0
124561,-100,4,2,1,5,0,0
124674,-100,4,2,1,70,0,0
125237,-100,4,2,1,5,0,0
125350,-100,4,2,1,70,0,0
125914,-100,4,2,1,5,0,0
126027,-100,4,2,1,70,0,0
126365,-100,4,2,1,5,0,0
126478,-100,4,2,1,70,0,0
126816,-100,4,2,1,5,0,0
126929,-100,4,2,1,70,0,0
128395,-100,4,2,1,5,0,0
128508,-100,4,2,1,70,0,0
128846,-100,4,2,1,5,0,0
128959,-100,4,2,1,70,0,0
129523,-100,4,2,1,5,0,0
129636,-100,4,2,1,70,0,0
129974,-100,4,2,1,5,0,0
130087,-100,4,2,1,60,0,0
146215,-100,4,2,1,5,0,0
146328,-100,4,2,1,60,0,0
148019,-100,4,2,1,5,0,0
148132,-100,4,2,1,60,0,0
149824,-100,4,2,1,5,0,0
149937,-100,4,2,1,60,0,0
151628,-100,4,2,1,5,0,0
151741,-100,4,2,1,60,0,0
153433,-100,4,2,1,5,0,0
153546,-100,4,2,1,60,0,0
155237,-100,4,2,1,5,0,0
155350,-100,4,2,1,60,0,0
157042,-100,4,2,1,5,0,0
157155,-100,4,2,1,60,0,0
158846,-100,4,2,1,5,0,0
158959,-100,4,2,1,75,0,0
160651,-100,4,2,1,5,0,0
160764,-100,4,2,1,75,0,0
161327,-100,4,2,1,5,0,0
161441,-100,4,2,1,75,0,0
162004,-100,4,2,1,5,0,0
162117,-100,4,2,1,75,0,0
162455,-100,4,2,1,5,0,0
162569,-100,4,2,1,75,0,0
164260,-100,4,2,1,5,0,0
164373,-100,4,2,1,75,0,0
164485,-100,4,2,1,5,0,0
164599,-100,4,2,1,75,0,0
164937,-100,4,2,1,5,0,0
165050,-100,4,2,1,75,0,0
165613,-100,4,2,1,5,0,0
165726,-100,4,2,1,75,0,0
166064,-100,4,2,1,5,0,0
166178,-100,4,2,1,75,0,0
167869,-100,4,2,1,5,0,0
167982,-100,4,2,1,75,0,0
168545,-100,4,2,1,5,0,0
168659,-100,4,2,1,75,0,0
169222,-100,4,2,1,5,0,0
169335,-100,4,2,1,75,0,0
169673,-100,4,2,1,5,0,0
169787,-100,4,2,1,75,0,0
170576,-100,4,2,1,5,0,0
170689,-100,4,2,1,75,0,0
171703,-100,4,2,1,5,0,0
171817,-100,4,2,1,75,0,0
172155,-100,4,2,1,5,0,0
172268,-100,4,2,1,75,0,0
172831,-100,4,2,1,5,0,0
172944,-100,4,2,1,75,0,0
173282,-100,4,2,1,5,0,0
173396,-100,4,2,1,80,0,0
173734,-100,4,2,1,5,0,0
173847,-100,4,2,1,80,0,0
174185,-100,4,2,1,5,0,0
174298,-100,4,2,1,80,0,0
175087,-100,4,2,1,5,0,0
175200,-100,4,2,1,80,0,0
176440,-100,4,2,1,5,0,0
176553,-100,4,2,1,80,0,0
176891,-100,4,2,1,5,0,0
177005,-100,4,2,1,80,0,0
177343,-100,4,2,1,5,0,0
177456,-100,4,2,1,80,0,0
177794,-100,4,2,1,5,0,0
177907,-100,4,2,1,80,0,0
178245,-100,4,2,1,5,0,0
178358,-100,4,2,1,80,0,0
178696,-100,4,2,1,5,0,0
178809,-100,4,2,1,80,0,0
178921,-100,4,2,1,5,0,0
179035,-100,4,2,1,80,0,0
179373,-100,4,2,1,5,0,0
179486,-100,4,2,1,80,0,0
180049,-100,4,2,1,5,0,0
180162,-100,4,2,1,80,0,0
180500,-100,4,2,1,5,0,0
180614,-100,4,2,1,80,0,0
181403,-100,4,2,1,5,0,0
181516,-100,4,2,1,80,0,0
182305,-100,4,2,1,5,0,0
182418,-100,4,2,1,80,0,0
182981,-100,4,2,1,5,0,0
183095,-100,4,2,1,80,0,0
183658,-100,4,2,1,5,0,0
183772,-100,4,2,1,80,0,0
184110,-100,4,2,1,5,0,0
184223,-100,4,2,1,80,0,0
185012,-100,4,2,1,5,0,0
185125,-100,4,2,1,80,0,0
186139,-100,4,2,1,5,0,0
186253,-100,4,2,1,80,0,0
186591,-100,4,2,1,5,0,0
186704,-100,4,2,1,80,0,0
187267,-100,4,2,1,5,0,0
187381,-100,4,2,1,80,0,0
187719,-100,4,2,1,5,0,0
187832,-100,4,2,1,80,0,0

[Colours]
Combo1 : 159,55,105
Combo2 : 34,168,131
Combo3 : 186,134,86

[HitObjects]
413,327,7381,6,0,P|424:288|410:229,1,100,2|0,3:0|3:0,0:0:0:0:
351,164,8283,1,0,3:0:0:0:
280,220,8734,1,2,3:2:0:0:
265,308,9185,2,0,B|214:291|173:329|173:329|130:371|70:354,1,200,2|0,3:0|0:0,0:0:0:0:
27,284,10538,1,2,3:2:0:0:
82,212,10990,6,0,B|98:181|98:181|75:111,1,100,2|0,3:0|3:0,0:0:0:0:
39,38,11892,1,0,3:0:0:0:
125,13,12343,1,2,3:2:0:0:
192,72,12794,2,0,P|238:97|290:91,1,100,2|0,3:0|3:0,0:0:0:0:
362,49,13696,1,0,3:2:0:0:
449,71,14147,1,0,3:2:0:0:
479,155,14599,6,0,L|471:256,1,100,2|0,3:0|3:0,0:0:0:0:
468,344,15501,1,0,3:0:0:0:
380,324,15952,1,2,3:2:0:0:
292,301,16403,2,0,B|199:318|199:318|191:326|191:326|97:342,1,200,2|0,3:0|0:0,0:0:0:0:
25,289,17756,1,2,3:2:0:0:
87,224,18208,6,0,P|114:199|116:130,1,100,2|0,3:0|3:0,0:0:0:0:
66,66,19110,1,0,3:0:0:0:
145,24,19561,1,2,3:2:0:0:
211,84,20012,2,0,B|236:113|236:113|225:185,1,100,2|0,3:0|3:0,0:0:0:0:
208,262,20914,1,2,3:2:0:0:
294,237,21366,1,2,3:2:0:0:
366,289,21817,6,0,B|411:275|411:275|416:268|416:268|464:256,2,100,2|8|0,3:0|3:1|3:0,0:0:0:0:
320,366,23170,1,10,3:1:0:0:
259,299,23621,2,0,L|270:197,2,100,2|8|0,3:0|3:1|3:0,0:0:0:0:
195,362,24975,1,10,3:1:0:0:
118,314,25426,6,0,P|95:285|91:215,1,100,2|8,3:0|3:1,0:0:0:0:
32,153,26328,2,0,P|63:115|110:100,1,100,0|10,3:0|3:1,0:0:0:0:
194,134,27230,1,2,3:0:0:0:
266,80,27681,1,8,3:1:0:0:
350,111,28132,2,0,L|401:105,2,50,0|10|10,3:0|0:1|3:1,0:0:0:0:
356,200,29035,6,0,L|465:188,2,100,2|8|0,3:0|3:1|3:0,0:0:0:0:
287,258,30388,1,10,3:1:0:0:
219,317,30839,2,0,L|111:303,2,100,2|8|0,3:0|3:1|3:0,0:0:0:0:
281,381,32193,1,10,3:1:0:0:
349,322,32644,2,0,B|375:290|375:290|364:219,1,100,2|8,3:0|3:1,0:0:0:0:
287,187,33546,2,0,B|261:155|261:155|272:84,1,100,0|10,3:0|3:1,0:0:0:0:
286,8,34448,5,2,3:0:0:0:
197,24,34899,1,8,3:1:0:0:
108,41,35350,2,0,L|57:49,2,50,0|10|10,3:0|0:1|3:1,0:0:0:0:
165,110,36253,6,0,B|185:197|185:197|181:206|181:206|204:306|204:306|241:268|295:275,1,300,4|2,3:1|0:2,0:0:0:0:
380,295,38057,2,0,P|437:299|408:196,1,200,4|2,1:1|0:2,0:0:0:0:
328,180,39411,1,2,0:2:0:0:
358,95,39862,6,0,B|319:84|319:84|226:123|226:123|118:124|118:124|82:160,1,300,4|2,3:1|0:2,0:0:0:0:
37,237,41666,2,0,P|34:289|75:334,1,100,4|0,1:1|0:0,0:0:0:0:
147,353,42569,1,2,0:2:0:0:
211,290,43020,1,2,0:2:0:0:
293,326,43471,6,0,B|330:315|364:335|364:335|397:359|441:344|441:344|466:304|448:267|448:267|435:235|451:193,1,300,4|2,3:1|0:2,0:0:0:0:
477,119,45275,2,0,B|388:101|388:101|380:106|380:106|275:85,1,200,4|2,1:1|0:2,0:0:0:0:
237,8,46629,1,2,0:2:0:0:
173,71,47080,2,0,L|196:282,1,200,4|2,3:1|0:2,0:0:0:0:
359,342,48884,5,4,1:1:0:0:
237,208,49787,1,2,0:2:0:0:
154,245,50238,1,2,0:2:0:0:
139,333,50689,6,0,P|178:336|227:300,2,100,4|2|2,3:1|0:2|0:2,0:0:0:0:
60,288,52042,1,2,0:2:0:0:
117,218,52493,2,0,B|155:182|155:182|314:207,1,200,4|2,1:1|0:2,0:0:0:0:
389,220,53847,1,2,0:2:0:0:
423,136,54298,6,0,P|457:156|479:220,2,100,4|2|2,3:1|0:2|0:2,0:0:0:0:
334,120,55651,1,2,0:2:0:0:
275,188,56102,2,0,P|229:159|214:115,1,100,4|0,1:1|0:0,0:0:0:0:
125,100,57005,2,0,P|149:51|191:31,1,100,2|2,0:2|0:2,0:0:0:0:
277,53,57907,6,0,B|326:62|362:23|362:23|393:-15|447:-5|447:-5|491:46|464:112,1,300,4|2,3:1|0:2,0:0:0:0:
434,180,59711,2,0,P|359:218|245:175,1,200,4|2,1:1|0:2,0:0:0:0:
197,113,61065,1,2,0:2:0:0:
127,169,61516,2,0,B|140:265|140:265|136:276|136:276|149:370,1,200,4|2,3:1|0:2,0:0:0:0:
328,356,63320,5,4,1:1:0:0:
455,228,64223,1,2,0:2:0:0:
434,140,64674,1,2,0:2:0:0:
355,96,65125,6,0,L|249:112,1,100,4|2,3:1|3:2,0:0:0:0:
191,47,66027,2,0,L|85:63,1,100,0|2,3:0|3:2,0:0:0:0:
32,127,66929,1,0,3:0:0:0:
91,195,67381,1,2,3:2:0:0:
70,282,67832,2,0,P|110:284|166:245,1,100,0|2,3:0|3:2,0:0:0:0:
215,183,68734,6,0,P|260:168|313:183,1,100,0|2,3:0|3:2,0:0:0:0:
377,239,69636,2,0,P|424:254|472:241,1,100,0|2,3:0|3:2,0:0:0:0:
458,152,70538,1,0,3:0:0:0:
432,65,70990,1,2,3:2:0:0:
356,114,71441,1,0,3:0:0:0:
332,27,71892,1,2,3:2:0:0:
269,91,72343,6,0,L|155:83,1,100,0|0,1:0|1:0,0:0:0:0:
86,118,73245,2,0,B|66:152|66:152|79:215,1,100,0|2,1:0|1:2,0:0:0:0:
103,297,74147,1,0,1:0:0:0:
191,269,74599,1,0,1:0:0:0:
247,338,75050,2,0,P|301:338|337:308,1,100,0|2,1:0|1:2,0:0:0:0:
354,222,75952,6,0,L|309:125,1,100,0|0,1:0|1:0,0:0:0:0:
394,96,76854,2,0,L|436:186,1,100,0|2,1:0|1:2,0:0:0:0:
484,262,77756,2,0,P|443:292|423:348,1,100,0|0,1:0|1:0,0:0:0:0:
333,335,78659,2,0,P|313:289|273:260,1,100,0|2,1:2|1:2,0:0:0:0:
183,249,79561,5,0,1:0:0:0:
105,294,80012,1,0,1:0:0:0:
25,251,80463,2,0,L|41:152,1,100,0|2,1:0|1:2,0:0:0:0:
53,62,81366,1,0,1:0:0:0:
132,104,81817,1,0,1:0:0:0:
209,58,82268,2,0,P|253:43|306:58,1,100,0|2,1:0|1:2,0:0:0:0:
386,20,83170,6,0,P|410:59|407:114,1,100,0|0,1:0|1:0,0:0:0:0:
480,165,84072,2,0,P|459:206|411:233,1,100,0|2,1:0|1:2,0:0:0:0:
327,209,84975,1,0,1:0:0:0:
271,279,85426,1,0,1:0:0:0:
185,251,85877,2,0,B|147:237|147:237|80:254,1,100,2|2,1:2|1:2,0:0:0:0:
75,340,86779,6,0,P|29:324|1:276,2,100,2|2|0,1:3|1:0|1:0,0:0:0:0:
150,290,88132,1,2,1:2:0:0:
235,318,88584,2,0,P|211:359|155:381,2,100,2|2|0,1:3|1:0|1:0,0:0:0:0:
248,229,89937,1,10,1:2:0:0:
322,279,90388,6,0,B|354:293|354:293|421:278,1,100,2|2,1:3|1:0,0:0:0:0:
476,211,91290,1,0,1:0:0:0:
438,129,91741,1,2,1:2:0:0:
477,48,92193,2,0,B|433:22|433:22|368:30,1,100,2|2,1:3|1:0,0:0:0:0:
296,47,93095,2,0,L|246:55,2,50,0|10|10,1:2|0:1|1:2,0:0:0:0:
373,93,93997,6,0,P|397:117|405:186,2,100,2|2|0,1:3|1:0|1:0,0:0:0:0:
317,164,95350,1,2,1:2:0:0:
239,117,95802,2,0,L|139:108,2,100,2|2|0,1:3|1:0|1:0,0:0:0:0:
317,164,97155,1,10,1:2:0:0:
280,246,97606,6,0,B|253:275|253:275|192:269,1,100,2|2,1:3|1:0,0:0:0:0:
103,262,98508,2,0,B|42:255|42:255|22:221,1,100,0|2,1:0|1:2,0:0:0:0:
95,169,99411,1,2,1:3:0:0:
49,91,99862,1,2,1:0:0:0:
105,21,100313,2,0,L|162:28,2,50,0|10|10,1:2|0:1|1:2,0:0:0:0:
49,91,101215,6,0,B|78:137|53:185|53:185|23:233|44:281|44:281|77:241|139:246,1,300,4|2,3:1|0:2,0:0:0:0:
219,273,103020,2,0,P|242:289|247:193,1,200,4|2,1:1|0:2,0:0:0:0:
198,125,104373,1,2,0:2:0:0:
255,55,104824,6,0,B|307:41|350:73|350:73|390:100|445:83|445:83|409:128|425:182,1,300,4|2,3:1|0:2,0:0:0:0:
448,264,106629,1,4,1:1:0:0:
385,328,107080,2,0,B|352:341|352:341|285:323,1,100,2|2,0:2|0:2,0:0:0:0:
206,291,107982,1,0,0:0:0:0:
120,324,108433,6,0,B|100:249|100:249|106:235|106:235|81:127|81:127|72:118|72:118|51:36,1,300,4|2,3:1|0:2,0:0:0:0:
138,14,110238,2,0,B|193:2|231:34|231:34|269:64|336:50,1,200,4|2,1:1|0:2,0:0:0:0:
414,30,111591,1,2,0:2:0:0:
478,92,112042,2,0,P|441:158|475:271,1,200,4|2,3:1|0:2,0:0:0:0:
313,350,113847,5,4,1:1:0:0:
148,277,114749,1,2,0:2:0:0:
82,338,115200,1,2,0:2:0:0:
62,250,115651,6,0,L|43:150,2,100,4|2|2,3:1|0:2|0:2,0:0:0:0:
148,277,117005,1,2,0:2:0:0:
212,214,117456,2,0,B|236:172|220:117|220:117|241:171|296:182,1,200,4|2,1:1|0:2,0:0:0:0:
378,204,118809,1,2,0:2:0:0:
455,158,119260,6,0,P|428:127|365:115,2,100,4|2|2,3:1|0:2|0:2,0:0:0:0:
478,245,120614,1,2,0:2:0:0:
418,312,121065,2,0,B|382:329|382:329|302:315,1,100,4|0,1:1|0:0,0:0:0:0:
235,295,121967,1,2,0:2:0:0:
160,346,122418,1,2,0:2:0:0:
86,294,122869,6,0,B|58:246|82:195|82:195|106:148|95:100|95:100|101:155|145:183,1,300,4|2,3:1|0:2,0:0:0:0:
219,231,124674,2,0,B|316:224|316:224|321:227|321:227|421:220,1,200,4|2,1:1|0:2,0:0:0:0:
473,150,126027,1,2,0:2:0:0:
437,67,126478,2,0,P|364:38|263:105,1,200,4|2,3:1|0:2,0:0:0:0:
94,45,128283,5,4,1:1:0:0:
133,220,129185,1,2,0:2:0:0:
59,271,129636,1,2,0:2:0:0:
77,359,130087,5,4,3:1:0:0:
431,318,135050,5,2,0:2:0:0:
367,254,135501,2,0,B|339:249|317:263|317:263|296:277|265:273,2,100,2|0|2,0:0|0:0|0:0,0:0:0:0:
443,206,136854,2,0,P|457:158|440:107,1,100,2|0,0:0|0:0,0:0:0:0:
205,17,144072,5,2,0:0:0:0:
159,96,144523,6,0,P|205:108|255:93,1,100,0|0,3:0|0:0,0:0:0:0:
325,38,145426,1,0,0:0:0:0:
392,97,145877,1,2,0:0:0:0:
475,62,146328,2,0,B|496:97|496:97|479:162,1,100,0|0,3:0|0:0,0:0:0:0:
450,239,147230,1,0,0:0:0:0:
493,317,147681,1,2,0:0:0:0:
411,356,148132,5,0,3:0:0:0:
155,269,149486,5,2,0:0:0:0:
164,358,149937,1,0,3:0:0:0:
247,101,151290,5,2,0:0:0:0:
182,37,151741,2,0,L|74:50,1,100,0|0,3:0|0:0,0:0:0:0:
34,124,152644,1,0,0:0:0:0:
101,182,153095,1,2,0:0:0:0:
88,271,153546,2,0,P|133:268|177:232,1,100,0|0,3:0|0:0,0:0:0:0:
213,153,154448,1,0,0:0:0:0:
282,209,154899,1,2,0:0:0:0:
331,134,155350,5,0,3:0:0:0:
488,353,156704,5,2,0:0:0:0:
468,266,157155,1,0,3:0:0:0:
299,55,158508,5,2,0:0:0:0:
232,115,158959,6,0,B|188:113|161:139|161:139|130:164|85:157|85:157|108:195|100:229|100:229|87:263|101:299,1,300,4|2,3:1|0:2,0:0:0:0:
160,362,160764,2,0,B|216:377|254:349|254:349|296:313|356:326,1,200,4|6,1:1|0:2,0:0:0:0:
436,345,162117,1,2,0:2:0:0:
462,258,162569,6,0,B|432:215|444:156|444:156|400:198|345:179|345:179|302:159|257:180,1,300,4|2,3:1|0:2,0:0:0:0:
186,226,164373,2,0,P|137:251|78:240,1,100,4|0,1:1|0:0,0:0:0:0:
21,193,165275,1,2,0:2:0:0:
86,130,165726,1,2,0:2:0:0:
40,51,166178,6,0,B|89:25|135:53|135:53|183:80|233:58,1,200,4|0,3:1|0:0,0:0:0:0:
310,16,167531,1,2,0:2:0:0:
382,68,167982,2,0,L|373:178,1,100,4|0,1:1|0:0,0:0:0:0:
336,249,168884,1,6,0:2:0:0:
379,327,169335,1,2,0:2:0:0:
294,357,169787,2,0,B|247:334|196:364|196:364|150:391|87:367,1,200,4|2,3:1|0:2,0:0:0:0:
43,201,171591,5,4,1:1:0:0:
178,82,172493,1,2,0:2:0:0:
264,107,172944,1,2,0:2:0:0:
329,173,173396,6,0,P|354:132|349:77,2,100,4|2|2,3:1|0:2|3:2,0:0:0:0:
249,215,174749,1,2,0:2:0:0:
183,153,175200,2,0,B|158:117|175:60|175:60|149:113|80:119,1,200,4|2,1:1|3:2,0:0:0:0:
5,132,176553,1,2,0:2:0:0:
55,206,177005,6,0,P|76:249|66:301,1,100,4|2,3:1|0:2,0:0:0:0:
130,362,177907,2,0,P|173:341|225:351,1,100,2|2,3:2|0:2,0:0:0:0:
311,366,178809,2,0,B|331:337|331:337|317:260,1,100,4|0,1:1|0:0,0:0:0:0:
295,186,179711,1,2,3:2:0:0:
354,118,180162,1,2,0:2:0:0:
290,52,180614,6,0,B|234:49|202:86|202:86|168:120|104:115,1,200,4|0,3:1|3:0,0:0:0:0:
22,98,181967,1,2,0:2:0:0:
40,186,182418,2,0,B|61:279|61:279|69:285|69:285|87:377,1,200,4|2,1:1|3:2,0:0:0:0:
175,359,183772,1,2,0:2:0:0:
223,283,184223,2,0,B|268:270|268:270|376:281|376:281|421:268,1,200,4|2,3:1|3:2,0:0:0:0:
455,92,186027,5,4,1:1:0:0:
312,201,186929,1,2,3:2:0:0:
239,254,187381,1,2,0:2:0:0:
165,202,187832,5,4,3:1:0:0:
