osu file format v14

[General]
AudioFilename: audio.mp3
AudioLeadIn: 0
PreviewTime: 214165
Countdown: 0
SampleSet: Soft
StackLeniency: 0.5
Mode: 0
LetterboxInBreaks: 0
WidescreenStoryboard: 1

[Editor]
DistanceSpacing: 0.9
BeatDivisor: 4
GridSize: 4
TimelineZoom: 1

[Metadata]
Title:Copycat
TitleUnicode:Copycat
Artist:CircusP
ArtistUnicode:CircusP
Creator:neonat
Version:Normal
Source:osu!
Tags:FA featured artist 715 Circus-P GUMI Megpoid English electronic vocaloid bossandy Mappers' Guild pop dance
BeatmapID:2453682
BeatmapSetID:1176418

[Difficulty]
HPDrainRate:4
CircleSize:3
OverallDifficulty:4
ApproachRate:5
SliderMultiplier:1.3
SliderTickRate:1

[Events]
//Background and Video events
0,0,"copy.jpg",0,0
//Break Periods
2,170570,184498
//Storyboard Layer 0 (Background)
//Storyboard Layer 1 (Fail)
//Storyboard Layer 2 (Pass)
//Storyboard Layer 3 (Foreground)
//Storyboard Layer 4 (Overlay)
//Storyboard Sound Samples

[TimingPoints]
443,437.956204379562,4,2,1,60,1,0
42486,-100,4,2,1,45,0,0
56501,-100,4,2,1,70,0,0
70515,-100,4,2,1,80,0,1
84530,-100,4,2,1,50,0,0
100297,-100,4,2,1,60,0,0
114311,-100,4,2,1,45,0,0
128326,-100,4,2,1,70,0,0
142340,-100,4,2,1,80,0,1
170370,-100,4,2,1,50,0,0
198399,-100,4,2,1,60,0,0
214165,-100,4,2,1,80,0,1
240442,-100,4,2,1,60,0,0
242194,-100,4,2,1,80,0,1
255771,-100,4,2,1,80,0,0
256209,-100,4,2,1,80,0,1
266720,-100,4,2,1,65,0,0
270224,-100,4,2,1,50,0,0
271099,-100,4,2,1,40,0,0
271975,-100,4,2,1,30,0,0

[Colours]
Combo1 : 90,197,133
Combo2 : 142,234,198
Combo3 : 224,113,240
Combo4 : 219,47,64

[HitObjects]
259,194,14895,6,0,L|402:180,1,130,2|2,0:0|0:0,0:0:0:0:
440,155,15552,1,0,0:0:0:0:
465,102,15771,2,0,P|458:57|379:20,1,130,2|0,0:0|0:0,0:0:0:0:
288,78,16647,2,0,L|145:74,1,130,2|2,0:0|0:0,0:0:0:0:
100,86,17304,1,0,0:0:0:0:
70,136,17523,2,0,P|55:182|86:271,1,130,2|0,0:0|0:0,0:0:0:0:
177,316,18399,6,0,P|192:270|161:181,1,130,2|2,0:0|0:0,0:0:0:0:
173,134,19056,1,0,0:0:0:0:
213,91,19275,2,0,P|278:101|348:81,2,130,2|2|2,0:0|0:0|0:0,0:0:0:0:
108,38,20588,2,0,P|69:76|73:175,1,130,2|2,0:0|0:0,0:0:0:0:
93,197,21245,1,0,0:0:0:0:
147,218,21464,5,0,0:0:0:0:
252,167,21902,2,0,L|400:153,1,130,2|2,0:0|0:0,0:0:0:0:
438,170,22559,1,0,0:0:0:0:
471,217,22778,2,0,P|485:281|433:355,1,130,2|0,0:0|0:0,0:0:0:0:
340,327,23654,2,0,L|192:341,1,130,2|2,0:0|0:0,0:0:0:0:
154,324,24311,1,0,0:0:0:0:
121,277,24530,2,0,P|107:213|159:139,1,130,2|0,0:0|0:0,0:0:0:0:
236,99,25406,6,0,B|299:111|299:111|392:98,1,130,2|2,0:0|0:0,0:0:0:0:
422,92,26063,2,0,P|454:117|458:221,1,130,2|2,0:0|0:0,0:0:0:0:
418,233,26720,2,0,B|355:221|355:221|262:234,1,130,2|2,0:0|0:0,0:0:0:0:
232,243,27377,1,0,0:0:0:0:
174,234,27596,2,0,P|125:208|102:117,1,130,2|2,0:0|0:0,0:0:0:0:
161,42,28472,5,0,0:0:0:0:
258,106,28910,2,0,P|310:119|403:90,1,130,2|2,0:0|0:0,0:0:0:0:
441,92,29567,2,0,P|454:162|427:232,1,130,2|2,0:0|0:0,0:0:0:0:
381,236,30224,1,0,0:0:0:0:
266,211,30661,1,2,0:0:0:0:
221,319,31099,2,0,B|284:328|284:328|365:328,1,130,2|0,0:0|0:0,0:0:0:0:
463,297,31975,6,0,P|503:256|501:172,1,130,2|2,0:0|0:0,0:0:0:0:
474,138,32632,1,0,0:0:0:0:
454,83,32851,2,0,L|474:14,2,65,2|2|0,0:0|0:0|0:0,0:0:0:0:
399,102,33508,2,0,P|350:110|261:93,1,130,2|0,0:0|0:0,0:0:0:0:
230,55,34165,2,0,P|193:45|92:58,2,130,2|2|2,0:0|0:0|0:0,0:0:0:0:
302,147,35479,5,2,0:0:0:0:
388,225,35917,2,0,P|410:267|355:327,1,130,2|2,0:0|0:0,0:0:0:0:
307,310,36574,2,0,B|243:300|243:300|150:309,1,130,2|2,0:0|0:0,0:0:0:0:
120,315,37231,1,0,0:0:0:0:
89,201,37669,1,2,0:0:0:0:
200,166,38107,2,0,B|205:96|205:96|165:30,1,130,2|0,0:0|0:0,0:0:0:0:
292,24,38983,6,0,L|371:149,1,130,2|2,0:0|0:0,0:0:0:0:
361,252,39859,2,0,L|291:361,1,130,2|2,0:0|0:0,0:0:0:0:
173,365,40734,2,0,L|242:255,1,130,2|2,0:0|0:0,0:0:0:0:
242,136,41610,2,0,L|173:27,1,130,2|2,0:0|0:0,0:0:0:0:
115,12,42267,1,0,0:0:0:0:
67,46,42486,5,2,0:0:0:0:
255,315,43800,1,2,0:0:0:0:
371,313,44238,2,0,P|423:288|464:155,2,195,2|2|2,0:0|0:0|0:0,0:0:0:0:
283,235,45990,6,0,B|230:195|247:114|313:106|313:106|365:128|417:100,1,260,2|0,0:0|0:0,0:0:0:0:
472,16,47304,1,0,0:0:0:0:
355,9,47742,2,0,B|276:0|222:13|222:13|170:35|92:15,2,260,2|2|2,0:0|0:0|0:0,0:0:0:0:
256,346,50807,5,2,0:0:0:0:
146,303,51245,2,0,P|116:269|120:120,2,195,2|2|2,0:0|0:0|0:0,0:0:0:0:
254,258,52997,6,0,B|317:234|381:261|381:261|434:228|416:128,1,260,2|2,0:0|0:0,0:0:0:0:
338,59,54311,1,2,0:0:0:0:
228,101,54749,2,0,P|186:116|95:93,1,130,2|2,0:0|0:0,0:0:0:0:
48,117,55406,1,0,0:0:0:0:
27,171,55625,2,0,P|21:255|62:306,1,130,2|0,0:0|0:0,0:0:0:0:
156,324,56501,5,8,0:1:0:0:
267,288,56939,2,0,P|314:277|401:288,1,130,2|10,0:0|0:1,0:0:0:0:
449,305,57596,1,0,0:0:0:0:
499,335,57815,1,2,0:0:0:0:
464,223,58253,2,0,P|453:179|472:92,1,130,10|2,0:1|0:0,0:0:0:0:
498,46,58910,1,0,0:0:0:0:
454,7,59129,2,0,L|317:17,1,130,10|0,0:1|0:0,0:0:0:0:
252,109,60005,6,0,L|122:99,1,130,10|2,0:1|0:0,0:0:0:0:
64,93,60661,1,0,0:0:0:0:
11,118,60880,2,0,P|-5:197|23:251,1,130,10|2,0:1|0:0,0:0:0:0:
130,249,61756,2,0,L|283:234,1,130,10|2,0:1|0:0,0:0:0:0:
316,248,62413,2,0,P|344:279|346:316,1,65,0|10,0:0|0:1,0:0:0:0:
314,349,62851,2,0,L|161:334,1,130,2|0,0:0|0:0,0:0:0:0:
125,333,63508,5,8,0:1:0:0:
44,248,63946,2,0,P|23:195|48:106,1,130,2|10,0:0|0:1,0:0:0:0:
74,81,64603,1,0,0:0:0:0:
128,60,64822,1,2,0:0:0:0:
230,115,65260,2,0,P|290:129|375:106,1,130,10|2,0:1|0:0,0:0:0:0:
400,76,65917,1,0,0:0:0:0:
382,20,66136,2,0,P|322:6|237:29,1,130,10|0,0:1|0:0,0:0:0:0:
156,80,67012,6,0,B|112:91|77:80|77:80|14:111,1,130,10|2,0:1|0:0,0:0:0:0:
16,158,67669,1,0,0:0:0:0:
23,215,67888,2,0,B|67:237|67:237|102:226|146:237,1,130,10|2,0:1|0:0,0:0:0:0:
225,323,68764,2,0,P|265:341|368:314,1,130,10|2,0:1|0:0,0:0:0:0:
390,287,69421,1,0,0:0:0:0:
390,228,69640,2,0,B|374:163|374:163|383:74,1,130,10|2,0:1|0:0,0:0:0:0:
407,47,70297,1,2,0:0:0:0:
358,15,70515,6,0,L|207:20,1,130,8|2,0:1|0:0,0:0:0:0:
174,123,71391,2,0,L|323:117,1,130,6|0,0:1|0:0,0:0:0:0:
361,130,72048,1,2,0:0:0:0:
403,170,72267,2,0,L|481:166,2,65,10|2|2,0:1|0:0|0:0,0:0:0:0:
309,240,73143,2,0,B|263:264|232:223|180:237,1,130,6|0,0:1|0:0,0:0:0:0:
130,264,73800,1,2,0:0:0:0:
77,290,74019,6,0,P|52:296|13:290,2,65,10|2|2,0:1|0:0|0:0,0:0:0:0:
175,354,74895,2,0,L|312:362,1,130,6|2,0:1|0:0,0:0:0:0:
361,258,75771,2,0,L|231:265,1,130,10|0,0:1|0:0,0:0:0:0:
174,250,76428,1,2,0:0:0:0:
126,216,76647,2,0,P|106:178|112:89,1,130,6|10,0:1|0:1,0:0:0:0:
218,47,77523,6,0,P|265:60|354:41,1,130,10|2,0:1|0:0,0:0:0:0:
451,93,78399,2,0,P|459:156|435:215,1,130,6|0,0:1|0:0,0:0:0:0:
383,243,79056,1,2,0:0:0:0:
327,223,79275,2,0,L|248:221,2,65,10|2|2,0:1|0:0|0:0,0:0:0:0:
369,332,80151,2,0,P|308:355|225:334,1,130,6|0,0:1|0:0,0:0:0:0:
193,318,80807,1,2,0:0:0:0:
150,278,81026,6,0,P|108:268|67:258,2,65,10|2|2,0:1|0:0|0:0,0:0:0:0:
265,256,81902,2,0,P|307:266|398:255,1,130,6|2,0:1|0:0,0:0:0:0:
484,184,82778,2,0,L|500:40,1,130,10|0,0:1|0:0,0:0:0:0:
464,7,83435,1,2,0:0:0:0:
405,6,83654,2,0,P|352:21|267:0,1,130,6|10,0:1|0:1,0:0:0:0:
163,25,84530,1,2,0:0:0:0:
335,282,86720,6,0,L|472:286,2,130,2|2|2,0:0|0:0|0:0,0:0:0:0:
102,252,88472,2,0,P|85:211|104:118,1,130,2|2,0:0|0:0,0:0:0:0:
137,85,89129,1,2,0:0:0:0:
195,87,89348,2,0,L|335:94,1,130,2|0,0:0|0:0,0:0:0:0:
440,112,90224,6,0,P|474:79|484:-7,2,130,2|2|2,0:0|0:0|0:0,0:0:0:0:
395,150,91318,1,2,0:0:0:0:
376,205,91537,2,0,P|410:338|410:344,1,130,2|2,0:0|0:0,0:0:0:0:
304,380,92413,2,0,P|270:247|270:241,1,130,2|2,0:0|0:0,0:0:0:0:
165,46,93727,6,0,L|29:42,2,130,2|2|2,0:0|0:0|0:0,0:0:0:0:
383,131,95479,2,0,P|405:168|410:243,2,97.5,2|2|0,0:0|0:0|0:0,0:0:0:0:
327,110,96355,2,0,L|180:121,1,130,2|0,0:0|0:0,0:0:0:0:
81,138,97231,6,0,P|54:169|64:260,1,130,2|2,0:0|0:0,0:0:0:0:
110,281,97888,2,0,L|195:282,1,65,2|0,0:0|0:0,0:0:0:0:
224,249,98326,2,0,B|343:245|343:245|420:282,1,195,2|2,0:0|0:0,0:0:0:0:
505,207,99421,2,0,L|373:139,1,130,2|2,0:0|0:0,0:0:0:0:
272,146,100297,5,10,0:1:0:0:
161,184,100734,2,0,P|112:198|29:152,1,130,2|10,0:0|0:1,0:0:0:0:
12,117,101391,2,0,L|99:11,1,130,2|2,0:0|0:0,0:0:0:0:
153,17,102048,2,0,P|209:30|298:13,1,130,8|2,0:1|0:0,0:0:0:0:
337,6,102705,1,0,0:0:0:0:
395,8,102924,2,0,P|437:24|484:119,1,130,10|0,0:1|0:0,0:0:0:0:
462,208,103800,6,0,P|403:181|366:111,1,130,10|2,0:1|0:0,0:0:0:0:
324,89,104457,1,0,0:0:0:0:
268,71,104676,2,0,P|247:44|239:0,2,65,10|2|0,0:1|0:0|0:0,0:0:0:0:
239,122,105333,2,0,P|195:137|91:113,1,130,2|0,0:0|0:0,0:0:0:0:
62,96,105990,1,2,0:0:0:0:
93,208,106428,2,0,P|106:245|77:346,1,130,10|2,0:1|0:0,0:0:0:0:
205,323,107304,6,0,P|250:309|335:323,1,130,10|2,0:1|0:0,0:0:0:0:
443,351,108180,1,10,0:1:0:0:
486,312,108399,2,0,P|509:277|503:180,1,130,2|2,0:0|0:0,0:0:0:0:
466,150,109056,2,0,B|397:164|397:164|317:155,2,130,8|2|10,0:1|0:0|0:1,0:0:0:0:
502,38,110370,1,0,0:0:0:0:
386,22,110807,6,0,L|254:31,1,130,10|2,0:1|0:0,0:0:0:0:
283,144,111683,2,0,L|139:126,1,130,10|2,0:1|0:0,0:0:0:0:
98,108,112340,1,0,0:0:0:0:
40,117,112559,2,0,P|13:157|22:256,1,130,10|0,0:1|0:0,0:0:0:0:
92,321,113435,2,0,P|119:281|110:182,1,130,10|0,0:1|0:0,0:0:0:0:
40,117,114311,5,2,0:0:0:0:
374,60,115625,1,2,0:0:0:0:
458,140,116063,2,0,P|474:193|451:273,1,130,2|0,0:0|0:0,0:0:0:0:
405,291,116720,2,0,L|271:271,1,130,2|0,0:0|0:0,0:0:0:0:
218,262,117377,1,2,0:0:0:0:
133,181,117815,6,0,L|281:164,1,130,2|0,0:0|0:0,0:0:0:0:
345,84,118691,1,0,0:0:0:0:
375,197,119129,1,0,0:0:0:0:
262,166,119567,2,0,L|106:151,1,130,2|0,0:0|0:0,0:0:0:0:
85,118,120224,1,0,0:0:0:0:
66,62,120442,2,0,P|113:19|181:23,1,130,2|0,0:0|0:0,0:0:0:0:
265,96,121318,6,0,P|314:105|382:55,1,130,2|0,0:0|0:0,0:0:0:0:
489,33,122194,2,0,P|510:76|510:118,1,65
504,150,122632,1,2,0:0:0:0:
398,201,123070,2,0,B|385:258|385:258|402:327,1,130,2|0,0:0|0:0,0:0:0:0:
359,367,123727,2,0,P|315:360|221:370,1,130,2|0,0:0|0:0,0:0:0:0:
172,375,124384,1,2,0:0:0:0:
55,363,124822,6,0,P|31:321|54:234,1,130,2|0,0:0|0:0,0:0:0:0:
153,197,125698,2,0,L|289:206,1,130,2|2,0:0|0:0,0:0:0:0:
330,98,126574,2,0,L|194:107,1,130,2|2,0:0|0:0,0:0:0:0:
141,101,127231,1,0,0:0:0:0:
82,105,127450,2,0,P|34:77|77:18,1,130,0|0,0:0|0:0,0:0:0:0:
177,6,128326,5,8,0:1:0:0:
286,48,128764,2,0,B|350:63|350:63|425:49,1,130,2|10,0:0|0:1,0:0:0:0:
471,45,129421,1,0,0:0:0:0:
505,92,129640,1,2,0:0:0:0:
471,204,130078,2,0,P|436:229|347:197,1,130,10|2,0:1|0:0,0:0:0:0:
310,173,130734,1,0,0:0:0:0:
251,176,130953,2,0,B|175:189|175:189|107:171,1,130,10|0,0:1|0:0,0:0:0:0:
31,247,131829,6,0,B|-4:315|65:382,1,130,10|2,0:1|0:0,0:0:0:0:
109,373,132486,1,0,0:0:0:0:
166,361,132705,2,0,B|227:351|227:351|316:361,1,130,10|2,0:1|0:0,0:0:0:0:
411,363,133581,2,0,B|446:295|377:228,1,130,10|2,0:1|0:0,0:0:0:0:
334,258,134238,2,0,L|259:260,1,65,0|10,0:1|0:1,0:1:0:0:
218,230,134676,2,0,B|165:228|165:228|138:243|138:243|74:233,1,130,2|0,0:0|0:0,0:0:0:0:
34,225,135333,5,8,0:1:0:0:
30,108,135771,2,0,L|169:109,1,130,2|10,0:0|0:1,0:0:0:0:
218,108,136428,1,0,0:0:0:0:
276,108,136647,1,2,0:0:0:0:
392,100,137085,2,0,P|426:125|444:222,1,130,10|2,0:1|0:0,0:0:0:0:
428,261,137742,1,0,0:0:0:0:
379,293,137961,2,0,P|332:249|322:186,1,130,10|0,0:1|0:0,0:0:0:0:
205,184,138837,6,0,P|195:247|148:290,1,130,10|2,0:1|0:0,0:0:0:0:
99,258,139494,1,0,0:0:0:0:
78,203,139713,2,0,P|88:140|135:97,1,130,10|2,0:1|0:0,0:0:0:0:
249,71,140588,2,0,P|297:86|390:69,1,130,10|2,0:1|0:0,0:0:0:0:
421,40,141245,1,0,0:0:0:0:
468,5,141464,2,0,L|471:158,1,130,10|2,0:1|0:0,0:0:0:0:
464,193,142121,1,2,0:0:0:0:
454,250,142340,6,0,B|374:260|374:260|303:247,1,130,8|2,0:1|0:0,0:0:0:0:
234,177,143216,2,0,B|185:168|185:168|105:178,1,130,6|0,0:1|0:0,0:0:0:0:
54,207,143873,1,2,0:0:0:0:
18,253,144092,2,0,L|34:326,2,65,10|2|2,0:1|0:0|0:0,0:0:0:0:
123,304,144968,2,0,B|206:309|206:309|254:297,1,130,6|0,0:1|0:0,0:0:0:0:
301,267,145625,1,2,0:0:0:0:
329,215,145844,6,0,L|334:148,2,65,10|2|2,0:1|0:0|0:0,0:0:0:0:
427,278,146720,2,0,L|440:135,1,130,6|2,0:1|0:0,0:0:0:0:
392,40,147596,2,0,P|336:55|252:38,1,130,10|0,0:1|0:0,0:0:0:0:
209,25,148253,1,2,0:0:0:0:
153,44,148472,2,0,P|100:59|19:45,1,130,6|10,0:1|0:1,0:0:0:0:
56,161,149348,6,0,P|109:146|190:160,1,130,10|2,0:1|0:0,0:0:0:0:
293,192,150224,2,0,L|423:169,1,130,6|0,0:1|0:0,0:0:0:0:
473,144,150880,1,2,0:0:0:0:
480,86,151099,2,0,L|488:13,2,65,10|2|2,0:1|0:0|0:0,0:0:0:0:
365,58,151975,2,0,L|235:81,1,130,6|0,0:1|0:0,0:0:0:0:
185,106,152631,1,2,0:0:0:0:
178,164,152851,6,0,L|172:237,2,65,10|2|2,0:1|0:0|0:0,0:0:0:0:
80,97,153727,2,0,L|65:239,1,130,6|2,0:1|0:0,0:0:0:0:
121,329,154603,2,0,P|163:349|250:322,1,130,10|0,0:1|0:0,0:0:0:0:
292,301,155260,1,2,0:0:0:0:
350,307,155479,2,0,B|417:317|417:317|506:307,1,130,6|10,0:1|0:1,0:0:0:0:
432,202,156355,6,0,P|419:169|450:65,1,130,10|2,0:1|0:0,0:0:0:0:
331,28,157231,2,0,P|270:36|196:28,1,130,6|0,0:1|0:0,0:0:0:0:
143,29,157888,1,2,0:0:0:0:
89,53,158107,2,0,L|16:48,2,65,10|2|2,0:1|0:0|0:0,0:0:0:0:
178,128,158983,2,0,P|198:160|196:239,2,97.5,6|2|2,0:1|0:0|0:0,0:0:0:0:
119,134,159859,6,0,L|54:138,1,65,10|2,0:1|0:0,0:0:0:0:
16,183,160297,2,0,P|10:216|22:266,1,65,2|2,0:0|0:0,0:0:0:0:
62,279,160734,2,0,L|195:272,1,130,6|2,0:1|0:0,0:0:0:0:
308,263,161610,2,0,L|450:272,1,130,10|0,0:1|0:0,0:0:0:0:
493,252,162267,1,2,0:0:0:0:
503,194,162486,2,0,B|508:133|508:133|485:63,1,130,6|10,0:1|0:1,0:0:0:0:
371,88,163362,6,0,B|299:104|299:104|215:90,1,130,10|2,0:1|0:0,0:0:0:0:
134,51,164238,2,0,P|97:84|94:169,1,130,6|0,0:1|0:0,0:0:0:0:
121,210,164895,1,2,0:0:0:0:
179,215,165114,2,0,L|256:214,2,65,10|2|2,0:1|0:0|0:0,0:0:0:0:
94,296,165990,2,0,P|41:277|2:225,2,97.5,6|2|2,0:1|0:0|0:0,0:0:0:0:
152,304,166866,6,0,L|229:303,2,65,10|2|2,0:1|0:0|0:0,0:0:0:0:
102,197,167742,2,0,L|250:194,1,130,6|2,0:1|0:0,0:0:0:0:
349,191,168618,2,0,P|402:228|408:301,1,130,10|0,0:1|0:0,0:0:0:0:
378,337,169275,1,2,0:0:0:0:
319,329,169494,2,0,P|276:318|188:330,1,130,6|10,0:1|0:1,0:0:0:0:
80,365,170370,1,2,0:0:0:0:
257,117,185698,5,2,0:0:0:0:
358,174,186136,2,0,B|408:238|377:306|377:306|311:308,2,195,2|2|2,0:0|0:0|0:0,0:0:0:0:
244,204,187888,6,0,P|212:221|50:209,1,195,2|0,0:0|0:0,0:0:0:0:
16,172,188764,2,0,B|38:113|38:113|25:31,1,130,0|0,0:0|0:0,0:0:0:0:
141,74,189640,2,0,B|270:99|270:99|356:78,1,195,2|0,0:0|0:0,0:0:0:0:
387,66,190515,2,0,P|427:76|468:169,1,130,2|0,0:0|0:0,0:0:0:0:
419,253,191391,6,0,B|367:297|313:266|313:266|288:237|288:237|239:211|179:242,1,260,2|0,0:0|0:0,0:0:0:0:
90,307,192705,1,2,0:0:0:0:
20,212,193143,2,0,B|-25:159|7:86|7:86|77:89,2,195,2|2|2,0:0|0:0|0:0,0:0:0:0:
134,184,194895,6,0,B|236:183|236:183|332:125,1,195,2|0,0:0|0:0,0:0:0:0:
365,103,195771,2,0,P|410:93|495:105,1,130,2|2,0:0|0:0,0:0:0:0:
486,221,196647,2,0,P|441:231|356:219,1,130,2|2,0:0|0:0,0:0:0:0:
301,204,197304,1,0,0:0:0:0:
246,224,197523,2,0,B|212:281|212:281|253:355,1,130,0|0,0:0|0:0,0:0:0:0:
358,355,198399,5,0,0:0:0:0:
459,297,198837,2,0,P|475:255|446:162,1,130,2|2,0:0|0:0,0:0:0:0:
433,120,199494,1,0,0:0:0:0:
390,79,199713,1,2,0:0:0:0:
282,35,200151,2,0,P|230:43|146:35,1,130,2|2,0:0|0:0,0:0:0:0:
36,35,201026,2,0,P|18:84|49:170,1,130,2|0,0:0|0:0,0:0:0:0:
155,158,201902,6,0,L|297:173,1,130,2|2,0:0|0:0,0:0:0:0:
341,187,202559,1,0,0:0:0:0:
379,231,202778,2,0,P|385:271|325:362,1,130,2|2,0:0|0:0,0:0:0:0:
228,353,203654,2,0,L|86:338,1,130,2|2,0:0|0:0,0:0:0:0:
42,323,204311,2,0,P|16:291|7:254,1,65,0|2,0:0|0:0,0:0:0:0:
0,211,204749,2,0,P|15:173|113:126,1,130,2|0,0:0|0:0,0:0:0:0:
145,108,205406,5,0,0:0:0:0:
238,178,205844,2,0,P|284:188|371:173,1,130,2|2,0:0|0:0,0:0:0:0:
419,154,206501,1,0,0:0:0:0:
464,116,206720,1,2,0:0:0:0:
395,21,207158,2,0,B|329:28|329:28|258:17,1,130,2|2,0:0|0:0,0:0:0:0:
154,53,208034,2,0,L|129:183,1,130,2|0,0:0|0:0,0:0:0:0:
234,233,208910,6,0,L|371:204,1,130,2|2,0:0|0:0,0:0:0:0:
419,205,209567,1,0,0:0:0:0:
475,218,209786,2,0,P|503:250|497:345,1,130,2|2,0:0|0:0,0:0:0:0:
388,315,210661,2,0,L|251:343,1,130,2|2,0:0|0:0,0:0:0:0:
201,342,211318,1,0,0:0:0:0:
145,329,211537,2,0,P|109:276|116:213,1,130,2|2,0:0|0:0,0:0:0:0:
159,173,212194,2,0,B|241:144|265:196|367:157,1,195,2|0,0:0|0:0,0:0:0:0:
57,180,214165,6,0,P|36:235|61:318,1,130,8|2,0:1|0:0,0:0:0:0:
166,322,215041,2,0,P|224:312|297:322,1,130,6|0,0:1|0:0,0:0:0:0:
351,333,215698,1,2,0:0:0:0:
409,329,215917,2,0,L|487:329,2,65,10|2|2,0:1|0:0|0:0,0:0:0:0:
320,252,216793,2,0,P|315:198|352:115,1,130,6|0,0:1|0:0,0:0:0:0:
390,95,217450,1,2,0:0:0:0:
447,82,217669,6,0,L|514:91,2,65,10|2|2,0:1|0:0|0:0,0:0:0:0:
348,19,218545,2,0,L|212:26,1,130,6|2,0:1|0:0,0:0:0:0:
106,62,219421,2,0,P|79:91|79:200,1,130,10|0,0:1|0:0,0:0:0:0:
117,210,220078,1,2,0:0:0:0:
160,249,220297,2,0,P|160:312|122:364,1,130,6|10,0:1|0:1,0:0:0:0:
6,377,221172,6,0,P|5:313|43:261,1,130,10|2,0:1|0:0,0:0:0:0:
142,198,222048,2,0,B|212:207|212:207|291:191,1,130,6|0,0:1|0:0,0:0:0:0:
322,168,222705,1,2,0:0:0:0:
374,142,222924,2,0,L|460:153,2,65,10|2|2,0:1|0:0|0:0,0:0:0:0:
331,32,223800,2,0,B|261:23|261:23|182:39,1,130,6|0,0:1|0:0,0:0:0:0:
151,62,224457,1,2,0:0:0:0:
99,88,224676,6,0,L|13:77,2,65,10|2|2,0:1|0:0|0:0,0:0:0:0:
179,173,225552,2,0,L|313:144,1,130,6|2,0:1|0:0,0:0:0:0:
423,142,226428,2,0,P|452:177|443:271,1,130,10|0,0:1|0:0,0:0:0:0:
415,305,227085,1,2,0:0:0:0:
356,306,227304,2,0,B|282:300|282:300|210:314,1,130,6|10,0:1|0:1,0:0:0:0:
112,336,228180,6,0,P|75:312|57:215,1,130,10|2,0:1|0:0,0:0:0:0:
158,185,229056,2,0,L|292:172,1,130,6|0,0:1|0:0,0:0:0:0:
344,186,229713,1,2,0:0:0:0:
400,201,229932,2,0,L|474:190,2,65,10|2|2,0:1|0:0|0:0,0:0:0:0:
358,91,230807,2,0,L|224:78,1,130,6|0,0:1|0:0,0:0:0:0:
172,92,231464,1,2,0:0:0:0:
116,107,231683,6,0,L|42:96,2,65,10|2|2,0:1|0:0|0:0,0:0:0:0:
197,191,232559,2,0,P|210:227|175:329,1,130,6|2,0:1|0:0,0:0:0:0:
75,341,233435,2,0,P|62:305|97:203,1,130,10|0,0:1|0:0,0:0:0:0:
115,169,234092,1,2,0:0:0:0:
165,140,234311,2,0,B|227:117|227:117|293:136,1,130,6|10,0:1|0:1,0:0:0:0:
398,175,235187,6,0,P|446:151|475:60,1,130,10|2,0:1|0:0,0:0:0:0:
369,37,236063,2,0,P|318:51|225:35,1,130,6|0,0:1|0:0,0:0:0:0:
188,19,236720,1,2,0:0:0:0:
130,31,236939,2,0,L|51:37,2,65,10|2|2,0:1|0:0|0:0,0:0:0:0:
187,133,237815,2,0,P|238:147|331:131,1,130,6|0,0:1|0:0,0:0:0:0:
368,115,238472,1,2,0:0:0:0:
426,127,238691,6,0,L|505:133,2,65,10|2|2,0:1|0:0|0:0,0:0:0:0:
361,225,239567,2,0,L|500:235,1,130,6|2,0:1|0:0,0:0:0:0:
435,337,240442,6,0,L|296:327,1,130,10|0,0:1|0:0,0:0:0:0:
246,321,241099,1,2,0:0:0:0:
186,327,241318,2,0,L|57:337,1,130,6|10,0:1|0:1,0:0:0:0:
2,232,242194,6,0,P|-4:166|41:102,1,130,8|2,0:1|0:0,0:0:0:0:
85,102,242851,1,0,0:0:0:0:
135,132,243070,2,0,P|173:141|247:119,2,97.5,6|2|2,0:1|0:0|0:0,0:0:0:0:
138,73,243946,2,0,L|204:32,2,65,10|2|2,0:1|0:0|0:0,0:0:0:0:
41,139,244822,2,0,P|6:108|-4:46,2,97.5,6|2|2,0:1|0:0|0:0,0:0:0:0:
95,160,245698,6,0,L|100:231,1,65,10|2,0:1|0:0,0:0:0:0:
103,283,246136,1,2,0:0:0:0:
191,206,246574,2,0,B|251:198|251:198|334:203,1,130,6|2,0:1|0:0,0:0:0:0:
373,227,247231,1,0,0:0:0:0:
431,227,247450,2,0,P|474:213|512:142,1,130,10|0,0:1|0:0,0:0:0:0:
482,90,248107,1,0,0:1:0:0:
427,68,248326,2,0,B|340:75|340:75|274:65,1,130,6|10,0:1|0:1,0:0:0:0:
181,58,249202,6,0,B|113:61|113:61|28:77,1,130,10|2,0:1|0:0,0:0:0:0:
7,110,249859,1,0,0:0:0:0:
16,167,250078,2,0,P|35:220|22:276,2,97.5,6|2|2,0:1|0:0|0:0,0:0:0:0:
74,164,250953,2,0,L|147:167,2,65,10|2|2,0:1|0:0|0:0,0:0:0:0:
140,260,251829,2,0,P|194:244|231:200,2,97.5,6|2|2,0:1|0:0|0:0,0:0:0:0:
171,309,252705,6,0,L|226:348,1,65,10|2,0:1|0:0,0:0:0:0:
282,346,253143,1,0,0:0:0:0:
315,233,253581,2,0,L|473:251,1,130,6|2,0:1|0:0,0:0:0:0:
492,213,254238,1,0,0:0:0:0:
510,157,254457,2,0,P|526:114|497:14,1,130,10|0,0:1|0:0,0:0:0:0:
454,18,255114,1,2,0:0:0:0:
398,35,255333,2,0,B|341:47|341:47|257:39,1,130,6|10,0:1|0:1,0:0:0:0:
152,59,256209,6,0,P|119:94|123:191,1,130,10|2,0:1|0:0,0:0:0:0:
153,215,256866,1,2,0:0:0:0:
208,231,257085,2,0,L|348:192,1,130,6|2,0:1|0:0,0:0:0:0:
441,150,257961,2,0,L|450:75,2,65,10|2|2,0:1|0:0|0:0,0:0:0:0:
454,207,258618,1,2,0:0:0:0:
474,261,258837,2,0,B|465:334|465:334|407:375,1,130,6|2,0:1|0:0,0:0:0:0:
361,353,259494,1,2,0:0:0:0:
302,351,259713,6,0,L|163:353,1,130,10|2,0:1|0:0,0:0:0:0:
113,357,260370,1,2,0:0:0:0:
54,361,260588,2,0,P|16:328|26:229,1,130,6|2,0:1|0:0,0:0:0:0:
82,159,261464,2,0,L|155:169,1,65,10|2,0:1|0:0,0:0:0:0:
200,145,261902,2,0,L|273:135,1,65,2|0,0:0|0:0,0:0:0:0:
315,164,262340,2,0,L|388:174,2,65,6|2|10,0:1|0:0|0:1,0:0:0:0:
235,250,263216,6,0,L|366:266,1,130,10|2,0:1|0:0,0:0:0:0:
422,264,263873,1,2,0:0:0:0:
476,243,264092,2,0,P|506:206|508:106,1,130,6|2,0:1|0:0,0:0:0:0:
421,55,264968,2,0,L|353:28,2,65,10|2|2,0:1|0:0|0:0,0:0:0:0:
430,113,265625,1,2,0:0:0:0:
384,149,265844,2,0,L|254:104,1,130,6|2,0:1|0:0,0:0:0:0:
206,85,266501,1,2,0:0:0:0:
149,71,266720,6,0,B|80:55|80:55|18:75,1,130,2|2,0:0|0:0,0:0:0:0:
11,130,267377,1,2,0:0:0:0:
26,186,267596,2,0,B|32:253|32:253|6:336,1,130,2|2,0:0|0:0,0:0:0:0:
111,376,268472,2,0,L|137:295,1,65,2|2,0:0|0:0,0:0:0:0:
139,255,268910,2,0,L|129:173,1,65,2|2,0:0|0:0,0:0:0:0:
122,132,269348,2,0,P|111:88|197:84,1,130,2|2,0:0|0:0,0:0:0:0:
213,107,270005,1,2,0:0:0:0:
256,192,270224,12,0,271975,0:0:0:0:
