osu file format v14

[General]
AudioFilename: audio.mp3
AudioLeadIn: 0
PreviewTime: 214165
Countdown: 0
SampleSet: Soft
StackLeniency: 0.5
Mode: 0
LetterboxInBreaks: 0
WidescreenStoryboard: 1

[Editor]
DistanceSpacing: 1.3
BeatDivisor: 4
GridSize: 4
TimelineZoom: 1

[Metadata]
Title:Copycat
TitleUnicode:Copycat
Artist:CircusP
ArtistUnicode:CircusP
Creator:neonat
Version:Hard
Source:osu!
Tags:FA featured artist 715 Circus-P GUMI Megpoid English electronic vocaloid bossandy Mappers' Guild pop dance
BeatmapID:2453680
BeatmapSetID:1176418

[Difficulty]
HPDrainRate:5
CircleSize:4
OverallDifficulty:6
ApproachRate:7
SliderMultiplier:1.6
SliderTickRate:1

[Events]
//Background and Video events
0,0,"copy.jpg",0,0
//Break Periods
2,170570,184798
//Storyboard Layer 0 (Background)
//Storyboard Layer 1 (Fail)
//Storyboard Layer 2 (Pass)
//Storyboard Layer 3 (Foreground)
//Storyboard Layer 4 (Overlay)
//Storyboard Sound Samples

[TimingPoints]
443,437.956204379562,4,2,1,60,1,0
42486,-100,4,2,1,45,0,0
56501,-100,4,2,1,70,0,0
70515,-100,4,2,1,80,0,1
84530,-100,4,2,1,50,0,0
100297,-100,4,2,1,60,0,0
114311,-100,4,2,1,45,0,0
128326,-100,4,2,1,70,0,0
142340,-100,4,2,1,80,0,1
170370,-100,4,2,1,50,0,0
198399,-100,4,2,1,60,0,0
212413,-100,4,2,1,30,0,0
212851,-100,4,2,1,37,0,0
213289,-100,4,2,1,44,0,0
213727,-100,4,2,1,50,0,0
214165,-100,4,2,1,80,0,1
240442,-100,4,2,1,60,0,0
242194,-100,4,2,1,80,0,1
255771,-100,4,2,1,80,0,0
256209,-100,4,2,1,80,0,1
266720,-100,4,2,1,65,0,0
270224,-100,4,2,1,50,0,0
271099,-100,4,2,1,40,0,0
271975,-100,4,2,1,30,0,0

[Colours]
Combo1 : 90,197,133
Combo2 : 142,234,198
Combo3 : 224,113,240
Combo4 : 219,47,64

[HitObjects]
105,121,14895,6,0,L|205:113,1,80,2|0,0:0|0:0,0:0:0:0:
271,157,15333,2,0,L|360:147,1,80,2|0,0:0|0:0,0:0:0:0:
423,84,15771,1,2,0:0:0:0:
497,143,15990,2,0,L|509:202,2,40
408,320,16647,6,0,P|397:277|415:225,1,80,2|0,0:0|0:0,0:0:0:0:
333,177,17085,2,0,L|253:185,1,80,2|0,0:0|0:0,0:0:0:0:
178,246,17523,1,2,0:0:0:0:
270,272,17742,2,0,L|331:266,2,40
110,358,18399,6,0,L|13:386,1,80,2|0,0:0|0:0,0:0:0:0:
19,285,18837,2,0,L|95:262,1,80,2|0,0:0|0:0,0:0:0:0:
161,192,19275,2,0,P|172:144|159:102,1,80,2|0,0:0|0:0,0:0:0:0:
79,70,19713,6,0,P|68:118|81:160,1,80,2|0,0:0|0:0,0:0:0:0:
161,192,20151,2,0,L|245:192,1,80,2|0,0:0|0:0,0:0:0:0:
325,111,20588,2,0,L|241:111,1,80,2|0,0:0|0:0,0:0:0:0:
174,45,21026,1,2,0:0:0:0:
262,7,21245,2,0,L|313:9,2,40,0|0|0,0:0|0:0|0:0,0:0:0:0:
452,44,21902,6,0,P|474:88|465:135,1,80,2|0,0:0|0:0,0:0:0:0:
395,176,22340,2,0,P|395:215|415:249,1,80,2|0,0:0|0:0,0:0:0:0:
498,297,22778,1,2,0:0:0:0:
414,343,22997,2,0,L|375:342,2,40
240,259,23654,6,0,P|184:254|145:265,1,80,2|0,0:0|0:0,0:0:0:0:
75,303,24092,2,0,P|87:252|68:215,1,80,2|0,0:0|0:0,0:0:0:0:
8,160,24530,1,2,0:0:0:0:
74,90,24749,2,0,L|101:37,2,40
332,152,25406,6,0,P|357:113|352:61,1,80,2|0,0:0|0:0,0:0:0:0:
278,26,25844,1,2,0:0:0:0:
164,95,26063,2,0,L|257:93,1,80,2|0,0:0|0:0,0:0:0:0:
354,5,26501,1,2,0:0:0:0:
354,5,26610,1,0,0:0:0:0:
354,5,26720,6,0,L|441:15,1,80,2|0,0:0|0:0,0:0:0:0:
494,88,27158,2,0,L|407:98,1,80,2|0,0:0|0:0,0:0:0:0:
354,171,27596,2,0,L|441:181,1,80,2|0,0:0|0:0,0:0:0:0:
494,254,28034,2,0,L|407:264,1,80,2|0,0:0|0:0,0:0:0:0:
318,269,28472,5,0,0:0:0:0:
151,211,28910,2,0,P|141:171|154:123,2,80,2|0|2,0:0|0:0|0:0,0:0:0:0:
238,170,29567,2,0,L|317:160,1,80,2|0,0:0|0:0,0:0:0:0:
390,63,30005,1,2,0:0:0:0:
390,63,30114,1,0,0:0:0:0:
390,63,30224,6,0,L|294:53,1,80,0|0,0:0|0:0,0:0:0:0:
214,54,30661,2,0,L|134:62,1,80,2|0,0:0|0:0,0:0:0:0:
94,150,31099,2,0,L|173:141,1,80,2|0,0:0|0:0,0:0:0:0:
269,128,31537,1,0,0:0:0:0:
201,277,31975,6,0,B|195:319|195:319|210:358,1,80,2|0,0:0|0:0,0:0:0:0:
304,353,32413,2,0,B|317:317|317:317|311:275,1,80,2|0,0:0|0:0,0:0:0:0:
256,196,32851,1,2,0:0:0:0:
154,143,33070,2,0,P|117:120|103:62,1,80,2|0,0:0|0:0,0:0:0:0:
199,22,33508,1,2,0:0:0:0:
199,22,33618,1,0,0:0:0:0:
199,22,33727,6,0,P|236:45|250:103,1,80,0|0,0:0|0:0,0:0:0:0:
271,171,34165,2,0,L|369:164,1,80,2|0,0:0|0:0,0:0:0:0:
394,251,34603,2,0,L|296:244,1,80,2|0,0:0|0:0,0:0:0:0:
270,331,35041,2,0,L|368:324,1,80,2|0,0:0|0:0,0:0:0:0:
443,347,35479,5,2,0:0:0:0:
398,131,35917,2,0,L|309:153,1,80,2|0,0:0|0:0,0:0:0:0:
372,231,36355,1,2,0:0:0:0:
474,189,36574,2,0,P|491:150|487:102,1,80,2|0,0:0|0:0,0:0:0:0:
456,6,37012,1,2,0:0:0:0:
456,6,37121,1,0,0:0:0:0:
456,6,37231,6,0,P|398:6|371:4,1,80,0|0,0:0|0:0,0:0:0:0:
293,53,37669,2,0,P|253:55|213:54,1,80,2|0,0:0|0:0,0:0:0:0:
123,19,38107,2,0,P|83:16|43:17,1,80,2|0,0:0|0:0,0:0:0:0:
14,109,38545,1,0,0:0:0:0:
237,231,38983,6,0,P|253:274|239:328,1,80,2|0,0:0|0:0,0:0:0:0:
155,282,39421,2,0,P|139:235|154:183,1,80,2|0,0:0|0:0,0:0:0:0:
241,146,39859,2,0,P|266:98|261:63,1,80,2|0,0:0|0:0,0:0:0:0:
186,15,40297,1,2,0:0:0:0:
84,43,40515,1,0,0:0:0:0:
84,43,40625,1,0,0:0:0:0:
84,43,40734,6,0,L|69:133,1,80,2|0,0:0|0:0,0:0:0:0:
6,194,41172,2,0,L|19:272,1,80,2|0,0:0|0:0,0:0:0:0:
120,303,41610,2,0,L|106:224,1,80,2|0,0:0|0:0,0:0:0:0:
174,154,42048,2,0,P|226:164|268:144,1,80,2|0,0:0|0:0,0:0:0:0:
339,119,42486,1,2,0:0:0:0:
481,30,43800,5,2,0:0:0:0:
481,30,44238,2,0,P|456:90|487:185,1,160,2|0,0:0|0:0,0:0:0:0:
511,252,44895,2,0,P|512:309|427:361,1,160,2|0,0:0|0:0,0:0:0:0:
357,332,45552,2,0,L|278:330,1,80,2|0,0:0|0:0,0:0:0:0:
205,365,45990,6,0,L|125:366,2,80,2|0|0,0:0|0:0|0:0,0:0:0:0:
277,329,46647,1,0,0:0:0:0:
322,263,46866,2,0,P|338:205|282:114,1,160,0|0,0:0|0:0,0:0:0:0:
64,134,47742,6,0,P|114:154|217:109,1,160,2|0,0:0|0:0,0:0:0:0:
236,43,48399,1,0,0:0:0:0:
157,60,48618,2,0,L|197:225,1,160,2|0,0:0|0:0,0:0:0:0:
356,320,49494,6,0,L|377:239,1,80,2|0,0:0|0:0,0:0:0:0:
400,165,49932,1,0,0:0:0:0:
365,92,50151,1,0,0:0:0:0:
400,19,50370,2,0,L|481:15,2,80,0|0|2,0:0|0:0|0:0,0:0:0:0:
321,5,51026,1,0,0:0:0:0:
252,46,51245,6,0,P|212:61|96:38,1,160,2|0,0:0|0:0,0:0:0:0:
24,11,51902,2,0,P|52:51|36:168,1,160,2|0,0:0|0:0,0:0:0:0:
9,229,52559,2,0,L|32:311,1,80,2|0,0:0|0:0,0:0:0:0:
99,376,52997,6,0,B|112:307|112:307|86:211,1,160,2|0,0:0|0:0,0:0:0:0:
201,75,53873,2,0,P|255:92|367:65,1,160,2|2,0:0|0:0,0:0:0:0:
256,192,54749,12,0,56063,0:0:0:0:
458,332,56501,6,0,P|479:295|474:235,1,80,8|0,0:1|0:0,0:0:0:0:
439,171,56939,1,2,0:0:0:0:
353,214,57158,1,0,0:0:0:0:
274,159,57377,2,0,L|191:155,1,80,10|0,0:1|0:0,0:0:0:0:
106,77,57815,2,0,L|199:69,1,80,2|0,0:0|0:0,0:0:0:0:
284,30,58253,6,0,B|356:7|365:67|454:24,1,160,10|2,0:1|0:0,0:0:0:0:
497,107,58910,1,0,0:0:0:0:
448,189,59129,2,0,B|372:225|363:165|291:188,1,160,10|0,0:1|0:0,0:0:0:0:
98,348,60005,6,0,P|63:305|59:262,1,80,10|0,0:1|0:0,0:0:0:0:
114,204,60442,1,2,0:0:0:0:
206,230,60661,1,0,0:0:0:0:
276,165,60880,2,0,L|296:88,1,80,10|0,0:1|0:0,0:0:0:0:
203,62,61318,2,0,L|183:139,1,80,2|0,0:0|0:0,0:0:0:0:
278,237,61756,6,0,P|321:251|443:229,1,160,10|2,0:1|0:0,0:0:0:0:
494,161,62413,1,0,0:0:0:0:
466,69,62632,1,10,0:1:0:0:
354,86,62851,2,0,P|296:106|195:84,1,160,2|0,0:0|0:0,0:0:0:0:
128,24,63508,5,8,0:1:0:0:
97,226,63946,2,0,P|114:278|103:321,1,80,2|0,0:0|0:0,0:0:0:0:
51,378,64384,2,0,L|150:378,1,80,10|0,0:1|0:0,0:0:0:0:
218,337,64822,1,2,0:0:0:0:
311,360,65041,1,0,0:0:0:0:
402,331,65260,6,0,P|427:293|425:235,1,80,10|0,0:1|0:0,0:0:0:0:
334,256,65698,2,0,P|339:216|362:184,1,80,2|0,0:0|0:0,0:0:0:0:
451,146,66136,2,0,P|485:109|433:20,1,160,10|0,0:1|0:0,0:0:0:0:
253,137,67012,6,0,L|166:131,1,80,10|0,0:1|0:0,0:0:0:0:
94,75,67450,1,2,0:0:0:0:
79,169,67669,1,0,0:0:0:0:
162,240,67888,2,0,B|232:246|232:246|332:203,1,160,10|2,0:1|0:0,0:0:0:0:
456,50,68764,6,0,P|433:91|439:149,1,80,10|0,0:1|0:0,0:0:0:0:
485,203,69202,1,2,0:0:0:0:
495,298,69421,1,0,0:0:0:0:
438,375,69640,2,0,L|350:358,1,80,10|0,0:1|0:0,0:0:0:0:
375,264,70078,2,0,L|288:280,1,80,2|2,0:0|0:0,0:0:0:0:
166,296,70515,6,0,P|131:253|129:203,2,80,8|0|2,0:1|0:0|0:0,0:0:0:0:
223,218,71172,1,0,0:0:0:0:
203,123,71391,2,0,P|185:77|203:9,2,120,6|2|2,0:1|0:0|0:0,0:0:0:0:
280,65,72267,6,0,L|364:70,1,80,10|2,0:1|0:0,0:0:0:0:
451,160,72705,2,0,L|367:165,1,80,2|0,0:0|0:0,0:0:0:0:
261,230,73143,2,0,P|241:278|301:375,1,160,6|0,0:1|0:0,0:0:0:0:
383,372,73800,1,2,0:0:0:0:
469,330,74019,6,0,L|491:248,1,80,10|2,0:1|0:0,0:0:0:0:
489,131,74457,2,0,L|469:54,1,80,2|0,0:0|0:0,0:0:0:0:
367,8,74895,1,6,0:1:0:0:
367,8,75333,1,2,0:0:0:0:
212,124,75771,6,0,P|168:134|125:126,1,80,10|0,0:1|0:0,0:0:0:0:
41,102,76209,1,0,0:0:0:0:
65,9,76428,1,2,0:0:0:0:
191,19,76647,2,0,B|268:29|268:29|311:31|361:18,1,160,6|10,0:1|0:1,0:0:0:0:
499,190,77523,6,0,P|510:240|493:281,2,80,10|0|2,0:1|0:0|0:0,0:0:0:0:
421,131,78180,1,0,0:0:0:0:
337,178,78399,2,0,P|280:188|208:171,2,120,6|2|2,0:1|0:0|0:0,0:0:0:0:
424,218,79275,6,0,B|434:258|434:258|423:308,1,80,10|2,0:1|0:0,0:0:0:0:
341,379,79713,2,0,B|331:339|331:339|342:289,1,80,2|0,0:0|0:0,0:0:0:0:
233,249,80151,2,0,P|187:240|71:254,1,160,6|0,0:1|0:0,0:0:0:0:
17,329,80807,1,2,0:0:0:0:
11,204,81026,6,0,L|7:111,1,80,10|2,0:1|0:0,0:0:0:0:
41,33,81464,1,2,0:0:0:0:
135,48,81683,1,2,0:0:0:0:
253,67,81902,2,0,L|416:39,1,160,6|2,0:1|0:0,0:0:0:0:
468,194,82778,6,0,L|388:182,1,80,10|0,0:1|0:0,0:0:0:0:
294,163,83216,1,0,0:0:0:0:
198,170,83435,1,2,0:0:0:0:
88,234,83654,2,0,P|60:282|104:384,1,160,6|10,0:1|0:1,0:0:0:0:
296,233,84530,1,2,0:0:0:0:
456,190,86720,6,0,P|470:148|408:47,1,160,2|2,0:0|0:0,0:0:0:0:
283,138,87596,2,0,P|241:167|123:151,1,160,2|0,0:0|0:0,0:0:0:0:
20,49,88472,6,0,P|62:20|180:36,1,160,2|2,0:0|0:0,0:0:0:0:
236,66,89129,1,2,0:0:0:0:
292,122,89348,2,0,P|369:136|438:100,1,160,2|0,0:0|0:0,0:0:0:0:
327,214,90224,6,0,P|351:254|429:189,1,160,2|2,0:0|0:0,0:0:0:0:
433,360,91099,1,2,0:0:0:0:
433,360,91318,1,2,0:0:0:0:
349,370,91537,6,0,L|247:358,1,80,2|0,0:0|0:0,0:0:0:0:
189,358,91975,2,0,L|104:368,1,80,2|0,0:0|0:0,0:0:0:0:
53,297,92413,2,0,L|132:287,1,80,2|0,0:0|0:0,0:0:0:0:
212,276,92851,2,0,P|265:254|307:151,1,160,2|0,0:0|0:0,0:0:0:0:
108,80,93727,6,0,P|172:105|261:68,1,160,2|2,0:0|0:0,0:0:0:0:
447,150,94603,2,0,P|374:119|300:144,1,160,2|0,0:0|0:0,0:0:0:0:
162,268,95479,6,0,P|108:279|36:254,2,120,2|2|0,0:0|0:0|0:0,0:0:0:0:
234,232,96355,2,0,L|323:229,1,80,2|2,0:0|0:0,0:0:0:0:
394,223,96793,5,0,0:0:0:0:
505,84,97231,2,0,P|487:33|392:20,1,160,2|2,0:0|0:0,0:0:0:0:
326,66,97888,2,0,B|290:82|290:82|220:82,1,80,2|0,0:0|0:0,0:0:0:0:
172,57,98326,6,0,P|105:70|61:163,1,160,2|0,0:0|0:0,0:0:0:0:
68,224,98983,1,2,0:0:0:0:
218,163,99421,2,0,L|138:163,1,80,2|0,0:0|0:0,0:0:0:0:
164,238,99859,2,0,L|244:238,1,80,2|0,0:0|0:0,0:0:0:0:
340,237,100297,6,0,P|379:215|383:103,1,160,10|2,0:1|0:0,0:0:0:0:
310,53,100953,1,0,0:0:0:0:
220,86,101172,1,10,0:1:0:0:
129,51,101391,2,0,P|79:64|50:101,1,80,2|0,0:0|0:0,0:0:0:0:
137,157,101829,1,2,0:0:0:0:
137,157,101939,1,0,0:0:0:0:
137,157,102048,6,0,P|143:198|130:250,1,80,8|0,0:1|0:0,0:0:0:0:
45,269,102486,2,0,P|39:310|52:362,1,80,2|0,0:0|0:0,0:0:0:0:
140,365,102924,2,0,P|186:353|310:370,1,160,10|0,0:1|0:0,0:0:0:0:
482,264,103800,6,0,P|499:217|478:101,1,160,10|2,0:1|0:0,0:0:0:0:
402,57,104457,1,0,0:0:0:0:
317,102,104676,1,10,0:1:0:0:
227,67,104895,2,0,B|137:76|137:76|60:66,1,160,2|2,0:0|0:0,0:0:0:0:
48,60,105443,1,0,0:0:0:0:
29,51,105552,6,0,P|45:130|23:211,1,160,8|2,0:1|0:0,0:0:0:0:
63,294,106209,1,0,0:0:0:0:
152,259,106428,2,0,P|174:252|244:264,1,80,10|0,0:1|0:0,0:0:0:0:
260,348,106866,2,0,P|299:354|337:346,1,80,2|0,0:0|0:0,0:0:0:0:
413,286,107304,5,10,0:1:0:0:
255,148,107742,2,0,P|244:103|306:0,1,160,2|10,0:0|0:1,0:0:0:0:
387,32,108399,2,0,B|430:41|430:41|474:28,1,80,2|0,0:0|0:0,0:0:0:0:
418,124,108837,1,2,0:0:0:0:
418,124,108946,1,0,0:0:0:0:
418,124,109056,6,0,P|406:173|430:217,1,80,8|0,0:1|0:0,0:0:0:0:
501,243,109494,2,0,P|513:292|489:336,1,80,2|0,0:0|0:0,0:0:0:0:
424,373,109932,2,0,B|350:358|350:358|254:376,1,160,10|0,0:1|0:0,0:0:0:0:
64,312,110807,6,0,P|46:273|52:215,1,80,10|0,0:1|0:0,0:0:0:0:
141,248,111245,2,0,P|159:209|153:151,1,80,2|0,0:0|0:0,0:0:0:0:
67,144,111683,2,0,P|41:95|48:51,1,80,10|0,0:1|0:0,0:0:0:0:
111,5,112121,2,0,P|137:54|130:98,1,80,2|0,0:0|0:0,0:0:0:0:
230,138,112559,6,0,B|283:153|283:153|399:126,1,160,10|0,0:1|0:0,0:0:0:0:
478,103,113216,1,0,0:0:0:0:
496,8,113435,2,0,L|315:51,1,160,10|0,0:1|0:0,0:0:0:0:
245,62,114092,2,0,L|192:48,2,40,0|0|2,0:0|0:0|0:0,0:0:0:0:
254,152,115625,5,2,0:0:0:0:
254,152,116063,2,0,P|294:165|420:148,1,160,2|0,0:0|0:0,0:0:0:0:
479,113,116720,2,0,B|445:209|445:209|451:273,1,160,2|0,0:0|0:0,0:0:0:0:
497,332,117377,2,0,P|482:357|422:378,1,80,2|0,0:0|0:0,0:0:0:0:
357,376,117815,5,2,0:0:0:0:
248,258,118253,1,0,0:0:0:0:
383,173,118691,2,0,P|401:129|366:28,1,160,0|0,0:0|0:0,0:0:0:0:
234,184,119567,6,0,P|174:202|83:167,1,160,2|0,0:0|0:0,0:0:0:0:
40,102,120224,1,0,0:0:0:0:
150,118,120442,2,0,B|162:217|162:217|127:296,1,160,2|0,0:0|0:0,0:0:0:0:
334,347,121318,6,0,L|373:258,2,80,2|0|0,0:0|0:0|0:0,0:0:0:0:
254,357,121975,1,0,0:0:0:0:
208,291,122194,2,0,L|241:215,1,80
283,139,122632,1,2,0:0:0:0:
283,139,123070,6,0,P|261:88|311:-2,1,160,2|0,0:0|0:0,0:0:0:0:
397,16,123727,2,0,P|419:67|369:157,1,160,2|0,0:0|0:0,0:0:0:0:
319,212,124384,2,0,P|310:259|322:294,1,80,2|0,0:0|0:0,0:0:0:0:
397,306,124822,6,0,B|278:333|278:333|214:328,1,160,2|0,0:0|0:0,0:0:0:0:
69,262,125698,2,0,B|48:208|48:208|59:88,1,160,2|2,0:0|0:0,0:0:0:0:
202,37,126574,6,0,P|184:119|223:197,1,160,2|2,0:0|0:0,0:0:0:0:
290,208,127231,1,0,0:0:0:0:
365,180,127450,2,0,B|413:115|413:115|457:180,1,160,0|0,0:0|0:0,0:0:0:0:
324,343,128326,6,0,P|274:355|233:347,1,80,8|0,0:1|0:0,0:0:0:0:
156,315,128764,1,2,0:0:0:0:
71,360,128983,1,0,0:0:0:0:
9,286,129202,2,0,P|18:233|14:190,1,80,10|0,0:1|0:0,0:0:0:0:
102,162,129640,2,0,P|93:215|97:258,1,80,2|0,0:0|0:0,0:0:0:0:
156,315,130078,6,0,P|209:323|311:301,1,160,10|2,0:1|0:0,0:0:0:0:
380,233,130734,1,0,0:0:0:0:
356,139,130953,2,0,P|279:160|200:153,1,160,10|0,0:1|0:0,0:0:0:0:
59,22,131829,6,0,P|35:74|49:118,1,80,10|0,0:1|0:0,0:0:0:0:
101,167,132267,1,2,0:0:0:0:
185,122,132486,1,0,0:0:0:0:
278,141,132705,2,0,L|361:146,1,80,10|0,0:1|0:0,0:0:0:0:
331,52,133143,2,0,L|248:57,1,80,2|0,0:0|0:0,0:0:0:0:
220,192,133581,6,0,P|212:244|286:326,1,160,10|2,0:1|0:0,0:0:0:0:
371,336,134238,1,0,0:0:0:0:
458,295,134457,1,10,0:1:0:0:
490,188,134676,2,0,B|457:118|457:118|477:17,1,160,2|0,0:0|0:0,0:0:0:0:
363,24,135333,5,8,0:1:0:0:
210,188,135771,2,0,P|163:196|119:188,1,80,2|0,0:0|0:0,0:0:0:0:
85,106,136209,2,0,P|132:98|176:106,1,80,10|0,0:1|0:0,0:0:0:0:
257,123,136647,1,2,0:0:0:0:
350,100,136866,1,0,0:0:0:0:
438,138,137085,6,0,L|467:233,1,80,10|0,0:1|0:0,0:0:0:0:
365,202,137523,2,0,L|359:302,1,80,2|0,0:0|0:0,0:0:0:0:
272,241,137961,2,0,P|225:331|154:343,1,160,10|0,0:1|0:0,0:0:0:0:
159,128,138837,6,0,L|150:219,1,80,10|0,0:1|0:0,0:0:0:0:
71,261,139275,1,2,0:0:0:0:
5,191,139494,1,0,0:0:0:0:
79,130,139713,2,0,B|95:20|95:20|49:66,1,160,10|2,0:1|0:0,0:0:0:0:
254,126,140588,6,0,P|310:132|347:120,1,80,10|0,0:1|0:0,0:0:0:0:
424,96,141026,1,2,0:0:0:0:
425,0,141245,1,0,0:0:0:0:
332,25,141464,2,0,B|224:55|224:55|265:11,1,160,10|2,0:1|0:0,0:0:0:0:
163,1,142121,1,2,0:0:0:0:
81,49,142340,6,0,P|72:97|86:135,2,80,8|0|2,0:1|0:0|0:0,0:0:0:0:
169,87,142997,1,0,0:0:0:0:
206,175,143216,2,0,P|210:238|175:298,2,120,6|2|2,0:1|0:0|0:0,0:0:0:0:
276,109,144092,6,0,L|372:116,1,80,10|2,0:1|0:0,0:0:0:0:
491,202,144530,2,0,L|404:196,1,80,2|0,0:0|0:0,0:0:0:0:
292,250,144968,2,0,P|268:298|359:358,1,160,6|0,0:1|0:0,0:0:0:0:
422,325,145625,1,2,0:0:0:0:
510,361,145844,6,0,L|525:265,1,80,10|2,0:1|0:0,0:0:0:0:
441,221,146282,2,0,L|426:125,1,80,2|0,0:0|0:0,0:0:0:0:
496,31,146720,1,6,0:1:0:0:
496,31,147158,1,2,0:0:0:0:
279,21,147596,6,0,P|229:13|183:31,1,80,10|0,0:1|0:0,0:0:0:0:
116,66,148034,1,0,0:0:0:0:
119,161,148253,1,2,0:0:0:0:
223,235,148472,2,0,B|306:223|306:223|408:237,1,160,6|10,0:1|0:1,0:0:0:0:
489,76,149348,6,0,P|497:34|483:-2,2,80,10|0|2,0:1|0:0|0:0,0:0:0:0:
434,155,150005,1,0,0:0:0:0:
421,266,150224,2,0,P|430:312|492:362,2,120,6|2|2,0:1|0:0|0:0,0:0:0:0:
325,271,151099,6,0,L|245:283,1,80,10|2,0:1|0:0,0:0:0:0:
103,201,151537,2,0,L|207:217,1,80,2|0,0:0|0:0,0:0:0:0:
304,178,151975,2,0,P|328:138|279:28,1,160,6|0,0:1|0:0,0:0:0:0:
201,12,152632,1,2,0:0:0:0:
132,79,152851,6,0,P|70:90|37:76,1,80,10|2,0:1|0:0,0:0:0:0:
55,191,153289,2,0,P|115:187|149:198,1,80,2|0,0:0|0:0,0:0:0:0:
253,246,153727,1,6,0:1:0:0:
253,246,154165,1,2,0:0:0:0:
370,347,154603,6,0,P|421:357|455:347,1,80,10|0,0:1|0:0,0:0:0:0:
507,275,155041,1,0,0:0:0:0:
471,185,155260,1,2,0:0:0:0:
509,67,155479,2,0,P|453:78|339:61,1,160,6|10,0:1|0:1,0:0:0:0:
144,29,156355,6,0,P|123:72|128:118,2,80,10|0|2,0:1|0:0|0:0,0:0:0:0:
218,90,157012,1,0,0:0:0:0:
291,151,157231,2,0,P|313:98|288:23,2,120,6|2|2,0:1|0:0|0:0,0:0:0:0:
202,190,158107,6,0,L|190:281,1,80,10|2,0:1|0:0,0:0:0:0:
292,360,158545,2,0,L|305:260,1,80,2|0,0:0|0:0,0:0:0:0:
371,173,158983,2,0,B|446:173|446:173|506:148,2,120,6|2|2,0:1|0:0|0:0,0:0:0:0:
280,139,159859,6,0,L|193:139,1,80,10|2,0:1|0:0,0:0:0:0:
114,184,160297,1,2,0:0:0:0:
68,268,160515,1,2,0:0:0:0:
12,365,160734,2,0,B|61:375|61:375|172:356,1,160,6|2,0:1|0:0,0:0:0:0:
405,320,161610,6,0,P|425:279|415:223,1,80,10|0,0:1|0:0,0:0:0:0:
379,160,162048,1,0,0:0:0:0:
325,240,162267,1,2,0:0:0:0:
257,146,162486,2,0,B|192:149|192:149|163:163|163:163|85:163,1,160,6|10,0:1|0:1,0:0:0:0:
303,20,163362,6,0,L|386:18,2,80,10|0|2,0:1|0:0|0:0,0:0:0:0:
220,69,164019,1,0,0:0:0:0:
128,38,164238,2,0,B|74:28|61:57|-8:37,2,120,6|2|2,0:1|0:0|0:0,0:0:0:0:
163,127,165114,6,0,P|167:171|148:219,1,80,10|2,0:1|0:0,0:0:0:0:
52,157,165552,2,0,P|41:195|45:234,1,80,2|0,0:0|0:0,0:0:0:0:
171,300,165990,2,0,B|237:318|237:318|311:308,2,120,6|2|2,0:1|0:0|0:0,0:0:0:0:
260,235,166866,6,0,L|345:223,1,80,10|2,0:1|0:0,0:0:0:0:
434,207,167304,1,2,0:0:0:0:
481,123,167523,1,0,0:0:0:0:
392,44,167742,2,0,L|224:71,1,160,6|2,0:1|0:0,0:0:0:0:
61,190,168618,6,0,P|55:235|70:277,1,80,10|0,0:1|0:0,0:0:0:0:
134,333,169056,1,0,0:0:0:0:
230,333,169275,1,2,0:0:0:0:
336,273,169494,2,0,B|423:257|423:257|503:281,1,160,6|10,0:1|0:1,0:0:0:0:
256,192,170370,1,2,0:0:0:0:
257,193,185698,5,2,0:0:0:0:
257,193,186136,2,0,P|197:206|96:187,1,160,2|0,0:0|0:0,0:0:0:0:
101,108,186793,2,0,P|179:94|257:111,1,160,2|0,0:0|0:0,0:0:0:0:
326,150,187450,2,0,L|414:140,1,80,2|0,0:0|0:0,0:0:0:0:
474,181,187888,6,0,P|493:222|489:266,2,80,2|0|0,0:0|0:0|0:0,0:0:0:0:
478,100,188545,1,0,0:0:0:0:
414,50,188764,2,0,P|356:65|255:48,1,160,0|0,0:0|0:0,0:0:0:0:
71,82,189640,6,0,P|42:135|73:229,1,160,2|0,0:0|0:0,0:0:0:0:
141,262,190297,1,0,0:0:0:0:
212,226,190515,2,0,B|303:222|303:222|388:233,1,160,2|0,0:0|0:0,0:0:0:0:
296,61,191391,6,0,L|212:49,2,80,2|0|0,0:0|0:0|0:0,0:0:0:0:
375,73,192048,1,0,0:0:0:0:
453,87,192267,2,0,P|472:129|435:243,1,160,0|2,0:0|0:0,0:0:0:0:
384,288,192924,1,0,0:0:0:0:
311,254,193143,6,0,B|218:251|218:251|133:264,1,160,2|0,0:0|0:0,0:0:0:0:
77,291,193800,2,0,P|34:255|25:148,1,160,2|0,0:0|0:0,0:0:0:0:
83,105,194457,2,0,L|175:117,1,80,2|0,0:0|0:0,0:0:0:0:
239,93,194895,5,2,0:0:0:0:
366,189,195333,1,0,0:0:0:0:
217,248,195771,2,0,L|127:233,1,80,2|0,0:0|0:0,0:0:0:0:
59,218,196209,1,2,0:0:0:0:
253,142,196647,6,0,L|414:135,1,160,2|2,0:0|0:0,0:0:0:0:
479,179,197304,1,0,0:0:0:0:
429,242,197523,2,0,B|445:309|429:363|429:363|446:346|472:340,1,160,0|0,0:0|0:0,0:0:0:0:
317,270,198399,6,0,L|238:263,1,80,0|0,0:0|0:0,0:0:0:0:
165,299,198837,1,2,0:0:0:0:
92,265,199056,1,0,0:0:0:0:
84,185,199275,2,0,B|100:134|81:74|81:74|133:118,1,160,2|2,0:0|0:0,0:0:0:0:
164,169,199932,1,0,0:0:0:0:
234,205,200151,6,0,P|285:213|395:199,1,160,2|2,0:0|0:0,0:0:0:0:
393,39,201026,2,0,P|342:31|232:45,1,160,2|0,0:0|0:0,0:0:0:0:
146,193,201902,6,0,L|135:280,1,80,2|0,0:0|0:0,0:0:0:0:
190,331,202340,1,2,0:0:0:0:
266,307,202559,1,0,0:0:0:0:
341,334,202778,2,0,B|418:338|418:338|505:325,1,160,2|2,0:0|0:0,0:0:0:0:
472,124,203654,6,0,L|374:137,1,80,2|0,0:0|0:0,0:0:0:0:
319,101,204092,1,2,0:0:0:0:
246,135,204311,1,0,0:0:0:0:
172,102,204530,1,2,0:0:0:0:
95,126,204749,2,0,P|46:128|70:50,1,160,2|0,0:0|0:0,0:0:0:0:
143,22,205406,5,0,0:0:0:0:
191,211,205844,2,0,P|203:253|187:300,1,80,2|0,0:0|0:0,0:0:0:0:
130,335,206282,1,2,0:0:0:0:
50,327,206501,1,0,0:0:0:0:
12,256,206720,2,0,L|25:172,1,80,2|0,0:0|0:0,0:0:0:0:
104,184,207158,6,0,B|127:49|127:49|158:70,1,160,2|2,0:0|0:0,0:0:0:0:
226,68,207815,1,0,0:0:0:0:
279,10,208034,2,0,B|346:23|346:23|447:9,1,160,2|0,0:0|0:0,0:0:0:0:
302,145,208910,6,0,P|286:186|294:236,1,80,2|0,0:0|0:0,0:0:0:0:
329,290,209348,1,2,0:0:0:0:
407,306,209567,1,0,0:0:0:0:
482,279,209786,2,0,P|511:222|492:116,1,160,2|2,0:0|0:0,0:0:0:0:
341,42,210661,2,0,P|279:58|172:37,1,160,2|2,0:0|0:0,0:0:0:0:
108,19,211318,1,0,0:0:0:0:
32,46,211537,2,0,P|8:97|41:201,1,160,2|2,0:0|0:0,0:0:0:0:
108,222,212194,1,2,0:0:0:0:
256,192,212413,12,0,213727,0:0:0:0:
336,135,214165,6,0,P|344:93|328:40,2,80,8|0|2,0:1|0:0|0:0,0:0:0:0:
265,200,214822,1,0,0:0:0:0:
178,159,215041,2,0,B|109:154|109:154|53:162,2,120,6|2|2,0:1|0:0|0:0,0:0:0:0:
205,251,215917,6,0,L|217:336,1,80,10|2,0:1|0:0,0:0:0:0:
346,372,216355,2,0,L|333:270,1,80,2|0,0:0|0:0,0:0:0:0:
455,210,216793,2,0,P|471:169|421:57,1,160,6|0,0:1|0:0,0:0:0:0:
339,42,217450,1,2,0:0:0:0:
249,77,217669,6,0,L|166:82,1,80,10|2,0:1|0:0,0:0:0:0:
217,165,218107,2,0,L|115:171,1,80,2|0,0:0|0:0,0:0:0:0:
106,282,218545,1,6,0:1:0:0:
106,282,218983,1,2,0:0:0:0:
334,364,219421,6,0,L|417:370,1,80,10|0,0:1|0:0,0:0:0:0:
487,308,219859,1,0,0:0:0:0:
509,214,220078,1,2,0:0:0:0:
459,117,220297,2,0,P|399:132|300:115,1,160,6|10,0:1|0:1,0:0:0:0:
104,35,221172,6,0,P|50:29|17:41,2,80,10|0|2,0:1|0:0|0:0,0:0:0:0:
172,103,221829,1,0,0:0:0:0:
235,175,222048,2,0,B|253:246|253:246|286:285,2,120,6|2|2,0:1|0:0|0:0,0:0:0:0:
266,83,222924,6,0,L|365:41,1,80,10|2,0:1|0:0,0:0:0:0:
393,142,223362,2,0,L|498:159,1,80,2|0,0:0|0:0,0:0:0:0:
413,304,223800,2,0,P|370:296|322:182,1,160,6|0,0:1|0:0,0:0:0:0:
393,142,224457,1,2,0:0:0:0:
482,177,224676,6,0,L|512:268,1,80,10|2,0:1|0:0,0:0:0:0:
468,355,225114,2,0,L|375:375,1,80,2|0,0:0|0:0,0:0:0:0:
262,311,225552,1,6,0:1:0:0:
262,311,225990,1,2,0:0:0:0:
73,187,226428,6,0,P|52:142|59:96,1,80,10|0,0:1|0:0,0:0:0:0:
118,41,226866,1,0,0:0:0:0:
191,102,227085,1,2,0:0:0:0:
306,116,227304,2,0,L|467:90,1,160,6|10,0:1|0:1,0:0:0:0:
270,228,228180,6,0,P|259:268|274:320,1,80,10|0,0:1|0:0,0:0:0:0:
358,354,228618,1,2,0:0:0:0:
457,322,228837,1,0,0:0:0:0:
497,226,229056,2,0,P|506:171|477:82,2,120,6|2|2,0:1|0:0|0:0,0:0:0:0:
392,234,229932,6,0,L|296:216,1,80,10|2,0:1|0:0,0:0:0:0:
177,219,230370,2,0,L|67:242,1,80
27,101,230807,2,0,B|87:110|87:110|201:95,1,160,6|0,0:1|0:0,0:0:0:0:
288,79,231464,1,2,0:0:0:0:
391,83,231683,6,0,L|488:60,1,80,10|2,0:1|0:0,0:0:0:0:
507,187,232121,2,0,L|410:164,1,80,2|2,0:0|0:0,0:0:0:0:
290,196,232559,1,6,0:1:0:0:
290,196,232997,1,2,0:0:0:0:
186,357,233435,6,0,P|143:363|90:352,1,80,10|0,0:1|0:0,0:0:0:0:
16,309,233873,1,0,0:0:0:0:
4,205,234092,1,2,0:0:0:0:
79,112,234311,2,0,B|106:62|60:8|60:8|79:16|118:8,1,160,6|10,0:1|0:1,0:0:0:0:
294,55,235187,6,0,L|375:45,1,80,10|0,0:1|0:0,0:0:0:0:
474,71,235625,1,2,0:0:0:0:
395,139,235844,1,0,0:0:0:0:
490,180,236063,2,0,P|508:215|499:304,2,120,6|2|2,0:1|0:0|0:0,0:0:0:0:
395,139,236939,6,0,L|294:147,1,80,10|2,0:1|0:0,0:0:0:0:
169,202,237377,2,0,L|260:210,1,80,2|0,0:0|0:0,0:0:0:0:
319,349,237815,2,0,P|340:316|338:254,1,80,6|0,0:1|0:0,0:0:0:0:
249,210,238253,2,0,P|249:259|272:293,1,80,0|2,0:0|0:0,0:0:0:0:
337,196,238691,6,0,P|337:147|314:113,1,80,10|2,0:1|0:0,0:0:0:0:
231,65,239129,2,0,L|136:89,1,80,2|0,0:0|0:0,0:0:0:0:
22,37,239567,1,6,0:1:0:0:
22,37,240005,1,2,0:0:0:0:
110,198,240442,6,0,P|148:258|86:335,1,160,10|0,0:1|0:0,0:0:0:0:
13,375,241099,1,2,0:0:0:0:
8,271,241318,2,0,B|23:211|23:211|1:182|1:182|17:120,1,160,6|10,0:1|0:1,0:0:0:0:
195,45,242194,6,0,P|247:51|288:39,1,80,8|0,0:1|0:0,0:0:0:0:
389,119,242632,2,0,P|337:113|296:125,1,80,2|0,0:0|0:0,0:0:0:0:
263,227,243070,2,0,P|278:269|253:349,2,120,6|2|2,0:1|0:0|0:0,0:0:0:0:
170,177,243946,6,0,L|86:194,1,80,10|2,0:1|0:0,0:0:0:0:
17,101,244384,2,0,L|125:101,1,80,2|0,0:0|0:0,0:0:0:0:
203,45,244822,2,0,B|266:51|266:51|334:31,2,120,6|2|2,0:1|0:0|0:0,0:0:0:0:
309,136,245698,6,0,L|394:109,1,80,10|2,0:1|0:0,0:0:0:0:
473,187,246136,2,0,L|388:214,1,80,2|0,0:0|0:0,0:0:0:0:
315,316,246574,1,6,0:1:0:0:
315,316,247012,1,2,0:0:0:0:
96,366,247450,6,0,L|21:341,1,80,10|0,0:1|0:0,0:0:0:0:
90,263,247888,1,0,0:0:0:0:
185,304,248107,1,2,0:0:0:0:
278,246,248326,2,0,P|315:204|296:91,1,160,6|10,0:1|0:1,0:0:0:0:
226,40,248983,1,0,0:0:0:0:
95,100,249202,6,0,P|84:142|97:198,1,80,10|0,0:1|0:0,0:0:0:0:
204,227,249640,2,0,P|215:185|202:129,1,80,2|0,0:0|0:0,0:0:0:0:
276,32,250078,2,0,B|353:38|353:38|417:26,2,120,6|2|2,0:1|0:0|0:0,0:0:0:0:
320,150,250953,6,0,L|334:237,1,80,10|2,0:1|0:0,0:0:0:0:
449,184,251391,2,0,L|461:105,1,80,2|0,0:0|0:0,0:0:0:0:
296,80,251829,2,0,B|228:73|228:73|155:86,2,120,6|2|2,0:1|0:0|0:0,0:0:0:0:
374,187,252705,6,0,P|381:233|364:276,1,80,10|2,0:1|0:0,0:0:0:0:
275,303,253143,2,0,P|268:257|285:214,1,80,2|0,0:0|0:0,0:0:0:0:
325,106,253581,1,6,0:1:0:0:
325,106,254019,1,2,0:0:0:0:
145,241,254457,6,0,L|45:233,1,80,10|0,0:1|0:0,0:0:0:0:
7,321,254895,1,0,0:0:0:0:
102,362,255114,1,2,0:0:0:0:
201,332,255333,2,0,L|285:344,2,80,6|0|10,0:1|0:0|0:1,0:0:0:0:
145,241,255990,1,0,0:0:0:0:
228,154,256209,6,0,P|250:113|190:18,1,160,10|2,0:1|0:0,0:0:0:0:
104,14,256866,1,2,0:0:0:0:
43,88,257085,2,0,L|33:202,1,80,6|0,0:1|0:0,0:0:0:0:
130,257,257523,2,0,L|122:160,1,80,2|0,0:0|0:0,0:0:0:0:
197,115,257961,5,10,0:1:0:0:
292,175,258180,1,2,0:0:0:0:
292,175,258289,1,2,0:0:0:0:
292,175,258399,2,0,P|335:179|375:169,1,80,2|2,0:0|0:0,0:0:0:0:
438,85,258837,2,0,P|395:81|355:91,1,80,6|0,0:1|0:0,0:0:0:0:
271,49,259275,2,0,L|180:40,1,80,2|2,0:0|0:0,0:0:0:0:
68,123,259713,6,0,B|165:113|165:113|257:123,1,160,10|2,0:1|0:0,0:0:0:0:
322,135,260370,1,2,0:0:0:0:
377,212,260588,2,0,P|383:258|368:307,1,80,6|0,0:1|0:0,0:0:0:0:
280,273,261026,2,0,P|273:312|281:351,1,80,2|0,0:0|0:0,0:0:0:0:
374,376,261464,5,10,0:1:0:0:
471,337,261683,1,2,0:0:0:0:
471,337,261793,1,2,0:0:0:0:
471,337,261902,2,0,P|478:297|472:258,1,80,2|0,0:0|0:0,0:0:0:0:
420,168,262340,2,0,L|432:77,1,80,6|0,0:1|0:0,0:0:0:0:
329,17,262778,2,0,L|315:109,1,80,10|2,0:1|0:0,0:0:0:0:
194,146,263216,6,0,P|145:154|56:88,1,160,10|2,0:1|0:0,0:0:0:0:
18,6,263873,1,2,0:0:0:0:
132,24,264092,2,0,L|221:22,1,80,6|0,0:1|0:0,0:0:0:0:
296,68,264530,2,0,L|381:65,1,80,2|0,0:0|0:0,0:0:0:0:
472,56,264968,6,0,P|495:92|492:137,1,80,10|2,0:1|0:0,0:0:0:0:
450,213,265406,1,2,0:0:0:0:
355,173,265625,1,2,0:0:0:0:
355,173,265734,1,0,0:0:0:0:
355,173,265844,2,0,L|256:171,1,80,6|0,0:1|0:0,0:0:0:0:
190,266,266282,2,0,L|289:264,1,80,2|2,0:0|0:0,0:0:0:0:
360,318,266720,6,0,B|472:326|472:326|521:297,1,160,2|2,0:0|0:0,0:0:0:0:
509,205,267377,1,2,0:0:0:0:
503,100,267596,2,0,L|499:57,3,40,2|0|0|0,0:0|0:0|0:0|0:0,0:0:0:0:
494,24,268034,2,0,B|453:18|453:18|391:28,1,80,2|0,0:0|0:0,0:0:0:0:
316,73,268472,5,2,0:0:0:0:
219,44,268691,1,2,0:0:0:0:
219,44,268800,1,2,0:0:0:0:
219,44,268910,2,0,B|179:53|179:53|128:47,1,80,2|2,0:0|0:0,0:0:0:0:
37,94,269348,2,0,P|20:148|29:175,1,80,2|0,0:0|0:0,0:0:0:0:
137,216,269786,2,0,L|236:197,1,80,2|2,0:0|0:0,0:0:0:0:
333,174,270224,1,4,0:0:0:0:
256,192,270333,12,0,271975,0:0:0:0:
