osu file format v14

[General]
AudioFilename: iNSaNiTY.mp3
AudioLeadIn: 0
PreviewTime: 61612
Countdown: 0
SampleSet: Soft
StackLeniency: 0.7
Mode: 0
LetterboxInBreaks: 0
EpilepsyWarning: 1
WidescreenStoryboard: 1

[Editor]
Bookmarks: 30879,46239,61599,76959,91372,92319,99999,115359,127839,130839,146079,161439,176799,192159,207519,220959,230559,245919,261279,276639,291999
DistanceSpacing: 1.2
BeatDivisor: 4
GridSize: 4
TimelineZoom: 1

[Metadata]
Title:iNSaNiTY
TitleUnicode:iNSaNiTY
Artist:Circus-P
ArtistUnicode:Circus-P
Creator:Gabe
Version:Hard
Source:
Tags:kaito vocaloid SF-A2 miki 2011 doofus-p matt9five guitar hero piano zero creepy pasta blood veus noffy
BeatmapID:265590
BeatmapSetID:100016

[Difficulty]
HPDrainRate:5
CircleSize:4
OverallDifficulty:6
ApproachRate:7
SliderMultiplier:1.7
SliderTickRate:2

[Events]
//Background and Video events
0,0,"iNSaNiTY.jpg",0,0
//Break Periods
2,15732,29992
2,96372,99052
2,165492,175912
2,209452,220072
//Storyboard Layer 0 (Background)
//Storyboard Layer 1 (Fail)
//Storyboard Layer 2 (Pass)
//Storyboard Layer 3 (Foreground)
//Storyboard Sound Samples

[TimingPoints]
172,480,4,2,0,40,1,0
9772,-100,4,2,0,50,0,0
11692,-100,4,2,0,60,0,0
13612,-100,4,2,0,70,0,0
15532,-100,4,2,0,80,0,1
15652,-100,4,2,0,80,0,0
30892,-100,4,2,0,40,0,0
31012,-100,4,2,0,70,0,0
34252,-100,4,2,0,40,0,0
34372,-100,4,2,0,70,0,0
38092,-100,4,2,0,40,0,0
38212,-100,4,2,0,70,0,0
41932,-100,4,2,0,40,0,0
42052,-100,4,2,0,70,0,0
45772,-100,4,2,0,40,0,0
45892,-100,4,2,0,70,0,0
49612,-100,4,2,0,40,0,0
49852,-100,4,2,0,70,0,0
53452,-100,4,2,0,40,0,0
53692,-100,4,2,0,70,0,0
57292,-100,4,2,0,40,0,0
57322,-100,4,2,0,70,0,0
61612,-100,4,2,0,40,0,1
61732,-100,4,2,0,50,0,0
76492,-100,4,2,0,60,0,0
76972,-100,4,2,0,70,0,1
80332,-100,4,2,0,40,0,1
80452,-100,4,2,0,70,0,1
84172,-100,4,2,0,40,0,1
84292,-100,4,2,0,70,0,1
88012,-100,4,2,0,40,0,1
88042,-100,4,2,0,70,0,1
91852,-100,4,2,0,40,0,1
92332,-100,4,2,0,60,0,0
94252,-100,4,2,0,50,0,0
96172,-100,4,2,0,40,0,0
100012,-100,4,2,0,40,0,0
100132,-100,4,2,0,70,0,0
103372,-100,4,2,0,40,0,0
103492,-100,4,2,0,70,0,0
105772,-100,4,2,0,40,0,0
107722,-100,4,2,0,70,0,0
111052,-100,4,2,0,40,0,0
111172,-100,4,2,0,70,0,0
114892,-100,4,2,0,40,0,0
115372,-100,4,2,0,70,0,0
118732,-100,4,2,0,40,0,0
118852,-100,4,2,0,70,0,0
122572,-100,4,2,0,40,0,0
122692,-100,4,2,0,70,0,0
126412,-100,4,2,0,40,0,0
126442,-100,4,2,0,70,0,0
130252,-100,4,2,0,40,0,0
130492,-100,4,2,0,70,0,0
130732,-100,4,2,0,40,0,1
130852,-100,4,2,0,50,0,0
145612,-100,4,2,0,60,0,0
146092,-100,4,2,0,40,0,1
146212,-100,4,2,0,70,0,1
149452,-100,4,2,0,40,0,1
149572,-100,4,2,0,70,0,1
153292,-100,4,2,0,40,0,1
153322,-100,4,2,0,70,0,1
157132,-100,4,2,0,40,0,1
157252,-100,4,2,0,70,0,1
160972,-100,4,2,0,40,0,1
161002,-100,4,2,0,70,0,1
161332,-100,4,2,0,70,0,0
161452,-100,4,2,0,70,0,1
161572,-100,4,2,0,70,0,0
176812,-100,4,2,0,40,0,0
176842,-100,4,2,0,70,0,0
180172,-100,4,2,0,40,0,0
180292,-100,4,2,0,70,0,0
184012,-100,4,2,0,40,0,0
184132,-100,4,2,0,70,0,0
187852,-100,4,2,0,40,0,0
187882,-100,4,2,0,70,0,0
195532,-100,4,2,0,40,0,0
195652,-100,4,2,0,70,0,0
199372,-100,4,2,0,40,0,0
199402,-100,4,2,0,70,0,0
220972,-100,4,2,0,40,0,0
222892,-100,4,2,0,50,0,0
224812,-100,4,2,0,60,0,0
226732,-100,4,2,0,70,0,0
228652,-100,4,2,0,30,0,1
228772,-100,4,2,0,30,0,0
230572,-133.333333333333,4,2,0,20,0,0
244012,-100,4,2,0,40,0,0
244492,-100,4,2,0,50,0,0
244972,-100,4,2,0,55,0,0
245452,-100,4,2,0,60,0,0
245932,-100,4,2,0,40,0,1
245962,-100,4,2,0,70,0,1
249292,-100,4,2,0,40,0,1
249322,-100,4,2,0,70,0,1
253132,-100,4,2,0,40,0,1
253162,-100,4,2,0,70,0,1
256972,-100,4,2,0,40,0,1
257002,-100,4,2,0,70,0,1
260812,-100,4,2,0,40,0,1
260842,-100,4,2,0,70,0,1
261052,-100,4,2,0,70,0,0
261292,-100,4,2,0,40,0,1
261322,-100,4,2,0,70,0,1
264652,-100,4,2,0,40,0,1
264682,-100,4,2,0,70,0,1
268492,-100,4,2,0,40,0,1
268522,-100,4,2,0,70,0,1
272332,-100,4,2,0,40,0,1
272362,-100,4,2,0,70,0,1
276172,-100,4,2,0,40,0,1
276412,-100,4,2,0,70,0,0
276652,-100,4,2,0,40,0,1
276682,-100,4,2,0,70,0,1
276892,-100,4,2,0,70,0,0

[Colours]
Combo1 : 240,240,0
Combo2 : 0,157,0
Combo3 : 0,82,164
Combo4 : 232,0,0

[HitObjects]
256,192,7852,12,4,15052,0:0:0:0:
256,192,15532,5,4,0:0:0:0:
488,36,30892,6,0,L|480:136,1,85,4|0,1:2|1:0,0:0:0:0:
389,148,31372,2,0,L|395:63,1,85,8|0,0:0|1:0,0:0:0:0:
304,92,31852,2,0,L|296:192,1,85,0|2,0:0|0:0,0:0:0:0:
288,280,32332,1,8,0:0:0:0:
288,279,32812,6,0,P|263:313|223:327,1,85,0|0,1:0|1:0,0:0:0:0:
204,228,33292,2,0,P|162:234|124:216,1,85,8|0,0:0|1:0,0:0:0:0:
180,128,33772,2,0,P|146:103|132:63,1,85,0|2,0:0|0:0,0:0:0:0:
232,36,34252,1,12,0:0:0:0:
232,36,34732,6,0,L|328:64,2,85,0|0|8,1:0|1:0|0:0,0:0:0:0:
132,64,35452,1,0,1:0:0:0:
208,132,35692,2,0,L|289:155,2,85,0|2|8,0:0|0:0|0:0,0:0:0:0:
108,160,36412,1,0,1:0:0:0:
108,160,36652,6,2,B|108:244|108:244|160:316,1,170,2|8,1:0|0:0,1:0:0:0:
353,313,37612,2,2,B|404:244|404:244|404:160,1,170,2|12,0:1|0:0,0:1:0:0:
256,20,38572,6,0,L|156:36,1,85,0|0,1:0|1:0,0:0:0:0:
144,133,39052,2,0,L|228:120,1,85,8|0,0:0|1:0,0:0:0:0:
200,220,39532,2,0,L|100:236,1,85,0|2,0:0|0:0,0:0:0:0:
16,248,40012,1,8,0:0:0:0:
16,248,40492,6,0,P|36:304|64:320,1,85,0|0,1:0|1:0,0:0:0:0:
116,233,40972,2,0,P|169:258|200:249,1,85,8|0,0:0|1:0,0:0:0:0:
176,152,41452,2,0,P|232:132|248:104,1,85,0|2,0:0|0:0,0:0:0:0:
168,48,41932,1,12,0:0:0:0:
168,48,42412,6,0,L|88:88,2,85,0|0|8,1:0|1:0|0:0,0:0:0:0:
244,112,43132,1,0,1:0:0:0:
156,160,43372,2,0,L|76:200,2,85,0|2|8,0:0|0:0|0:0,0:0:0:0:
232,224,44092,1,0,1:0:0:0:
144,280,44332,6,2,P|200:324|296:308,1,170,2|8,1:0|0:0,1:0:0:0:
410,142,45292,2,2,P|342:94|261:111,1,170,2|12,0:1|0:0,0:1:0:0:
64,56,46252,5,2,1:2:0:0:
64,56,46732,1,10,0:0:0:0:
64,56,47212,1,2,0:0:0:0:
44,156,47452,1,2,0:0:0:0:
116,228,47692,1,8,0:0:0:0:
216,220,47932,1,0,1:0:0:0:
280,140,48172,5,2,1:2:0:0:
280,140,48652,1,8,0:0:0:0:
280,140,49132,1,2,0:0:0:0:
352,68,49372,1,2,0:0:0:0:
452,76,49612,1,12,0:0:0:0:
504,164,49852,1,0,1:0:0:0:
472,260,50092,5,2,1:2:0:0:
472,260,50572,1,8,0:0:0:0:
472,260,51052,1,2,0:0:0:0:
392,324,51292,1,2,0:0:0:0:
388,224,51532,1,8,0:0:0:0:
308,288,51772,1,0,1:0:0:0:
304,188,52012,5,2,1:2:0:0:
304,188,52492,1,8,0:0:0:0:
304,188,52972,1,2,0:0:0:0:
300,88,53212,1,2,0:0:0:0:
220,152,53452,1,12,0:0:0:0:
216,52,53692,1,0,1:0:0:0:
136,116,53932,5,2,1:2:0:0:
136,116,54412,1,8,0:0:0:0:
136,116,54892,1,2,0:0:0:0:
44,160,55132,1,2,0:0:0:0:
8,256,55372,1,8,0:0:0:0:
36,356,55612,1,0,1:0:0:0:
132,324,55852,5,2,1:2:0:0:
132,324,56332,1,8,0:0:0:0:
132,324,56812,1,2,0:0:0:0:
200,248,57052,1,2,0:0:0:0:
300,224,57292,1,12,0:0:0:0:
396,264,57532,1,0,1:0:0:0:
452,348,57772,5,2,1:2:0:0:
452,348,58252,1,8,0:0:0:0:
452,348,58732,1,2,0:0:0:0:
396,264,58972,1,2,0:0:0:0:
472,196,59212,1,8,0:0:0:0:
416,112,59452,1,0,1:0:0:0:
492,44,59692,5,2,1:2:0:0:
308,132,60172,1,8,0:0:0:0:
132,32,60652,2,0,L|32:56,1,85,2|2,0:0|0:0,0:0:0:0:
120,128,61132,2,0,L|20:152,1,85,8|0,0:0|1:0,0:0:0:0:
20,248,61612,5,4,0:0:0:0:
188,364,62092,1,2,0:0:0:0:
388,336,62572,1,0,0:0:0:0:
488,160,63052,1,2,0:0:0:0:
324,40,63532,6,0,P|284:104|280:144,1,85,2|2,0:0|0:0,0:0:0:0:
184,132,64012,2,0,P|153:102|115:84,1,85,0|2,0:0|0:0,0:0:0:0:
20,124,64492,2,0,P|0:236|0:292,1,170,0|2,0:0|0:0,0:0:0:0:
0,291,65452,5,0,0:0:0:0:
92,108,65932,1,2,0:0:0:0:
292,64,66412,1,0,0:0:0:0:
468,168,66892,1,2,0:0:0:0:
348,336,67372,6,0,P|284:360|192:324,1,170,2|2,0:0|0:0,0:0:0:0:
132,244,68092,1,0,0:0:0:0:
204,172,68332,2,0,P|283:148|359:183,1,170,2|2,0:0|0:0,0:0:0:0:
359,183,69292,5,0,0:0:0:0:
492,28,69772,1,2,0:0:0:0:
300,100,70252,1,0,0:0:0:0:
500,132,70732,1,2,0:0:0:0:
304,76,71212,6,0,P|267:55|225:51,1,85,2|2,0:0|0:0,0:0:0:0:
124,36,71692,2,0,L|20:68,1,85,0|2,0:0|0:0,0:0:0:0:
76,156,72172,2,0,L|157:131,1,85
225,51,72652,1,2,0:0:0:0:
164,248,73132,5,0,0:0:0:0:
348,340,73612,1,2,0:0:0:0:
148,376,74092,1,0,0:0:0:0:
292,232,74572,1,2,0:0:0:0:
432,84,75052,5,0,1:0:0:0:
432,84,75532,1,2,0:0:0:0:
380,172,75772,1,2,0:0:0:0:
280,156,76012,1,0,0:0:0:0:
268,56,76252,1,2,0:0:0:0:
360,8,76492,1,0,1:0:0:0:
72,32,76972,6,0,P|48:80|48:112,1,85,4|0,1:2|1:0,0:0:0:0:
148,124,77452,2,0,P|172:172|172:204,1,85,8|0,0:0|1:0,0:0:0:0:
72,224,77932,2,0,P|48:272|48:304,1,85,2|0,0:0|1:0,0:0:0:0:
47,302,78412,1,8,0:0:0:0:
244,356,78892,5,0,1:0:0:0:
244,356,79132,1,0,1:0:0:0:
336,316,79372,2,0,L|432:332,1,85,8|0,0:0|1:0,0:0:0:0:
400,228,79852,2,0,L|483:214,1,85,2|0,0:0|1:0,0:0:0:0:
428,128,80332,1,12,0:0:0:0:
256,16,80812,6,0,P|196:24|160:36,1,85,0|0,1:0|1:0,0:0:0:0:
124,120,81292,2,0,P|166:115|207:104,1,85,8|0,0:0|1:0,0:0:0:0:
280,176,81772,2,0,P|220:184|184:196,1,85,2|0,0:0|1:0,0:0:0:0:
196,191,82252,1,8,0:0:0:0:
340,336,82732,6,2,P|424:332|504:296,1,170,2|8,1:0|0:0,1:0:0:0:
501,297,83452,1,0,1:0:0:0:
480,196,83692,2,2,P|395:200|318:234,1,170,2|12,0:1|0:0,0:1:0:0:
140,336,84652,6,0,L|28:320,1,85,0|0,1:0|1:0,0:0:0:0:
124,248,85132,2,0,L|40:204,1,85,8|0,0:0|1:0,0:0:0:0:
140,160,85612,2,0,L|76:92,1,85,2|0,0:0|1:0,0:0:0:0:
81,98,86092,1,8,0:0:0:0:
272,32,86572,5,0,1:0:0:0:
272,32,86812,1,0,1:0:0:0:
372,44,87052,2,0,P|400:80|416:124,1,85,8|0,0:0|1:0,0:0:0:0:
356,200,87532,2,0,P|329:233|313:272,1,85,2|0,0:0|1:0,0:0:0:0:
348,368,88012,1,12,0:0:0:0:
144,344,88492,6,0,P|88:300|48:208,1,170,0|8,1:0|0:0,0:0:0:0:
128,24,89452,2,0,P|192:78|223:156,1,170,2|8,0:0|0:0,0:0:0:0:
144,344,90412,5,0,1:0:0:0:
144,344,90892,1,8,0:0:0:0:
204,260,91132,1,0,1:0:0:0:
296,300,91372,1,2,0:0:0:0:
356,216,91612,1,0,1:0:0:0:
448,256,91852,1,12,0:0:0:0:
256,192,92332,12,0,96172,0:0:0:0:
420,112,100012,6,0,P|428:176|424:208,1,85,6|0,1:2|1:0,0:0:0:0:
476,288,100492,2,0,P|412:296|380:292,1,85,8|0,0:0|1:0,0:0:0:0:
308,352,100972,2,0,P|300:288|304:256,1,85,0|2,0:0|0:0,0:0:0:0:
336,172,101452,1,8,0:0:0:0:
336,172,101932,6,0,L|240:160,1,85,0|0,1:0|1:0,0:0:0:0:
296,68,102412,2,0,P|228:60|196:72,1,85,8|0,0:0|1:0,0:0:0:0:
124,16,102892,2,0,P|116:84|128:116,1,85,0|2,0:0|0:0,0:0:0:0:
152,196,103372,1,12,0:0:0:0:
152,196,103852,6,0,P|100:204|28:220,2,85,0|0|8,1:0|1:0|0:0,0:0:0:0:
224,268,104572,1,0,1:0:0:0:
128,296,104812,2,0,P|76:304|4:320,2,85,0|2|8,0:0|0:0|0:0,0:0:0:0:
200,368,105532,1,0,1:0:0:0:
296,336,105772,5,0,0:0:0:0:
324,316,106252,1,0,0:0:0:0:
352,296,106732,1,0,0:0:0:0:
380,276,107212,1,4,0:0:0:0:
428,76,107692,6,0,L|464:160,1,85,4|0,1:2|1:0,0:0:0:0:
364,120,108172,2,0,L|348:208,1,85,8|0,0:0|1:0,0:0:0:0:
288,124,108652,2,0,L|212:176,1,85,0|2,0:0|0:0,0:0:0:0:
224,72,109132,1,8,0:0:0:0:
60,192,109612,6,0,L|24:276,1,85,0|0,1:0|1:0,0:0:0:0:
124,236,110092,2,0,L|140:324,1,85,8|0,0:0|1:0,0:0:0:0:
200,240,110572,2,0,L|276:292,1,85,0|2,0:0|0:0,0:0:0:0:
264,188,111052,1,12,0:0:0:0:
464,220,111532,6,0,P|472:276|460:312,2,85,0|0|8,1:0|1:0|0:0,0:0:0:0:
360,224,112252,1,0,1:0:0:0:
264,188,112492,2,0,P|256:132|268:96,2,85,0|2|8,0:0|0:0|0:0,0:0:0:0:
364,184,113212,1,0,1:0:0:0:
456,140,113452,6,2,P|428:80|336:36,1,170,2|8,1:0|0:0,1:0:0:0:
200,188,114412,2,2,P|240:260|317:291,1,170,2|12,0:1|0:0,0:1:0:0:
456,140,115372,5,2,1:2:0:0:
456,140,115852,1,10,0:0:0:0:
456,140,116332,1,2,0:0:0:0:
376,204,116572,1,2,0:0:0:0:
276,184,116812,1,8,0:0:0:0:
208,108,117052,1,0,1:0:0:0:
220,8,117292,5,2,1:2:0:0:
220,8,117772,1,10,0:0:0:0:
220,8,118252,1,2,0:0:0:0:
120,24,118492,1,2,0:0:0:0:
36,80,118732,1,12,0:0:0:0:
20,180,118972,1,0,1:0:0:0:
56,276,119212,5,2,1:2:0:0:
56,276,119692,1,10,0:0:0:0:
56,276,120172,1,2,0:0:0:0:
140,220,120412,1,2,0:0:0:0:
156,320,120652,1,8,0:0:0:0:
240,264,120892,1,0,1:0:0:0:
256,364,121132,5,2,1:2:0:0:
256,364,121612,1,10,0:0:0:0:
256,364,122092,1,2,0:0:0:0:
272,264,122332,1,2,0:0:0:0:
356,320,122572,1,12,0:0:0:0:
372,220,122812,1,0,1:0:0:0:
456,276,123052,5,2,1:2:0:0:
456,276,123532,1,10,0:0:0:0:
456,276,124012,1,2,0:0:0:0:
500,184,124252,1,2,0:0:0:0:
436,104,124492,1,8,0:0:0:0:
340,136,124732,1,0,1:0:0:0:
256,76,124972,5,2,1:2:0:0:
256,76,125452,1,10,0:0:0:0:
256,76,125932,1,2,0:0:0:0:
172,136,126172,1,2,0:0:0:0:
76,104,126412,1,12,0:0:0:0:
12,184,126652,1,0,1:0:0:0:
56,276,126892,5,2,1:2:0:0:
56,276,127372,1,10,0:0:0:0:
56,276,127852,1,2,0:0:0:0:
144,328,128092,1,2,0:0:0:0:
240,296,128332,1,8,0:0:0:0:
284,204,128572,1,0,1:0:0:0:
256,108,128812,5,2,1:2:0:0:
344,292,129292,1,10,0:0:0:0:
160,204,129772,2,0,L|76:212,1,85,2|2,0:0|0:0,0:0:0:0:
24,124,130252,2,0,L|108:116,1,85,8|0,0:0|1:0,0:0:0:0:
60,28,130732,5,4,1:2:0:0:
264,8,131212,1,2,0:0:0:0:
436,120,131692,1,0,0:0:0:0:
448,324,132172,1,2,0:0:0:0:
248,360,132652,6,0,L|236:276,1,85,2|2,1:2|1:2,0:0:0:0:
164,204,133132,2,0,L|80:188,1,85,2|0,0:0|1:0,0:0:0:0:
48,92,133612,2,0,B|132:108|132:108|200:56,1,170,2|4,0:0|0:0,0:0:0:0:
199,56,134572,5,0,1:2:0:0:
0,108,135052,1,2,0:0:0:0:
4,312,135532,1,0,0:0:0:0:
204,356,136012,1,2,0:0:0:0:
404,324,136492,6,0,B|436:268|404:244|372:224|400:160,1,170,2|2,1:2|0:0,0:0:0:0:
464,84,137212,1,0,1:2:0:0:
364,60,137452,2,0,P|308:104|280:200,1,170,2|4,0:0|0:0,0:0:0:0:
279,195,138412,5,0,1:2:0:0:
136,340,138892,1,2,0:0:0:0:
24,168,139372,1,0,0:0:0:0:
172,28,139852,1,2,0:0:0:0:
372,68,140332,6,0,P|440:80|472:72,1,85,2|2,1:2|1:2,0:0:0:0:
420,172,140812,2,0,P|377:169|337:181,1,85,0|0,0:0|1:0,0:0:0:0:
392,268,141292,2,0,P|460:280|492:272,1,85,2|0,0:0|0:0,0:0:0:0:
432,372,141772,1,4,0:0:0:0:
432,372,142252,5,0,1:0:0:0:
228,356,142732,1,2,0:0:0:0:
172,160,143212,1,0,0:0:0:0:
348,56,143692,1,2,0:0:0:0:
504,188,144172,1,0,1:0:0:0:
387,295,144652,5,2,1:2:0:0:
285,288,144892,1,2,1:2:0:0:
257,190,145132,1,0,0:0:0:0:
345,137,145372,1,2,0:0:0:0:
423,203,145612,1,0,1:0:0:0:
152,348,146092,6,0,P|120:308|120:272,1,85,4|0,1:2|1:0,0:0:0:0:
220,252,146572,2,0,P|252:212|252:176,1,85,8|0,0:0|1:0,0:0:0:0:
152,164,147052,2,0,P|120:124|120:88,1,85,2|0,0:0|1:0,0:0:0:0:
119,91,147532,1,8,0:0:0:0:
308,16,148012,5,0,1:0:0:0:
308,16,148252,1,0,1:0:0:0:
396,64,148492,2,0,P|448:80|496:72,1,85,8|0,0:0|1:0,0:0:0:0:
480,180,148972,2,0,P|392:168|288:108,1,170,2|12,0:0|0:0,0:0:0:0:
140,36,149932,6,0,L|56:84,1,85,0|0,1:2|1:0,0:0:0:0:
160,124,150412,2,0,L|244:172,1,85,8|0,0:0|1:0,0:0:0:0:
140,208,150892,2,0,L|56:256,1,85,2|0,0:0|1:0,0:0:0:0:
66,250,151372,1,8,0:0:0:0:
244,352,151852,6,2,P|376:352|424:312,1,170,2|10,1:0|0:0,1:0:0:0:
403,333,152572,1,0,1:0:0:0:
388,232,152812,2,2,P|305:216|228:250,1,170,2|12,0:1|0:0,0:1:0:0:
28,208,153772,6,0,L|8:112,1,85,0|0,1:2|1:0,0:0:0:0:
108,160,154252,2,0,L|112:72,1,85,8|0,0:0|1:0,0:0:0:0:
192,136,154732,2,0,L|220:56,1,85,2|0,0:0|1:0,0:0:0:0:
220,55,155212,1,8,0:0:0:0:
420,24,155692,5,0,1:0:0:0:
420,24,155932,1,0,1:0:0:0:
472,112,156172,2,0,P|488:164|480:216,1,85,8|0,0:0|1:0,0:0:0:0:
388,172,156652,2,0,P|373:211|373:254,1,85,2|0,0:0|1:0,0:0:0:0:
428,340,157132,1,12,0:0:0:0:
224,356,157612,6,0,P|156:348|80:284,1,170,0|8,1:0|0:0,0:0:0:0:
60,80,158572,2,0,P|128:88|204:152,1,170,2|8,0:0|0:0,0:0:0:0:
224,356,159532,5,0,1:0:0:0:
224,356,160012,1,8,0:0:0:0:
320,328,160252,1,0,1:0:0:0:
380,244,160492,1,2,0:0:0:0:
360,144,160732,1,0,1:0:0:0:
292,68,160972,1,12,0:0:0:0:
256,192,161452,12,0,165292,0:0:0:0:
192,60,176812,6,2,B|176:56|176:56|164:68|164:68|148:60|148:60|136:72|136:72|120:64|120:64|108:76|108:76|92:68|92:68|80:80|80:80|64:72|64:72|52:80,1,170,4|8,0:2|0:2,0:2:0:0:
20,176,177532,1,0,1:0:0:0:
84,256,177772,2,0,L|184:284,1,85
236,352,178252,2,0,L|336:324,1,85,8|0,0:0|1:0,0:0:0:0:
490,359,178732,5,0,1:0:0:0:
490,359,178972,1,0,1:0:0:0:
436,272,179212,2,0,P|424:216|432:184,1,85,8|0,0:0|1:0,0:0:0:0:
480,100,179692,2,0,P|492:44|484:12,1,85
390,54,180172,2,2,B|344:69|344:69|264:57,1,127.5,10|2,0:1|0:0,0:1:0:0:
266,58,180652,6,0,B|274:70|274:70|266:86|266:86|278:98|278:98|270:114|270:114|282:126|282:126|274:142|274:142|286:154|286:154|278:170|278:170|290:182|290:182|286:198,1,170,4|8,0:0|0:0,0:0:0:0:
283,300,181372,1,0,1:0:0:0:
199,241,181612,2,0,L|187:153,2,85,0|0|8,0:0|0:0|0:0,0:0:0:0:
115,299,182332,6,0,L|126:383,2,85,0|0|0,1:0|1:0|0:0,0:0:0:0:
30,241,183052,2,0,L|18:153,1,85,8|0,0:0|1:0,0:0:0:0:
18,54,183532,2,0,P|62:34|106:34,1,85
192,73,184012,2,2,B|276:77|276:77|324:45,1,127.5,10|0,0:1|0:0,0:1:0:0:
312,52,184492,6,0,B|328:48|328:48|340:60|340:60|356:52|356:52|368:64|368:64|384:56|384:56|396:68|396:68|412:60|412:60|424:72|424:72|440:64|440:64|452:72,1,170,4|8,0:0|0:0,0:0:0:0:
509,155,185212,1,0,1:0:0:0:
417,200,185452,2,0,L|425:288,1,85
335,235,185932,2,0,L|283:315,1,85,8|0,0:0|1:0,0:0:0:0:
128,362,186412,5,0,1:0:0:0:
128,362,186652,1,0,1:0:0:0:
64,284,186892,2,0,P|52:240|64:204,1,85,8|0,0:0|1:0,0:0:0:0:
136,132,187372,2,0,P|148:88|136:52,1,85
231,14,187852,2,2,B|288:35|288:35|356:19,1,127.5,10|0,0:1|0:0,0:1:0:0:
352,19,188332,6,0,B|360:31|360:31|352:47|352:47|364:59|364:59|356:75|356:75|368:87|368:87|360:103|360:103|372:115|372:115|364:131|364:131|376:143|376:143|372:159,1,170,4|8,0:0|0:0,0:0:0:0:
354,259,189052,1,0,1:0:0:0:
434,323,189292,2,0,P|454:275|450:239,1,85
354,259,189772,2,0,L|266:287,1,85,8|0,0:0|1:0,0:0:0:0:
178,243,190252,6,0,L|97:217,1,85,0|0,1:0|1:0,0:0:0:0:
42,131,190732,2,0,L|122:105,1,85,8|0,0:0|1:0,0:0:0:0:
195,32,191212,2,0,L|275:57,1,85
349,128,191692,2,2,B|389:139|389:139|469:103,1,127.5,10|0,0:1|0:0,0:1:0:0:
467,103,192172,5,4,0:0:0:0:
399,295,192652,1,8,0:0:0:0:
244,161,193132,1,0,0:0:0:0:
112,316,193612,2,2,B|72:264|72:264|116:216,1,127.5,10|0,0:1|0:0,0:1:0:0:
140,176,194092,6,0,P|104:144|64:140,1,85,0|0,1:0|1:0,0:0:0:0:
8,56,194572,2,0,P|44:24|84:20,1,85,8|0,0:0|1:0,0:0:0:0:
180,24,195052,2,0,L|276:44,1,85
364,26,195532,2,2,B|446:43|446:43|475:75,1,127.5,10|0,0:1|0:0,0:1:0:0:
475,75,196012,5,4,0:0:0:0:
316,203,196492,1,8,0:0:0:0:
512,259,196972,1,0,0:0:0:0:
376,107,197452,2,2,P|292:91|236:119,1,127.5,10|0,0:1|0:0,0:1:0:0:
221,143,197932,6,0,P|167:189|71:169,1,170,0|8,0:0|1:2,0:0:0:0:
75,172,198652,1,0,1:0:0:0:
80,70,198892,2,0,P|119:36|188:51,1,127.5,2|0,0:0|0:0,0:0:0:0:
230,80,199372,2,2,B|293:91|293:91|357:67,1,127.5,10|0,0:1|0:0,0:1:0:0:
396,51,199852,6,0,P|456:47|488:59,1,85,4|0,0:0|1:0,0:0:0:0:
497,152,200332,2,2,B|504:162|504:162|497:176|497:176|507:187|507:187|500:201|500:201|511:212|511:212|504:226|504:226|514:237|514:237|507:251|507:251|518:262|518:262|514:276,1,127.5,10|0,0:1|0:0,0:1:0:0:
512,256,200812,6,0,P|485:304|449:316,1,85,0|0,0:0|1:0,0:0:0:0:
377,252,201292,2,2,B|380:239|380:239|369:228|369:228|376:214|376:214|364:203|364:203|371:190|371:190|360:178|360:178|367:165|367:165|356:154|356:154|363:140|363:140|355:128,1,127.5,10|0,0:1|0:0,0:1:0:0:
358,149,201772,6,0,P|317:111|279:111,1,85,0|0,0:0|1:0,0:0:0:0:
188,120,202252,2,2,B|175:116|175:116|164:127|164:127|146:116|146:116|139:132|139:132|126:125|126:125|114:136|114:136|101:129|101:129|90:140|90:140|76:133|76:133|64:141,1,127.5,10|0,0:1|0:0,0:1:0:0:
90,139,202732,6,0,P|62:214|62:230,1,85,0|0,0:0|1:0,0:0:0:0:
105,310,203212,2,2,B|116:318|116:318|130:311|130:311|141:322|141:322|154:315|154:315|166:326|166:326|179:319|179:319|191:331|191:331|204:324|204:324|215:335|215:335|228:331,1,127.5,10|0,0:1|0:0,0:1:0:0:
240,288,203692,6,2,B|236:275|236:275|247:264|247:264|240:250|240:250|252:239|252:239|245:226|245:226|255:215|255:215|249:201|249:201|260:190|260:190|253:176|253:176|261:164,1,127.5,2|0,0:1|0:0,0:1:0:0:
308,198,204172,6,2,B|311:185|311:185|300:174|300:174|307:160|307:160|295:149|295:149|302:136|302:136|291:124|291:124|298:111|298:111|287:100|287:100|294:86|294:86|286:74,1,127.5,10|0,0:1|0:0,0:1:0:0:
304,38,204652,6,2,B|291:34|291:34|280:45|280:45|266:38|266:38|255:50|255:50|242:43|242:43|230:54|230:54|217:47|217:47|206:58|206:58|192:51|192:51|180:59,1,127.5,2|0,0:1|0:0,0:1:0:0:
156,94,205132,6,2,B|143:97|143:97|132:86|132:86|118:93|118:93|107:81|107:81|94:88|94:88|82:77|82:77|69:84|69:84|58:73|58:73|44:80|44:80|32:72,1,127.5,10|0,0:1|0:0,0:1:0:0:
13,31,205612,5,2,0:1:0:0:
29,131,205852,1,2,0:1:0:0:
45,231,206092,1,10,0:1:0:0:
57,331,206332,1,2,0:1:0:0:
161,271,206572,5,2,0:1:0:0:
183,259,206692,1,2,0:1:0:0:
208,255,206812,1,2,0:1:0:0:
234,257,206932,1,2,0:1:0:0:
257,267,207052,1,10,0:1:0:0:
277,282,207172,1,2,0:1:0:0:
292,303,207292,1,2,0:1:0:0:
300,327,207412,1,2,0:1:0:0:
292,378,207532,5,6,0:0:0:0:
256,192,220972,12,4,228172,0:0:0:0:
256,192,228652,5,4,0:0:0:0:
255,191,230572,5,6,0:0:0:0:
280,316,231052,1,0,0:0:0:0:
404,348,231532,1,0,0:0:0:0:
500,264,232012,1,0,0:0:0:0:
460,144,232492,6,0,L|376:124,1,63.7500024318696,2|0,0:0|0:0,0:0:0:0:
352,84,232972,2,0,L|268:64,1,63.7500024318696
228,72,233452,2,0,L|144:52,1,63.7500024318696
112,24,233932,2,0,P|68:36|56:48,1,63.7500024318696
55,48,234412,5,2,0:0:0:0:
8,168,234892,1,0,0:0:0:0:
48,288,235372,1,0,0:0:0:0:
164,344,235852,1,0,0:0:0:0:
272,276,236332,6,0,B|300:260|336:276|372:292|400:276,1,127.500004863739,2|0,0:0|0:0,0:0:0:0:
460,260,237052,1,0,0:0:0:0:
480,200,237292,2,0,P|496:160|488:136,1,63.7500024318696
468,84,237772,2,0,L|404:72,1,63.7500024318696
405,72,238252,5,2,0:0:0:0:
300,144,238732,1,0,0:0:0:0:
172,132,239212,1,0,0:0:0:0:
80,44,239692,1,0,0:0:0:0:
12,152,240172,6,0,P|4:192|8:216,1,63.7500024318696,2|0,0:0|0:0,0:0:0:0:
36,272,240652,2,0,L|96:304,1,63.7500024318696
144,340,241132,2,0,L|216:328,1,63.7500024318696
268,320,241612,2,0,L|344:352,1,63.7500024318696
384,372,242092,5,2,0:0:0:0:
464,272,242572,1,0,0:0:0:0:
464,144,243052,1,0,0:0:0:0:
384,44,243532,1,0,0:0:0:0:
256,192,244012,12,0,245452,0:0:0:0:
452,348,245932,6,0,P|468:304|464:264,1,85,4|0,1:2|1:0,0:0:0:0:
368,240,246412,2,0,P|352:196|356:156,1,85,8|0,0:0|1:0,0:0:0:0:
456,144,246892,2,0,P|472:100|468:60,1,85,2|0,0:0|1:0,0:0:0:0:
468,62,247372,1,8,0:0:0:0:
268,24,247852,5,0,1:0:0:0:
268,24,248092,1,0,1:0:0:0:
172,56,248332,2,0,L|88:76,1,85,8|0,0:0|1:0,0:0:0:0:
16,144,248812,2,0,L|200:188,1,170,2|12,0:0|0:0,0:0:0:0:
344,304,249772,6,0,P|384:316|432:308,1,85,0|0,1:0|1:0,0:0:0:0:
472,220,250252,2,0,P|432:232|384:224,1,85,8|0,0:0|1:0,0:0:0:0:
344,136,250732,2,0,P|384:148|432:140,1,85,2|0,0:0|1:0,0:0:0:0:
426,142,251212,1,8,0:0:0:0:
256,32,251692,6,2,P|172:24|88:56,1,170,2|8,1:0|0:0,1:0:0:0:
92,52,252412,1,0,1:0:0:0:
108,156,252652,2,2,P|192:164|276:132,1,170,2|12,0:1|0:0,0:1:0:0:
464,204,253612,6,0,L|496:288,1,85,0|0,1:0|1:0,0:0:0:0:
396,260,254092,2,0,L|404:352,1,85,8|0,0:0|1:0,0:0:0:0:
316,292,254572,2,0,L|292:376,1,85,2|0,0:0|1:0,0:0:0:0:
292,373,255052,1,8,0:0:0:0:
100,300,255532,5,0,1:0:0:0:
100,300,255772,1,0,1:0:0:0:
32,224,256012,2,0,P|76:200|120:204,1,85,8|0,0:0|1:0,0:0:0:0:
188,268,256492,2,0,P|198:316|182:358,1,85,2|0,0:0|1:0,0:0:0:0:
100,300,256972,1,12,0:0:0:0:
12,116,257452,6,0,P|104:100|188:128,1,170,0|8,1:0|0:0,0:0:0:0:
368,188,258412,2,0,P|285:171|203:193,1,170,2|8,0:0|0:0,0:0:0:0:
16,272,259372,5,0,1:0:0:0:
16,272,259852,1,8,0:0:0:0:
76,352,260092,1,0,1:0:0:0:
176,344,260332,1,2,0:0:0:0:
240,264,260572,1,0,1:0:0:0:
212,168,260812,2,0,B|225:164|225:164|236:175|236:175|250:168|250:168|261:180|261:180|274:173|274:173|286:184|286:184|299:177|299:177|310:188|310:188|324:181|324:181|336:189,1,127.5,12|0,0:0|0:0,0:0:0:0:
356,216,261292,6,0,P|424:192|432:180,1,85,4|0,1:2|1:0,0:0:0:0:
512,128,261772,2,0,P|444:104|436:92,1,85,8|0,0:0|1:0,0:0:0:0:
356,40,262252,2,0,P|424:16|432:4,1,85,2|0,0:0|1:0,0:0:0:0:
429,8,262732,1,8,0:0:0:0:
232,52,263212,5,0,1:0:0:0:
232,52,263452,1,0,1:0:0:0:
140,92,263692,2,0,P|84:104|40:96,1,85,8|0,0:0|1:0,0:0:0:0:
32,200,264172,2,0,P|116:205|195:175,1,170,2|12,0:0|0:0,0:0:0:0:
380,84,265132,6,0,L|472:112,1,85,0|0,1:0|1:0,0:0:0:0:
376,164,265612,2,0,L|284:192,1,85,8|0,0:0|1:0,0:0:0:0:
380,244,266092,2,0,L|472:272,1,85,2|0,0:0|1:0,0:0:0:0:
461,268,266572,1,8,0:0:0:0:
272,340,267052,6,2,P|184:352|116:300,1,170,2|8,1:0|0:0,1:0:0:0:
120,307,267772,1,0,1:0:0:0:
60,224,268012,2,2,P|141:210|211:256,1,170,2|12,0:1|0:0,0:1:0:0:
412,220,268972,6,0,P|424:168|416:128,1,85,0|0,1:0|1:0,0:0:0:0:
324,168,269452,2,0,P|312:115|288:82,1,85,8|0,0:0|1:0,0:0:0:0:
224,164,269932,2,0,P|191:121|156:101,1,85,2|0,0:0|1:0,0:0:0:0:
165,105,270412,1,8,0:0:0:0:
8,232,270892,5,0,1:0:0:0:
8,232,271132,1,0,1:0:0:0:
72,312,271372,2,0,L|176:328,1,85,8|0,0:0|1:0,0:0:0:0:
256,296,271852,2,0,L|340:283,1,85,2|0,0:0|1:0,0:0:0:0:
420,220,272332,1,12,0:0:0:0:
400,16,272812,6,0,P|348:48|244:32,1,170,0|8,1:0|0:0,0:0:0:0:
72,144,273772,2,0,P|124:176|228:160,1,170,2|8,0:0|0:0,0:0:0:0:
420,96,274732,5,0,1:0:0:0:
420,96,275212,1,8,0:0:0:0:
420,256,275452,1,0,1:0:0:0:
320,120,275692,1,2,0:0:0:0:
484,176,275932,1,0,1:0:0:0:
320,224,276172,1,12,0:0:0:0:
156,184,276412,1,0,0:0:0:0:
60,44,276652,5,4,0:0:0:0:
