osu file format v14

[General]
AudioFilename: audio.mp3
AudioLeadIn: 0
PreviewTime: -1
Countdown: 1
SampleSet: None
StackLeniency: 0.4
Mode: 3
LetterboxInBreaks: 0
SpecialStyle: 1
WidescreenStoryboard: 1

[Editor]
DistanceSpacing: 1
BeatDivisor: 4
GridSize: 4
TimelineZoom: 1

[Metadata]
Title:Goodbye
TitleUnicode:Goodbye
Artist:Circus-P
ArtistUnicode:Circus-P
Creator:-KuroTsuki-
Version:Mania dot com
Source:
Tags:
BeatmapID:2357724
BeatmapSetID:425929

[Difficulty]
HPDrainRate:5.5
CircleSize:4
OverallDifficulty:6.5
ApproachRate:8.5
SliderMultiplier:1.4
SliderTickRate:1

[Events]
//Background and Video events
0,0,"Goodbye.png",0,0
//Break Periods
//Storyboard Layer 0 (Background)
//Storyboard Layer 1 (Fail)
//Storyboard Layer 2 (Pass)
//Storyboard Layer 3 (Foreground)
//Storyboard Layer 4 (Overlay)
//Storyboard Sound Samples

[TimingPoints]
0,451.127819548872,4,1,0,50,1,0
21654,-84.0336134453781,4,1,0,50,0,0
36090,-200,4,1,0,50,0,0
72180,-66.6666666666667,4,1,0,50,0,0
86616,-50,4,1,0,50,0,1
100601,-200,4,1,0,50,0,0
143909,-100,4,1,0,50,0,1
158345,-133.333333333333,4,1,0,50,0,0

[HitObjects]
64,192,0,5,0,0:0:0:0:
192,192,338,1,0,0:0:0:0:
192,192,676,1,0,0:0:0:0:
320,192,902,1,0,0:0:0:0:
64,192,1127,1,0,0:0:0:0:
448,192,1353,1,0,0:0:0:0:
192,192,1578,1,0,0:0:0:0:
320,192,1804,1,0,0:0:0:0:
64,192,2142,1,0,0:0:0:0:
448,192,2481,128,0,3157:0:0:0:0:
192,192,2706,1,0,0:0:0:0:
64,192,2932,1,0,0:0:0:0:
320,192,3157,1,0,0:0:0:0:
448,192,3383,1,0,0:0:0:0:
192,192,3609,1,0,0:0:0:0:
320,192,3947,1,0,0:0:0:0:
192,192,4285,1,0,0:0:0:0:
320,192,4511,1,0,0:0:0:0:
64,192,4736,1,0,0:0:0:0:
448,192,4962,128,0,5413:0:0:0:0:
320,192,5187,1,0,0:0:0:0:
320,192,5413,1,0,0:0:0:0:
192,192,5751,1,0,0:0:0:0:
320,192,6090,1,0,0:0:0:0:
448,192,6090,1,0,0:0:0:0:
64,192,6315,1,0,0:0:0:0:
192,192,6541,1,0,0:0:0:0:
448,192,6766,1,0,0:0:0:0:
192,192,6766,1,0,0:0:0:0:
64,192,6992,1,0,0:0:0:0:
448,192,7218,1,0,0:0:0:0:
320,192,7218,1,0,0:0:0:0:
192,192,7218,1,0,0:0:0:0:
64,192,7218,1,0,0:0:0:0:
448,192,7443,1,0,0:0:0:0:
192,192,7556,1,0,0:0:0:0:
320,192,7669,1,0,0:0:0:0:
192,192,7894,1,0,0:0:0:0:
192,192,8120,1,0,0:0:0:0:
64,192,8120,1,0,0:0:0:0:
320,192,8345,1,0,0:0:0:0:
448,192,8571,128,0,9022:0:0:0:0:
320,192,8571,1,0,0:0:0:0:
64,192,8796,1,0,0:0:0:0:
320,192,9022,1,0,0:0:0:0:
64,192,9248,1,0,0:0:0:0:
192,192,9473,1,0,0:0:0:0:
448,192,9699,1,0,0:0:0:0:
320,192,9924,1,0,0:0:0:0:
192,192,10150,1,0,0:0:0:0:
192,192,10375,1,0,0:0:0:0:
64,192,10375,1,0,0:0:0:0:
320,192,10601,1,0,0:0:0:0:
448,192,10827,1,0,0:0:0:0:
64,192,10827,1,0,0:0:0:0:
192,192,11052,1,0,0:0:0:0:
192,192,11278,128,0,11729:0:0:0:0:
448,192,11503,1,0,0:0:0:0:
320,192,11729,1,0,0:0:0:0:
192,192,11954,1,0,0:0:0:0:
64,192,12180,1,0,0:0:0:0:
320,192,12180,1,0,0:0:0:0:
448,192,12406,1,0,0:0:0:0:
192,192,12631,1,0,0:0:0:0:
320,192,12631,1,0,0:0:0:0:
64,192,12857,1,0,0:0:0:0:
448,192,13082,1,0,0:0:0:0:
64,192,13082,1,0,0:0:0:0:
320,192,13308,1,0,0:0:0:0:
64,192,13533,1,0,0:0:0:0:
448,192,13759,1,0,0:0:0:0:
192,192,13984,1,0,0:0:0:0:
320,192,13984,1,0,0:0:0:0:
448,192,14210,128,0,14661:0:0:0:0:
192,192,14436,128,0,14887:0:0:0:0:
320,192,14661,1,0,0:0:0:0:
64,192,14887,1,0,0:0:0:0:
320,192,15112,1,0,0:0:0:0:
192,192,15338,1,0,0:0:0:0:
448,192,15338,1,0,0:0:0:0:
64,192,15563,1,0,0:0:0:0:
320,192,15789,1,0,0:0:0:0:
192,192,15789,1,0,0:0:0:0:
64,192,16015,1,0,0:0:0:0:
448,192,16240,1,0,0:0:0:0:
64,192,16240,1,0,0:0:0:0:
192,192,16466,1,0,0:0:0:0:
320,192,16691,1,0,0:0:0:0:
64,192,16691,1,0,0:0:0:0:
320,192,16917,1,0,0:0:0:0:
192,192,17142,128,0,17593:0:0:0:0:
448,192,17368,1,0,0:0:0:0:
320,192,17593,1,0,0:0:0:0:
64,192,17819,1,0,0:0:0:0:
320,192,18045,1,0,0:0:0:0:
448,192,18045,1,0,0:0:0:0:
320,192,18270,1,0,0:0:0:0:
192,192,18496,1,0,0:0:0:0:
64,192,18721,1,0,0:0:0:0:
320,192,18947,1,0,0:0:0:0:
64,192,18947,1,0,0:0:0:0:
192,192,19172,1,0,0:0:0:0:
448,192,19398,1,0,0:0:0:0:
192,192,19398,1,0,0:0:0:0:
320,192,19624,1,0,0:0:0:0:
64,192,19849,1,0,0:0:0:0:
320,192,19849,1,0,0:0:0:0:
192,192,20075,1,0,0:0:0:0:
448,192,20300,1,0,0:0:0:0:
320,192,20300,1,0,0:0:0:0:
192,192,20526,128,0,21428:0:0:0:0:
64,192,20751,1,0,0:0:0:0:
320,192,20751,1,0,0:0:0:0:
320,192,20977,1,0,0:0:0:0:
448,192,21203,1,0,0:0:0:0:
320,192,21203,1,0,0:0:0:0:
64,192,21428,1,0,0:0:0:0:
64,192,21654,1,0,0:0:0:0:
448,192,21654,1,0,0:0:0:0:
320,192,21654,1,0,0:0:0:0:
192,192,21879,1,0,0:0:0:0:
64,192,22105,1,0,0:0:0:0:
320,192,22105,1,0,0:0:0:0:
448,192,22330,1,0,0:0:0:0:
192,192,22556,1,0,0:0:0:0:
320,192,22556,1,0,0:0:0:0:
192,192,22781,1,0,0:0:0:0:
448,192,23007,1,0,0:0:0:0:
64,192,23007,1,0,0:0:0:0:
192,192,23233,1,0,0:0:0:0:
320,192,23458,1,0,0:0:0:0:
192,192,23458,1,0,0:0:0:0:
448,192,23684,1,0,0:0:0:0:
192,192,23909,1,0,0:0:0:0:
64,192,23909,1,0,0:0:0:0:
320,192,24135,1,0,0:0:0:0:
192,192,24360,1,0,0:0:0:0:
448,192,24586,1,0,0:0:0:0:
64,192,24812,1,0,0:0:0:0:
192,192,24812,1,0,0:0:0:0:
448,192,25037,1,0,0:0:0:0:
64,192,25263,1,0,0:0:0:0:
192,192,25263,1,0,0:0:0:0:
448,192,25488,1,0,0:0:0:0:
64,192,25714,1,0,0:0:0:0:
320,192,25714,1,0,0:0:0:0:
448,192,25939,1,0,0:0:0:0:
192,192,26165,1,0,0:0:0:0:
64,192,26390,1,0,0:0:0:0:
320,192,26616,1,0,0:0:0:0:
64,192,26616,1,0,0:0:0:0:
448,192,26842,1,0,0:0:0:0:
192,192,27067,1,0,0:0:0:0:
320,192,27067,1,0,0:0:0:0:
64,192,27293,1,0,0:0:0:0:
448,192,27518,1,0,0:0:0:0:
320,192,27518,1,0,0:0:0:0:
64,192,27744,1,0,0:0:0:0:
320,192,27969,1,0,0:0:0:0:
448,192,27969,1,0,0:0:0:0:
192,192,28195,1,0,0:0:0:0:
320,192,28421,1,0,0:0:0:0:
64,192,28646,1,0,0:0:0:0:
64,192,28872,1,0,0:0:0:0:
448,192,28872,1,0,0:0:0:0:
192,192,29097,1,0,0:0:0:0:
448,192,29323,1,0,0:0:0:0:
320,192,29323,1,0,0:0:0:0:
64,192,29548,1,0,0:0:0:0:
320,192,29774,1,0,0:0:0:0:
192,192,29999,1,0,0:0:0:0:
320,192,30225,1,0,0:0:0:0:
448,192,30225,1,0,0:0:0:0:
64,192,30451,1,0,0:0:0:0:
320,192,30676,1,0,0:0:0:0:
192,192,30902,128,0,31353:0:0:0:0:
448,192,31127,1,0,0:0:0:0:
320,192,31127,1,0,0:0:0:0:
64,192,31353,1,0,0:0:0:0:
320,192,31578,1,0,0:0:0:0:
192,192,31578,1,0,0:0:0:0:
192,192,31804,1,0,0:0:0:0:
64,192,32030,1,0,0:0:0:0:
448,192,32030,1,0,0:0:0:0:
320,192,32255,1,0,0:0:0:0:
192,192,32481,1,0,0:0:0:0:
448,192,32481,1,0,0:0:0:0:
64,192,32706,1,0,0:0:0:0:
320,192,32932,1,0,0:0:0:0:
64,192,33157,1,0,0:0:0:0:
320,192,33383,1,0,0:0:0:0:
192,192,33383,1,0,0:0:0:0:
64,192,33609,1,0,0:0:0:0:
320,192,33834,1,0,0:0:0:0:
448,192,33834,1,0,0:0:0:0:
192,192,33834,1,0,0:0:0:0:
64,192,34060,1,0,0:0:0:0:
192,192,34285,1,0,0:0:0:0:
192,192,34511,1,0,0:0:0:0:
192,192,34736,1,0,0:0:0:0:
320,192,34736,1,0,0:0:0:0:
64,192,34736,1,0,0:0:0:0:
448,192,34962,1,0,0:0:0:0:
