osu file format v14

[General]
AudioFilename: audio.mp3
AudioLeadIn: 0
PreviewTime: -1
Countdown: 1
SampleSet: Normal
StackLeniency: 0.7
Mode: 0
LetterboxInBreaks: 0
WidescreenStoryboard: 1

[Editor]
DistanceSpacing: 1
BeatDivisor: 4
GridSize: 4
TimelineZoom: 1

[Metadata]
Title:Goodbye
TitleUnicode:Goodbye
Artist:Circus-P
ArtistUnicode:Circus-P
Creator:-KuroTsuki-
Version:Is there any other choice?
Source:
Tags:Vocaloid
BeatmapID:920219
BeatmapSetID:425929

[Difficulty]
HPDrainRate:4
CircleSize:3.5
OverallDifficulty:4
ApproachRate:5
SliderMultiplier:0.700000005960464
SliderTickRate:1

[Events]
//Background and Video events
0,0,"Goodbye.png",0,0
//Break Periods
//Storyboard Layer 0 (Background)
//Storyboard Layer 1 (Fail)
//Storyboard Layer 2 (Pass)
//Storyboard Layer 3 (Foreground)
//Storyboard Sound Samples

[TimingPoints]
0,451.127819548872,4,1,0,50,1,0
21654,-66.6666666666667,4,1,0,50,0,0
36090,-200,4,1,0,50,0,0
72180,-66.6666666666667,4,1,0,50,0,0
86616,-50,4,1,0,50,0,1
100601,-200,4,1,0,50,0,0
143909,-100,4,1,0,50,0,1
158345,-200,4,1,0,50,0,0

[HitObjects]
56,104,0,6,0,P|128:52|164:68,1,105.00000089407,8|0,0:0|0:0,0:0:0:0:
216,60,902,1,0,0:0:0:0:
328,96,1353,1,0,0:0:0:0:
264,188,1804,6,0,P|184:168|148:196,1,105.00000089407,8|0,0:0|0:0,0:0:0:0:
112,256,2706,1,0,0:0:0:0:
268,288,3157,1,0,0:0:0:0:
444,140,3609,6,0,L|340:80,1,105.00000089407,8|0,0:0|0:0,0:0:0:0:
252,84,4511,1,0,0:0:0:0:
112,124,4962,1,0,0:0:0:0:
56,324,5413,6,0,B|92:304|92:304|112:316|112:316|148:296,1,105.00000089407,8|0,0:0|0:0,0:0:0:0:
216,228,6315,1,0,0:0:0:0:
360,312,6766,1,0,0:0:0:0:
464,208,7218,5,0,0:0:0:0:
388,144,7669,1,0,0:0:0:0:
308,88,8120,2,0,L|224:88,1,70.0000005960464
160,128,8796,1,8,0:0:0:0:
208,192,9022,1,8,0:0:0:0:
80,296,9473,6,0,P|108:328|144:308,1,70.0000005960464
232,288,10375,1,0,0:0:0:0:
280,240,10601,1,8,0:0:0:0:
272,168,10827,1,8,0:0:0:0:
92,56,11278,5,0,0:0:0:0:
168,104,11729,1,0,0:0:0:0:
244,44,12180,2,0,L|292:76,2,35.0000002980232,0|8|8,0:0|0:0|0:0,0:0:0:0:
480,212,13082,5,0,0:0:0:0:
408,272,13533,1,0,0:0:0:0:
340,200,13984,1,0,0:0:0:0:
280,216,14210,2,8,L|224:232,1,35.0000002980232
64,332,14887,5,0,0:0:0:0:
132,264,15338,2,0,L|84:212,1,70.0000005960464
84,156,16015,2,8,L|136:124,1,35.0000002980232
264,72,16691,5,0,0:0:0:0:
372,64,17142,1,0,0:0:0:0:
448,136,17593,1,0,0:0:0:0:
392,184,17819,1,8,0:0:0:0:
448,232,18045,1,8,0:0:0:0:
308,240,18496,6,0,B|280:196|232:240,1,70.0000005960464
184,296,19398,1,0,0:0:0:0:
120,248,19624,1,8,0:0:0:0:
160,176,19849,1,8,0:0:0:0:
348,196,20300,5,0,0:0:0:0:
284,124,20751,2,0,L|340:72,1,70.0000005960464
412,56,21428,1,0,0:0:0:0:
476,148,21654,6,0,P|480:212|432:272,3,105.000004899502
384,300,23233,1,8,0:0:0:0:
308,272,23458,2,0,L|172:272,3,105.000004899502
160,208,25037,1,8,0:0:0:0:
92,168,25263,2,0,P|84:108|120:108,3,105.000004899502
192,104,26842,1,8,0:0:0:0:
248,56,27067,1,8,0:0:0:0:
320,72,28421,5,8,0:0:0:0:
364,136,28872,2,0,B|396:92|396:92|456:140,3,105.000004899502
412,184,30451,1,8,0:0:0:0:
472,236,30676,2,0,P|428:268|452:308,3,105.000004899502
376,324,32255,1,8,0:0:0:0:
308,316,32481,2,0,P|248:268|216:268,3,105.000004899502
160,256,34060,1,8,0:0:0:0:
144,196,34285,1,8,0:0:0:0:
44,124,35639,5,0,0:0:0:0:
72,40,36090,2,0,P|123:62|159:54,1,87.500000745058
236,32,37443,1,8,0:0:0:0:
264,120,37894,2,0,L|296:100,1,35.0000002980232
360,48,38571,1,8,0:0:0:0:
436,80,38796,1,8,0:0:0:0:
456,160,39248,2,0,L|440:200,1,35.0000002980232
160,292,41052,5,0,0:0:0:0:
104,208,41503,2,8,L|124:208,1,17.5000001490116
220,136,42180,2,8,L|200:136,1,17.5000001490116
80,96,42857,1,0,0:0:0:0:
172,56,43308,2,0,P|224:32|236:48,1,87.500000745058
320,68,44661,1,8,0:0:0:0:
288,168,45112,2,0,L|344:148,1,52.5000004470348
440,156,46015,1,8,0:0:0:0:
392,220,46466,1,8,0:0:0:0:
456,264,46917,1,8,0:0:0:0:
240,312,47819,5,0,0:0:0:0:
192,220,48721,2,8,L|192:192,1,17.5000001490116
296,144,49398,2,8,L|296:172,1,17.5000001490116
216,76,50075,1,0,0:0:0:0:
336,76,50526,5,0,0:0:0:0:
412,136,50977,1,0,0:0:0:0:
432,240,51428,1,0,0:0:0:0:
348,300,51879,2,0,P|328:340|288:336,1,87.500000745058
240,308,53233,1,8,0:0:0:0:
156,240,53684,1,0,0:0:0:0:
124,140,54135,2,0,L|164:108,1,35.0000002980232
236,68,55037,1,0,0:0:0:0:
328,96,55488,1,0,0:0:0:0:
232,176,55939,6,8,L|264:176,1,17.5000001490116
328,232,56616,2,8,L|360:232,1,17.5000001490116
440,280,57293,1,0,0:0:0:0:
360,332,57744,2,0,P|292:352|280:340,1,87.500000745058
224,296,59097,1,8,0:0:0:0:
156,344,59548,1,0,0:0:0:0:
68,268,60225,2,0,L|88:268,1,17.5000001490116
164,224,60902,1,0,0:0:0:0:
112,160,61353,1,0,0:0:0:0:
232,64,62255,5,0,0:0:0:0:
296,136,63157,2,8,L|328:136,1,17.5000001490116
216,200,63834,2,8,L|248:200,1,17.5000001490116
152,132,64511,1,0,0:0:0:0:
232,64,64962,1,0,0:0:0:0:
256,192,65413,12,0,72180,0:0:0:0:
96,92,72857,6,8,L|160:68,1,52.500002449751
200,76,73308,2,8,L|244:120,1,52.500002449751
276,152,73759,2,0,L|432:120,1,157.500007349253
460,164,74661,2,0,L|408:316,1,157.500007349253
152,332,76466,5,8,0:0:0:0:
80,296,76691,2,8,L|64:236,1,52.500002449751
148,256,77142,1,8,0:0:0:0:
108,180,77368,2,0,P|192:128|252:148,1,157.500007349253
312,152,78270,1,8,0:0:0:0:
352,104,78496,1,8,0:0:0:0:
412,84,78721,1,8,0:0:0:0:
460,112,78947,1,8,0:0:0:0:
492,168,79172,1,8,0:0:0:0:
320,48,79849,5,8,0:0:0:0:
264,104,80074,1,8,0:0:0:0:
336,124,80300,2,8,L|400:124,1,52.500002449751
328,200,80751,1,8,0:0:0:0:
264,152,80977,2,0,L|88:152,1,157.500007349253
44,168,81879,2,0,P|-8:232|76:280,1,157.500007349253
264,344,83684,5,8,0:0:0:0:
316,296,83909,1,8,0:0:0:0:
384,316,84135,1,8,0:0:0:0:
440,272,84360,1,8,0:0:0:0:
440,200,84586,2,0,P|424:116|336:84,1,157.500007349253
336,144,85488,1,0,0:0:0:0:
272,172,85714,2,0,L|152:172,1,105.000004899502
24,92,86616,6,0,B|84:8|180:124|224:32|224:32|304:116|412:16,1,420.000003576278
424,112,88421,2,0,B|416:204|320:140|288:216|288:216|216:108|80:220,1,420.000003576278
56,292,90225,2,0,B|144:352|204:236|204:236|252:336|252:336|292:220|376:348|480:248,1,560.000004768371
476,48,93383,5,0,0:0:0:0:
392,56,93834,2,0,B|340:0|308:108|248:20|248:20|196:120|116:-8|24:88,1,420.000003576278
36,216,95639,2,0,B|76:152|76:152|112:260|208:136|288:224|288:224|372:160,1,420.000003576278
476,216,97443,2,0,B|444:356|444:356|392:288|392:288|344:360|284:288|180:344|180:344|100:276,1,560.000004768371
172,64,100601,5,0,0:0:0:0:
220,128,101052,2,0,B|240:88|240:88|288:112|288:112,1,87.500000745058
276,200,102406,1,8,0:0:0:0:
352,168,102857,1,0,0:0:0:0:
368,256,103533,2,0,L|348:280,1,17.5000001490116
296,328,104210,1,0,0:0:0:0:
220,296,104661,1,0,0:0:0:0:
128,132,106015,5,0,0:0:0:0:
184,60,106466,2,8,L|208:64,1,17.5000001490116
240,152,107142,2,8,L|216:148,1,17.5000001490116
304,80,107819,1,0,0:0:0:0:
380,108,108270,2,0,P|424:132|432:176,1,87.500000745058
360,180,109624,1,8,0:0:0:0:
412,248,110075,2,0,L|352:260,1,52.5000004470348
272,212,110977,1,0,0:0:0:0:
284,296,111428,1,0,0:0:0:0:
208,340,111879,1,0,0:0:0:0:
140,216,112781,5,0,0:0:0:0:
84,128,113684,2,8,L|108:128,1,17.5000001490116
140,56,114360,2,8,L|156:72,1,17.5000001490116
212,172,115037,1,0,0:0:0:0:
276,96,115488,5,0,0:0:0:0:
380,88,115939,1,0,0:0:0:0:
444,176,116390,1,0,0:0:0:0:
432,284,116842,2,0,B|396:324|356:284,1,87.500000745058
300,244,118195,1,8,0:0:0:0:
212,300,118646,1,0,0:0:0:0:
120,256,119097,2,0,L|92:224,1,35.0000002980232
124,128,119999,2,0,L|160:128,1,35.0000002980232
320,104,120902,5,8,0:0:0:0:
280,68,121127,1,8,0:0:0:0:
400,160,121578,5,8,0:0:0:0:
433,118,121803,1,8,0:0:0:0:
460,244,122255,5,0,0:0:0:0:
368,308,122706,2,0,P|328:332|304:300,1,87.500000745058
252,264,124060,1,8,0:0:0:0:
156,320,124511,1,0,0:0:0:0:
68,244,124962,1,0,0:0:0:0:
176,216,125413,1,0,0:0:0:0:
128,92,125864,1,0,0:0:0:0:
76,172,126315,1,0,0:0:0:0:
252,88,127218,5,0,0:0:0:0:
196,160,128120,2,8,L|216:160,1,17.5000001490116
304,184,128796,2,8,L|312:168,1,17.5000001490116
396,100,129473,1,0,0:0:0:0:
472,168,129924,1,0,0:0:0:0:
256,192,130375,12,0,134436,0:0:0:0:
224,288,134887,5,8,0:0:0:0:
192,184,135338,5,8,0:0:0:0:
136,216,135563,1,8,0:0:0:0:
236,112,136015,5,8,0:0:0:0:
184,64,136240,1,8,0:0:0:0:
360,136,136691,5,8,0:0:0:0:
256,192,137142,12,0,143458,0:0:0:0:
116,144,143909,6,0,B|144:116|144:116|168:144,1,70.0000005960464
268,208,144812,1,8,0:0:0:0:
328,224,145037,1,8,0:0:0:0:
388,216,145263,1,8,0:0:0:0:
424,264,145488,1,8,0:0:0:0:
412,328,145714,1,8,0:0:0:0:
304,284,146165,1,0,0:0:0:0:
184,296,146616,5,8,0:0:0:0:
120,312,146842,1,8,0:0:0:0:
68,280,147067,1,8,0:0:0:0:
64,224,147293,1,8,0:0:0:0:
108,188,147518,1,8,0:0:0:0:
128,80,147969,1,0,0:0:0:0:
196,128,149323,2,0,P|232:96|256:96,1,70.0000005960464,0|8,0:0|0:0,0:0:0:0:
308,160,151127,6,0,P|348:188|376:176,1,70.0000005960464
476,196,152030,1,8,0:0:0:0:
496,248,152255,1,8,0:0:0:0:
488,308,152481,1,8,0:0:0:0:
436,336,152706,1,8,0:0:0:0:
380,336,152932,1,8,0:0:0:0:
288,268,153383,1,0,0:0:0:0:
188,264,153834,5,8,0:0:0:0:
200,208,154060,1,8,0:0:0:0:
140,184,154285,1,8,0:0:0:0:
104,232,154511,1,8,0:0:0:0:
48,260,154736,1,8,0:0:0:0:
104,348,155187,1,0,0:0:0:0:
116,188,156541,2,0,P|128:148|164:144,1,70.0000005960464,0|8,0:0|0:0,0:0:0:0:
372,64,158345,5,0,0:0:0:0:
460,128,158796,2,0,B|432:152|452:192|444:216,1,87.500000745058
396,252,160150,1,8,0:0:0:0:
316,188,160601,1,0,0:0:0:0:
220,240,161278,1,0,0:0:0:0:
164,216,161503,1,0,0:0:0:0:
136,152,161954,2,0,L|176:124,1,35.0000002980232
380,116,163759,5,0,0:0:0:0:
448,184,164210,2,8,L|476:184,1,17.5000001490116
368,252,164887,2,8,L|350:252,1,17.5000001490116
424,328,165563,1,0,0:0:0:0:
328,352,166015,6,0,P|296:328|244:340,1,87.500000745058
192,332,167368,1,8,0:0:0:0:
96,300,167819,1,0,0:0:0:0:
208,244,168496,2,0,L|224:216,1,17.5000001490116
132,212,169172,1,0,0:0:0:0:
120,128,169624,1,0,0:0:0:0:
296,80,170526,5,0,0:0:0:0:
372,128,171428,2,8,L|396:144,1,17.5000001490116
304,184,172105,2,8,L|272:184,1,17.5000001490116
216,140,172781,1,0,0:0:0:0:
140,208,173233,5,0,0:0:0:0:
56,176,173684,1,0,0:0:0:0:
120,112,174135,1,0,0:0:0:0:
140,208,174586,2,0,B|160:192|160:192|200:216|200:216|220:200,1,87.500000745058
272,220,175939,1,8,0:0:0:0:
352,168,176390,1,0,0:0:0:0:
416,240,176842,2,0,L|456:240,1,35.0000002980232
412,316,177744,2,0,L|372:340,1,35.0000002980232
232,312,178646,6,8,L|208:312,1,17.5000001490116
268,248,179323,2,8,L|292:248,1,17.5000001490116
180,248,179999,1,0,0:0:0:0:
92,208,180451,2,0,P|72:176|104:132,1,87.500000745058
168,112,181804,1,8,0:0:0:0:
252,56,182255,1,0,0:0:0:0:
300,168,182932,1,0,0:0:0:0:
372,148,183157,1,0,0:0:0:0:
320,276,183609,2,0,L|280:260,1,35.0000002980232
124,300,184962,5,0,0:0:0:0:
72,176,185864,2,8,L|104:168,1,17.5000001490116
204,116,186541,2,8,L|172:108,1,17.5000001490116
44,80,187218,1,0,0:0:0:0:
108,36,187669,1,0,0:0:0:0:
256,192,188120,12,0,201203,0:0:0:0:
116,260,201654,6,8,L|140:260,1,17.5000001490116
208,180,202105,1,12,0:0:0:0:
