osu file format v14

[General]
AudioFilename: audio.mp3
AudioLeadIn: 0
PreviewTime:95792
Countdown: 0
SampleSet: Drum
StackLeniency: 0.2
Mode: 0
LetterboxInBreaks: 0
WidescreenStoryboard: 1

[Editor]
Bookmarks: 16967,33767,36167,45767,55367,63767,74567,84167,93767,98567,117767
DistanceSpacing: 1.2
BeatDivisor: 4
GridSize: 32
TimelineZoom: 2.2

[Metadata]
Title:Humanarchy (Cut Ver.)
TitleUnicode:Humanarchy (Cut Ver.)
Artist:Circle of Dust
ArtistUnicode:Circle of Dust
Creator:Riana
Version:Insane
Source:osu!
Tags:industrial rock english fa featured artist mpg mappers' guild klayton celldweller scandroid machines of our disgrace cut ver version
BeatmapID:2599431
BeatmapSetID:1250387

[Difficulty]
HPDrainRate:6
CircleSize:0
OverallDifficulty:8
ApproachRate:9
SliderMultiplier:1.8
SliderTickRate:1

[Events]
//Background and Video events
0,0,"andre-benz-JnB8Gio4GZo-unsplash.jpg"
//Break Periods
//Storyboard Layer 0 (Background)
//Storyboard Layer 1 (Fail)
//Storyboard Layer 2 (Pass)
//Storyboard Layer 3 (Foreground)
//Storyboard Layer 4 (Overlay)
//Storyboard Sound Samples

[TimingPoints]
167,300,4,3,1,80,1,0
18317,-66.6666666666667,4,3,1,80,0,0
21167,-133.333333333333,4,3,1,80,0,0
21242,-133.333333333333,4,3,1,40,0,0
21767,-66.6666666666667,4,3,1,80,0,0
23567,-133.333333333333,4,3,1,80,0,0
24167,-66.6666666666667,4,3,1,80,0,0
25367,-100,4,3,1,80,0,0
25517,-66.6666666666667,4,3,1,80,0,0
25967,-133.333333333333,4,3,1,80,0,0
26042,-133.333333333333,4,3,1,40,0,0
26567,-66.6666666666667,4,3,1,80,0,0
27767,-100,4,3,1,80,0,0
27917,-66.6666666666667,4,3,1,80,0,0
28667,-57.1428571428571,4,3,1,80,0,0
28967,-66.6666666666667,4,3,1,80,0,0
30167,-100,4,3,1,80,0,0
30317,-66.6666666666667,4,3,1,80,0,0
33167,-133.333333333333,4,3,1,80,0,0
36167,-66.6666666666667,4,3,1,90,0,0
45767,-66.6666666666667,4,3,1,80,0,0
55367,-66.6666666666667,4,3,2,80,0,0
56567,-50,4,3,2,80,0,0
57167,-66.6666666666667,4,3,2,80,0,0
58967,-50,4,3,2,80,0,0
59267,-50,4,3,2,80,0,0
60167,-66.6666666666667,4,3,2,80,0,0
61367,-50,4,3,2,80,0,0
62567,-66.6666666666667,4,3,2,80,0,0
62867,-66.6666666666667,4,3,2,80,0,0
63167,-50,4,3,2,80,0,0
64067,-50,4,3,2,80,0,0
64367,-57.1428571428571,4,3,2,80,0,0
64967,-66.6666666666667,4,3,2,80,0,0
66167,-50,4,3,2,80,0,0
66767,-66.6666666666667,4,3,2,80,0,0
68567,-66.6666666666667,4,3,2,80,0,0
68867,-50,4,3,2,80,0,0
69767,-66.6666666666667,4,3,2,80,0,0
70967,-50,4,3,2,80,0,0
72167,-66.6666666666667,4,3,2,80,0,0
72467,-66.6666666666667,4,3,2,80,0,0
72767,-50,4,3,2,80,0,0
73067,-66.6666666666667,4,3,2,80,0,0
73667,-50,4,3,2,80,0,0
73967,-50,4,3,2,80,0,0
74567,-50,4,3,1,85,0,0
76667,-200,4,3,1,85,0,0
76967,-50,4,3,1,85,0,0
79067,-200,4,3,1,85,0,0
79367,-50,4,3,1,85,0,0
81467,-66.6666666666667,4,3,1,85,0,0
84167,-50,4,3,1,85,0,0
86267,-200,4,3,1,85,0,0
86567,-50,4,3,1,85,0,0
88667,-200,4,3,1,85,0,0
88967,-50,4,3,1,85,0,0
91067,-66.6666666666667,4,3,1,85,0,0
93767,-50,4,3,1,60,0,0
97967,-62.5,4,3,1,90,0,0
98567,-50,4,3,1,90,0,1
98867,-66.6666666666667,4,3,1,90,0,1
100367,-50,4,3,1,90,0,1
101267,-66.6666666666667,4,3,1,90,0,1
102767,-50,4,3,1,90,0,1
103067,-66.6666666666667,4,3,1,90,0,1
108167,-50,4,3,1,90,0,1
108467,-66.6666666666667,4,3,1,90,0,1
109967,-50,4,3,1,90,0,1
110567,-50,4,3,1,90,0,1
110867,-50,4,3,1,90,0,1
112367,-50,4,3,1,90,0,1
112667,-66.6666666666667,4,3,1,90,0,1
113567,-50,4,3,1,90,0,1
114767,-66.6666666666667,4,3,1,90,0,1
117767,-100,4,3,1,80,0,0
128717,-66.6666666666667,4,3,1,80,0,0
131567,-133.333333333333,4,3,1,80,0,0
132167,-66.6666666666667,4,3,1,80,0,0
132617,-50,4,3,1,80,0,0
133067,-66.6666666666667,4,3,1,80,0,0
133517,-50,4,3,1,80,0,0
134117,-50,4,3,1,80,0,0
135017,-50,4,3,1,80,0,0

[Colours]
Combo1 : 187,61,0
Combo2 : 162,11,33

[HitObjects]
239,95,7367,6,0,L|224:199,2,90,6|0|0,0:0|0:0|0:0,0:0:0:0:
116,217,7817,1,8,0:0:0:0:
116,217,8117,1,0,0:0:0:0:
335,274,8267,5,2,0:0:0:0:
335,274,8417,2,0,L|240:311,1,90
116,217,8717,5,8,0:0:0:0:
116,217,9017,1,0,0:0:0:0:
342,207,9167,5,8,0:0:0:0:
345,192,9242,1,0,0:0:0:0:
347,177,9317,1,0,0:0:0:0:
350,162,9392,1,0,0:0:0:0:
353,149,9467,2,0,L|351:78,3,45,8|0|0|0,0:0|0:0|0:0|0:0,0:0:0:0:
330,63,9767,6,0,P|375:88|448:91,1,90,2|0,0:0|0:0,0:0:0:0:
510,17,10067,1,0,0:0:0:0:
468,203,10217,5,8,0:0:0:0:
468,203,10517,1,0,0:0:0:0:
297,351,10667,2,0,L|289:241,1,90,2|0,0:0|0:0,0:0:0:0:
353,149,10967,1,0,0:0:0:0:
168,207,11117,5,8,0:0:0:0:
168,207,11417,1,0,0:0:0:0:
203,57,11567,5,8,0:0:0:0:
203,57,11642,1,0,0:0:0:0:
203,57,11717,2,0,P|223:106|229:125,1,45
168,207,11867,1,8,0:0:0:0:
139,199,11942,1,0,0:0:0:0:
110,198,12017,1,0,0:0:0:0:
80,202,12092,1,0,0:0:0:0:
58,216,12167,6,0,P|93:172|107:108,2,90,6|0|0,0:0|0:0|0:0,0:0:0:0:
9,47,12617,1,8,0:0:0:0:
9,47,12917,1,0,0:0:0:0:
220,98,13067,5,10,0:0:0:0:
220,98,13217,2,0,B|331:83,1,90
464,241,13517,5,8,0:0:0:0:
464,241,13817,1,0,0:0:0:0:
347,326,13967,5,8,0:0:0:0:
327,339,14042,1,0,0:0:0:0:
302,344,14117,1,0,0:0:0:0:
277,341,14192,1,0,0:0:0:0:
257,330,14267,2,0,P|231:304|215:277,3,45,8|0|0|0,0:0|0:0|0:0|0:0,0:0:0:0:
209,253,14567,6,0,P|218:185|202:141,1,90,10|0,0:0|0:0,0:0:0:0:
95,109,14867,1,0,0:0:0:0:
300,54,15017,5,8,0:0:0:0:
300,54,15317,1,0,0:0:0:0:
429,106,15467,6,0,L|446:209,1,90,10|8,0:0|0:0,0:0:0:0:
395,302,15767,1,8,0:0:0:0:
234,216,15917,5,10,0:0:0:0:
224,190,16067,1,8,0:0:0:0:
213,165,16217,1,8,0:0:0:0:
122,75,16367,5,8,0:0:0:0:
122,75,16442,1,0,0:0:0:0:
122,75,16517,2,0,P|88:60|49:59,1,45
15,158,16667,1,8,0:0:0:0:
31,189,16742,1,0,0:0:0:0:
39,222,16817,1,0,0:0:0:0:
39,255,16892,1,0,0:0:0:0:
27,285,16967,5,6,0:0:0:0:
120,367,17117,1,0,0:0:0:0:
236,340,17267,2,0,L|358:311,1,90
444,235,17567,5,10,0:0:0:0:
458,124,17717,1,0,0:0:0:0:
368,61,17867,2,0,L|263:36,1,90
189,184,18167,6,0,L|247:166,1,45,2|0,0:0|0:0,0:0:0:0:
189,184,18317,2,0,B|196:140|170:59|67:51|67:51|81:99|138:116,1,270.000010299683,8|0,0:0|0:0,0:0:0:0:
106,102,18692,1,0,0:0:0:0:
106,102,18767,1,8,0:0:0:0:
489,54,19367,6,0,P|466:134|421:183,1,135.000005149841,2|0,0:0|0:0,0:0:0:0:
302,187,19667,1,0,0:0:0:0:
302,187,19817,1,0,0:0:0:0:
213,86,19967,6,0,P|145:41|55:64,1,135.000005149842,10|0,0:0|0:0,0:0:0:0:
3,143,20267,1,0,0:0:0:0:
3,143,20417,1,0,0:0:0:0:
106,334,20567,5,2,0:0:0:0:
106,334,20717,2,0,B|140:187|326:284,1,270.000010299683,8|0,0:0|0:0,0:0:0:0:
322,282,21092,1,0,0:0:0:0:
333,291,21167,2,0,L|327:240,7,33.7500012874604,8|0|0|0|0|0|0|0,0:0|2:0|2:0|2:0|2:0|2:0|2:0|2:0,0:0:0:0:
477,136,21767,6,0,P|509:227|507:311,1,135.000005149841,2|0,0:0|0:0,0:0:0:0:
435,360,22067,1,0,0:0:0:0:
435,360,22217,1,0,0:0:0:0:
221,338,22367,5,10,0:0:0:0:
97,348,22517,1,0,0:0:0:0:
11,265,22667,2,0,P|-7:186|1:126,1,135.000005149842
222,41,22967,5,2,0:0:0:0:
222,41,23117,2,0,B|337:-1|331:157|479:59,1,270.000010299683,8|0,0:0|0:0,0:0:0:0:
479,55,23492,1,0,0:0:0:0:
489,45,23567,2,0,P|479:112|470:190,1,135.000005149841,8|0,0:0|0:0,0:0:0:0:
336,338,24167,5,2,0:0:0:0:
450,295,24317,1,0,0:0:0:0:
336,338,24467,2,0,P|243:331|205:291,1,135.000005149842
105,186,24767,5,10,0:0:0:0:
31,83,24917,1,0,0:0:0:0:
105,186,25067,2,0,P|98:279|58:317,1,135.000005149842
277,202,25367,6,0,L|218:184,1,45,2|0,0:0|0:0,0:0:0:0:
277,202,25517,2,0,B|347:206|397:182|428:113|428:113|331:33,1,270.000010299683,8|0,0:0|0:0,0:0:0:0:
360,54,25892,1,0,0:0:0:0:
355,47,25967,2,0,L|309:39,7,33.7500012874604,8|0|0|0|0|0|0|0,0:0|2:0|2:0|2:0|2:0|2:0|2:0|2:0,0:0:0:0:
193,41,26567,5,2,0:0:0:0:
101,122,26717,1,0,0:0:0:0:
148,237,26867,2,0,L|179:373,1,135.000005149842
366,336,27167,5,10,0:0:0:0:
467,266,27317,1,0,0:0:0:0:
458,148,27467,2,0,L|475:9,1,135.000005149842
341,71,27767,6,0,L|348:19,1,45,2|0,0:0|0:0,0:0:0:0:
341,71,27917,2,0,B|284:33|215:61|215:61|220:141|120:186,1,270.000010299683,8|0,0:0|0:0,0:0:0:0:
156,183,28292,1,0,0:0:0:0:
156,183,28367,1,8,0:0:0:0:
15,302,28667,6,0,P|21:224|34:146,1,157.500001502037,2|0,0:0|0:0,0:0:0:0:
263,219,28967,6,0,P|317:202|412:140,1,135.000005149841,2|0,0:0|0:0,0:0:0:0:
428,49,29267,1,0,0:0:0:0:
428,49,29417,1,0,0:0:0:0:
512,217,29567,6,0,P|471:255|370:307,1,135.000005149841,10|0,0:0|0:0,0:0:0:0:
263,219,29867,1,0,0:0:0:0:
263,219,30017,1,0,0:0:0:0:
117,331,30167,6,0,P|48:347|42:350,1,45,2|0,0:0|0:0,0:0:0:0:
117,331,30317,2,0,B|32:276|53:146|53:146|27:155|5:201,1,270.000010299683,8|0,0:0|0:0,0:0:0:0:
11,188,30692,1,0,0:0:0:0:
11,188,30767,1,8,0:0:0:0:
226,172,31067,6,0,P|239:113|236:29,1,135.000005149842,2|0,0:0|0:0,0:0:0:0:
226,172,31367,6,0,P|317:141|402:142,1,135.000005149841,2|0,0:0|0:0,0:0:0:0:
443,235,31667,1,0,0:0:0:0:
443,235,31817,1,0,0:0:0:0:
280,355,31967,5,10,0:0:0:0:
303,245,32117,1,0,0:0:0:0:
226,172,32267,2,0,P|178:142|90:141,1,135.000005149842
141,283,32567,5,2,0:0:0:0:
141,283,32717,2,0,B|272:274|202:142|394:134,1,270.000010299683,8|0,0:0|0:0,0:0:0:0:
354,137,33092,1,0,0:0:0:0:
364,149,33167,2,0,P|374:216|383:294,1,135.000005149841,2|0,0:0|0:0,0:0:0:0:
25,273,33767,5,2,0:0:0:0:
87,178,33917,1,0,0:0:0:0:
25,273,34067,2,0,L|18:357,1,67.5000025749208
218,196,34367,5,10,0:0:0:0:
260,318,34517,1,8,0:0:0:0:
218,196,34667,2,0,L|211:112,1,67.5000025749208
438,293,34967,5,10,0:0:0:0:
500,199,35117,1,8,0:0:0:0:
405,139,35267,1,0,0:0:0:0:
345,239,35417,1,0,0:0:0:0:
345,239,35492,1,0,0:0:0:0:
345,239,35567,5,8,0:0:0:0:
117,187,35717,1,8,0:0:0:0:
328,275,35867,5,8,0:0:0:0:
106,229,36017,1,8,0:0:0:0:
44,87,36167,5,12,0:0:0:0:
78,66,36242,1,0,0:0:0:0:
119,62,36317,2,0,P|163:70|187:87,1,67.5000025749208
278,26,36467,1,8,0:0:0:0:
313,44,36542,1,0,0:0:0:0:
337,78,36617,2,0,P|352:120|349:149,1,67.5000025749208
433,229,36767,1,8,0:0:0:0:
335,289,37067,5,8,0:0:0:0:
317,252,37142,1,0,0:0:0:0:
315,214,37217,1,0,0:0:0:0:
327,173,37292,1,0,0:0:0:0:
350,142,37367,2,0,P|379:120|435:114,3,67.5000025749208,8|0|0|0,0:0|0:0|0:0|0:0,0:0:0:0:
445,70,37667,2,0,P|323:47|262:27,1,135.000005149841,8|0,0:0|0:0,0:0:0:0:
114,100,37967,6,0,L|107:4,3,67.5000025749208,8|0|0|0,0:0|0:0|0:0|0:0,0:0:0:0:
149,82,38267,2,0,B|176:147|176:147|131:236,1,135.000005149841,8|0,0:0|0:0,0:0:0:0:
223,312,38567,5,8,0:0:0:0:
240,306,38642,1,0,0:0:0:0:
255,303,38717,2,0,L|263:190,1,67.5000025749207
322,60,38867,2,0,L|342:170,3,67.5000025749208,8|0|0|0,0:0|0:0|0:0|0:0,0:0:0:0:
429,190,39167,6,0,P|496:118|506:58,1,135.000005149841,8|0,0:0|0:0,0:0:0:0:
184,180,39467,5,8,0:0:0:0:
223,180,39542,1,0,0:0:0:0:
263,189,39617,1,0,0:0:0:0:
296,211,39692,1,0,0:0:0:0:
317,242,39767,2,0,P|337:280|343:318,3,67.5000025749208,8|0|0|0,0:0|0:0|0:0|0:0,0:0:0:0:
378,272,40067,2,0,L|532:255,1,135.000005149842,8|0,0:0|0:0,0:0:0:0:
404,138,40367,5,8,0:0:0:0:
414,107,40442,1,0,0:0:0:0:
421,75,40517,1,0,0:0:0:0:
425,43,40592,1,0,0:0:0:0:
433,12,40667,2,0,P|461:51|416:21,1,135.000005149842,8|0,0:0|0:0,0:0:0:0:
166,135,40967,5,8,0:0:0:0:
141,170,41042,1,0,0:0:0:0:
140,206,41117,2,0,P|157:252|196:276,1,67.5000025749208
263,189,41267,1,8,0:0:0:0:
287,153,41342,1,0,0:0:0:0:
290,109,41417,2,0,P|273:63|234:39,1,67.5000025749208
166,135,41567,2,0,L|9:115,1,135.000005149842,8|0,0:0|0:0,0:0:0:0:
34,253,41867,5,8,0:0:0:0:
59,288,41942,1,0,0:0:0:0:
93,315,42017,1,0,0:0:0:0:
133,330,42092,1,0,0:0:0:0:
174,329,42167,2,0,L|265:314,3,67.5000025749208,8|0|0|0,0:0|0:0|0:0|0:0,0:0:0:0:
290,342,42467,2,0,P|339:281|408:232,1,135.000005149841,8|0,0:0|0:0,0:0:0:0:
510,87,42767,5,8,0:0:0:0:
467,76,42842,1,0,0:0:0:0:
426,63,42917,2,0,L|332:75,1,67.5000025749207
245,38,43067,2,0,B|233:106|233:106|296:182,1,135.000005149841,8|0,0:0|0:0,0:0:0:0:
427,251,43367,5,8,0:0:0:0:
444,211,43442,1,0,0:0:0:0:
461,173,43517,2,0,L|371:192,1,67.5000025749207
303,270,43667,2,0,L|291:356,3,67.5000025749208,8|0|0|0,0:0|0:0|0:0|0:0,0:0:0:0:
336,338,43967,2,0,B|401:348|401:348|473:296,1,135.000005149841,8|0,0:0|0:0,0:0:0:0:
180,252,44267,5,8,0:0:0:0:
129,272,44342,1,0,0:0:0:0:
76,265,44417,1,0,0:0:0:0:
32,236,44492,1,0,0:0:0:0:
13,183,44567,2,0,P|16:146|49:94,3,67.5000025749208,8|0|0|0,0:0|0:0|0:0|0:0,0:0:0:0:
131,78,44867,1,8,0:0:0:0:
417,210,45167,6,0,L|350:220,1,67.5000025749207,8|0,0:0|0:0,0:0:0:0:
258,158,45317,2,0,L|325:168,1,67.5000025749207,8|0,0:0|0:0,0:0:0:0:
413,104,45467,2,0,L|345:114,1,67.5000025749207,8|0,0:0|0:0,0:0:0:0:
256,46,45617,2,0,L|324:56,1,67.5000025749207,8|0,0:0|0:0,0:0:0:0:
114,120,45767,6,0,L|150:205,3,67.5000025749208,6|0|0|0,0:0|0:0|0:0|0:0,0:0:0:0:
225,267,46067,2,0,L|198:329,3,67.5000025749208,2|0|0|0,0:0|0:0|0:0|0:0,0:0:0:0:
114,120,46367,1,8,0:0:0:0:
491,238,46667,5,2,0:0:0:0:
491,238,46742,1,0,0:0:0:0:
491,238,46817,2,0,L|497:156,1,67.5000025749207
410,81,46967,2,0,L|394:16,3,67.5000025749208,2|0|0|0,0:0|0:0|0:0|0:0,0:0:0:0:
331,176,47267,6,0,P|224:158|181:38,1,202.500007724762,2|0,0:0|0:0,0:0:0:0:
65,21,47567,2,0,L|42:119,1,67.5000025749207,8|0,0:0|0:0,0:0:0:0:
49,86,47717,1,0,0:0:0:0:
49,86,47792,1,0,0:0:0:0:
49,86,47867,1,0,0:0:0:0:
158,308,48167,6,0,L|238:294,3,67.5000025749208,2|0|0|0,0:0|0:0|0:0|0:0,0:0:0:0:
299,192,48467,2,0,L|212:183,3,67.5000025749207,2|0|0|0,0:0|0:0|0:0|0:0,0:0:0:0:
364,89,48767,1,8,0:0:0:0:
465,334,49067,6,0,L|378:325,3,67.5000025749207,2|0|0|0,0:0|0:0|0:0|0:0,0:0:0:0:
446,207,49367,1,2,0:0:0:0:
446,207,49442,1,0,0:0:0:0:
446,207,49517,2,0,L|551:193,2,67.5000025749207,0|0|2,0:0|0:0|0:0,0:0:0:0:
242,71,49967,6,0,L|227:158,3,67.5000025749208,8|0|0|0,0:0|0:0|0:0|0:0,0:0:0:0:
215,169,50267,1,4,0:2:0:0:
215,169,50342,2,0,P|187:80|179:-22,1,135.000005149841
347,29,50567,6,0,L|452:40,3,67.5000025749208,2|0|0|0,0:0|0:0|0:0|0:0,0:0:0:0:
493,141,50867,2,0,L|388:152,3,67.5000025749208,2|0|0|0,0:0|0:0|0:0|0:0,0:0:0:0:
306,265,51167,1,8,0:0:0:0:
106,150,51467,2,0,L|-6:141,3,67.5000025749208,2|0|0|0,0:0|0:0|0:0|0:0,0:0:0:0:
99,281,51767,1,2,0:0:0:0:
99,281,51842,1,0,0:0:0:0:
99,281,51917,2,0,L|181:274,1,67.5000025749207
278,335,52067,6,0,P|385:317|427:197,1,202.500007724762,2|0,0:0|0:0,0:0:0:0:
406,125,52367,2,0,L|308:148,1,67.5000025749207,8|0,0:0|0:0,0:0:0:0:
340,140,52517,1,0,0:0:0:0:
340,140,52592,1,0,0:0:0:0:
340,140,52667,1,2,0:0:0:0:
38,144,52967,6,0,L|45:61,3,67.5000025749208,2|0|0|0,0:0|0:0|0:0|0:0,0:0:0:0:
165,193,53267,1,2,0:0:0:0:
165,193,53342,1,0,0:0:0:0:
165,193,53417,2,0,L|155:91,1,67.5000025749208
247,55,53567,1,8,0:0:0:0:
394,336,53867,6,0,L|387:253,3,67.5000025749207,2|0|0|0,0:0|0:0|0:0|0:0,0:0:0:0:
273,286,54167,2,0,L|280:203,3,67.5000025749207,2|0|0|0,0:0|0:0|0:0|0:0,0:0:0:0:
165,193,54467,1,2,0:0:0:0:
426,34,54767,6,0,L|403:116,3,67.5000025749208,2|0|0|0,0:0|0:0|0:0|0:0,0:0:0:0:
381,152,55067,1,4,0:2:0:0:
381,152,55142,2,0,P|496:123|563:111,1,135.000005149841
468,277,55367,5,6,0:0:0:0:
468,277,55442,1,0,0:0:0:0:
468,277,55517,2,0,L|475:377,1,67.5000025749207
336,370,55667,2,0,L|347:286,4,67.5000025749208,0|0|0|0|8,0:0|0:0|0:0|0:0|0:0,0:0:0:0:
51,145,56567,6,0,P|67:139|284:82,1,180,2|2,0:2|0:2,0:0:0:0:
438,169,56867,2,0,L|495:180,6,45,2|0|0|0|0|0|0,0:2|0:0|0:0|0:0|0:0|0:0|0:0,0:0:0:0:
441,143,57167,1,8,0:0:0:0:
443,121,57242,1,0,0:0:0:0:
445,98,57317,1,0,0:0:0:0:
447,76,57392,1,0,0:0:0:0:
450,53,57467,1,2,0:0:0:0:
103,224,57767,6,0,P|135:209|168:163,3,67.5000025749208,2|0|0|0,0:0|0:0|0:0|0:0,0:0:0:0:
192,215,58067,2,0,P|196:180|174:129,1,67.5000025749208
227,110,58217,2,0,P|199:90|147:82,1,67.5000025749208
115,75,58367,1,8,0:0:0:0:
118,80,58967,2,0,B|213:64|213:64|216:64|216:64|219:59|219:59|322:48,1,180,2|0,0:2|0:0,0:0:0:0:
327,229,59267,1,0,0:0:0:0:
247,109,59417,1,0,0:0:0:0:
452,208,59567,5,8,0:0:0:0:
468,191,59642,1,0,0:0:0:0:
465,170,59717,1,0,0:0:0:0:
484,153,59792,1,0,0:0:0:0:
479,128,59867,1,2,0:0:0:0:
333,247,60167,5,2,0:0:0:0:
333,247,60242,1,0,0:0:0:0:
333,247,60317,2,0,L|233:254,1,67.5000025749207
189,349,60467,2,0,L|91:336,4,67.5000025749208,0|0|0|0|8,0:0|0:0|0:0|0:0|0:0,0:0:0:0:
113,187,61367,6,0,B|137:215|137:215|215:167|176:57,1,180,2|2,0:2|0:2,0:0:0:0:
420,117,61667,2,0,B|432:81|432:81|351:37|276:127,1,180,2|2,0:2|0:2,0:0:0:0:
328,211,61967,1,8,0:0:0:0:
354,241,62042,1,0,0:0:0:0:
392,258,62117,1,0,0:0:0:0:
434,257,62192,1,0,0:0:0:0:
471,239,62267,1,2,0:0:0:0:
102,317,62567,6,0,L|174:316,3,67.5000025749208,2|0|0|0,0:0|0:0|0:0|0:0,0:0:0:0:
265,199,62867,2,0,L|159:207,1,67.5000025749207
130,87,63017,2,0,L|236:95,1,67.5000025749207
356,131,63167,6,0,B|358:164|314:196|314:196|205:146|260:5,1,270,8|0,0:0|0:0,0:0:0:0:
367,16,63467,2,0,L|468:6,2,90,2|0|0,0:0|0:0|0:0,0:0:0:0:
512,255,63767,2,0,L|411:265,2,90,2|0|0,0:0|0:0|0:0,0:0:0:0:
175,340,64067,6,0,P|171:204|156:129,1,180,2|0,0:2|0:0,0:0:0:0:
357,223,64367,6,0,P|370:171|371:122,1,78.7500007510185,8|0,0:0|0:0,0:0:0:0:
330,110,64517,2,0,P|334:149|345:187,1,78.7500007510185,8|0,0:0|0:0,0:0:0:0:
444,335,64667,6,0,P|480:296|507:254,1,78.7500007510185,8|0,0:0|0:0,0:0:0:0:
477,224,64817,2,0,P|460:259|451:298,1,78.7500007510185,8|0,0:0|0:0,0:0:0:0:
357,223,64967,5,2,0:0:0:0:
357,223,65042,1,0,0:0:0:0:
357,223,65117,2,0,L|257:216,1,67.5000025749207
227,322,65267,2,0,L|155:299,4,67.5000025749208,0|0|0|0|8,0:0|0:0|0:0|0:0|0:0,0:0:0:0:
55,80,66167,6,0,P|41:148|-18:280,1,180,2|2,0:2|0:2,0:0:0:0:
225,145,66467,2,0,L|268:128,6,45,2|0|0|0|0|0|0,0:2|0:0|0:0|0:0|0:0|0:0|0:0,0:0:0:0:
223,169,66767,1,8,0:0:0:0:
221,191,66842,1,0,0:0:0:0:
218,214,66917,1,0,0:0:0:0:
217,236,66992,1,0,0:0:0:0:
214,259,67067,1,2,0:0:0:0:
497,151,67367,6,0,P|499:196|481:234,3,67.5000025749208,2|0|0|0,0:0|0:0|0:0|0:0,0:0:0:0:
490,258,67667,2,0,P|451:282|410:287,1,67.5000025749208
395,314,67817,2,0,P|353:293|329:259,1,67.5000025749208
323,224,67967,1,8,0:0:0:0:
75,159,68567,5,2,0:0:0:0:
75,159,68642,1,0,0:0:0:0:
75,159,68717,2,0,L|166:174,1,67.5000025749207
214,88,68867,2,0,L|-22:103,1,180
8,264,69167,5,8,0:0:0:0:
21,278,69242,1,0,0:0:0:0:
41,274,69317,1,0,0:0:0:0:
55,285,69392,1,0,0:0:0:0:
73,280,69467,1,2,0:0:0:0:
258,213,69767,5,2,0:0:0:0:
258,213,69842,1,0,0:0:0:0:
258,213,69917,2,0,L|265:313,1,67.5000025749207
368,351,70067,2,0,L|375:251,4,67.5000025749207,0|0|0|0|8,0:0|0:0|0:0|0:0|0:0,0:0:0:0:
70,170,70967,6,0,B|73:180|73:180|133:153|149:50|149:50|121:57,1,180,2|2,0:2|0:2,0:0:0:0:
118,285,71267,2,0,B|116:296|116:296|31:222|37:162|37:162|49:159,1,180,2|2,0:2|0:2,0:0:0:0:
244,184,71567,5,8,0:0:0:0:
279,188,71642,1,0,0:0:0:0:
310,178,71717,1,0,0:0:0:0:
338,158,71792,1,0,0:0:0:0:
356,130,71867,1,2,0:0:0:0:
116,206,72167,6,0,P|85:255|83:286,3,67.5000025749208,2|0|0|0,0:0|0:0|0:0|0:0,0:0:0:0:
201,302,72467,2,0,P|249:315|280:359,1,67.5000025749207
431,342,72617,2,0,P|403:361|370:366,1,67.5000025749207
475,229,72767,6,0,B|448:186|461:143|461:143|538:240|444:342,1,270,8|0,0:0|0:0,0:0:0:0:
347,245,73067,2,0,L|328:170,2,67.5000025749208,2|0|0,0:0|0:0|0:0,0:0:0:0:
215,133,73367,2,0,L|227:65,2,67.5000025749208,2|0|0,0:0|0:0|0:0,0:0:0:0:
127,356,73667,6,0,B|241:400|272:286|270:228|377:249,1,270.000010299683,2|0,0:2|0:0,0:0:0:0:
438,334,73967,6,0,P|445:289|455:245,1,90,8|0,0:0|0:0,0:0:0:0:
474,178,74116,2,0,P|487:220|491:265,1,90,8|0,0:0|0:0,0:0:0:0:
265,260,74267,6,0,P|270:216|283:173,1,90,8|0,0:0|0:0,0:0:0:0:
299,118,74417,2,0,P|311:160|316:205,1,90,8|0,0:0|0:0,0:0:0:0:
112,35,74567,6,0,L|96:139,7,90,6|0|0|0|0|0|0|0,0:0|0:0|0:0|0:0|0:0|0:0|0:0|0:0,0:0:0:0:
155,237,75167,1,8,0:0:0:0:
353,152,75467,1,0,0:0:0:0:
37,116,75767,1,0,0:0:0:0:
487,255,76067,1,0,0:0:0:0:
262,320,76367,6,0,L|150:342,1,90,2|0,0:0|0:0,0:0:0:0:
72,277,76517,2,0,L|188:291,1,90
323,182,76667,6,0,L|248:208,1,67.5,2|0,0:0|0:0,0:0:0:0:
179,98,76967,6,0,P|198:32|226:10,7,90,2|0|0|0|0|0|0|0,0:0|0:0|0:0|0:0|0:0|0:0|0:0|0:0,0:0:0:0:
336,8,77567,1,8,0:0:0:0:
313,311,77867,1,0,0:0:0:0:
35,98,78167,1,0,0:0:0:0:
292,125,78467,5,0,0:0:0:0:
292,125,78767,2,0,L|134:118,1,90,2|0,0:0|0:0,0:0:0:0:
33,248,78917,1,0,0:0:0:0:
78,253,78992,1,0,0:0:0:0:
123,257,79067,6,0,L|103:188,1,67.5,2|0,0:0|0:0,0:0:0:0:
214,31,79367,6,0,L|201:128,7,90,2|0|0|0|0|0|0|0,0:0|0:0|0:0|0:0|0:0|0:0|0:0|0:0,0:0:0:0:
244,227,79967,1,8,0:0:0:0:
418,86,80267,1,0,0:0:0:0:
69,98,80567,1,0,0:0:0:0:
512,269,80867,1,0,0:0:0:0:
333,217,81167,6,0,L|215:229,1,90,2|0,0:0|0:0,0:0:0:0:
191,264,81317,2,0,L|311:277,1,90
385,94,81467,2,0,L|129:136,1,202.500007724762,2|0,0:0|0:0,0:0:0:0:
68,119,81767,6,0,P|76:166|103:205,7,67.5000025749208,2|0|0|0|0|0|0|0,0:0|0:0|0:0|0:0|0:0|0:0|0:0|0:0,0:0:0:0:
185,126,82367,1,8,0:0:0:0:
352,218,82667,5,2,0:0:0:0:
352,218,82742,1,0,0:0:0:0:
352,218,82817,1,0,0:0:0:0:
441,53,82967,1,2,0:0:0:0:
441,53,83042,1,0,0:0:0:0:
441,53,83117,1,0,0:0:0:0:
185,126,83267,2,0,L|206:295,1,135.000005149842,2|0,0:0|0:0,0:0:0:0:
469,254,83567,6,0,L|451:354,1,67.5000025749207,2|0,0:0|0:0,0:0:0:0:
386,133,83717,2,0,L|411:20,1,67.5000025749207
227,120,83867,2,0,L|248:336,1,202.500007724762,2|0,0:0|0:0,0:0:0:0:
131,371,84167,6,0,P|123:311|130:273,7,90,2|0|0|0|0|0|0|0,0:0|0:0|0:0|0:0|0:0|0:0|0:0|0:0,0:0:0:0:
201,182,84767,1,8,0:0:0:0:
397,129,85067,1,0,0:0:0:0:
106,11,85367,1,0,0:0:0:0:
466,316,85667,1,0,0:0:0:0:
397,129,85967,6,0,L|509:108,1,90,2|0,0:0|0:0,0:0:0:0:
397,129,86117,1,0,0:0:0:0:
376,88,86192,1,0,0:0:0:0:
358,53,86267,6,0,L|282:33,1,67.5,2|0,0:0|0:0,0:0:0:0:
172,63,86567,6,0,P|161:115|166:159,7,90,2|0|0|0|0|0|0|0,0:0|0:0|0:0|0:0|0:0|0:0|0:0|0:0,0:0:0:0:
252,238,87167,1,0,0:0:0:0:
485,112,87467,1,0,0:0:0:0:
172,63,87767,1,2,0:0:0:0:
194,58,87842,1,0,0:0:0:0:
216,53,87917,1,0,0:0:0:0:
238,48,87992,1,0,0:0:0:0:
259,43,88067,1,0,0:0:0:0:
62,199,88367,6,0,L|82:297,1,90,2|0,0:0|0:0,0:0:0:0:
102,346,88517,2,0,L|123:224,1,90
252,166,88667,6,0,L|231:252,1,67.5,2|0,0:0|0:0,0:0:0:0:
332,329,88967,6,0,P|370:269|364:233,7,90,2|0|0|0|0|0|0|0,0:0|0:0|0:0|0:0|0:0|0:0|0:0|0:0,0:0:0:0:
332,142,89567,1,8,0:0:0:0:
117,257,89867,1,0,0:0:0:0:
333,15,90167,1,0,0:0:0:0:
474,339,90467,1,0,0:0:0:0:
248,234,90767,6,0,L|417:203,1,90,2|0,0:0|0:0,0:0:0:0:
423,138,90917,1,0,0:0:0:0:
467,133,90992,1,0,0:0:0:0:
512,129,91067,2,0,L|263:75,1,202.500007724762,2|0,0:0|0:0,0:0:0:0:
213,28,91367,6,0,P|194:79|201:112,7,67.5000025749208,2|0|0|0|0|0|0|0,0:0|0:0|0:0|0:0|0:0|0:0|0:0|0:0,0:0:0:0:
263,189,91967,1,8,0:0:0:0:
448,73,92267,5,2,0:0:0:0:
448,73,92342,1,0,0:0:0:0:
448,73,92417,1,0,0:0:0:0:
376,320,92567,1,2,0:0:0:0:
376,320,92642,1,0,0:0:0:0:
376,320,92717,1,0,0:0:0:0:
153,184,92867,2,0,L|121:24,1,135.000005149842,2|0,0:0|0:0,0:0:0:0:
102,358,93167,6,0,L|97:258,1,67.5000025749207,2|0,0:0|0:0,0:0:0:0:
196,190,93317,2,0,L|202:76,1,67.5000025749207
92,43,93467,2,0,L|123:311,1,270.000010299683,2|0,0:0|0:0,0:0:0:0:
57,303,97967,6,0,B|316:306|167:63|465:68,1,504,8|0,0:0|0:0,0:0:0:0:
426,190,98567,6,0,P|387:167|307:41,1,180,6|0,0:0|0:0,0:0:0:0:
475,335,98867,2,0,P|381:236|217:271,2,270.000010299683
118,267,99767,5,2,0:0:0:0:
34,60,99917,1,0,0:0:0:0:
118,267,100067,1,0,0:0:0:0:
118,267,100367,6,0,P|284:207|486:274,1,360,8|0,0:0|0:0,0:0:0:0:
159,26,100967,6,0,P|176:141|204:202,1,180,2|0,0:0|0:0,0:0:0:0:
249,336,101267,2,0,P|223:275|15:228,2,270.000010299683
280,98,102167,5,2,0:0:0:0:
371,189,102317,1,0,0:0:0:0:
162,161,102467,1,0,0:0:0:0:
162,161,102767,6,0,P|340:219|443:350,1,360,8|0,0:0|0:0,0:0:0:0:
512,181,103367,2,0,L|342:199,1,135.000005149841,2|0,0:0|0:0,0:0:0:0:
158,292,103667,6,0,P|149:207|191:112,1,135.000005149841
349,89,103967,1,8,0:0:0:0:
349,89,104042,2,0,P|335:48|326:-3,1,67.5000025749207
484,194,104417,6,0,P|499:153|511:54,1,135.000005149841,2|0,0:0|0:0,0:0:0:0:
394,42,104717,1,0,0:0:0:0:
394,42,104867,2,0,P|373:106|365:173,1,135.000005149841,2|0,0:0|0:0,0:0:0:0:
368,326,105167,6,0,P|307:182|193:153,1,270.000010299683,8|0,0:0|0:0,0:0:0:0:
91,266,105767,5,2,0:0:0:0:
135,274,105917,1,0,0:0:0:0:
183,283,106067,2,0,L|331:260,1,135.000005149842
481,119,106367,5,10,0:0:0:0:
442,96,106517,1,0,0:0:0:0:
400,71,106667,2,0,L|253:41,1,135.000005149842
84,250,106967,5,2,0:0:0:0:
34,121,107117,1,0,0:0:0:0:
280,347,107267,2,0,L|310:209,1,135.000005149842
309,216,107492,1,0,0:0:0:0:
309,216,107567,5,10,0:0:0:0:
186,172,107717,1,8,0:0:0:0:
477,83,107867,1,8,0:0:0:0:
367,39,108017,1,8,0:0:0:0:
439,193,108167,6,0,P|437:252|395:372,1,180,6|0,0:0|0:0,0:0:0:0:
107,324,108467,2,0,P|201:225|365:260,2,270.000010299683,0|8|0,0:0|0:0|0:0,0:0:0:0:
95,150,109367,5,2,0:0:0:0:
290,37,109517,1,0,0:0:0:0:
95,150,109667,1,0,0:0:0:0:
446,298,109967,6,0,P|386:134|424:19,1,270,8|0,0:0|0:0,0:0:0:0:
497,151,110267,2,0,P|372:181|305:148,1,180
168,29,110567,6,0,B|191:84|191:84|111:209,1,180,8|0,0:0|0:0,0:0:0:0:
0,286,110867,2,0,B|70:314|70:314|81:299|81:299|139:325|139:325|156:293,1,180,8|0,0:0|0:0,0:0:0:0:
398,337,111467,1,0,0:0:0:0:
489,31,111767,5,2,0:0:0:0:
303,141,111917,1,0,0:0:0:0:
486,237,112067,1,8,0:0:0:0:
486,237,112367,6,0,P|326:336|160:331,1,360,8|0,0:0|0:0,0:0:0:0:
64,90,112967,2,0,L|46:260,1,135.000005149841,2|0,0:0|0:0,0:0:0:0:
334,246,113267,6,0,P|343:161|300:66,1,135.000005149841
418,353,113567,2,0,P|478:286|506:202,1,180,8|0,0:0|0:0,0:0:0:0:
248,93,113867,2,0,P|326:207|333:290,1,180
139,355,114167,5,2,0:0:0:0:
120,141,114317,1,0,0:0:0:0:
139,355,114467,1,0,0:0:0:0:
120,141,114767,6,0,P|180:284|294:314,1,270.000010299683,8|0,0:0|0:0,0:0:0:0:
388,228,115367,5,2,0:0:0:0:
415,166,115517,1,0,0:0:0:0:
388,228,115667,2,0,L|402:372,1,135.000005149842
254,228,115967,5,8,0:0:0:0:
274,290,116117,1,0,0:0:0:0:
254,228,116267,2,0,L|268:84,1,135.000005149842
107,13,116567,5,2,0:0:0:0:
131,145,116717,1,0,0:0:0:0:
383,188,116867,2,0,L|248:229,1,135.000005149842
254,228,117092,1,0,0:0:0:0:
254,228,117167,5,10,0:0:0:0:
457,70,117317,1,8,0:0:0:0:
254,228,117467,1,8,0:0:0:0:
457,70,117617,1,8,0:0:0:0:
254,228,117767,6,0,L|269:124,2,90,6|0|0,0:0|0:0|0:0,0:0:0:0:
151,308,118217,1,8,0:0:0:0:
151,308,118517,1,0,0:0:0:0:
210,83,118667,6,0,L|220:178,1,90,2|0,0:0|0:0,0:0:0:0:
315,246,118967,1,0,0:0:0:0:
488,139,119117,5,8,0:0:0:0:
488,139,119417,1,0,0:0:0:0:
219,172,119567,5,2,0:0:0:0:
222,187,119642,1,0,0:0:0:0:
225,201,119717,1,0,0:0:0:0:
227,217,119792,1,0,0:0:0:0:
230,233,119867,2,0,L|228:284,3,45,2|0|0|0,0:0|0:0|0:0|0:0,0:0:0:0:
216,310,120167,6,0,P|261:286|334:282,1,90,2|0,0:0|0:0,0:0:0:0:
385,349,120467,1,0,0:0:0:0:
75,269,120617,5,8,0:0:0:0:
66,158,120917,1,0,0:0:0:0:
145,372,121067,5,2,0:0:0:0:
194,264,121217,2,0,L|213:160,1,90
75,269,121517,5,8,0:0:0:0:
75,269,121817,1,0,0:0:0:0:
271,220,121967,5,2,0:0:0:0:
271,220,122042,1,0,0:0:0:0:
271,220,122117,2,0,P|252:172|245:153,1,45
260,64,122267,1,2,0:0:0:0:
231,71,122342,1,0,0:0:0:0:
201,72,122417,1,0,0:0:0:0:
172,68,122492,1,0,0:0:0:0:
144,55,122567,6,0,P|179:99|193:163,2,90,2|0|0,0:0|0:0|0:0,0:0:0:0:
19,68,123017,1,8,0:0:0:0:
19,68,123317,1,0,0:0:0:0:
60,282,123467,6,0,P|125:258|163:261,1,90,2|0,0:0|0:0,0:0:0:0:
234,327,123767,1,0,0:0:0:0:
60,282,123917,5,8,0:0:0:0:
60,282,124217,1,0,0:0:0:0:
234,327,124367,5,2,0:0:0:0:
254,339,124442,1,0,0:0:0:0:
279,345,124517,1,0,0:0:0:0:
304,341,124592,1,0,0:0:0:0:
325,334,124667,2,0,P|355:309|359:295,3,45,2|0|0|0,0:0|0:0|0:0|0:0,0:0:0:0:
392,272,124967,6,0,P|383:203|399:160,1,90,2|0,0:0|0:0,0:0:0:0:
466,97,125267,1,0,0:0:0:0:
304,56,125417,5,8,0:0:0:0:
304,56,125717,1,0,0:0:0:0:
117,164,125867,5,8,0:0:0:0:
31,246,126017,2,0,L|37:346,1,90
117,164,126317,5,8,0:0:0:0:
109,137,126467,1,8,0:0:0:0:
95,104,126617,1,8,0:0:0:0:
290,209,126767,5,2,0:0:0:0:
290,209,126842,1,0,0:0:0:0:
290,209,126917,2,0,P|324:224|363:225,1,45
445,173,127067,2,0,P|440:212|446:233,3,45,2|0|0|0,0:0|0:0|0:0|0:0,0:0:0:0:
469,289,127367,5,6,0:0:0:0:
368,351,127517,1,0,0:0:0:0:
248,343,127667,2,0,L|147:328,1,90
153,165,127967,5,8,0:0:0:0:
209,59,128117,1,0,0:0:0:0:
328,60,128267,2,0,L|424:71,1,90
330,226,128567,6,0,L|312:167,1,45,2|0,0:0|0:0,0:0:0:0:
330,226,128717,2,0,B|286:219|205:245|197:347|197:347|145:321|150:286,1,270.000010299683,8|0,0:0|0:0,0:0:0:0:
150,301,129092,1,0,0:0:0:0:
150,301,129167,1,8,0:0:0:0:
330,226,129467,2,0,P|350:133|343:54,1,135.000005149841,2|0,0:2|0:0,0:0:0:0:
113,42,129767,6,0,P|135:122|181:172,1,135.000005149841,2|0,0:0|0:0,0:0:0:0:
297,176,130067,1,0,0:0:0:0:
383,83,130217,1,0,0:0:0:0:
297,176,130367,6,0,B|491:240|479:372,1,270.000010299683,8|0,0:0|0:0,0:0:0:0:
479,224,130817,1,0,0:0:0:0:
317,309,130967,2,0,L|293:152,1,135.000005149842,2|8,0:0|0:0,0:0:0:0:
117,173,131267,1,0,0:0:0:0:
122,139,131342,1,0,0:0:0:0:
126,106,131417,1,0,0:0:0:0:
131,73,131492,1,0,0:0:0:0:
135,40,131567,1,8,0:0:0:0:
310,50,131867,5,8,0:0:0:0:
310,50,132017,1,8,0:0:0:0:
344,250,132167,6,0,L|380:165,4,67.5000025749208,14|0|0|0|0,0:0|0:0|0:0|0:0|0:0,0:0:0:0:
64,66,132617,2,0,P|235:166|416:139,1,360,10|0,0:0|0:0,0:0:0:0:
163,283,133067,2,0,L|154:362,4,67.5000025749208,10|0|0|0|0,0:0|0:0|0:0|0:0|0:0,0:0:0:0:
390,281,133517,6,0,P|175:235|75:120,1,360,10|0,0:0|0:0,0:0:0:0:
352,102,133967,5,6,0:0:0:0:
352,102,134042,1,0,0:0:0:0:
352,102,134117,2,0,L|257:115,1,90
200,223,134267,1,2,0:0:0:0:
200,223,134342,1,0,0:0:0:0:
200,223,134417,2,0,L|104:210,1,90
311,214,134567,5,14,0:0:0:0:
331,241,134642,1,0,0:0:0:0:
360,256,134717,1,0,0:0:0:0:
393,256,134792,1,0,0:0:0:0:
424,241,134867,1,0,0:0:0:0:
506,340,135017,6,0,P|406:168|231:113,1,360,10|0,0:0|0:0,0:0:0:0:
512,58,135467,5,10,0:0:0:0:
492,31,135542,1,0,0:0:0:0:
463,15,135617,1,0,0:0:0:0:
429,15,135692,1,0,0:0:0:0:
399,31,135767,1,0,0:0:0:0:
286,299,135917,5,10,0:0:0:0:
269,249,135992,1,0,0:0:0:0:
242,205,136067,1,0,0:0:0:0:
204,170,136142,1,0,0:0:0:0:
157,145,136217,1,0,0:0:0:0:
106,134,136292,1,0,0:0:0:0:
53,137,136367,1,8,0:0:0:0:
