osu file format v14

[General]
AudioFilename: Great Escape.mp3
AudioLeadIn: 0
PreviewTime: 52374
Countdown: 1
SampleSet: Soft
StackLeniency: 0.5
Mode: 0
LetterboxInBreaks: 0
WidescreenStoryboard: 0

[Editor]
DistanceSpacing: 1.3
BeatDivisor: 4
GridSize: 4
TimelineZoom: 3.099999

[Metadata]
Title:Great Escape(TV-Size)
TitleUnicode:Great Escape(TV-Size)
Artist:Cinema Staff
ArtistUnicode:Cinema Staff
Creator:LITEON
Version:Ultra
Source:进撃の巨人
Tags:进撃の巨人 Attack on Titan cinema staff ending エレン·イェーガー Eren Jaeger ミカサ・アッカーマン Mikasa Ackerman Black fires Yuzu Hibiki
BeatmapID:1189785
BeatmapSetID:562807

[Difficulty]
HPDrainRate:8
CircleSize:4.2
OverallDifficulty:9
ApproachRate:9.6
SliderMultiplier:1.8
SliderTickRate:1

[Events]
//Background and Video events
0,0,"BG.jpg",0,0
Video,0,"ED.avi"
//Break Periods
//Storyboard Layer 0 (Background)
//Storyboard Layer 1 (Fail)
//Storyboard Layer 2 (Pass)
//Storyboard Layer 3 (Foreground)
//Storyboard Sound Samples

[TimingPoints]
229,326.086956521739,4,2,1,60,1,0
229,-142.857142857143,4,2,1,50,0,0
391,-142.857142857143,4,2,1,5,0,0
554,-133.333333333333,4,2,1,60,0,0
717,-133.333333333333,4,2,1,5,0,0
880,-125,4,2,1,70,0,0
1043,-125,4,2,1,5,0,0
1206,-117.647058823529,4,2,1,80,0,0
1369,-100,4,2,1,5,0,0
1510,326.086956521739,4,1,1,40,1,0
1510,-100,4,2,1,50,0,0
4118,-83.3333333333333,4,2,1,60,0,0
6727,-83.3333333333333,4,2,1,70,0,0
11292,-111.111111111111,4,2,1,70,0,0
11618,-90.9090909090909,4,2,1,70,0,0
11952,326.086956521739,4,2,2,40,1,0
11952,-200,4,2,2,40,0,0
12441,-100,4,2,1,20,0,0
12767,-100,4,2,1,40,0,0
14397,-100,4,1,0,40,0,0
14551,326.086956521739,4,2,2,50,1,0
14551,-125,4,2,2,50,0,0
19605,-125,4,2,2,60,0,0
24985,-100,4,2,2,60,0,0
35257,-100,4,2,2,70,0,0
40457,326.086956521739,4,2,2,60,1,0
47157,326.086956521739,4,2,2,60,1,0
51722,-200,4,2,2,60,0,0
52374,-90.9090909090909,4,2,2,70,0,1
62819,326.086956521739,4,2,2,70,1,1
62819,-100,4,2,2,80,0,1
70482,-100,4,2,2,60,0,1
70635,326.086956521739,4,2,2,60,1,1
71613,-200,4,2,2,60,0,0
72183,-200,4,2,2,30,0,0
72428,-200,4,2,2,60,0,1
73569,-200,4,2,2,60,0,0
74140,-200,4,2,2,30,0,0
74385,-100,4,2,1,60,0,1
77482,-142.857142857143,4,2,2,70,0,0
78461,-142.857142857143,4,2,2,65,0,0
78787,326.086956521739,4,2,2,70,1,0
78787,-71.4285714285714,4,2,2,60,0,1
82730,326.086956521739,4,2,1,60,1,0
85145,326.086956521739,4,2,2,40,1,0
85145,-142.857142857143,4,2,1,60,0,0
85308,-142.857142857143,4,2,1,50,0,0
85471,-142.857142857143,4,2,1,40,0,0
85634,-142.857142857143,4,2,1,30,0,0
85797,-142.857142857143,4,2,1,20,0,0
85960,-142.857142857143,4,2,2,10,0,0

[Colours]
Combo1 : 177,197,184
Combo2 : 177,151,139
Combo3 : 190,126,177

[HitObjects]
208,72,229,6,4,P|256:92|296:136,1,94.499997116089,6|0,0:0|0:0,0:0:0:0:
208,72,555,6,4,P|240:100|272:164,1,101.250003862381,6|0,0:0|0:0,0:0:0:0:
208,72,881,6,4,P|232:108|248:188,1,108,6|0,0:0|0:0,0:0:0:0:
208,72,1207,6,4,P|224:112|220:200,1,114.750002188683,6|0,0:0|0:0,0:0:0:0:
308,88,1511,6,0,L|279:121,3,45,2|0|0|0,0:0|0:0|0:0|0:0,0:0:0:0:
356,92,1837,2,0,L|340:144,3,45,2|0|0|0,0:0|0:0|0:0|0:0,0:0:0:0:
400,76,2163,2,0,L|416:140,3,45,2|0|0|0,0:0|0:0|0:0|0:0,0:0:0:0:
440,44,2489,2,0,L|476:88,3,45,2|0|0|0,0:0|0:0|0:0|0:0,0:0:0:0:
492,100,2815,5,2,2:0:0:0:
504,128,2896,1,0,0:0:0:0:
508,160,2978,1,0,0:0:0:0:
504,192,3059,1,0,0:0:0:0:
492,220,3141,1,4,2:0:0:0:
476,248,3222,1,0,0:0:0:0:
460,276,3304,1,0,0:0:0:0:
440,300,3385,1,0,0:0:0:0:
416,320,3467,5,2,2:0:0:0:
388,332,3549,1,0,0:0:0:0:
356,336,3630,1,0,0:0:0:0:
324,332,3712,1,0,0:0:0:0:
296,320,3793,1,12,2:0:0:0:
276,296,3875,1,0,0:0:0:0:
256,272,3956,1,0,0:0:0:0:
248,240,4038,1,0,0:0:0:0:
240,200,4119,6,0,L|296:184,3,53.9999983520508,2|0|0|0,0:0|0:0|0:0|0:0,0:0:0:0:
240,136,4445,2,0,L|300:148,3,53.9999983520508,2|0|0|0,0:0|0:0|0:0|0:0,0:0:0:0:
272,80,4771,2,0,L|324:112,3,53.9999983520508,2|0|0|0,0:0|0:0|0:0|0:0,0:0:0:0:
324,40,5097,2,0,L|364:88,3,53.9999983520508,2|0|0|0,0:0|0:0|0:0|0:0,0:0:0:0:
392,92,5424,5,2,0:0:0:0:
428,124,5505,1,0,0:0:0:0:
448,168,5587,1,0,0:0:0:0:
444,216,5668,1,0,0:0:0:0:
428,260,5750,1,4,0:0:0:0:
404,300,5831,1,0,0:0:0:0:
368,332,5913,1,0,0:0:0:0:
324,344,5993,1,0,0:0:0:0:
276,352,6076,5,2,0:0:0:0:
228,340,6157,1,0,0:0:0:0:
184,320,6238,1,0,0:0:0:0:
140,296,6320,1,0,0:0:0:0:
104,264,6402,1,12,0:0:0:0:
76,224,6483,1,0,0:0:0:0:
56,180,6565,1,0,0:0:0:0:
52,132,6645,1,0,0:0:0:0:
72,92,6728,6,0,L|124:16,3,53.9999983520508,2|0|0|0,0:0|0:0|0:0|0:0,0:0:0:0:
144,116,7053,2,0,L|184:60,3,53.9999983520508,2|0|0|0,0:0|0:0|0:0|0:0,0:0:0:0:
224,140,7380,2,0,L|268:92,3,53.9999983520508,2|0|0|0,0:0|0:0|0:0|0:0,0:0:0:0:
292,176,7706,2,0,L|344:132,3,53.9999983520508,2|0|0|0,0:0|0:0|0:0|0:0,0:0:0:0:
296,220,8031,5,2,0:0:0:0:
320,268,8114,1,0,0:0:0:0:
364,300,8195,1,0,0:0:0:0:
416,288,8277,1,0,0:0:0:0:
460,256,8357,1,4,0:0:0:0:
480,208,8439,1,0,0:0:0:0:
472,156,8521,1,0,0:0:0:0:
448,108,8602,1,0,0:0:0:0:
404,76,8684,5,2,0:0:0:0:
352,56,8766,1,0,0:0:0:0:
300,56,8847,1,0,0:0:0:0:
248,68,8929,1,0,0:0:0:0:
200,88,9010,1,12,0:0:0:0:
180,140,9092,1,0,0:0:0:0:
184,196,9174,1,0,0:0:0:0:
200,248,9255,1,0,0:0:0:0:
228,288,9337,6,0,P|308:216|424:236,1,215.999993408203,2|0,0:0|0:0,0:0:0:0:
160,32,9826,5,2,0:0:0:0:
160,68,9907,1,2,0:0:0:0:
160,100,9989,2,0,L|160:216,1,107.999996704102,2|0,0:0|0:0,0:0:0:0:
72,160,10232,1,2,0:0:0:0:
34,163,10315,2,0,L|34:315,1,107.999996704102,2|0,0:0|0:0,0:0:0:0:
228,288,10640,2,0,L|228:168,1,107.999996704102,2|0,0:0|0:0,0:0:0:0:
244,72,10967,1,2,0:0:0:0:
292,64,11049,1,2,0:0:0:0:
336,56,11130,1,2,0:0:0:0:
440,136,11292,6,0,L|404:272,1,121.499996292114,2|8,0:0|0:0,0:0:0:0:
356,152,11618,2,0,L|336:312,1,148.50000453186,2|8,0:0|0:0,0:0:0:0:
300,320,11953,2,8,P|200:264|196:248,1,135,6|8,0:0|0:0,0:0:0:0:
184,120,12768,5,2,0:0:0:0:
368,120,13094,1,8,0:0:0:0:
328,300,13420,2,0,L|220:300,1,90
192,100,13746,1,2,0:0:0:0:
380,100,13909,1,8,0:0:0:0:
264,304,14072,2,0,L|264:200,1,90
264,92,14398,5,12,0:0:0:0:
112,128,14552,6,0,L|32:128,1,72,10|0,0:0|0:0,0:0:0:0:
152,260,14878,2,0,L|224:260,1,72,2|0,0:0|0:0,0:0:0:0:
12,264,15204,1,10,0:0:0:0:
140,96,15367,1,2,0:0:0:0:
216,344,15530,1,2,0:0:0:0:
96,312,15693,2,0,L|112:240,1,72,2|8,0:0|0:0,0:0:0:0:
228,196,16019,1,2,0:0:0:0:
216,96,16182,6,0,P|139:19|87:33,1,144,2|8,0:0|0:0,0:0:0:0:
128,140,16671,1,2,0:0:0:0:
148,304,16834,2,0,L|148:224,1,72,2|0,0:0|0:0,0:0:0:0:
304,148,17160,1,10,0:0:0:0:
304,148,17323,1,2,0:0:0:0:
360,40,17486,2,0,P|424:108|492:108,1,144,2|8,0:0|0:0,0:0:0:0:
344,228,17975,1,2,0:0:0:0:
196,100,18138,1,10,0:0:0:0:
112,256,18302,1,10,0:0:0:0:
112,256,18628,5,2,0:0:0:0:
100,104,18791,2,0,L|24:104,1,72,10|0,0:0|0:0,0:0:0:0:
220,232,19117,1,2,0:0:0:0:
248,72,19280,1,2,0:0:0:0:
300,72,19361,1,2,0:0:0:0:
356,72,19443,1,10,0:0:0:0:
100,168,19606,5,12,0:0:0:0:
96,288,19769,2,0,L|168:260,1,72,2|0,0:0|0:0,0:0:0:0:
256,336,20095,1,10,0:0:0:0:
272,196,20258,1,2,0:0:0:0:
368,284,20421,1,2,0:0:0:0:
492,248,20584,2,0,L|480:168,1,72,2|8,0:0|0:0,0:0:0:0:
376,136,20909,1,8,0:0:0:0:
436,36,21072,1,2,0:0:0:0:
292,28,21236,2,0,L|284:108,1,72,8|8,0:0|0:0,0:0:0:0:
192,168,21562,5,0,0:0:0:0:
304,192,21725,2,0,L|324:272,1,72,2|0,0:0|0:0,0:0:0:0:
188,320,22050,1,2,0:0:0:0:
192,168,22214,1,8,0:0:0:0:
356,204,22378,6,0,B|400:128|316:60,1,144,2|8,0:0|0:0,0:0:0:0:
112,160,22867,1,2,0:0:0:0:
184,312,23030,2,0,L|240:256,1,72,2|2,0:0|0:0,0:0:0:0:
248,100,23356,1,10,0:0:0:0:
385,227,23519,2,0,L|376:140,1,72,8|0,0:0|0:0,0:0:0:0:
296,260,23845,1,2,0:0:0:0:
424,104,24008,1,10,0:0:0:0:
208,100,24171,1,2,0:0:0:0:
228,196,24334,5,2,0:0:0:0:
264,208,24416,1,0,0:0:0:0:
304,224,24497,1,0,0:0:0:0:
340,236,24579,1,0,0:0:0:0:
376,248,24660,1,2,0:0:0:0:
412,256,24742,1,0,0:0:0:0:
448,264,24823,1,0,0:0:0:0:
484,276,24905,1,0,0:0:0:0:
480,308,24986,6,8,B|435:340|435:340|384:340,1,90,6|8,0:0|0:0,0:0:0:0:
88,165,25312,2,0,L|88:280,1,90,2|0,0:0|0:0,0:0:0:0:
392,174,25638,2,0,L|392:74,1,90,10|0,0:0|0:0,0:0:0:0:
288,92,25965,1,2,0:0:0:0:
272,304,26128,1,2,0:0:0:0:
112,112,26291,1,10,0:0:0:0:
272,304,26454,1,2,0:0:0:0:
204,180,26617,2,0,L|292:152,1,90,2|0,0:0|0:0,0:0:0:0:
336,304,26943,5,10,0:0:0:0:
128,160,27106,1,2,0:0:0:0:
412,112,27269,2,0,P|424:164|416:208,1,90,2|0,0:0|0:0,0:0:0:0:
164,312,27595,1,10,0:0:0:0:
284,160,27758,2,0,L|284:256,1,90,2|0,0:0|0:0,0:0:0:0:
292,64,28084,1,2,0:0:0:0:
384,212,28247,1,10,0:0:0:0:
208,312,28410,1,8,0:0:0:0:
192,160,28573,1,2,0:0:0:0:
104,300,28736,6,0,L|68:208,1,90,8|8,0:0|0:0,0:0:0:0:
268,128,29062,1,2,0:0:0:0:
192,280,29225,2,0,P|248:272|288:284,1,90,2|0,0:0|0:0,0:0:0:0:
408,344,29551,1,10,0:0:0:0:
416,196,29715,1,2,0:0:0:0:
392,160,29796,1,2,0:0:0:0:
372,124,29878,1,2,0:0:0:0:
240,352,30041,1,12,0:0:0:0:
248,192,30204,6,0,B|265:147|265:147|300:108,1,90,10|0,0:0|0:0,0:0:0:0:
468,260,30530,2,0,L|456:356,1,90,2|0,0:0|0:0,0:0:0:0:
444,164,30856,1,10,0:0:0:0:
444,164,31019,2,0,B|456:104|456:104|484:64,1,90,2|0,0:0|0:0,0:0:0:0:
384,304,31345,2,0,P|336:312|288:300,1,90,2|8,0:0|0:0,0:0:0:0:
120,184,31671,5,2,0:0:0:0:
200,384,31834,1,2,0:0:0:0:
72,320,31997,1,2,0:0:0:0:
232,216,32160,2,0,P|249:163|244:104,1,90,10|2,0:0|0:0,0:0:0:0:
156,64,32486,1,2,0:0:0:0:
336,196,32649,1,2,0:0:0:0:
143,278,32812,6,0,P|179:308|224:324,1,90,10|0,0:0|0:0,0:0:0:0:
416,112,33138,1,2,0:0:0:0:
416,112,33301,2,8,B|436:156|436:156|440:208,1,90,2|8,0:0|0:0,0:0:0:0:
296,92,33628,1,2,0:0:0:0:
444,312,33791,1,2,0:0:0:0:
280,224,33954,6,0,P|216:252|108:172,1,180,2|8,0:0|0:0,0:0:0:0:
352,332,34443,1,8,0:0:0:0:
84,160,34606,1,2,0:0:0:0:
304,64,34769,1,10,0:0:0:0:
216,328,34932,1,12,0:0:0:0:
468,304,35258,6,0,B|376:308|376:308|284:280,1,180,2|4,0:0|0:3,0:0:0:0:
88,188,35747,1,10,0:0:0:0:
44,304,35910,2,0,B|136:308|136:308|228:280,1,180,2|4,0:0|0:3,0:0:0:0:
256,152,36399,1,10,0:0:0:0:
80,60,36562,2,0,B|56:164|56:164|76:234,1,180,2|4,0:0|0:3,0:0:0:0:
256,152,37051,1,10,0:0:0:0:
432,60,37215,2,0,B|456:164|456:164|432:248,1,180,2|4,0:0|0:3,0:0:0:0:
256,152,37704,5,10,0:0:0:0:
112,320,37867,2,0,B|169:348|169:348|226:345|226:345|288:364,1,180,2|0,0:0|0:0,0:0:0:0:
340,256,38356,1,2,0:0:0:0:
156,148,38519,1,8,0:0:0:0:
356,192,38682,1,2,0:0:0:0:
120,208,38845,1,8,0:0:0:0:
396,124,39008,1,2,0:0:0:0:
104,284,39171,1,8,0:0:0:0:
392,44,39334,1,10,0:0:0:0:
116,364,39497,1,0,0:0:0:0:
312,300,39660,6,0,L|312:200,1,90,8|2,0:0|0:0,0:0:0:0:
316,32,39986,1,0,3:0:0:0:
160,72,40149,1,2,0:0:0:0:
160,128,40231,1,2,0:0:0:0:
160,180,40312,1,12,0:0:0:0:
176,296,40458,6,0,L|364:296,1,180,2|2,0:0|0:0,0:0:0:0:
176,112,40947,1,8,0:0:0:0:
356,296,41110,2,0,L|356:100,1,180,2|2,0:0|0:0,0:0:0:0:
176,296,41599,1,8,0:0:0:0:
356,52,41762,2,0,B|152:52,1,180,2|2,0:0|0:0,0:0:0:0:
360,300,42251,1,8,0:0:0:0:
176,108,42414,2,0,B|176:288,1,180,2|2,0:0|0:0,0:0:0:0:
364,296,42903,1,8,0:0:0:0:
312,144,43066,6,0,P|359:135|428:16,1,180,2|8,0:0|0:0,0:0:0:0:
156,104,43555,2,0,B|136:148|136:148|140:196,1,90,2|0,0:0|0:0,0:0:0:0:
144,208,43800,1,0,0:0:0:0:
148,224,43881,1,0,0:0:0:0:
320,344,44044,1,12,0:0:0:0:
88,88,44370,5,10,0:0:0:0:
91,213,44533,2,0,B|91:261|91:261|124:290,1,90,2|0,0:0|0:0,0:0:0:0:
122,288,44859,1,2,0:0:0:0:
328,192,45022,2,0,B|328:143|328:143|294:114,1,90,2|0,0:0|0:0,0:0:0:0:
296,116,45348,1,10,0:0:0:0:
456,232,45511,1,2,0:0:0:0:
348,328,45675,2,0,B|264:348|264:348|160:328,1,180,2|2,0:0|0:0,0:0:0:0:
264,88,46164,1,8,0:0:0:0:
136,156,46327,2,0,L|128:264,1,90
36,160,46652,1,8,0:0:0:0:
172,44,46815,1,2,0:0:0:0:
296,56,46979,5,10,0:0:0:0:
252,260,47157,1,8,0:0:0:0:
144,120,47321,1,2,0:0:0:0:
368,116,47484,5,8,0:0:0:0:
159,271,47647,1,2,0:0:0:0:
239,58,47810,1,8,0:0:0:0:
344,267,47972,5,2,0:0:0:0:
104,150,48136,1,8,0:0:0:0:
331,70,48299,1,2,0:0:0:0:
248,268,48462,5,8,0:0:0:0:
240,36,48625,1,2,0:0:0:0:
140,172,48788,2,0,L|64:264,1,90,8|2,0:0|0:0,0:0:0:0:
168,276,49114,5,2,0:0:0:0:
212,284,49196,1,0,0:0:0:0:
256,296,49277,1,2,0:0:0:0:
300,308,49359,1,0,0:0:0:0:
344,316,49440,1,12,0:0:0:0:
353,208,49602,6,0,P|435:198|486:80,1,180,8|2,0:0|0:0,0:0:0:0:
260,304,50092,1,2,0:0:0:0:
158,208,50254,2,0,P|75:198|13:120,1,180,8|2,0:0|0:0,0:0:0:0:
256,28,50744,1,2,0:0:0:0:
256,172,50908,2,0,B|256:368,1,180,8|2,0:0|0:0,0:0:0:0:
436,340,51397,1,8,0:0:0:0:
340,232,51560,1,2,0:0:0:0:
448,193,51723,2,0,P|382:125|322:111,1,157.5,2|12,0:0|0:0,0:0:0:0:
324,112,52375,6,0,B|270:92|240:54|240:54|152:12,1,198.000006042481,2|8,0:0|0:0,0:0:0:0:
108,200,52864,1,2,0:0:0:0:
108,200,53027,2,0,P|145:155|168:104,1,99.0000030212403,2|0,0:0|0:0,0:0:0:0:
80,348,53353,1,2,0:0:0:0:
0,256,53516,1,2,0:0:0:0:
102,194,53679,2,0,L|102:95,1,99.0000030212403,2|0,0:0|0:0,0:0:0:0:
409,189,54004,2,0,L|409:288,1,99.0000030212403,8|0,0:0|0:0,0:0:0:0:
272,44,54331,2,0,P|323:55|364:84,1,99.0000030212403,8|0,0:0|0:0,0:0:0:0:
240,340,54658,2,0,P|189:329|148:300,1,99.0000030212403,2|0,0:0|0:0,0:0:0:0:
200,208,54984,6,0,P|108:196|36:104,1,198.000006042481,8|8,0:0|0:0,0:0:0:0:
176,76,55473,1,8,0:0:0:0:
268,252,55636,2,0,P|324:269|368:260,1,99.0000030212403,8|2,0:0|0:0,0:0:0:0:
392,236,55880,1,8,0:0:0:0:
416,200,55962,2,0,L|467:115,1,99.0000030212403,8|2,0:0|0:0,0:0:0:0:
292,40,56288,5,8,0:0:0:0:
320,352,56451,1,2,0:0:0:0:
64,160,56614,1,2,0:0:0:0:
444,124,56777,1,8,0:0:0:0:
136,340,56940,1,8,0:0:0:0:
332,40,57103,1,2,0:0:0:0:
348,72,57184,1,2,0:0:0:0:
360,104,57266,1,2,0:0:0:0:
104,236,57429,1,14,0:0:0:0:
104,48,57592,6,0,B|160:96|223:72|223:72|280:112,1,198.000006042481,0|8,0:0|0:0,0:0:0:0:
376,304,58081,1,0,0:0:0:0:
376,304,58244,2,0,P|331:274|280:268,1,99.0000030212403,2|2,0:0|0:0,0:0:0:0:
100,216,58571,2,0,P|106:167|133:126,1,99.0000030212403,8|0,0:0|0:0,0:0:0:0:
420,100,58896,1,2,0:0:0:0:
484,272,59059,1,8,0:0:0:0:
320,300,59223,6,0,L|216:288,1,99.0000030212403,10|0,0:0|0:0,0:0:0:0:
40,348,59549,2,0,P|80:312|104:268,1,99.0000030212403,2|2,0:0|0:0,0:0:0:0:
64,160,59875,1,2,0:0:0:0:
312,168,60038,1,10,0:0:0:0:
212,320,60201,6,0,L|212:188,1,99.0000030212403,2|0,0:0|0:0,0:0:0:0:
400,272,60527,1,10,0:0:0:0:
400,92,60690,1,2,0:0:0:0:
224,128,60853,2,0,L|224:24,1,99.0000030212403,10|0,0:0|0:0,0:0:0:0:
84,53,61178,2,0,L|84:152,1,99.0000030212403,10|0,0:0|0:0,0:0:0:0:
248,60,61505,5,2,0:0:0:0:
141,290,61667,1,8,0:0:0:0:
372,156,61831,1,2,0:0:0:0:
120,156,61994,1,2,0:0:0:0:
346,290,62156,1,0,0:0:0:0:
248,64,62321,1,2,0:0:0:0:
248,64,62401,1,2,0:0:0:0:
248,64,62483,1,2,0:0:0:0:
248,304,62647,1,14,0:0:0:0:
384,104,62819,6,0,B|400:160|400:160|396:208,1,90,2|0,0:0|0:0,0:0:0:0:
384,220,63064,1,8,0:0:0:0:
360,244,63145,2,0,L|276:260,1,45,8|0,0:0|0:0,0:0:0:0:
284,260,63309,1,2,0:0:0:0:
104,272,63471,6,0,B|96:212|96:212|112:156,1,90,2|0,0:0|0:0,0:0:0:0:
120,156,63716,1,8,0:0:0:0:
144,136,63797,2,0,L|192:116,1,45,8|0,0:0|0:0,0:0:0:0:
216,108,63961,1,2,0:0:0:0:
356,128,64124,5,2,0:0:0:0:
240,280,64287,1,8,0:0:0:0:
240,280,64368,1,8,0:0:0:0:
240,280,64450,1,8,0:0:0:0:
356,128,64613,1,2,0:0:0:0:
224,56,64776,2,0,L|152:124,1,90,2|0,0:0|0:0,0:0:0:0:
328,280,65102,2,0,L|404:208,1,90,8|0,0:0|0:0,0:0:0:0:
80,312,65428,6,0,L|104:188,1,90,2|2,0:0|0:0,0:0:0:0:
196,96,65753,1,8,0:0:0:0:
280,248,65917,1,0,0:0:0:0:
420,64,66080,2,0,L|412:188,1,90,2|2,0:0|0:0,0:0:0:0:
336,312,66406,1,8,0:0:0:0:
160,236,66570,1,0,0:0:0:0:
140,108,66733,6,0,L|124:16,2,90,2|2|8,0:0|0:0|0:0,0:0:0:0:
56,236,67222,1,2,0:0:0:0:
228,332,67385,1,6,0:0:0:0:
360,204,67548,1,2,0:0:0:0:
360,204,67711,2,0,L|336:112,1,90,8|0,0:0|0:0,0:0:0:0:
168,144,68037,5,2,0:0:0:0:
300,252,68200,1,8,0:0:0:0:
160,280,68363,5,2,0:0:0:0:
340,104,68526,1,8,0:0:0:0:
124,120,68689,5,2,0:0:0:0:
336,296,68852,1,8,0:0:0:0:
364,56,69015,5,2,0:0:0:0:
148,324,69178,1,8,0:0:0:0:
434,171,69341,5,2,0:0:0:0:
48,224,69504,1,8,0:0:0:0:
268,48,69667,6,0,L|280:140,1,90,2|4,0:0|0:3,0:0:0:0:
208,332,69993,2,0,B|296:340|296:340|348:316,1,135,2|8,0:0|0:0,0:0:0:0:
384,304,70320,1,8,0:0:0:0:
440,144,70483,5,2,0:0:0:0:
232,232,70636,1,8,0:0:0:0:
232,232,70962,1,2,0:0:0:0:
36,112,71125,1,12,0:0:0:0:
316,44,71451,1,10,0:0:0:0:
336,160,71614,2,0,L|364:332,1,157.5,2|0,0:0|0:0,0:0:0:0:
448,188,72429,5,8,0:0:0:0:
316,52,72592,1,2,0:0:0:0:
316,52,72918,1,8,0:0:0:0:
128,196,73081,1,10,0:0:0:0:
376,312,73407,1,14,0:0:0:0:
364,224,73570,2,0,B|344:60,1,157.5,2|0,0:0|0:0,0:0:0:0:
36,104,74386,5,4,0:3:0:0:
128,228,74549,1,2,0:0:0:0:
128,228,74712,1,2,0:0:0:0:
28,196,74875,5,4,0:3:0:0:
256,244,75038,1,2,0:0:0:0:
256,244,75201,1,2,0:0:0:0:
88,248,75364,5,4,0:3:0:0:
336,156,75527,1,2,0:0:0:0:
336,156,75690,1,2,0:0:0:0:
144,312,75853,5,4,0:3:0:0:
324,48,76016,1,2,0:0:0:0:
324,48,76179,1,8,0:0:0:0:
152,144,76342,1,2,0:0:0:0:
308,216,76505,6,0,L|312:316,1,90,2|2,0:0|0:0,0:0:0:0:
104,312,76831,1,8,0:0:0:0:
284,112,76994,2,0,L|384:112,1,90,2|2,0:0|0:0,0:0:0:0:
444,224,77320,1,8,0:0:0:0:
220,72,77483,2,0,P|160:148|336:296,1,377.999988464356,2|0,0:0|0:0,0:0:0:0:
280,160,78788,6,0,L|248:84,3,62.9999980773926,2|0|0|0,0:0|0:0|0:0|0:0,0:0:0:0:
332,160,79114,2,0,L|324:96,3,62.9999980773926,2|0|0|0,0:0|0:0|0:0|0:0,0:0:0:0:
388,168,79440,2,0,L|396:104,3,62.9999980773926,2|0|0|0,0:0|0:0|0:0|0:0,0:0:0:0:
448,184,79766,2,0,L|464:120,3,62.9999980773926,2|0|0|0,0:0|0:0|0:0|0:0,0:0:0:0:
432,220,80092,5,2,0:0:0:0:
396,264,80173,1,0,0:0:0:0:
352,300,80255,1,0,0:0:0:0:
300,324,80336,1,0,0:0:0:0:
244,332,80418,1,10,0:0:0:0:
188,336,80499,1,0,0:0:0:0:
132,324,80581,1,0,0:0:0:0:
84,292,80663,1,0,0:0:0:0:
48,248,80744,5,10,0:0:0:0:
24,196,80826,1,0,0:0:0:0:
32,140,80907,1,0,0:0:0:0:
60,92,80989,1,0,0:0:0:0:
100,52,81070,1,10,0:0:0:0:
152,28,81152,1,0,0:0:0:0:
204,12,81233,1,0,0:0:0:0:
260,20,81314,1,0,0:0:0:0:
320,52,81395,5,2,0:0:0:0:
316,192,81558,1,8,0:0:0:0:
384,72,81721,1,2,0:0:0:0:
436,108,81803,1,0,0:0:0:0:
476,156,81885,1,0,0:0:0:0:
480,220,81966,1,0,0:0:0:0:
452,276,82048,1,2,0:0:0:0:
408,320,82129,1,0,0:0:0:0:
348,336,82211,1,0,0:0:0:0:
284,336,82293,1,0,0:0:0:0:
224,320,82373,1,2,0:0:0:0:
176,276,82455,1,0,0:0:0:0:
156,216,82537,1,0,0:0:0:0:
392,84,82731,5,2,0:0:0:0:
260,284,82948,1,12,0:0:0:0:
129,84,83165,1,2,0:0:0:0:
408,200,83383,5,2,0:0:0:0:
56,264,83600,1,12,0:0:0:0:
360,40,83817,1,2,0:0:0:0:
124,368,84035,5,12,0:0:0:0:
512,192,84252,1,2,0:0:0:0:
20,28,84470,1,12,0:0:0:0:
256,360,84687,5,2,0:0:0:0:
260,128,84904,1,14,0:0:0:0:
260,128,85146,2,0,B|260:220|208:244|224:288|268:308|320:292|360:256|348:212|292:200,1,314.999990386963,8|0,0:0|0:0,0:0:0:0:
