osu file format v14

[General]
AudioFilename: Great Escape.mp3
AudioLeadIn: 0
PreviewTime: 52374
Countdown: 1
SampleSet: Soft
StackLeniency: 0.7
Mode: 0
LetterboxInBreaks: 0
WidescreenStoryboard: 1

[Editor]
DistanceSpacing: 1.2
BeatDivisor: 4
GridSize: 4
TimelineZoom: 2.699999

[Metadata]
Title:Great Escape(TV-Size)
TitleUnicode:Great Escape(TV-Size)
Artist:Cinema Staff
ArtistUnicode:Cinema Staff
Creator:LITEON
Version:Hard
Source:进撃の巨人
Tags:进撃の巨人 Attack on Titan cinema staff ending エレン·イェーガー Eren Jaeger ミカサ・アッカーマン Mikasa Ackerman Black fires Yuzu Hibiki
BeatmapID:1226992
BeatmapSetID:562807

[Difficulty]
HPDrainRate:5
CircleSize:4
OverallDifficulty:6
ApproachRate:7.5
SliderMultiplier:1.5
SliderTickRate:1

[Events]
//Background and Video events
0,0,"BG.jpg",0,0
Video,0,"ED.avi"
//Break Periods
2,12144,13572
//Storyboard Layer 0 (Background)
//Storyboard Layer 1 (Fail)
//Storyboard Layer 2 (Pass)
//Storyboard Layer 3 (Foreground)
//Storyboard Sound Samples

[TimingPoints]
229,326.086956521739,4,2,1,60,1,0
229,-100,4,2,1,60,0,0
1510,326.086956521739,4,2,1,60,1,0
6727,-125,4,2,1,65,0,0
11952,326.086956521739,4,2,2,70,1,0
14551,326.086956521739,4,2,1,50,1,0
14551,-100,4,2,1,50,0,0
24985,-90.9090909090909,4,2,1,60,0,0
35257,-100,4,2,1,50,0,0
40457,326.086956521739,4,2,1,60,1,0
47157,326.086956521739,4,2,1,60,1,0
52374,-90.9090909090909,4,2,2,70,0,1
62819,326.086956521739,4,2,2,75,1,1
62819,-100,4,2,2,75,0,1
70635,326.086956521739,4,2,2,60,1,1
70635,-100,4,2,2,60,0,1
71613,-100,4,2,2,40,0,0
72428,-100,4,2,2,60,0,1
73569,-100,4,2,2,40,0,0
74385,-100,4,2,2,60,0,1
77482,-100,4,2,2,70,0,0
78461,-100,4,2,1,60,0,1
78787,326.086956521739,4,2,2,60,1,0
78787,-90.9090909090909,4,2,1,60,0,1
82730,326.086956521739,4,2,1,60,1,0
85145,326.086956521739,4,2,2,70,1,0
85145,-125,4,2,2,70,0,0

[Colours]
Combo1 : 177,197,184
Combo2 : 177,151,139
Combo3 : 190,126,177

[HitObjects]
48,80,229,5,2,0:0:0:0:
108,176,555,1,0,0:0:0:0:
188,260,881,1,2,0:0:0:0:
300,288,1207,2,0,P|368:288|396:272,1,75
444,204,1510,6,0,P|388:88|352:72,1,150,2|0,0:0|0:0,0:0:0:0:
292,96,1999,1,0,0:0:0:0:
212,116,2162,2,0,P|268:232|300:248,1,150,2|0,0:0|0:0,0:0:0:0:
380,308,2814,6,0,P|412:196|404:136,1,150,2|0,0:0|0:0,0:0:0:0:
344,112,3303,1,0,0:0:0:0:
264,88,3466,2,0,P|200:172|196:244,1,150,2|0,0:0|0:0,0:0:0:0:
340,300,4118,6,0,L|396:128,1,150,2|0,0:0|0:0,0:0:0:0:
320,108,4607,1,0,0:0:0:0:
236,104,4770,2,0,L|172:272,1,150,2|0,0:0|0:0,0:0:0:0:
40,184,5423,5,10,0:0:0:0:
232,100,5749,1,0,0:0:0:0:
40,184,6075,1,10,0:0:0:0:
272,264,6401,1,0,0:0:0:0:
444,292,6727,6,0,P|424:176|412:152,1,120,2|0,0:0|0:0,0:0:0:0:
292,88,7379,2,0,P|274:145|271:205,1,120,2|0,0:0|0:0,0:0:0:0:
280,272,7868,1,0,0:0:0:0:
312,332,8031,2,0,P|396:336|448:308,1,120,2|0,0:0|0:0,0:0:0:0:
412,160,8683,1,2,0:0:0:0:
312,96,9009,2,0,L|224:96,1,60
168,64,9336,6,0,P|108:112|84:160,1,120,2|0,0:0|0:0,0:0:0:0:
84,216,9825,1,0,0:0:0:0:
96,280,9988,2,0,P|127:330|176:364,1,120,2|0,0:0|0:0,0:0:0:0:
252,272,10640,1,2,0:0:0:0:
324,164,10966,1,0,0:0:0:0:
204,108,11292,1,2,0:0:0:0:
292,236,11618,1,0,0:0:0:0:
396,88,11944,1,6,0:0:0:0:
80,64,14397,5,0,0:0:0:0:
80,64,14551,2,0,P|96:148|144:204,1,150,2|0,0:0|0:0,0:0:0:0:
248,296,15203,2,0,P|320:220|328:160,1,150,2|0,0:0|0:0,0:0:0:0:
368,104,15692,1,0,0:0:0:0:
428,160,15855,2,0,P|422:233|380:296,1,150,2|0,0:0|0:0,0:0:0:0:
304,160,16507,6,0,P|328:80|384:52,1,150,2|0,0:0|0:0,0:0:0:0:
383,52,16996,1,0,0:0:0:0:
383,52,17159,1,2,0:0:0:0:
424,196,17485,1,0,0:0:0:0:
312,244,17811,2,0,P|192:272|152:264,1,150,2|0,0:0|0:0,0:0:0:0:
167,268,18301,1,0,0:0:0:0:
56,141,18627,6,0,P|48:105|52:68,2,75,0|2|0,0:0|0:0|0:0,0:0:0:0:
116,60,19116,2,0,P|208:76|260:104,1,150,2|4,0:0|0:0,0:0:0:0:
272,176,19605,1,0,0:0:0:0:
272,176,19768,1,2,0:0:0:0:
156,292,20094,1,0,0:0:0:0:
228,128,20420,1,2,0:0:0:0:
228,128,20583,1,0,0:0:0:0:
228,128,20746,1,8,0:0:0:0:
356,232,21072,6,0,P|448:240|500:200,1,150
396,76,21724,1,2,0:0:0:0:
396,76,21887,1,0,0:0:0:0:
396,76,22050,1,8,0:0:0:0:
232,56,22377,6,0,P|172:84|80:60,1,150,2|0,0:0|0:0,0:0:0:0:
28,32,22866,1,0,0:0:0:0:
16,108,23029,2,0,L|24:272,2,150,2|0|2,0:0|0:0|0:0,0:0:0:0:
152,172,24007,1,0,0:0:0:0:
152,172,24333,1,0,0:0:0:0:
152,172,24496,1,0,0:0:0:0:
152,172,24659,1,0,0:0:0:0:
408,336,24985,6,0,P|432:244|448:160,1,165.000005035401,2|0,0:0|0:0,0:0:0:0:
328,292,25637,2,0,P|352:200|368:116,1,165.000005035401,2|0,0:0|0:0,0:0:0:0:
296,88,26127,1,0,0:0:0:0:
212,96,26290,2,0,P|188:188|172:272,2,165.000005035401,2|0|2,0:0|0:0|0:0,0:0:0:0:
212,96,27268,1,2,0:0:0:0:
48,84,27594,5,2,0:0:0:0:
44,216,27920,2,0,P|52:256|96:296,1,82.5000025177003
78,286,28246,1,2,0:0:0:0:
212,280,28572,1,0,0:0:0:0:
224,148,28898,1,2,0:0:0:0:
356,164,29224,2,0,P|394:178|419:210,1,82.5000025177003
419,210,29550,1,2,0:0:0:0:
476,332,29877,1,4,0:0:0:0:
476,332,30203,6,0,L|492:148,1,165.000005035401,2|0,0:0|0:0,0:0:0:0:
376,92,30855,2,0,L|360:272,1,165.000005035401,2|0,0:0|0:0,0:0:0:0:
361,256,31344,1,0,0:0:0:0:
356,348,31507,2,0,L|188:328,1,165.000005035401,2|0,0:0|0:0,0:0:0:0:
76,324,32159,2,0,L|92:152,1,165.000005035401,2|0,0:0|0:0,0:0:0:0:
91,159,32648,1,0,0:0:0:0:
16,96,32811,6,0,P|104:64|184:72,1,165.000005035401,2|0,0:0|0:0,0:0:0:0:
408,96,33464,2,0,P|320:64|240:72,1,165.000005035401,2|0,0:0|0:0,0:0:0:0:
244,232,34116,2,0,L|288:316,1,82.5000025177003,2|0,0:0|0:0,0:0:0:0:
292,224,34442,2,0,L|356:304,1,82.5000025177003,8|0,0:0|0:0,0:0:0:0:
340,204,34768,2,0,L|408:268,1,82.5000025177003,2|4,0:0|0:0,0:0:0:0:
360,60,35257,5,8,0:0:0:0:
120,284,35909,1,8,0:0:0:0:
220,76,36561,1,8,0:0:0:0:
304,328,37214,1,8,0:0:0:0:
396,84,38029,6,0,L|408:240,1,150,2|0,0:0|0:0,0:0:0:0:
312,84,38681,2,0,L|324:240,1,150,2|0,0:0|0:0,0:0:0:0:
232,92,39170,1,0,0:0:0:0:
232,92,39333,2,0,L|244:256,1,150,2|0,0:0|0:0,0:0:0:0:
152,252,39822,1,0,0:0:0:0:
136,148,39985,1,0,0:0:0:0:
136,148,40067,1,0,0:0:0:0:
136,148,40148,1,0,0:0:0:0:
48,300,40457,5,8,0:0:0:0:
48,300,40783,1,0,0:0:0:0:
312,240,41109,1,8,0:0:0:0:
312,240,41435,1,0,0:0:0:0:
136,128,41761,1,8,0:0:0:0:
136,128,42087,1,0,0:0:0:0:
224,296,42413,1,8,0:0:0:0:
224,296,42739,1,0,0:0:0:0:
268,192,43065,2,0,P|320:128|396:112,1,150,2|0,0:0|0:0,0:0:0:0:
382,111,43554,1,0,0:0:0:0:
392,200,43717,2,0,L|392:288,2,75,2|0|4,0:0|0:0|0:0,0:0:0:0:
484,52,44370,5,2,0:0:0:0:
324,84,44696,1,0,0:0:0:0:
484,52,45022,1,2,0:0:0:0:
332,196,45348,1,0,0:0:0:0:
484,52,45674,2,0,L|488:220,1,150,2|0,0:0|0:0,0:0:0:0:
487,201,46163,1,0,0:0:0:0:
492,284,46326,2,0,P|408:312|320:308,1,150,2|0,0:0|0:0,0:0:0:0:
347,312,46815,1,0,0:0:0:0:
347,312,46978,1,2,0:0:0:0:
260,152,47320,5,0,0:0:0:0:
260,152,47483,2,0,L|240:256,1,75,2|0,0:0|0:0,0:0:0:0:
172,140,47809,2,0,L|152:244,2,75,0|0|2,0:0|0:0|0:0,0:0:0:0:
172,140,48298,1,0,0:0:0:0:
80,108,48461,2,0,L|60:208,1,75,2|0,0:0|0:0,0:0:0:0:
44,268,48787,2,0,L|24:372,1,75,2|0,0:0|0:0,0:0:0:0:
136,308,49113,1,2,0:0:0:0:
136,308,49195,1,0,0:0:0:0:
136,308,49276,1,4,0:0:0:0:
288,344,49602,6,0,P|364:312|428:252,1,150,10|0,0:0|0:0,0:0:0:0:
456,156,50254,2,0,P|368:96|304:84,1,150,10|0,0:0|0:0,0:0:0:0:
252,88,50743,1,0,0:0:0:0:
176,92,50907,2,0,P|104:136|76:192,1,150,10|0,0:0|0:0,0:0:0:0:
132,264,51559,2,0,P|228:288|296:280,1,150,10|0,0:0|0:0,0:0:0:0:
278,284,52048,1,4,0:0:0:0:
460,64,52374,6,0,L|424:240,1,165.000005035401,2|0,0:0|0:0,0:0:0:0:
426,225,52863,1,0,0:0:0:0:
324,260,53026,2,0,L|357:98,1,165.000005035401,2|0,0:0|0:0,0:0:0:0:
357,98,53515,1,0,0:0:0:0:
252,72,53678,2,0,P|144:88|96:120,1,165.000005035401,2|0,0:0|0:0,0:0:0:0:
128,228,54167,1,0,0:0:0:0:
188,312,54330,2,0,P|296:296|344:264,1,165.000005035401,2|0,0:0|0:0,0:0:0:0:
456,220,54983,5,8,0:0:0:0:
492,92,55309,1,2,0:0:0:0:
376,28,55635,1,8,0:0:0:0:
244,32,55961,2,0,P|168:56|140:80,1,82.5000025177003,2|0,0:0|0:0,0:0:0:0:
104,112,56287,1,8,0:0:0:0:
100,276,56613,1,2,0:0:0:0:
112,116,56939,1,8,0:0:0:0:
108,200,57102,1,0,0:0:0:0:
108,280,57265,1,4,0:0:0:0:
268,320,57591,6,0,P|352:300|432:260,1,165.000005035401,2|0,0:0|0:0,0:0:0:0:
432,192,58080,1,0,0:0:0:0:
444,120,58243,2,0,P|348:104|264:104,1,165.000005035401,2|0,0:0|0:0,0:0:0:0:
172,80,58896,1,2,0:0:0:0:
60,148,59222,1,0,0:0:0:0:
56,280,59548,2,0,P|144:296|236:276,1,165.000005035401,2|0,0:0|0:0,0:0:0:0:
217,283,60037,1,0,0:0:0:0:
300,268,60200,6,0,L|272:92,1,165.000005035401,2|0,0:0|0:0,0:0:0:0:
388,88,60852,2,0,L|413:250,1,165.000005035401,2|0,0:0|0:0,0:0:0:0:
364,316,61341,1,0,0:0:0:0:
288,328,61504,2,0,L|180:312,1,82.5000025177003,2|0,0:0|0:0,0:0:0:0:
272,268,61830,2,0,L|188:240,1,82.5000025177003
276,208,62156,2,0,L|192:172,1,82.5000025177003
288,100,62483,1,0,0:0:0:0:
288,100,62564,1,0,0:0:0:0:
288,100,62646,1,0,0:0:0:0:
224,60,62819,6,0,P|160:76|72:128,1,150,2|0,0:0|0:0,0:0:0:0:
86,116,63308,1,0,0:0:0:0:
86,116,63471,2,0,P|108:224|144:280,1,150,2|0,0:0|0:0,0:0:0:0:
127,257,63960,1,0,0:0:0:0:
288,324,64123,2,0,P|352:308|440:256,1,150,2|0,0:0|0:0,0:0:0:0:
425,267,64612,1,0,0:0:0:0:
426,268,64775,2,0,P|404:160|368:104,1,150,2|0,0:0|0:0,0:0:0:0:
384,126,65264,1,0,0:0:0:0:
252,120,65427,5,2,0:0:0:0:
160,256,65753,1,0,0:0:0:0:
324,188,66079,1,2,0:0:0:0:
324,188,66405,1,2,0:0:0:0:
368,268,66569,1,0,0:0:0:0:
420,344,66732,1,8,0:0:0:0:
420,344,67058,1,0,0:0:0:0:
508,204,67384,6,0,P|456:120|408:84,1,150,10|0,0:0|0:0,0:0:0:0:
336,76,67873,1,0,0:0:0:0:
348,156,68036,2,0,L|364:244,1,75,2|0,0:0|0:0,0:0:0:0:
376,312,68362,1,0,0:0:0:0:
232,356,68688,2,0,L|216:268,1,75,2|0,0:0|0:0,0:0:0:0:
204,200,69014,1,0,0:0:0:0:
136,52,69340,2,0,P|232:100|264:136,1,150,2|0,0:0|0:0,0:0:0:0:
259,130,69829,1,0,0:0:0:0:
259,130,69992,2,0,P|313:79|382:51,1,150,2|0,0:0|0:0,0:0:0:0:
416,128,70482,5,8,0:0:0:0:
416,212,70635,1,2,0:0:0:0:
272,184,70961,2,0,L|272:276,1,75,2|0,0:0|0:0,0:0:0:0:
124,192,71450,2,0,L|124:276,1,75,2|4,0:0|0:0,0:0:0:0:
68,64,72428,5,8,0:0:0:0:
156,64,72591,1,2,0:0:0:0:
116,196,72917,1,8,0:0:0:0:
212,196,73080,1,2,0:0:0:0:
220,332,73406,1,8,0:0:0:0:
324,332,73569,1,6,0:0:0:0:
424,128,74385,6,0,L|424:216,1,75,2|0,0:0|0:0,0:0:0:0:
424,203,74711,1,8,0:0:0:0:
340,152,74874,2,0,L|340:256,2,75,2|0|8,0:0|0:0|0:0,0:0:0:0:
340,152,75363,1,8,0:0:0:0:
260,172,75526,2,0,L|260:340,1,150,2|0,0:0|0:0,0:0:0:0:
260,322,76015,1,0,0:0:0:0:
172,276,76178,5,2,0:0:0:0:
172,203,76341,2,0,L|172:128,1,75,8|0,0:0|0:0,0:0:0:0:
96,132,76667,1,2,0:0:0:0:
96,205,76830,2,0,L|96:280,1,75,8|0,0:0|0:0,0:0:0:0:
96,356,77156,1,6,0:0:0:0:
256,192,77319,12,0,78461,0:0:0:0:
420,112,78787,6,0,L|420:220,1,82.5000025177003,2|0,0:0|0:0,0:0:0:0:
320,112,79113,2,0,L|296:228,1,82.5000025177003,2|0,0:0|0:0,0:0:0:0:
208,256,79439,2,0,L|228:68,1,165.000005035401,2|0,0:0|0:0,0:0:0:0:
225,91,79928,1,0,0:0:0:0:
140,168,80091,2,0,L|128:256,1,82.5000025177003,2|0,0:0|0:0,0:0:0:0:
44,168,80417,2,0,L|4:260,1,82.5000025177003,2|0,0:0|0:0,0:0:0:0:
56,348,80743,6,0,L|252:348,1,165.000005035401,2|0,0:0|0:0,0:0:0:0:
224,232,81232,1,0,0:0:0:0:
224,116,81395,2,0,L|420:140,1,165.000005035401,2|0,0:0|0:0,0:0:0:0:
387,136,81884,1,0,0:0:0:0:
212,192,82047,2,0,L|400:240,1,165.000005035401,2|0,0:0|0:0,0:0:0:0:
371,232,82537,1,0,0:0:0:0:
328,108,82730,5,2,0:0:0:0:
148,128,82947,1,0,0:0:0:0:
248,256,83164,1,8,0:0:0:0:
80,260,83382,5,2,0:0:0:0:
152,96,83599,1,0,0:0:0:0:
280,204,83816,1,8,0:0:0:0:
400,340,84034,5,2,0:0:0:0:
436,228,84251,1,0,0:0:0:0:
468,112,84469,1,8,0:0:0:0:
240,104,84686,5,2,0:0:0:0:
368,248,84903,1,0,0:0:0:0:
248,304,85145,2,0,P|120:204|188:120,1,300,8|0,0:0|0:0,0:0:0:0:
