osu file format v14

[General]
AudioFilename: audio.mp3
AudioLeadIn: 0
PreviewTime: 50885
Countdown: 0
SampleSet: Soft
StackLeniency: 0.2
Mode: 0
LetterboxInBreaks: 0
WidescreenStoryboard: 0

[Editor]
Bookmarks: 89377,90212
DistanceSpacing: 0.2
BeatDivisor: 3
GridSize: 8
TimelineZoom: 2.3

[Metadata]
Title:Paleturquoise
TitleUnicode:Paleturquoise
Artist:Cinamoro
ArtistUnicode:Cinamoro
Creator:PaRaDogi
Version:Blue
Source:
Tags:Electronic Instrumental DJ YokesPai CallieCube Allice krimek bluirre fa featured artist artifact nytrocide_ nytro ganyumymommy mappers mappers' guild -eNVy- envy
BeatmapID:3857867
BeatmapSetID:1874826

[Difficulty]
HPDrainRate:6
CircleSize:4.5
OverallDifficulty:9.4
ApproachRate:9.8
SliderMultiplier:1.8
SliderTickRate:1

[Events]
//Background and Video events
0,0,"66706584_p0_master1200.jpg",0,0
//Break Periods
//Storyboard Layer 0 (Background)
//Storyboard Layer 1 (Fail)
//Storyboard Layer 2 (Pass)
//Storyboard Layer 3 (Foreground)
//Storyboard Layer 4 (Overlay)
//Storyboard Sound Samples

[TimingPoints]
839,278.422273781903,3,2,1,60,1,0
839,-100,4,2,1,60,0,0
10862,-133.333333333333,4,2,1,70,0,0
10871,-133.333333333333,4,2,1,70,0,0
27567,-100,4,2,1,70,0,0
37590,-100,4,2,1,75,0,0
37597,-90.9090909090909,4,2,1,75,0,0
44272,-90.9090909090909,4,2,1,75,0,0
49562,-142.857142857143,4,2,1,75,0,0
49841,-200,4,2,1,75,0,0
50955,-83.3333333333333,4,2,1,80,0,0
50964,-83.3333333333333,4,2,1,80,0,0
64319,-76.9230769230769,4,2,1,75,0,0
64328,-76.9230769230769,4,2,1,75,0,0
76848,-100,4,2,1,70,0,0
76857,-100,4,2,1,70,0,0
76987,-90.9090909090909,4,2,1,70,0,0
77126,-83.3333333333333,4,2,1,70,0,0
77265,-76.9230769230769,4,2,1,70,0,0
77405,-71.4285714285714,4,2,1,70,0,0
77544,-66.6666666666667,4,2,1,70,0,0
77683,-66.6666666666667,4,2,1,75,0,0
77692,-66.6666666666667,4,2,1,75,0,0
97729,-66.6666666666667,4,2,1,60,0,0
97738,-66.6666666666667,4,2,1,60,0,0

[Colours]
Combo1 : 183,183,255
Combo2 : 255,168,255
Combo3 : 255,162,162

[HitObjects]
48,43,839,5,4,0:0:0:0:
140,8,1674,5,2,0:0:0:0:
122,11,1767,1,2,0:0:0:0:
99,34,1859,1,2,0:0:0:0:
87,76,1952,1,2,0:0:0:0:
107,120,2045,1,2,0:0:0:0:
158,137,2138,1,2,0:0:0:0:
216,125,2231,1,2,0:0:0:0:
257,87,2323,1,2,0:0:0:0:
310,88,2416,1,2,0:0:0:0:
347,130,2509,5,2,0:0:0:0:
325,147,2579,1,2,0:0:0:0:
314,174,2648,1,2,0:0:0:0:
312,200,2718,1,2,0:0:0:0:
318,225,2787,2,0,P|361:286|416:248,2,120,2|2|2,0:0|0:0|0:0,0:0:0:0:
231,368,3344,5,2,0:0:0:0:
228,360,3379,5,2,0:0:0:0:
256,290,3901,1,2,0:0:0:0:
256,290,4180,5,2,0:0:0:0:
245,276,4272,1,2,0:0:0:0:
238,244,4365,1,2,0:0:0:0:
256,207,4458,1,2,0:0:0:0:
300,179,4551,1,2,0:0:0:0:
334,135,4644,1,2,0:0:0:0:
343,87,4736,1,2,0:0:0:0:
323,45,4829,1,2,0:0:0:0:
285,22,4922,1,2,0:0:0:0:
240,28,5015,5,2,0:0:0:0:
250,38,5084,1,2,0:0:0:0:
254,56,5154,1,2,0:0:0:0:
252,75,5224,1,2,0:0:0:0:
247,90,5293,2,0,P|181:107|162:71,1,120,2|2,0:0|0:0,0:0:0:0:
5,7,5664,1,2,0:0:0:0:
21,77,5757,1,2,0:0:0:0:
15,0,5850,5,2,0:0:0:0:
37,200,6685,5,2,0:0:0:0:
31,190,6720,5,2,0:0:0:0:
50,114,7521,6,0,L|33:184,1,60,2|0,0:0|0:0,0:0:0:0:
82,334,7706,1,2,0:0:0:0:
256,192,7799,12,0,10583,0:0:0:0:
232,10,10862,6,0,P|183:26|177:73,1,101.250003862381,8|0,0:3|0:0,0:0:0:0:
181,86,11140,1,2,0:0:0:0:
267,152,11279,1,2,0:0:0:0:
223,205,11419,2,0,L|239:298,1,67.5000025749208,2|0,0:0|0:0,0:0:0:0:
306,373,11697,6,0,P|351:360|362:289,1,101.250003862381,8|0,0:3|0:0,0:0:0:0:
368,290,11975,1,2,0:0:0:0:
236,342,12115,1,2,0:0:0:0:
176,384,12254,2,0,L|89:370,1,67.5000025749208,2|0,0:0|0:0,0:0:0:0:
0,304,12532,6,0,P|-7:276|65:228,1,101.250003862381,8|0,0:3|0:0,0:0:0:0:
50,226,12811,1,2,0:0:0:0:
169,128,12950,1,2,0:0:0:0:
122,211,13089,2,0,L|86:103,1,101.250003862381,2|0,0:0|0:0,0:0:0:0:
92,103,13368,5,8,0:3:0:0:
259,89,13646,2,0,L|276:-5,2,67.5000025749208,8|2|8,0:3|0:0|0:3,0:0:0:0:
319,379,14203,6,0,P|377:380|385:331,1,101.250003862381,8|0,0:3|0:0,0:0:0:0:
380,331,14481,1,2,0:0:0:0:
274,285,14620,1,2,0:0:0:0:
210,316,14760,2,0,L|118:303,1,67.5000025749208,2|0,0:0|0:0,0:0:0:0:
304,183,15038,6,0,P|348:162|394:192,1,101.250003862381,8|0,0:3|0:0,0:0:0:0:
397,203,15316,1,2,0:0:0:0:
512,184,15456,1,2,0:0:0:0:
462,130,15595,2,0,L|448:46,1,67.5000025749208,2|0,0:0|0:0,0:0:0:0:
349,7,15873,6,0,L|326:114,1,101.250003862381,8|0,0:3|0:0,0:0:0:0:
318,122,16152,1,2,0:0:0:0:
179,188,16291,1,2,0:0:0:0:
114,151,16430,2,0,L|94:40,1,101.250003862381,2|0,0:0|0:0,0:0:0:0:
104,41,16709,5,8,0:3:0:0:
223,253,16987,1,8,0:3:0:0:
188,338,17126,1,2,0:0:0:0:
34,176,17265,1,8,0:3:0:0:
87,384,17544,6,0,B|96:374|96:374|223:341,1,135.000005149842,0|10,1:2|0:0,0:0:0:0:
447,384,17961,2,0,B|462:380|462:380|484:267,1,101.250003862381,2|0,3:0|0:0,0:0:0:0:
471,284,18240,1,8,0:3:0:0:
421,194,18379,6,0,B|410:190|410:190|398:54,1,135.000005149842,0|2,1:2|3:0,0:0:0:0:
297,8,18797,1,2,3:0:0:0:
234,60,18936,1,8,0:0:0:0:
10,58,19075,1,2,3:0:0:0:
64,9,19214,6,0,B|70:11|70:11|98:93,1,67.5000025749208,0|0,1:2|0:0,0:0:0:0:
95,236,19493,1,10,0:0:0:0:
39,186,19632,2,0,B|25:188|25:188|7:296,1,101.250003862381,2|0,3:0|0:0,0:0:0:0:
14,290,19910,1,8,0:3:0:0:
120,356,20050,6,0,B|127:374|127:374|228:354,1,101.250003862381,0|0,1:2|0:0,0:0:0:0:
225,331,20328,1,2,3:0:0:0:
307,237,20467,1,2,3:0:0:0:
267,49,20606,1,2,1:2:0:0:
386,354,20885,6,0,B|394:303|394:303|390:301|390:301|401:246,1,101.250003862381,0|0,1:2|0:0,0:0:0:0:
391,239,21163,1,10,0:0:0:0:
189,72,21303,1,2,3:0:0:0:
484,145,21442,2,0,B|489:137|489:137|466:55,1,67.5000025749208,8|8,0:3|0:3,0:0:0:0:
396,2,21720,5,0,1:2:0:0:
293,133,21859,1,0,0:0:0:0:
287,114,21929,1,0,0:0:0:0:
283,96,21999,1,2,3:0:0:0:
387,110,22138,1,2,3:0:0:0:
231,200,22277,1,8,0:0:0:0:
322,28,22416,1,2,3:0:0:0:
357,189,22555,6,0,B|366:187|366:187|445:219,2,67.5000025749208,0|0|8,1:2|1:2|1:2,0:0:0:0:
243,299,22973,1,0,1:2:0:0:
176,180,23112,2,0,B|185:187|185:187|194:257,1,67.5000025749208,8|0,1:3|1:2,0:0:0:0:
373,169,23391,5,0,1:2:0:0:
405,115,23460,1,0,3:2:0:0:
439,61,23530,1,2,1:2:0:0:
472,10,23600,1,0,3:2:0:0:
483,47,23669,1,2,1:2:0:0:
491,79,23739,1,0,3:2:0:0:
502,112,23808,1,2,1:2:0:0:
487,131,23878,1,0,3:2:0:0:
468,125,23948,1,2,1:2:0:0:
452,119,24017,1,0,3:2:0:0:
436,114,24087,1,2,1:2:0:0:
420,110,24156,1,0,3:2:0:0:
408,106,24226,5,4,1:2:0:0:
197,30,24504,2,0,B|200:21|200:21|292:0,1,101.250003862381,8|0,0:0|0:0,0:0:0:0:
165,110,24783,1,0,1:2:0:0:
162,123,24852,1,2,0:0:0:0:
159,136,24922,1,8,0:3:0:0:
156,149,24992,1,2,0:0:0:0:
154,162,25061,6,0,L|139:241,1,67.5000025749208,0|0,1:2|0:0,0:0:0:0:
40,123,25340,2,0,L|20:29,1,67.5000025749208,2|0,3:2|3:2,0:0:0:0:
229,211,25618,1,0,1:2:0:0:
242,210,25688,1,2,0:0:0:0:
255,209,25757,1,8,0:3:0:0:
268,208,25827,1,2,0:0:0:0:
281,207,25897,5,0,1:2:0:0:
357,349,26036,1,2,0:0:0:0:
436,170,26175,1,8,0:0:0:0:
478,257,26314,1,2,3:0:0:0:
332,130,26453,1,8,0:0:0:0:
333,116,26523,1,8,0:3:0:0:
335,102,26593,1,8,0:3:0:0:
336,88,26662,1,8,0:3:0:0:
337,74,26732,6,0,L|347:-20,1,67.5000025749208,0|2,1:0|0:0,0:0:0:0:
169,61,27010,1,2,3:0:0:0:
191,134,27149,1,2,3:0:0:0:
126,282,27289,1,8,0:0:0:0:
112,285,27358,1,2,0:0:0:0:
98,288,27428,1,2,0:0:0:0:
84,291,27497,1,2,0:0:0:0:
70,294,27567,6,0,B|54:289|54:289|31:169,1,135.000005149842,0|0,1:0|0:0,0:0:0:0:
49,142,27845,2,0,B|63:130|63:130|77:28,1,90,0|2,3:0|0:0,0:0:0:0:
171,217,28124,1,0,1:0:0:0:
184,216,28193,1,8,0:3:0:0:
197,215,28263,1,8,0:3:0:0:
210,214,28333,1,2,0:0:0:0:
223,213,28402,6,0,L|334:202,1,90,0|2,1:0|0:0,0:0:0:0:
494,153,28681,1,2,3:0:0:0:
421,130,28820,1,2,3:0:0:0:
368,264,28959,1,0,1:0:0:0:
346,107,29098,1,2,3:0:0:0:
344,93,29168,1,2,0:0:0:0:
342,79,29238,5,0,1:0:0:0:
268,55,29377,1,2,0:0:0:0:
420,207,29516,1,8,0:0:0:0:
479,75,29655,1,2,3:2:0:0:
266,132,29794,2,0,L|174:156,1,90,0|8,1:0|0:0,0:0:0:0:
7,67,30073,5,0,1:0:0:0:
64,173,30212,1,0,0:0:0:0:
67,160,30282,1,8,0:3:0:0:
70,146,30351,1,2,3:2:0:0:
180,42,30490,1,2,3:2:0:0:
183,54,30560,1,0,0:0:0:0:
186,66,30630,1,8,0:0:0:0:
19,239,30769,1,2,3:2:0:0:
17,252,30839,1,0,0:0:0:0:
13,264,30908,6,0,B|25:285|25:285|159:301,1,135.000005149842,0|0,1:0|0:0,0:0:0:0:
145,309,31187,1,10,0:0:0:0:
247,384,31326,1,8,0:0:0:0:
353,266,31465,1,2,1:2:0:0:
216,197,31604,1,8,0:3:0:0:
218,210,31674,1,8,0:3:0:0:
220,223,31743,6,0,L|231:286,3,45,2|8|8|8,1:2|0:3|0:3|0:3,0:0:0:0:
324,346,32022,2,0,L|426:370,1,90,8|2,0:3|3:2,0:0:0:0:
133,179,32300,2,0,L|84:197,2,45,2|8|0,1:2|0:3|0:0,0:0:0:0:
313,55,32579,5,2,1:2:0:0:
308,100,32671,5,8,0:0:0:0:
305,146,32764,5,8,0:0:0:0:
302,191,32857,5,8,0:0:0:0:
199,106,32996,1,2,3:2:0:0:
383,5,33135,2,0,L|493:26,1,90,2|8,1:2|0:3,0:0:0:0:
462,220,33414,6,0,B|449:215|449:215|415:75,1,135,0|0,1:0|0:0,0:0:0:0:
437,88,33692,2,0,L|505:98,2,60,2|0|2,0:0|0:0|0:0,0:0:0:0:
302,191,33971,2,0,B|257:200|257:200|255:205|255:205|199:216,1,90,0|10,1:0|0:3,0:0:0:0:
70,153,34249,5,0,1:0:0:0:
128,322,34388,1,8,0:3:0:0:
125,308,34458,1,8,0:3:0:0:
123,294,34528,1,2,3:2:0:0:
131,248,34620,5,2,3:2:0:0:
142,201,34713,5,2,3:2:0:0:
148,154,34806,5,0,1:0:0:0:
12,16,34945,1,2,3:2:0:0:
14,29,35015,1,2,0:0:0:0:
16,42,35084,6,0,L|117:19,1,90,0|2,1:0|3:2,0:0:0:0:
250,83,35363,2,0,L|188:65,2,60,2|0|0,0:0|0:0|0:0,0:0:0:0:
304,156,35641,2,0,L|400:128,1,90,0|8,1:0|0:3,0:0:0:0:
490,62,35920,5,0,1:0:0:0:
484,97,36013,5,8,0:3:0:0:
479,133,36105,5,8,0:3:0:0:
474,165,36198,6,0,L|458:268,1,90,2|0,0:0|0:0,0:0:0:0:
340,366,36477,2,0,L|310:245,1,90,0|0,1:0|0:0,0:0:0:0:
214,157,36755,5,0,1:0:0:0:
226,161,36825,1,2,0:0:0:0:
238,165,36894,1,8,0:3:0:0:
250,169,36964,1,2,0:0:0:0:
262,173,37033,1,0,1:0:0:0:
228,257,37173,1,2,3:2:0:0:
346,200,37312,1,0,1:0:0:0:
329,0,37451,1,2,0:0:0:0:
333,32,37521,1,8,0:3:0:0:
336,72,37590,6,0,B|349:101|349:101|311:110|311:110|295:83|295:83|335:58,1,135,4|0,1:2|0:0,0:0:0:0:
415,74,37869,1,2,3:2:0:0:
99,0,38008,2,0,B|118:-3|118:-3|246:29,1,148.50000453186,2|2,1:2|0:0,0:0:0:0:
247,22,38286,1,0,1:2:0:0:
41,61,38426,6,0,B|50:66|50:66|69:178,1,99.0000030212403,4|0,1:2|0:0,0:0:0:0:
140,308,38704,1,0,1:2:0:0:
143,293,38774,1,2,0:0:0:0:
146,278,38843,1,2,0:0:0:0:
149,263,38913,1,2,0:0:0:0:
152,248,38982,1,2,1:2:0:0:
134,84,39122,1,2,3:2:0:0:
53,237,39261,5,0,1:2:0:0:
197,366,39400,1,2,3:2:0:0:
211,364,39470,1,0,3:2:0:0:
225,362,39539,1,2,1:2:0:0:
182,162,39678,1,2,1:2:0:0:
301,382,39818,1,2,1:2:0:0:
306,347,39887,1,2,0:0:0:0:
310,316,39957,1,2,1:2:0:0:
314,288,40026,1,2,0:0:0:0:
318,258,40096,5,0,1:2:0:0:
220,90,40235,1,2,3:2:0:0:
182,279,40374,2,0,B|171:273|171:273|90:316,1,99.0000030212403,2|2,1:2|3:2,0:0:0:0:
313,148,40653,1,2,1:2:0:0:
327,151,40722,1,2,3:2:0:0:
341,154,40792,1,2,3:2:0:0:
355,157,40862,1,2,3:2:0:0:
369,160,40931,6,0,L|510:186,1,99.0000030212403,4|0,1:2|0:0,0:0:0:0:
197,13,41210,1,0,1:2:0:0:
182,15,41279,1,2,0:0:0:0:
167,17,41349,1,2,0:0:0:0:
152,19,41419,1,2,0:0:0:0:
137,21,41488,2,0,L|75:26,3,49.5000015106202,0|0|0|2,1:2|0:0|0:0|0:0,0:0:0:0:
297,71,41767,5,4,1:2:0:0:
66,209,41906,2,0,B|52:200|52:200|22:51,1,148.50000453186,0|2,1:2|0:0,0:0:0:0:
15,63,42184,1,0,1:2:0:0:
216,93,42323,1,2,1:2:0:0:
207,132,42393,1,0,1:2:0:0:
197,174,42463,1,0,1:2:0:0:
188,214,42532,1,0,1:2:0:0:
179,256,42602,6,0,B|198:285|198:285|188:317|188:317|149:307|149:307|180:260,2,148.50000453186,0|0|0,1:2|1:2|1:2,0:0:0:0:
322,133,43159,1,0,1:2:0:0:
319,118,43228,1,0,1:2:0:0:
316,103,43298,1,0,3:2:0:0:
313,88,43368,1,0,3:2:0:0:
310,73,43437,5,0,1:2:0:0:
484,108,43576,1,0,1:2:0:0:
482,122,43646,1,0,1:2:0:0:
480,136,43716,1,2,3:2:0:0:
309,214,43855,1,0,1:2:0:0:
307,225,43924,1,0,0:0:0:0:
304,239,43994,1,2,1:2:0:0:
453,379,44133,1,0,1:2:0:0:
263,307,44272,6,0,L|193:294,1,49.5000015106202,4|0,1:2|0:0,0:0:0:0:
392,231,44411,1,0,1:2:0:0:
397,219,44481,1,0,1:2:0:0:
402,207,44551,1,0,0:0:0:0:
237,153,44690,1,0,1:2:0:0:
233,140,44760,1,0,1:2:0:0:
229,128,44829,1,2,1:2:0:0:
397,121,44968,1,0,1:2:0:0:
181,217,45108,6,0,B|170:204|170:204|29:184,2,148.50000453186,4|0|0,1:2|1:2|1:2,0:0:0:0:
279,362,45664,1,2,0:2:0:0:
281,347,45734,1,2,1:2:0:0:
283,332,45804,1,2,0:0:0:0:
285,317,45873,1,2,1:2:0:0:
288,302,45943,5,2,1:2:0:0:
316,116,46082,1,2,1:2:0:0:
438,241,46221,1,2,1:2:0:0:
434,225,46291,1,0,1:2:0:0:
431,210,46361,1,2,1:2:0:0:
428,195,46430,1,0,1:2:0:0:
424,179,46500,2,0,L|407:76,1,99.0000030212403,2|0,1:2|1:2,0:0:0:0:
248,14,46778,5,2,1:2:0:0:
247,28,46848,1,2,0:2:0:0:
246,42,46917,1,2,0:2:0:0:
245,56,46987,1,2,1:2:0:0:
244,70,47057,1,2,0:2:0:0:
150,183,47196,2,0,L|90:172,1,49.5000015106202,2|2,0:2|1:2,0:0:0:0:
338,165,47335,1,2,1:2:0:0:
341,179,47405,1,2,0:2:0:0:
344,193,47474,1,0,1:2:0:0:
347,207,47544,1,2,0:2:0:0:
349,216,47613,6,0,B|412:231|412:231|417:237|417:237|499:259,1,148.50000453186,4|0,1:2|0:0,0:0:0:0:
497,267,47892,1,0,1:2:0:0:
347,314,48031,1,0,0:0:0:0:
503,70,48170,2,0,L|484:168,1,99.0000030212403,0|2,1:2|0:2,0:0:0:0:
263,243,48449,5,2,1:2:0:0:
241,168,48588,1,0,1:2:0:0:
331,23,48727,1,2,1:2:0:0:
215,91,48866,1,0,1:2:0:0:
349,216,49006,1,2,1:2:0:0:
244,17,49145,1,0,1:2:0:0:
81,162,49284,6,0,L|19:148,3,49.5000015106202,0|0|0|0,3:2|3:2|3:2|3:2,0:0:0:0:
126,230,49562,2,0,L|78:259,3,31.4999990386963,0|0|0|0,1:2|1:2|1:2|1:2,0:0:0:0:
188,279,49841,2,0,L|186:312,3,22.5,2|2|2|2,1:2|1:2|1:2|1:2,0:0:0:0:
269,274,50119,5,4,1:2:0:0:
304,10,50398,1,4,1:2:0:0:
240,199,50676,2,0,L|229:161,1,22.5,4|2,1:2|0:2,0:0:0:0:
282,89,50815,2,0,L|276:123,1,22.5,8|2,0:3|0:2,0:0:0:0:
333,348,50955,5,4,1:2:0:0:
373,372,51024,1,2,0:2:0:0:
413,368,51094,1,2,0:2:0:0:
428,330,51163,1,2,0:2:0:0:
456,301,51233,1,2,1:2:0:0:
454,260,51303,1,2,0:2:0:0:
426,230,51372,1,2,0:2:0:0:
385,216,51442,1,2,0:2:0:0:
340,241,51511,1,2,1:2:0:0:
296,243,51581,1,2,0:2:0:0:
263,268,51651,1,2,0:2:0:0:
217,274,51720,1,2,0:2:0:0:
181,249,51790,5,2,1:2:0:0:
155,208,51859,1,2,0:2:0:0:
175,166,51929,1,2,0:2:0:0:
175,128,51999,1,2,0:2:0:0:
186,83,52068,1,2,1:2:0:0:
222,50,52138,1,2,0:2:0:0:
271,48,52207,1,2,0:2:0:0:
314,43,52277,1,2,0:2:0:0:
350,75,52347,1,2,1:2:0:0:
392,98,52416,1,2,0:2:0:0:
416,136,52486,1,2,0:2:0:0:
416,183,52555,1,2,0:2:0:0:
432,226,52625,5,2,1:2:0:0:
416,268,52695,1,2,0:2:0:0:
380,298,52764,1,2,0:2:0:0:
338,278,52834,1,2,0:2:0:0:
296,297,52903,1,2,1:2:0:0:
269,332,52973,1,2,0:2:0:0:
223,316,53043,1,2,0:2:0:0:
204,271,53112,1,2,0:2:0:0:
217,228,53182,1,2,1:2:0:0:
210,183,53251,1,2,0:2:0:0:
173,156,53321,1,2,0:2:0:0:
137,124,53391,1,2,0:2:0:0:
91,136,53460,5,2,1:2:0:0:
42,132,53530,1,2,0:2:0:0:
11,174,53600,1,2,0:2:0:0:
0,223,53669,1,2,0:2:0:0:
21,264,53739,1,2,1:2:0:0:
61,291,53808,1,2,0:2:0:0:
82,332,53878,1,2,0:2:0:0:
128,338,53948,1,2,0:2:0:0:
161,308,54017,1,2,1:2:0:0:
206,294,54087,1,2,0:2:0:0:
224,248,54156,1,2,0:2:0:0:
203,206,54226,1,2,0:2:0:0:
209,161,54296,5,2,1:2:0:0:
240,129,54365,1,2,0:2:0:0:
269,95,54435,1,2,0:2:0:0:
315,98,54504,1,2,0:2:0:0:
363,100,54574,1,2,1:2:0:0:
392,138,54644,1,2,0:2:0:0:
399,186,54713,1,2,0:2:0:0:
423,226,54783,1,2,0:2:0:0:
422,273,54852,1,2,1:2:0:0:
438,316,54922,1,2,0:2:0:0:
419,359,54992,1,2,0:2:0:0:
378,374,55061,1,2,0:2:0:0:
331,383,55131,5,2,1:2:0:0:
284,369,55200,1,2,0:2:0:0:
234,374,55270,1,2,0:2:0:0:
211,339,55340,1,2,0:2:0:0:
186,298,55409,1,2,1:2:0:0:
200,252,55479,1,2,0:2:0:0:
228,216,55548,1,2,0:2:0:0:
218,167,55618,1,2,0:2:0:0:
199,125,55688,1,2,1:2:0:0:
213,86,55757,1,2,0:2:0:0:
253,67,55827,1,2,0:2:0:0:
296,87,55897,1,2,0:2:0:0:
332,53,55966,5,2,1:2:0:0:
364,21,56036,1,2,0:2:0:0:
407,33,56105,1,2,0:2:0:0:
455,46,56175,1,2,0:2:0:0:
463,92,56245,1,2,1:2:0:0:
492,122,56314,1,2,0:2:0:0:
467,160,56384,1,2,0:2:0:0:
489,205,56453,1,2,0:2:0:0:
465,246,56523,1,2,1:2:0:0:
433,280,56593,1,2,0:2:0:0:
389,269,56662,1,2,0:2:0:0:
335,265,56732,1,2,0:2:0:0:
300,221,56801,5,2,1:2:0:0:
302,208,56871,1,2,0:2:0:0:
313,196,56941,1,2,0:2:0:0:
326,190,57010,1,2,0:2:0:0:
326,158,57080,5,2,1:2:0:0:
287,177,57149,1,2,0:2:0:0:
269,214,57219,1,2,0:2:0:0:
273,253,57289,1,2,0:2:0:0:
275,292,57358,5,2,1:2:0:0:
253,247,57428,1,2,0:2:0:0:
249,201,57497,1,2,0:2:0:0:
258,158,57567,1,2,0:2:0:0:
284,132,57637,5,4,1:2:0:0:
251,98,57706,1,2,0:2:0:0:
204,104,57776,1,2,0:2:0:0:
173,141,57845,1,2,0:2:0:0:
122,141,57915,1,2,1:2:0:0:
86,109,57985,1,2,0:2:0:0:
44,122,58054,1,2,0:2:0:0:
27,163,58124,1,2,0:2:0:0:
49,205,58193,1,2,1:2:0:0:
98,214,58263,1,2,0:2:0:0:
144,231,58333,1,2,0:2:0:0:
169,268,58402,1,2,0:2:0:0:
149,315,58472,5,2,1:2:0:0:
108,347,58542,1,2,0:2:0:0:
60,329,58611,1,2,0:2:0:0:
50,281,58681,1,2,0:2:0:0:
2,260,58750,1,2,1:2:0:0:
0,207,58820,1,2,0:2:0:0:
38,171,58890,1,2,0:2:0:0:
86,175,58959,1,2,0:2:0:0:
108,221,59029,1,2,1:2:0:0:
157,222,59098,1,2,0:2:0:0:
197,196,59168,1,2,0:2:0:0:
237,226,59238,1,2,0:2:0:0:
258,271,59307,5,2,1:2:0:0:
241,320,59377,1,2,0:2:0:0:
284,352,59446,1,2,0:2:0:0:
331,339,59516,1,2,0:2:0:0:
349,291,59586,1,2,1:2:0:0:
328,248,59655,1,2,0:2:0:0:
352,205,59725,1,2,0:2:0:0:
375,162,59794,1,2,0:2:0:0:
349,120,59864,1,2,1:2:0:0:
302,104,59934,1,2,0:2:0:0:
271,65,60003,1,2,0:2:0:0:
287,17,60073,1,2,0:2:0:0:
337,27,60142,5,2,1:2:0:0:
383,10,60212,1,2,0:2:0:0:
428,35,60282,1,2,0:2:0:0:
456,77,60351,1,2,0:2:0:0:
464,127,60421,1,2,1:2:0:0:
456,175,60490,1,2,0:2:0:0:
412,201,60560,1,2,0:2:0:0:
372,234,60630,1,2,0:2:0:0:
322,228,60699,1,2,1:2:0:0:
285,198,60769,1,2,0:2:0:0:
263,153,60839,1,2,0:2:0:0:
221,121,60908,1,2,0:2:0:0:
171,130,60978,5,12,1:2:0:0:
128,101,61047,1,2,0:2:0:0:
80,120,61117,1,2,0:2:0:0:
69,169,61187,1,2,0:2:0:0:
33,199,61256,1,2,1:2:0:0:
42,249,61326,1,2,0:2:0:0:
82,279,61395,1,2,0:2:0:0:
127,254,61465,1,2,0:2:0:0:
171,269,61535,1,10,1:2:0:0:
207,301,61604,1,2,0:2:0:0:
255,279,61674,1,2,0:2:0:0:
268,231,61743,1,2,0:2:0:0:
241,192,61813,5,10,1:2:0:0:
255,142,61883,1,2,0:2:0:0:
295,111,61952,1,2,0:2:0:0:
345,113,62022,1,2,0:2:0:0:
396,110,62091,1,2,1:2:0:0:
433,142,62161,1,2,0:2:0:0:
443,193,62231,1,2,3:2:0:0:
460,239,62300,1,2,0:2:0:0:
447,290,62370,1,10,1:2:0:0:
412,334,62439,1,2,0:2:0:0:
360,325,62509,1,2,0:2:0:0:
309,332,62579,1,2,0:2:0:0:
264,291,62648,5,10,1:2:0:0:
242,241,62718,1,2,0:2:0:0:
271,191,62787,1,10,1:2:0:0:
258,134,62857,1,2,0:2:0:0:
279,79,62927,1,10,1:2:0:0:
242,34,62996,1,2,0:2:0:0:
186,51,63066,1,10,1:2:0:0:
140,14,63135,1,2,0:2:0:0:
90,46,63205,1,10,1:2:0:0:
32,53,63275,1,2,0:2:0:0:
21,108,63344,1,10,1:2:0:0:
51,158,63414,1,2,0:2:0:0:
10,213,63484,5,10,1:2:0:0:
46,268,63553,1,2,0:2:0:0:
111,264,63623,1,2,1:2:0:0:
165,307,63692,1,2,0:2:0:0:
229,289,63762,1,10,1:2:0:0:
304,315,63832,1,2,1:2:0:0:
355,265,63901,1,10,1:2:0:0:
355,195,63971,1,2,1:2:0:0:
299,150,64040,1,2,1:2:0:0:
361,114,64110,1,2,1:2:0:0:
389,53,64180,1,2,1:2:0:0:
455,91,64249,1,2,1:2:0:0:
485,161,64319,6,0,B|452:173|452:173|218:93,1,233.999989288331,4|8,1:2|0:0,0:0:0:0:
53,88,64736,2,0,B|58:77|58:77|122:62,1,58.4999973220826,2|0,0:0|0:0,0:0:0:0:
152,8,64876,2,0,B|175:28|175:28|194:208,1,175.499991966248,2|0,1:2|0:0,0:0:0:0:
163,241,65154,2,0,B|110:259|110:259|103:259|103:259|50:279,2,116.999994644165,2|2|2,1:2|0:0|0:0,0:0:0:0:
277,17,65572,1,2,0:0:0:0:
312,24,65641,1,2,0:0:0:0:
352,31,65711,1,2,0:0:0:0:
388,36,65780,1,2,0:0:0:0:
429,44,65850,1,2,1:2:0:0:
274,101,65989,6,0,B|292:108|292:108|306:257,1,116.999994644165,2|2,1:2|0:0,0:0:0:0:
426,373,66268,1,8,0:0:0:0:
455,306,66407,1,2,0:0:0:0:
276,278,66546,2,0,P|223:311|291:306,1,175.499991966248,2|0,1:2|0:0,0:0:0:0:
371,266,66825,6,0,B|386:254|386:254|416:149,1,116.999994644165,2|2,1:2|0:0,0:0:0:0:
481,128,67033,1,2,0:0:0:0:
478,114,67103,1,8,0:0:0:0:
264,1,67242,1,2,1:2:0:0:
254,39,67312,1,2,0:0:0:0:
243,78,67381,1,2,0:0:0:0:
127,180,67521,1,2,1:2:0:0:
14,32,67660,6,0,B|60:10|95:51|91:60|86:69|107:133|197:80,1,175.499991966248,2|0,1:2|0:0,0:0:0:0:
213,156,67938,1,8,0:0:0:0:
165,21,68077,1,2,0:0:0:0:
15,128,68217,2,0,B|39:150|39:150|64:301,1,175.499991966248,2|0,1:2|0:0,0:0:0:0:
12,341,68495,2,0,B|23:364|59:365|59:365|17:376|8:347,1,116.999994644165,2|2,1:2|0:0,0:0:0:0:
216,290,68774,1,8,0:0:0:0:
145,260,68913,1,2,0:0:0:0:
324,195,69052,1,2,0:0:0:0:
319,227,69122,1,2,0:0:0:0:
312,260,69191,2,0,L|297:330,1,58.4999973220826,2|2,1:2|0:0,0:0:0:0:
390,151,69330,5,2,1:2:0:0:
352,37,69470,1,2,0:0:0:0:
477,188,69609,2,0,B|486:205|486:205|444:308,1,116.999994644165,8|2,0:0|0:0,0:0:0:0:
272,9,69887,1,2,1:2:0:0:
428,70,70026,1,2,0:0:0:0:
197,45,70166,5,2,1:2:0:0:
154,25,70235,1,2,0:0:0:0:
108,7,70305,1,2,0:0:0:0:
65,25,70374,1,2,0:0:0:0:
24,57,70444,1,2,1:2:0:0:
16,98,70514,1,2,0:0:0:0:
41,120,70583,1,2,0:0:0:0:
44,139,70653,1,2,0:0:0:0:
29,167,70722,1,2,1:2:0:0:
35,212,70792,1,2,0:0:0:0:
74,248,70862,1,2,1:2:0:0:
132,246,70931,1,2,0:0:0:0:
186,279,71001,6,0,B|199:262|199:262|371:245,1,175.499991966248,4|0,1:2|0:0,0:0:0:0:
407,296,71279,2,0,B|412:312|412:312|528:339,1,116.999994644165,8|2,0:0|0:0,0:0:0:0:
264,178,71558,1,2,1:2:0:0:
336,330,71697,1,2,0:0:0:0:
461,114,71836,2,0,B|448:123|448:123|417:251,1,116.999994644165,2|2,1:2|0:0,0:0:0:0:
493,260,72045,1,0,0:0:0:0:
491,249,72115,1,8,0:0:0:0:
417,17,72254,2,0,B|420:22|420:22|491:39,1,58.4999973220826,2|0,1:2|0:0,0:0:0:0:
356,116,72393,5,2,1:2:0:0:
310,115,72463,1,2,0:0:0:0:
278,79,72532,1,2,0:0:0:0:
283,31,72602,1,2,0:0:0:0:
245,3,72671,2,0,B|194:7|186:52|190:66|194:78|180:135|89:115,1,175.499991966248,2|2,1:2|0:0,0:0:0:0:
74,71,72950,1,8,0:0:0:0:
237,157,73089,2,0,B|216:168|216:168|204:332,1,175.499991966248,2|0,1:2|0:0,0:0:0:0:
252,376,73368,1,2,0:0:0:0:
137,193,73507,6,0,B|129:199|129:199|65:210,1,58.4999973220826,2|0,1:2|0:0,0:0:0:0:
55,144,73646,2,0,B|47:138|47:138|-17:127,1,58.4999973220826,2|0,0:0|0:0,0:0:0:0:
125,5,73785,1,8,0:0:0:0:
295,210,73924,1,2,1:2:0:0:
17,269,74064,2,0,L|1:196,1,58.4999973220826,2|0,0:0|0:0,0:0:0:0:
15,0,74203,1,0,1:0:0:0:
342,17,74342,6,0,B|296:-8|272:32|270:44|267:55|228:89|188:60,1,175.499991966248,4|0,1:2|0:0,0:0:0:0:
126,95,74620,2,0,P|92:151|131:174,1,116.999994644165,8|2,0:0|0:0,0:0:0:0:
271,327,74899,2,0,B|287:351|287:351|456:367,1,175.499991966248,2|0,1:2|0:0,0:0:0:0:
496,322,75177,1,0,1:0:0:0:
209,182,75316,2,0,L|186:318,1,116.999994644165,2|8,1:2|0:0,0:0:0:0:
26,371,75595,1,2,1:2:0:0:
20,347,75664,1,0,0:0:0:0:
14,325,75734,2,0,L|80:339,3,58.4999973220826,2|2|2|2,0:0|0:0|1:2|0:0,0:0:0:0:
147,368,76013,5,2,1:2:0:0:
112,267,76152,1,2,1:2:0:0:
288,191,76291,5,2,1:2:0:0:
335,33,76430,1,2,1:2:0:0:
128,34,76569,5,2,1:2:0:0:
225,290,76709,1,2,1:2:0:0:
372,122,76848,6,0,B|378:116|378:116|430:114,1,45,2|0,1:2|0:0,0:0:0:0:
288,99,76987,2,0,B|282:105|282:105|219:111,1,49.5000015106202,2|0,1:2|0:0,0:0:0:0:
406,191,77126,2,0,B|412:197|412:197|491:213,1,53.9999983520508,2|0,1:2|0:0,0:0:0:0:
258,26,77265,2,0,B|252:32|252:32|171:49,1,58.4999973220826,2|0,1:2|0:0,0:0:0:0:
420,38,77405,2,0,B|428:38|428:38|488:10,1,62.9999980773926,2|0,1:2|0:0,0:0:0:0:
227,185,77544,2,0,B|218:185|218:185|153:156,1,67.5000025749208,2|0,1:2|0:0,0:0:0:0:
342,16,77683,6,0,L|291:275,1,202.500007724762,4|0,1:2|0:0,0:0:0:0:
326,284,77961,2,0,B|330:303|330:303|455:343,1,135.000005149842,0|0,1:2|0:0,0:0:0:0:
118,116,78240,1,2,0:0:0:0:
64,113,78309,1,2,0:0:0:0:
24,150,78379,1,2,0:0:0:0:
32,203,78449,1,2,0:0:0:0:
81,227,78518,6,0,B|88:215|88:215|232:188,1,135.000005149842,0|0,1:2|0:0,0:0:0:0:
478,74,78797,1,2,1:2:0:0:
333,18,78936,1,0,0:0:0:0:
326,284,79075,1,0,1:2:0:0:
377,262,79145,1,2,0:0:0:0:
393,209,79214,1,2,0:0:0:0:
369,162,79284,1,2,0:0:0:0:
316,144,79354,5,2,1:2:0:0:
242,265,79493,1,2,0:0:0:0:
137,40,79632,2,0,L|286:73,1,135.000005149842,0|2,1:2|0:0,0:0:0:0:
509,190,79910,1,2,1:2:0:0:
478,74,80050,1,2,0:0:0:0:
56,154,80189,2,0,B|68:163|68:163|188:126,1,135.000005149842,0|2,1:2|0:0,0:0:0:0:
373,1,80467,1,2,1:2:0:0:
343,184,80606,1,2,0:0:0:0:
467,360,80746,1,0,1:2:0:0:
437,315,80815,1,2,0:0:0:0:
386,298,80885,1,2,0:0:0:0:
332,304,80955,1,2,0:0:0:0:
298,342,81024,5,2,1:2:0:0:
425,225,81163,1,2,0:0:0:0:
273,134,81303,1,0,1:2:0:0:
265,221,81442,1,2,0:0:0:0:
502,180,81581,2,0,L|524:46,1,135.000005149842,2|2,1:2|0:0,0:0:0:0:
244,55,81859,5,0,1:2:0:0:
273,134,81999,1,2,0:0:0:0:
118,327,82138,2,0,P|181:336|207:279,1,135.000005149842,2|2,1:2|0:0,0:0:0:0:
244,55,82416,1,0,1:2:0:0:
203,19,82486,1,2,0:0:0:0:
150,17,82555,1,2,0:0:0:0:
106,49,82625,1,2,0:0:0:0:
103,101,82695,6,0,B|114:117|114:117|85:238,1,135.000005149842,2|0,1:2|0:0,0:0:0:0:
304,380,82973,1,2,1:2:0:0:
291,302,83112,1,0,0:0:0:0:
372,168,83251,1,2,1:2:0:0:
176,88,83391,1,2,0:0:0:0:
381,258,83530,6,0,P|460:232|437:129,1,202.500007724762,0|0,1:2|0:0,0:0:0:0:
382,85,83808,2,0,P|391:12|464:25,1,135.000005149842,2|0,1:2|0:0,0:0:0:0:
307,216,84087,2,0,B|288:222|288:222|93:150,1,202.500007724762,0|0,1:2|0:0,0:0:0:0:
41,173,84365,5,2,1:2:0:0:
251,128,84504,2,0,B|262:123|262:123|267:54,1,67.5000025749208,2|0,1:2|0:0,0:0:0:0:
28,184,84644,1,0,1:2:0:0:
340,88,84783,2,0,B|349:83|349:83|416:96,1,67.5000025749208,0|0,1:2|0:0,0:0:0:0:
204,201,84922,1,2,1:2:0:0:
157,227,84992,1,0,0:0:0:0:
143,281,85061,1,2,1:2:0:0:
173,325,85131,1,0,0:0:0:0:
229,334,85200,5,2,1:2:0:0:
481,73,85340,2,0,L|498:2,1,67.5000025749208,0|0,1:2|0:0,0:0:0:0:
382,164,85479,1,2,1:2:0:0:
152,20,85618,2,0,L|228:8,1,67.5000025749208,2|0,1:2|0:0,0:0:0:0:
474,157,85757,1,0,1:2:0:0:
462,208,85827,1,0,0:0:0:0:
450,260,85897,1,0,1:2:0:0:
439,311,85966,1,0,0:0:0:0:
428,362,86036,6,0,B|413:377|413:377|278:323,1,135.000005149842,2|2,1:2|1:2,0:0:0:0:
204,201,86314,1,0,1:2:0:0:
284,159,86453,1,0,1:2:0:0:
227,290,86593,1,2,1:2:0:0:
113,131,86732,1,2,1:2:0:0:
354,2,86871,6,0,P|375:69|321:95,1,135.000005149842,0|0,1:2|1:2,0:0:0:0:
25,144,87149,2,0,B|31:122|31:122|-1:10,1,135.000005149842,2|2,1:2|1:2,0:0:0:0:
202,114,87428,1,0,1:2:0:0:
121,216,87567,1,0,1:2:0:0:
276,377,87706,5,0,1:2:0:0:
322,376,87776,1,0,1:2:0:0:
348,335,87845,1,0,1:2:0:0:
391,321,87915,1,0,1:2:0:0:
403,274,87985,1,0,1:2:0:0:
431,233,88054,1,0,1:2:0:0:
479,220,88124,1,0,1:2:0:0:
497,173,88193,1,0,1:2:0:0:
472,131,88263,1,0,1:2:0:0:
493,86,88333,1,0,1:2:0:0:
501,38,88402,1,0,1:2:0:0:
461,8,88472,1,0,1:2:0:0:
411,4,88542,5,0,1:2:0:0:
373,33,88611,1,0,1:2:0:0:
351,74,88681,1,0,1:2:0:0:
302,77,88750,1,0,1:2:0:0:
256,55,88820,1,0,1:2:0:0:
205,65,88890,1,0,1:2:0:0:
175,24,88959,1,0,1:2:0:0:
126,29,89029,1,0,1:2:0:0:
96,72,89098,1,0,1:2:0:0:
48,83,89168,1,0,1:2:0:0:
31,131,89238,1,0,1:2:0:0:
49,179,89307,1,0,1:2:0:0:
30,225,89377,5,0,1:2:0:0:
45,283,89446,1,0,1:2:0:0:
48,345,89516,1,0,1:2:0:0:
107,368,89586,1,0,1:2:0:0:
166,341,89655,1,0,1:2:0:0:
223,359,89725,1,0,1:2:0:0:
265,312,89794,1,0,1:2:0:0:
234,257,89864,1,0,1:2:0:0:
190,209,89934,1,0,1:2:0:0:
208,146,90003,1,0,1:2:0:0:
257,104,90073,1,0,1:2:0:0:
241,42,90142,1,0,1:2:0:0:
290,0,90212,6,0,B|309:-6|309:-6|443:38,1,135.000005149842,0|0,1:2|0:0,0:0:0:0:
54,232,90490,2,0,B|73:238|73:238|207:194,1,135.000005149842,0|0,1:2|0:0,0:0:0:0:
441,370,90769,1,0,1:2:0:0:
389,333,90839,1,0,1:2:0:0:
329,356,90908,1,0,1:2:0:0:
274,322,90978,1,0,0:0:0:0:
215,344,91047,5,4,0:0:0:0:
