osu file format v14

[General]
AudioFilename: audio.mp3
AudioLeadIn: 0
PreviewTime: 71112
Countdown: 0
SampleSet: Soft
StackLeniency: 0.7
Mode: 3
LetterboxInBreaks: 0
EpilepsyWarning: 1
SpecialStyle: 0
WidescreenStoryboard: 1

[Editor]
Bookmarks: 29412,58512,72912,87012,101712,116112,126912,130512,144912
DistanceSpacing: 1
BeatDivisor: 8
GridSize: 32
TimelineZoom: 1.100001

[Metadata]
Title:Linen
TitleUnicode:Linen
Artist:Cinamoro
ArtistUnicode:Cinamoro
Creator:ERA Basil
Version:Chapter 1: My Wish
Source:
Tags:Featured Artist FA mappers' guild mpg mg Instrumental Electronic hardcore artcore chiptune jumpstream handstream tech storyboard LN minimal orchestra P-L-C Paleturquoise · Linen · Crimson PLC ERA Akiri
BeatmapID:4250551
BeatmapSetID:2036300

[Difficulty]
HPDrainRate:8
CircleSize:4
OverallDifficulty:7.8
ApproachRate:10
SliderMultiplier:1.4
SliderTickRate:1

[Events]
//Background and Video events
0,0,"CINAMORO.jpg",0,0
//Break Periods
//Storyboard Layer 0 (Background)
//Storyboard Layer 1 (Fail)
//Storyboard Layer 2 (Pass)
//Storyboard Layer 3 (Foreground)
//Storyboard Layer 4 (Overlay)
//Storyboard Sound Samples

[TimingPoints]
912,300,3,2,1,40,1,0
58512,-100,3,2,1,40,0,1
87012,-100,3,2,1,40,0,0
116112,-100,3,2,1,40,0,1
144912,-100,3,2,1,40,0,0

[HitObjects]
192,192,912,128,0,987:0:0:0:0:
448,192,1812,128,0,2712:0:0:0:0:
64,192,2712,128,0,2787:0:0:0:0:
320,192,2712,128,0,2787:0:0:0:0:
448,192,3612,128,0,4062:0:0:0:0:
192,192,4062,128,0,4212:0:0:0:0:
64,192,4212,128,0,4512:0:0:0:0:
320,192,4512,128,0,4587:0:0:0:0:
448,192,4512,128,0,4587:0:0:0:0:
64,192,4812,128,0,4962:0:0:0:0:
192,192,4962,128,0,5112:0:0:0:0:
320,192,5112,128,0,5262:0:0:0:0:
448,192,5262,128,0,5412:0:0:0:0:
64,192,5412,128,0,5487:0:0:0:0:
192,192,5412,128,0,5487:0:0:0:0:
192,192,5712,128,0,5862:0:0:0:0:
320,192,5862,128,0,6012:0:0:0:0:
64,192,6012,128,0,6162:0:0:0:0:
448,192,6162,128,0,6312:0:0:0:0:
192,192,6312,128,0,6387:0:0:0:0:
320,192,6312,128,0,6387:0:0:0:0:
448,192,6612,128,0,6687:0:0:0:0:
192,192,6912,128,0,6987:0:0:0:0:
320,192,7212,128,0,7287:0:0:0:0:
64,192,7212,128,0,7287:0:0:0:0:
192,192,7662,128,0,7812:0:0:0:0:
448,192,7812,128,0,7962:0:0:0:0:
320,192,7962,128,0,8112:0:0:0:0:
192,192,8112,128,0,8187:0:0:0:0:
64,192,8112,128,0,8187:0:0:0:0:
320,192,9012,128,0,9912:0:0:0:0:
448,192,9912,128,0,9987:0:0:0:0:
64,192,9912,128,0,9987:0:0:0:0:
192,192,10512,128,0,10812:0:0:0:0:
320,192,10812,128,0,11112:0:0:0:0:
64,192,11112,128,0,11262:0:0:0:0:
192,192,11262,128,0,11412:0:0:0:0:
448,192,11412,128,0,11562:0:0:0:0:
320,192,11562,128,0,11712:0:0:0:0:
448,192,11712,128,0,11862:0:0:0:0:
64,192,11712,128,0,11862:0:0:0:0:
320,192,12012,128,0,12162:0:0:0:0:
448,192,12312,128,0,12462:0:0:0:0:
192,192,12612,128,0,12762:0:0:0:0:
320,192,12612,128,0,12762:0:0:0:0:
448,192,12912,128,0,13062:0:0:0:0:
64,192,13212,128,0,13362:0:0:0:0:
448,192,13512,128,0,13662:0:0:0:0:
320,192,13512,128,0,13662:0:0:0:0:
192,192,13812,128,0,13962:0:0:0:0:
64,192,14112,128,0,14262:0:0:0:0:
192,192,14262,128,0,14412:0:0:0:0:
320,192,14412,128,0,14562:0:0:0:0:
448,192,14412,128,0,14562:0:0:0:0:
64,192,14562,128,0,14712:0:0:0:0:
448,192,14712,128,0,14862:0:0:0:0:
320,192,14862,128,0,15012:0:0:0:0:
192,192,15012,128,0,15162:0:0:0:0:
64,192,15162,128,0,15312:0:0:0:0:
320,192,15312,128,0,15387:0:0:0:0:
448,192,15312,128,0,15387:0:0:0:0:
320,192,15912,128,0,15987:0:0:0:0:
448,192,16212,128,0,16812:0:0:0:0:
64,192,16812,128,0,16887:0:0:0:0:
192,192,17112,128,0,17187:0:0:0:0:
320,192,17112,128,0,17187:0:0:0:0:
448,192,17712,128,0,18012:0:0:0:0:
320,192,18012,128,0,18312:0:0:0:0:
192,192,18312,128,0,18612:0:0:0:0:
64,192,18612,128,0,18912:0:0:0:0:
320,192,18912,128,0,18987:0:0:0:0:
448,192,18912,128,0,18987:0:0:0:0:
192,192,19212,128,0,19362:0:0:0:0:
448,192,19362,128,0,19512:0:0:0:0:
64,192,19512,128,0,19662:0:0:0:0:
320,192,19662,128,0,19812:0:0:0:0:
64,192,19812,128,0,19962:0:0:0:0:
192,192,19812,128,0,19962:0:0:0:0:
320,192,19962,128,0,20112:0:0:0:0:
448,192,20112,128,0,20262:0:0:0:0:
192,192,20262,1,0,0:0:0:0:
64,192,20337,1,0,0:0:0:0:
320,192,20412,128,0,20562:0:0:0:0:
448,192,20562,128,0,20712:0:0:0:0:
192,192,20712,128,0,20787:0:0:0:0:
320,192,20712,128,0,20787:0:0:0:0:
64,192,20862,1,0,0:0:0:0:
320,192,20937,1,0,0:0:0:0:
448,192,21012,1,0,0:0:0:0:
64,192,21162,1,0,0:0:0:0:
192,192,21237,1,0,0:0:0:0:
448,192,21312,1,0,0:0:0:0:
64,192,21462,1,0,0:0:0:0:
192,192,21537,1,0,0:0:0:0:
320,192,21612,1,0,0:0:0:0:
192,192,21762,1,0,0:0:0:0:
320,192,21837,1,0,0:0:0:0:
448,192,21912,128,0,22062:0:0:0:0:
192,192,22062,128,0,22212:0:0:0:0:
320,192,22212,128,0,22362:0:0:0:0:
64,192,22362,128,0,22512:0:0:0:0:
320,192,22512,128,0,22587:0:0:0:0:
448,192,22512,128,0,22587:0:0:0:0:
320,192,23412,128,0,24312:0:0:0:0:
448,192,24312,128,0,24387:0:0:0:0:
64,192,24312,128,0,24387:0:0:0:0:
192,192,24912,128,0,25212:0:0:0:0:
448,192,25212,128,0,25662:0:0:0:0:
64,192,25812,128,0,25887:0:0:0:0:
320,192,26112,128,0,26187:0:0:0:0:
192,192,26112,128,0,26187:0:0:0:0:
64,192,26412,128,0,26487:0:0:0:0:
320,192,26712,128,0,26787:0:0:0:0:
320,192,27012,128,0,27087:0:0:0:0:
192,192,27312,128,0,27387:0:0:0:0:
448,192,27612,128,0,27687:0:0:0:0:
64,192,27912,128,0,28212:0:0:0:0:
192,192,27912,128,0,28212:0:0:0:0:
320,192,28212,128,0,28512:0:0:0:0:
192,192,28512,128,0,28812:0:0:0:0:
64,192,28812,128,0,29112:0:0:0:0:
320,192,29112,128,0,29412:0:0:0:0:
448,192,29412,128,0,29712:0:0:0:0:
192,192,29412,128,0,29712:0:0:0:0:
64,192,29412,128,0,29712:0:0:0:0:
320,192,29712,128,0,29862:0:0:0:0:
320,192,30612,128,0,30762:0:0:0:0:
448,192,30612,128,0,30762:0:0:0:0:
64,192,31512,128,0,31662:0:0:0:0:
192,192,31512,128,0,31662:0:0:0:0:
320,192,32112,1,0,0:0:0:0:
448,192,32412,128,0,32562:0:0:0:0:
192,192,32412,128,0,32562:0:0:0:0:
64,192,32712,1,0,0:0:0:0:
320,192,33012,1,0,0:0:0:0:
448,192,33312,128,0,33462:0:0:0:0:
64,192,33312,128,0,33462:0:0:0:0:
192,192,33612,1,0,0:0:0:0:
448,192,33912,1,0,0:0:0:0:
64,192,34212,128,0,34362:0:0:0:0:
320,192,34212,128,0,34362:0:0:0:0:
192,192,34512,1,0,0:0:0:0:
64,192,34812,1,0,0:0:0:0:
320,192,35112,128,0,35262:0:0:0:0:
192,192,35112,128,0,35262:0:0:0:0:
448,192,35412,1,0,0:0:0:0:
320,192,35712,1,0,0:0:0:0:
192,192,35862,1,0,0:0:0:0:
320,192,36012,128,0,36162:0:0:0:0:
64,192,36012,128,0,36162:0:0:0:0:
192,192,36312,1,0,0:0:0:0:
448,192,36462,1,0,0:0:0:0:
320,192,36612,1,0,0:0:0:0:
192,192,36762,1,0,0:0:0:0:
448,192,36912,128,0,37062:0:0:0:0:
64,192,36912,128,0,37062:0:0:0:0:
320,192,37512,1,0,0:0:0:0:
448,192,37812,128,0,37962:0:0:0:0:
64,192,37812,128,0,37962:0:0:0:0:
192,192,38112,1,0,0:0:0:0:
448,192,38412,1,0,0:0:0:0:
192,192,38712,128,0,38862:0:0:0:0:
64,192,38712,128,0,38862:0:0:0:0:
192,192,39612,128,0,39762:0:0:0:0:
320,192,39612,128,0,39762:0:0:0:0:
192,192,40512,128,0,40662:0:0:0:0:
448,192,40512,128,0,40662:0:0:0:0:
192,192,41412,128,0,41562:0:0:0:0:
448,192,41412,128,0,41562:0:0:0:0:
64,192,41712,1,0,0:0:0:0:
320,192,42012,1,0,0:0:0:0:
448,192,42312,128,0,42462:0:0:0:0:
64,192,42312,128,0,42462:0:0:0:0:
320,192,42462,1,0,0:0:0:0:
192,192,42612,1,0,0:0:0:0:
64,192,42762,1,0,0:0:0:0:
320,192,42912,1,0,0:0:0:0:
192,192,43062,1,0,0:0:0:0:
448,192,43212,128,0,43362:0:0:0:0:
320,192,43212,128,0,43362:0:0:0:0:
192,192,43362,1,0,0:0:0:0:
320,192,43512,1,0,0:0:0:0:
64,192,43662,1,0,0:0:0:0:
448,192,43812,1,0,0:0:0:0:
192,192,43962,1,0,0:0:0:0:
448,192,44112,1,0,0:0:0:0:
64,192,44112,1,0,0:0:0:0:
320,192,44262,1,0,0:0:0:0:
64,192,44412,1,0,0:0:0:0:
192,192,44412,1,0,0:0:0:0:
448,192,44562,1,0,0:0:0:0:
64,192,44712,1,0,0:0:0:0:
192,192,44712,1,0,0:0:0:0:
320,192,44862,1,0,0:0:0:0:
448,192,45012,1,0,0:0:0:0:
64,192,45012,1,0,0:0:0:0:
192,192,45162,1,0,0:0:0:0:
448,192,45312,1,0,0:0:0:0:
320,192,45312,1,0,0:0:0:0:
64,192,45462,1,0,0:0:0:0:
192,192,45612,1,0,0:0:0:0:
320,192,45612,1,0,0:0:0:0:
448,192,45762,1,0,0:0:0:0:
192,192,45912,1,0,0:0:0:0:
64,192,45912,1,0,0:0:0:0:
320,192,46062,1,0,0:0:0:0:
192,192,46212,1,0,0:0:0:0:
448,192,46212,1,0,0:0:0:0:
64,192,46362,1,0,0:0:0:0:
320,192,46512,1,0,0:0:0:0:
448,192,46512,1,0,0:0:0:0:
192,192,46662,1,0,0:0:0:0:
320,192,46812,1,0,0:0:0:0:
64,192,46812,1,0,0:0:0:0:
448,192,46962,1,0,0:0:0:0:
192,192,47112,1,0,0:0:0:0:
64,192,47112,1,0,0:0:0:0:
320,192,47262,1,0,0:0:0:0:
64,192,47412,1,0,0:0:0:0:
448,192,47412,1,0,0:0:0:0:
320,192,47487,1,0,0:0:0:0:
192,192,47562,1,0,0:0:0:0:
64,192,47637,1,0,0:0:0:0:
320,192,47712,1,0,0:0:0:0:
448,192,47712,1,0,0:0:0:0:
192,192,47862,1,0,0:0:0:0:
320,192,48012,1,0,0:0:0:0:
64,192,48012,1,0,0:0:0:0:
448,192,48162,1,0,0:0:0:0:
64,192,48312,1,0,0:0:0:0:
192,192,48312,1,0,0:0:0:0:
320,192,48462,1,0,0:0:0:0:
192,192,48612,1,0,0:0:0:0:
448,192,48612,1,0,0:0:0:0:
64,192,48762,1,0,0:0:0:0:
448,192,48912,1,0,0:0:0:0:
320,192,48912,1,0,0:0:0:0:
192,192,49062,1,0,0:0:0:0:
448,192,49212,1,0,0:0:0:0:
64,192,49212,1,0,0:0:0:0:
320,192,49362,1,0,0:0:0:0:
64,192,49512,1,0,0:0:0:0:
192,192,49512,1,0,0:0:0:0:
448,192,49662,1,0,0:0:0:0:
320,192,49662,1,0,0:0:0:0:
64,192,49812,1,0,0:0:0:0:
192,192,49812,1,0,0:0:0:0:
320,192,49962,1,0,0:0:0:0:
448,192,49962,1,0,0:0:0:0:
64,192,50112,1,0,0:0:0:0:
192,192,50112,1,0,0:0:0:0:
192,192,50262,1,0,0:0:0:0:
320,192,50262,1,0,0:0:0:0:
320,192,50412,1,0,0:0:0:0:
448,192,50412,1,0,0:0:0:0:
64,192,50562,1,0,0:0:0:0:
192,192,50637,1,0,0:0:0:0:
448,192,50712,1,0,0:0:0:0:
320,192,50712,1,0,0:0:0:0:
448,192,50862,1,0,0:0:0:0:
320,192,50937,1,0,0:0:0:0:
64,192,51012,1,0,0:0:0:0:
192,192,51012,1,0,0:0:0:0:
64,192,51162,1,0,0:0:0:0:
192,192,51237,1,0,0:0:0:0:
320,192,51312,1,0,0:0:0:0:
448,192,51312,1,0,0:0:0:0:
64,192,51462,1,0,0:0:0:0:
320,192,51612,1,0,0:0:0:0:
64,192,51762,1,0,0:0:0:0:
448,192,51912,1,0,0:0:0:0:
320,192,51912,1,0,0:0:0:0:
192,192,52062,1,0,0:0:0:0:
64,192,52212,1,0,0:0:0:0:
448,192,52212,1,0,0:0:0:0:
320,192,52362,1,0,0:0:0:0:
64,192,52512,1,0,0:0:0:0:
192,192,52512,1,0,0:0:0:0:
320,192,52662,1,0,0:0:0:0:
192,192,52812,1,0,0:0:0:0:
448,192,52812,1,0,0:0:0:0:
64,192,52962,1,0,0:0:0:0:
448,192,53112,1,0,0:0:0:0:
320,192,53112,1,0,0:0:0:0:
192,192,53262,1,0,0:0:0:0:
448,192,53412,1,0,0:0:0:0:
64,192,53412,1,0,0:0:0:0:
320,192,53562,1,0,0:0:0:0:
192,192,53712,1,0,0:0:0:0:
64,192,53712,1,0,0:0:0:0:
448,192,53862,1,0,0:0:0:0:
320,192,54012,1,0,0:0:0:0:
192,192,54012,1,0,0:0:0:0:
64,192,54162,1,0,0:0:0:0:
448,192,54312,1,0,0:0:0:0:
320,192,54462,1,0,0:0:0:0:
448,192,54612,1,0,0:0:0:0:
192,192,54612,1,0,0:0:0:0:
64,192,54762,1,0,0:0:0:0:
448,192,54912,1,0,0:0:0:0:
320,192,54912,1,0,0:0:0:0:
320,192,55062,1,0,0:0:0:0:
64,192,55212,1,0,0:0:0:0:
192,192,55212,1,0,0:0:0:0:
192,192,55362,1,0,0:0:0:0:
448,192,55512,1,0,0:0:0:0:
320,192,55512,1,0,0:0:0:0:
448,192,55662,1,0,0:0:0:0:
64,192,55812,1,0,0:0:0:0:
192,192,55812,1,0,0:0:0:0:
64,192,55962,1,0,0:0:0:0:
448,192,56112,1,0,0:0:0:0:
320,192,56112,1,0,0:0:0:0:
320,192,56262,1,0,0:0:0:0:
64,192,56412,1,0,0:0:0:0:
192,192,56412,1,0,0:0:0:0:
192,192,56562,1,0,0:0:0:0:
448,192,56712,1,0,0:0:0:0:
64,192,56712,1,0,0:0:0:0:
320,192,56862,1,0,0:0:0:0:
192,192,56937,1,0,0:0:0:0:
64,192,57012,1,0,0:0:0:0:
448,192,57012,1,0,0:0:0:0:
192,192,57162,1,0,0:0:0:0:
320,192,57237,1,0,0:0:0:0:
64,192,57312,1,0,0:0:0:0:
448,192,57312,1,0,0:0:0:0:
192,192,57387,1,0,0:0:0:0:
320,192,57462,1,0,0:0:0:0:
448,192,57537,1,0,0:0:0:0:
64,192,57612,1,0,0:0:0:0:
192,192,57612,1,0,0:0:0:0:
320,192,57762,1,0,0:0:0:0:
192,192,57837,1,0,0:0:0:0:
64,192,57912,1,0,0:0:0:0:
448,192,57912,1,0,0:0:0:0:
320,192,57987,1,0,0:0:0:0:
192,192,58062,1,0,0:0:0:0:
448,192,58137,1,0,0:0:0:0:
192,192,58212,128,0,58512:0:0:0:0:
320,192,58212,128,0,58512:0:0:0:0:
64,192,58512,1,0,0:0:0:0:
448,192,58512,1,0,0:0:0:0:
320,192,58662,1,0,0:0:0:0:
192,192,58737,1,0,0:0:0:0:
448,192,58812,1,0,0:0:0:0:
192,192,58887,1,0,0:0:0:0:
64,192,58962,1,0,0:0:0:0:
320,192,59037,1,0,0:0:0:0:
64,192,59112,1,0,0:0:0:0:
448,192,59187,1,0,0:0:0:0:
320,192,59262,1,0,0:0:0:0:
192,192,59337,1,0,0:0:0:0:
64,192,59412,1,0,0:0:0:0:
448,192,59412,1,0,0:0:0:0:
64,192,59562,1,0,0:0:0:0:
192,192,59637,1,0,0:0:0:0:
448,192,59712,1,0,0:0:0:0:
320,192,59787,1,0,0:0:0:0:
192,192,59862,1,0,0:0:0:0:
64,192,59937,1,0,0:0:0:0:
448,192,60012,1,0,0:0:0:0:
192,192,60087,1,0,0:0:0:0:
320,192,60162,1,0,0:0:0:0:
64,192,60237,1,0,0:0:0:0:
192,192,60312,1,0,0:0:0:0:
448,192,60312,1,0,0:0:0:0:
64,192,60462,1,0,0:0:0:0:
320,192,60537,1,0,0:0:0:0:
448,192,60612,1,0,0:0:0:0:
64,192,60687,1,0,0:0:0:0:
192,192,60762,1,0,0:0:0:0:
320,192,60837,1,0,0:0:0:0:
448,192,60912,1,0,0:0:0:0:
320,192,60987,1,0,0:0:0:0:
192,192,61062,1,0,0:0:0:0:
64,192,61137,1,0,0:0:0:0:
320,192,61212,1,0,0:0:0:0:
448,192,61212,1,0,0:0:0:0:
192,192,61362,1,0,0:0:0:0:
320,192,61437,1,0,0:0:0:0:
448,192,61512,1,0,0:0:0:0:
64,192,61587,1,0,0:0:0:0:
448,192,61662,1,0,0:0:0:0:
192,192,61737,1,0,0:0:0:0:
320,192,61812,1,0,0:0:0:0:
64,192,61887,1,0,0:0:0:0:
448,192,61962,1,0,0:0:0:0:
192,192,62037,1,0,0:0:0:0:
320,192,62112,1,0,0:0:0:0:
64,192,62112,1,0,0:0:0:0:
320,192,62262,1,0,0:0:0:0:
192,192,62337,1,0,0:0:0:0:
448,192,62412,1,0,0:0:0:0:
64,192,62412,1,0,0:0:0:0:
320,192,62562,1,0,0:0:0:0:
192,192,62562,1,0,0:0:0:0:
448,192,62712,1,0,0:0:0:0:
64,192,62712,1,0,0:0:0:0:
320,192,62862,1,0,0:0:0:0:
192,192,62862,1,0,0:0:0:0:
448,192,63012,1,0,0:0:0:0:
64,192,63012,1,0,0:0:0:0:
64,192,63162,1,0,0:0:0:0:
320,192,63237,1,0,0:0:0:0:
448,192,63312,1,0,0:0:0:0:
192,192,63312,1,0,0:0:0:0:
64,192,63462,1,0,0:0:0:0:
320,192,63462,1,0,0:0:0:0:
448,192,63612,1,0,0:0:0:0:
192,192,63612,1,0,0:0:0:0:
64,192,63762,1,0,0:0:0:0:
320,192,63762,1,0,0:0:0:0:
192,192,63912,1,0,0:0:0:0:
448,192,63912,1,0,0:0:0:0:
320,192,63987,1,0,0:0:0:0:
64,192,64062,1,0,0:0:0:0:
192,192,64137,1,0,0:0:0:0:
320,192,64212,1,0,0:0:0:0:
448,192,64287,1,0,0:0:0:0:
64,192,64362,1,0,0:0:0:0:
192,192,64437,1,0,0:0:0:0:
448,192,64512,1,0,0:0:0:0:
320,192,64587,1,0,0:0:0:0:
192,192,64662,1,0,0:0:0:0:
64,192,64737,1,0,0:0:0:0:
448,192,64812,1,0,0:0:0:0:
320,192,64812,1,0,0:0:0:0:
64,192,64962,1,0,0:0:0:0:
320,192,65037,1,0,0:0:0:0:
192,192,65112,1,0,0:0:0:0:
64,192,65187,1,0,0:0:0:0:
448,192,65262,1,0,0:0:0:0:
320,192,65262,1,0,0:0:0:0:
64,192,65412,1,0,0:0:0:0:
448,192,65412,1,0,0:0:0:0:
192,192,65562,1,0,0:0:0:0:
64,192,65562,1,0,0:0:0:0:
448,192,65712,1,0,0:0:0:0:
192,192,65712,1,0,0:0:0:0:
64,192,65862,1,0,0:0:0:0:
320,192,65937,1,0,0:0:0:0:
448,192,66012,1,0,0:0:0:0:
320,192,66087,1,0,0:0:0:0:
64,192,66162,1,0,0:0:0:0:
448,192,66237,1,0,0:0:0:0:
64,192,66312,1,0,0:0:0:0:
192,192,66387,1,0,0:0:0:0:
320,192,66462,1,0,0:0:0:0:
448,192,66537,1,0,0:0:0:0:
192,192,66612,1,0,0:0:0:0:
64,192,66612,1,0,0:0:0:0:
448,192,66762,1,0,0:0:0:0:
192,192,66837,1,0,0:0:0:0:
64,192,66912,1,0,0:0:0:0:
320,192,66987,1,0,0:0:0:0:
192,192,67062,1,0,0:0:0:0:
448,192,67137,1,0,0:0:0:0:
320,192,67212,1,0,0:0:0:0:
192,192,67287,1,0,0:0:0:0:
64,192,67362,1,0,0:0:0:0:
320,192,67437,1,0,0:0:0:0:
448,192,67512,1,0,0:0:0:0:
192,192,67512,1,0,0:0:0:0:
64,192,67662,1,0,0:0:0:0:
192,192,67737,1,0,0:0:0:0:
320,192,67812,1,0,0:0:0:0:
64,192,67887,1,0,0:0:0:0:
448,192,67962,1,0,0:0:0:0:
192,192,68037,1,0,0:0:0:0:
448,192,68112,1,0,0:0:0:0:
320,192,68187,1,0,0:0:0:0:
192,192,68262,1,0,0:0:0:0:
64,192,68337,1,0,0:0:0:0:
320,192,68412,1,0,0:0:0:0:
448,192,68412,1,0,0:0:0:0:
192,192,68562,1,0,0:0:0:0:
320,192,68637,1,0,0:0:0:0:
64,192,68712,1,0,0:0:0:0:
448,192,68712,1,0,0:0:0:0:
64,192,68862,1,0,0:0:0:0:
320,192,68862,1,0,0:0:0:0:
448,192,69012,1,0,0:0:0:0:
192,192,69012,1,0,0:0:0:0:
64,192,69162,1,0,0:0:0:0:
320,192,69162,1,0,0:0:0:0:
448,192,69312,1,0,0:0:0:0:
64,192,69312,1,0,0:0:0:0:
448,192,69462,1,0,0:0:0:0:
192,192,69612,1,0,0:0:0:0:
64,192,69612,1,0,0:0:0:0:
192,192,69762,1,0,0:0:0:0:
448,192,69912,1,0,0:0:0:0:
64,192,69912,1,0,0:0:0:0:
320,192,69987,1,0,0:0:0:0:
192,192,70062,1,0,0:0:0:0:
64,192,70137,1,0,0:0:0:0:
320,192,70212,1,0,0:0:0:0:
448,192,70212,1,0,0:0:0:0:
192,192,70287,1,0,0:0:0:0:
64,192,70362,1,0,0:0:0:0:
64,192,70512,1,0,0:0:0:0:
192,192,70512,1,0,0:0:0:0:
320,192,70587,1,0,0:0:0:0:
448,192,70662,1,0,0:0:0:0:
448,192,70812,1,0,0:0:0:0:
320,192,70812,1,0,0:0:0:0:
192,192,70887,1,0,0:0:0:0:
64,192,70962,1,0,0:0:0:0:
64,192,71112,1,0,0:0:0:0:
448,192,71187,1,0,0:0:0:0:
192,192,71262,1,0,0:0:0:0:
320,192,71337,1,0,0:0:0:0:
64,192,71412,1,0,0:0:0:0:
320,192,71487,1,0,0:0:0:0:
448,192,71562,1,0,0:0:0:0:
192,192,71637,1,0,0:0:0:0:
320,192,71712,1,0,0:0:0:0:
192,192,71787,1,0,0:0:0:0:
64,192,71862,1,0,0:0:0:0:
448,192,71937,1,0,0:0:0:0:
320,192,72012,1,0,0:0:0:0:
64,192,72087,1,0,0:0:0:0:
448,192,72162,1,0,0:0:0:0:
192,192,72237,1,0,0:0:0:0:
320,192,72312,1,0,0:0:0:0:
64,192,72387,1,0,0:0:0:0:
448,192,72462,1,0,0:0:0:0:
192,192,72537,1,0,0:0:0:0:
448,192,72612,1,0,0:0:0:0:
320,192,72612,1,0,0:0:0:0:
64,192,72687,1,0,0:0:0:0:
192,192,72687,1,0,0:0:0:0:
320,192,72762,1,0,0:0:0:0:
448,192,72762,1,0,0:0:0:0:
64,192,72837,1,0,0:0:0:0:
192,192,72837,1,0,0:0:0:0:
320,192,72912,1,0,0:0:0:0:
448,192,72912,1,0,0:0:0:0:
64,192,73062,1,0,0:0:0:0:
192,192,73137,1,0,0:0:0:0:
320,192,73137,1,0,0:0:0:0:
448,192,73287,1,0,0:0:0:0:
320,192,73362,1,0,0:0:0:0:
192,192,73362,1,0,0:0:0:0:
320,192,73512,1,0,0:0:0:0:
448,192,73512,1,0,0:0:0:0:
64,192,73662,1,0,0:0:0:0:
192,192,73662,1,0,0:0:0:0:
448,192,73737,1,0,0:0:0:0:
192,192,73812,1,0,0:0:0:0:
64,192,73812,1,0,0:0:0:0:
320,192,73962,1,0,0:0:0:0:
448,192,74037,1,0,0:0:0:0:
192,192,74037,1,0,0:0:0:0:
192,192,74187,1,0,0:0:0:0:
64,192,74262,1,0,0:0:0:0:
320,192,74262,1,0,0:0:0:0:
64,192,74412,1,0,0:0:0:0:
448,192,74412,1,0,0:0:0:0:
192,192,74562,1,0,0:0:0:0:
320,192,74562,1,0,0:0:0:0:
64,192,74637,1,0,0:0:0:0:
448,192,74712,1,0,0:0:0:0:
320,192,74712,1,0,0:0:0:0:
64,192,74862,1,0,0:0:0:0:
320,192,74937,1,0,0:0:0:0:
448,192,74937,1,0,0:0:0:0:
448,192,75087,1,0,0:0:0:0:
192,192,75162,1,0,0:0:0:0:
64,192,75162,1,0,0:0:0:0:
64,192,75312,1,0,0:0:0:0:
320,192,75312,1,0,0:0:0:0:
448,192,75462,1,0,0:0:0:0:
320,192,75462,1,0,0:0:0:0:
192,192,75537,1,0,0:0:0:0:
64,192,75612,1,0,0:0:0:0:
448,192,75612,1,0,0:0:0:0:
320,192,75762,1,0,0:0:0:0:
192,192,75837,1,0,0:0:0:0:
64,192,75837,1,0,0:0:0:0:
448,192,75987,1,0,0:0:0:0:
320,192,76062,1,0,0:0:0:0:
192,192,76062,1,0,0:0:0:0:
64,192,76212,1,0,0:0:0:0:
320,192,76212,1,0,0:0:0:0:
192,192,76362,1,0,0:0:0:0:
448,192,76437,1,0,0:0:0:0:
64,192,76512,1,0,0:0:0:0:
320,192,76512,1,0,0:0:0:0:
448,192,76662,1,0,0:0:0:0:
320,192,76737,1,0,0:0:0:0:
64,192,76812,1,0,0:0:0:0:
192,192,76812,1,0,0:0:0:0:
320,192,76887,1,0,0:0:0:0:
64,192,76962,1,0,0:0:0:0:
448,192,77037,1,0,0:0:0:0:
192,192,77112,1,0,0:0:0:0:
320,192,77112,1,0,0:0:0:0:
448,192,77187,1,0,0:0:0:0:
192,192,77262,1,0,0:0:0:0:
320,192,77337,1,0,0:0:0:0:
64,192,77412,1,0,0:0:0:0:
448,192,77412,1,0,0:0:0:0:
64,192,77562,1,0,0:0:0:0:
192,192,77637,1,0,0:0:0:0:
448,192,77712,1,0,0:0:0:0:
320,192,77712,1,0,0:0:0:0:
192,192,77787,1,0,0:0:0:0:
448,192,77862,1,0,0:0:0:0:
64,192,77937,1,0,0:0:0:0:
320,192,78012,1,0,0:0:0:0:
192,192,78012,1,0,0:0:0:0:
64,192,78087,1,0,0:0:0:0:
320,192,78162,1,0,0:0:0:0:
192,192,78237,1,0,0:0:0:0:
64,192,78312,1,0,0:0:0:0:
448,192,78312,1,0,0:0:0:0:
192,192,78462,1,0,0:0:0:0:
320,192,78537,1,0,0:0:0:0:
64,192,78612,1,0,0:0:0:0:
448,192,78612,1,0,0:0:0:0:
64,192,78762,1,0,0:0:0:0:
192,192,78837,1,0,0:0:0:0:
320,192,78912,1,0,0:0:0:0:
448,192,78912,1,0,0:0:0:0:
448,192,79062,1,0,0:0:0:0:
192,192,79137,1,0,0:0:0:0:
64,192,79212,1,0,0:0:0:0:
320,192,79212,1,0,0:0:0:0:
64,192,79362,1,0,0:0:0:0:
320,192,79437,1,0,0:0:0:0:
192,192,79512,1,0,0:0:0:0:
448,192,79512,1,0,0:0:0:0:
192,192,79662,1,0,0:0:0:0:
320,192,79662,1,0,0:0:0:0:
320,192,79812,1,0,0:0:0:0:
448,192,79812,1,0,0:0:0:0:
64,192,79962,1,0,0:0:0:0:
192,192,79962,1,0,0:0:0:0:
64,192,80112,1,0,0:0:0:0:
320,192,80112,1,0,0:0:0:0:
448,192,80262,1,0,0:0:0:0:
192,192,80337,1,0,0:0:0:0:
64,192,80337,1,0,0:0:0:0:
64,192,80487,1,0,0:0:0:0:
448,192,80562,1,0,0:0:0:0:
320,192,80562,1,0,0:0:0:0:
320,192,80712,1,0,0:0:0:0:
192,192,80712,1,0,0:0:0:0:
448,192,80862,1,0,0:0:0:0:
64,192,80862,1,0,0:0:0:0:
192,192,80937,1,0,0:0:0:0:
64,192,81012,1,0,0:0:0:0:
448,192,81012,1,0,0:0:0:0:
320,192,81162,1,0,0:0:0:0:
192,192,81237,1,0,0:0:0:0:
448,192,81237,1,0,0:0:0:0:
192,192,81387,1,0,0:0:0:0:
320,192,81462,1,0,0:0:0:0:
64,192,81462,1,0,0:0:0:0:
320,192,81612,1,0,0:0:0:0:
448,192,81612,1,0,0:0:0:0:
64,192,81762,1,0,0:0:0:0:
192,192,81762,1,0,0:0:0:0:
320,192,81837,1,0,0:0:0:0:
192,192,81912,1,0,0:0:0:0:
448,192,81912,1,0,0:0:0:0:
64,192,82062,1,0,0:0:0:0:
192,192,82137,1,0,0:0:0:0:
320,192,82137,1,0,0:0:0:0:
448,192,82287,1,0,0:0:0:0:
320,192,82362,1,0,0:0:0:0:
192,192,82362,1,0,0:0:0:0:
64,192,82512,1,0,0:0:0:0:
192,192,82512,1,0,0:0:0:0:
448,192,82662,1,0,0:0:0:0:
320,192,82662,1,0,0:0:0:0:
64,192,82737,1,0,0:0:0:0:
448,192,82812,1,0,0:0:0:0:
192,192,82812,1,0,0:0:0:0:
64,192,82962,1,0,0:0:0:0:
192,192,83037,1,0,0:0:0:0:
448,192,83037,1,0,0:0:0:0:
448,192,83187,1,0,0:0:0:0:
320,192,83262,1,0,0:0:0:0:
64,192,83262,1,0,0:0:0:0:
192,192,83412,1,0,0:0:0:0:
448,192,83412,1,0,0:0:0:0:
64,192,83562,1,0,0:0:0:0:
320,192,83562,1,0,0:0:0:0:
192,192,83637,1,0,0:0:0:0:
320,192,83712,1,0,0:0:0:0:
448,192,83712,1,0,0:0:0:0:
64,192,83787,1,0,0:0:0:0:
320,192,83862,1,0,0:0:0:0:
64,192,84012,1,0,0:0:0:0:
192,192,84012,1,0,0:0:0:0:
448,192,84087,1,0,0:0:0:0:
192,192,84162,1,0,0:0:0:0:
448,192,84312,1,0,0:0:0:0:
320,192,84312,1,0,0:0:0:0:
64,192,84387,1,0,0:0:0:0:
320,192,84462,1,0,0:0:0:0:
64,192,84612,1,0,0:0:0:0:
192,192,84612,1,0,0:0:0:0:
320,192,84687,1,0,0:0:0:0:
192,192,84762,1,0,0:0:0:0:
64,192,84837,1,0,0:0:0:0:
448,192,84912,1,0,0:0:0:0:
320,192,84912,1,0,0:0:0:0:
192,192,84987,1,0,0:0:0:0:
320,192,85062,1,0,0:0:0:0:
448,192,85137,1,0,0:0:0:0:
64,192,85212,1,0,0:0:0:0:
192,192,85212,1,0,0:0:0:0:
320,192,85287,1,0,0:0:0:0:
192,192,85362,1,0,0:0:0:0:
64,192,85437,1,0,0:0:0:0:
448,192,85512,1,0,0:0:0:0:
320,192,85512,1,0,0:0:0:0:
192,192,85587,1,0,0:0:0:0:
64,192,85662,1,0,0:0:0:0:
448,192,85737,1,0,0:0:0:0:
192,192,85812,1,0,0:0:0:0:
64,192,85812,1,0,0:0:0:0:
448,192,85887,1,0,0:0:0:0:
320,192,85962,1,0,0:0:0:0:
64,192,86037,1,0,0:0:0:0:
448,192,86112,1,0,0:0:0:0:
320,192,86112,1,0,0:0:0:0:
192,192,86187,1,0,0:0:0:0:
64,192,86262,1,0,0:0:0:0:
320,192,86337,1,0,0:0:0:0:
64,192,86412,1,0,0:0:0:0:
448,192,86412,1,0,0:0:0:0:
192,192,86487,1,0,0:0:0:0:
320,192,86562,1,0,0:0:0:0:
448,192,86637,1,0,0:0:0:0:
64,192,86712,1,0,0:0:0:0:
192,192,86712,1,0,0:0:0:0:
448,192,86787,1,0,0:0:0:0:
320,192,86862,1,0,0:0:0:0:
64,192,86937,1,0,0:0:0:0:
192,192,87012,128,0,87312:0:0:0:0:
320,192,87012,128,0,87312:0:0:0:0:
448,192,87312,128,0,88212:0:0:0:0:
64,192,88212,128,0,88287:0:0:0:0:
192,192,88212,128,0,88287:0:0:0:0:
320,192,89112,1,0,0:0:0:0:
448,192,90012,128,0,90087:0:0:0:0:
192,192,90012,128,0,90087:0:0:0:0:
64,192,90312,1,0,0:0:0:0:
320,192,90612,1,0,0:0:0:0:
448,192,90912,1,0,0:0:0:0:
192,192,91212,1,0,0:0:0:0:
64,192,91512,1,0,0:0:0:0:
320,192,91812,128,0,91887:0:0:0:0:
448,192,91812,128,0,91887:0:0:0:0:
192,192,92112,1,0,0:0:0:0:
448,192,92412,1,0,0:0:0:0:
64,192,92562,1,0,0:0:0:0:
320,192,92712,1,0,0:0:0:0:
192,192,92862,1,0,0:0:0:0:
320,192,93012,1,0,0:0:0:0:
448,192,93162,1,0,0:0:0:0:
64,192,93312,1,0,0:0:0:0:
192,192,93462,1,0,0:0:0:0:
320,192,93612,128,0,93687:0:0:0:0:
448,192,93612,128,0,93687:0:0:0:0:
192,192,94212,1,0,0:0:0:0:
320,192,94362,1,0,0:0:0:0:
448,192,94512,1,0,0:0:0:0:
192,192,95412,128,0,95487:0:0:0:0:
64,192,95412,128,0,95487:0:0:0:0:
320,192,96312,1,0,0:0:0:0:
192,192,96912,1,0,0:0:0:0:
448,192,97212,128,0,97287:0:0:0:0:
320,192,97212,128,0,97287:0:0:0:0:
192,192,97512,1,0,0:0:0:0:
320,192,97812,1,0,0:0:0:0:
64,192,97962,1,0,0:0:0:0:
448,192,98112,1,0,0:0:0:0:
448,192,98712,128,0,99012:0:0:0:0:
192,192,99012,128,0,99087:0:0:0:0:
64,192,99012,128,0,99087:0:0:0:0:
448,192,99612,128,0,99912:0:0:0:0:
64,192,99912,128,0,99987:0:0:0:0:
320,192,99912,128,0,99987:0:0:0:0:
192,192,100212,1,0,0:0:0:0:
64,192,100362,1,0,0:0:0:0:
448,192,100512,1,0,0:0:0:0:
320,192,100662,1,0,0:0:0:0:
448,192,100812,128,0,100887:0:0:0:0:
192,192,100812,128,0,100887:0:0:0:0:
320,192,101112,1,0,0:0:0:0:
64,192,101262,1,0,0:0:0:0:
192,192,101412,1,0,0:0:0:0:
320,192,101562,1,0,0:0:0:0:
64,192,101712,128,0,102612:0:0:0:0:
448,192,101712,1,0,0:0:0:0:
320,192,102012,1,0,0:0:0:0:
192,192,102312,1,0,0:0:0:0:
448,192,102612,1,0,0:0:0:0:
192,192,102687,1,0,0:0:0:0:
320,192,102762,1,0,0:0:0:0:
64,192,102837,1,0,0:0:0:0:
448,192,102912,1,0,0:0:0:0:
64,192,102987,1,0,0:0:0:0:
320,192,103062,1,0,0:0:0:0:
192,192,103137,1,0,0:0:0:0:
448,192,103212,1,0,0:0:0:0:
64,192,103287,1,0,0:0:0:0:
320,192,103362,1,0,0:0:0:0:
448,192,103437,1,0,0:0:0:0:
192,192,103512,128,0,104412:0:0:0:0:
64,192,103512,1,0,0:0:0:0:
320,192,103812,1,0,0:0:0:0:
448,192,104112,1,0,0:0:0:0:
320,192,104412,1,0,0:0:0:0:
64,192,104487,1,0,0:0:0:0:
448,192,104562,1,0,0:0:0:0:
192,192,104637,1,0,0:0:0:0:
320,192,104712,1,0,0:0:0:0:
64,192,104787,1,0,0:0:0:0:
448,192,104862,1,0,0:0:0:0:
320,192,104937,1,0,0:0:0:0:
64,192,105012,1,0,0:0:0:0:
448,192,105087,1,0,0:0:0:0:
192,192,105162,1,0,0:0:0:0:
64,192,105237,1,0,0:0:0:0:
320,192,105312,128,0,106212:0:0:0:0:
448,192,105312,1,0,0:0:0:0:
192,192,105612,1,0,0:0:0:0:
64,192,105912,1,0,0:0:0:0:
64,192,106212,1,0,0:0:0:0:
448,192,106287,1,0,0:0:0:0:
192,192,106362,1,0,0:0:0:0:
320,192,106437,1,0,0:0:0:0:
64,192,106512,1,0,0:0:0:0:
448,192,106587,1,0,0:0:0:0:
192,192,106662,1,0,0:0:0:0:
320,192,106737,1,0,0:0:0:0:
448,192,106812,1,0,0:0:0:0:
64,192,106887,1,0,0:0:0:0:
320,192,106962,1,0,0:0:0:0:
192,192,107037,1,0,0:0:0:0:
448,192,107112,128,0,108012:0:0:0:0:
64,192,107112,1,0,0:0:0:0:
64,192,107412,1,0,0:0:0:0:
64,192,107712,1,0,0:0:0:0:
192,192,107862,1,0,0:0:0:0:
320,192,108012,128,0,108912:0:0:0:0:
64,192,108012,1,0,0:0:0:0:
192,192,108312,1,0,0:0:0:0:
64,192,108612,1,0,0:0:0:0:
192,192,108762,1,0,0:0:0:0:
64,192,108912,128,0,109812:0:0:0:0:
448,192,108912,1,0,0:0:0:0:
320,192,109212,1,0,0:0:0:0:
448,192,109212,1,0,0:0:0:0:
320,192,109512,1,0,0:0:0:0:
448,192,109512,1,0,0:0:0:0:
448,192,109812,1,0,0:0:0:0:
192,192,109812,1,0,0:0:0:0:
320,192,109887,1,0,0:0:0:0:
192,192,109962,1,0,0:0:0:0:
64,192,110037,1,0,0:0:0:0:
448,192,110037,1,0,0:0:0:0:
320,192,110112,1,0,0:0:0:0:
64,192,110187,1,0,0:0:0:0:
192,192,110262,1,0,0:0:0:0:
320,192,110337,1,0,0:0:0:0:
64,192,110412,1,0,0:0:0:0:
448,192,110412,1,0,0:0:0:0:
192,192,110487,1,0,0:0:0:0:
320,192,110562,1,0,0:0:0:0:
448,192,110637,1,0,0:0:0:0:
192,192,110712,128,0,111612:0:0:0:0:
64,192,110712,1,0,0:0:0:0:
448,192,111012,1,0,0:0:0:0:
64,192,111012,1,0,0:0:0:0:
448,192,111312,1,0,0:0:0:0:
64,192,111312,1,0,0:0:0:0:
64,192,111612,1,0,0:0:0:0:
320,192,111612,1,0,0:0:0:0:
448,192,111687,1,0,0:0:0:0:
64,192,111762,1,0,0:0:0:0:
192,192,111837,1,0,0:0:0:0:
448,192,111912,1,0,0:0:0:0:
320,192,111912,1,0,0:0:0:0:
64,192,111987,1,0,0:0:0:0:
320,192,112062,1,0,0:0:0:0:
192,192,112137,1,0,0:0:0:0:
64,192,112212,1,0,0:0:0:0:
448,192,112212,1,0,0:0:0:0:
192,192,112287,1,0,0:0:0:0:
320,192,112362,1,0,0:0:0:0:
448,192,112437,1,0,0:0:0:0:
320,192,112512,128,0,113412:0:0:0:0:
64,192,112512,1,0,0:0:0:0:
448,192,112662,1,0,0:0:0:0:
64,192,112812,1,0,0:0:0:0:
448,192,112962,1,0,0:0:0:0:
64,192,113112,1,0,0:0:0:0:
448,192,113262,1,0,0:0:0:0:
64,192,113412,1,0,0:0:0:0:
192,192,113412,1,0,0:0:0:0:
192,192,113562,1,0,0:0:0:0:
64,192,113562,1,0,0:0:0:0:
320,192,113637,1,0,0:0:0:0:
64,192,113712,1,0,0:0:0:0:
192,192,113712,1,0,0:0:0:0:
192,192,113862,1,0,0:0:0:0:
320,192,113862,1,0,0:0:0:0:
448,192,114012,1,0,0:0:0:0:
320,192,114012,1,0,0:0:0:0:
320,192,114162,1,0,0:0:0:0:
448,192,114162,1,0,0:0:0:0:
64,192,114237,1,0,0:0:0:0:
448,192,114312,128,0,115212:0:0:0:0:
320,192,114312,1,0,0:0:0:0:
192,192,114387,1,0,0:0:0:0:
64,192,114462,1,0,0:0:0:0:
320,192,114612,1,0,0:0:0:0:
64,192,114687,1,0,0:0:0:0:
192,192,114762,1,0,0:0:0:0:
64,192,114912,1,0,0:0:0:0:
192,192,114987,1,0,0:0:0:0:
320,192,115062,1,0,0:0:0:0:
64,192,115212,128,0,115287:0:0:0:0:
192,192,115287,128,0,115362:0:0:0:0:
320,192,115362,128,0,115437:0:0:0:0:
448,192,115437,128,0,115512:0:0:0:0:
64,192,115512,128,0,115587:0:0:0:0:
192,192,115587,128,0,115662:0:0:0:0:
320,192,115662,128,0,115737:0:0:0:0:
448,192,115737,128,0,115812:0:0:0:0:
64,192,115812,1,0,0:0:0:0:
320,192,115887,1,0,0:0:0:0:
192,192,115962,1,0,0:0:0:0:
448,192,116037,1,0,0:0:0:0:
64,192,116112,1,0,0:0:0:0:
192,192,116112,1,0,0:0:0:0:
448,192,116262,1,0,0:0:0:0:
64,192,116337,1,0,0:0:0:0:
192,192,116412,1,0,0:0:0:0:
448,192,116412,1,0,0:0:0:0:
64,192,116562,1,0,0:0:0:0:
320,192,116712,1,0,0:0:0:0:
448,192,116712,1,0,0:0:0:0:
192,192,116787,1,0,0:0:0:0:
64,192,116862,1,0,0:0:0:0:
448,192,116937,1,0,0:0:0:0:
64,192,117012,1,0,0:0:0:0:
320,192,117012,1,0,0:0:0:0:
64,192,117162,1,0,0:0:0:0:
448,192,117312,1,0,0:0:0:0:
320,192,117312,1,0,0:0:0:0:
448,192,117462,1,0,0:0:0:0:
192,192,117612,1,0,0:0:0:0:
64,192,117612,1,0,0:0:0:0:
192,192,117762,1,0,0:0:0:0:
64,192,117912,1,0,0:0:0:0:
448,192,117912,1,0,0:0:0:0:
192,192,118062,1,0,0:0:0:0:
320,192,118137,1,0,0:0:0:0:
64,192,118212,1,0,0:0:0:0:
448,192,118212,1,0,0:0:0:0:
192,192,118362,1,0,0:0:0:0:
64,192,118512,1,0,0:0:0:0:
448,192,118512,1,0,0:0:0:0:
320,192,118587,1,0,0:0:0:0:
192,192,118662,1,0,0:0:0:0:
448,192,118737,1,0,0:0:0:0:
64,192,118812,1,0,0:0:0:0:
192,192,118812,1,0,0:0:0:0:
64,192,118962,1,0,0:0:0:0:
320,192,119112,1,0,0:0:0:0:
448,192,119112,1,0,0:0:0:0:
320,192,119262,1,0,0:0:0:0:
64,192,119412,1,0,0:0:0:0:
192,192,119412,1,0,0:0:0:0:
192,192,119562,1,0,0:0:0:0:
448,192,119712,1,0,0:0:0:0:
64,192,119712,1,0,0:0:0:0:
192,192,119862,1,0,0:0:0:0:
448,192,119937,1,0,0:0:0:0:
64,192,120012,1,0,0:0:0:0:
320,192,120012,1,0,0:0:0:0:
192,192,120162,1,0,0:0:0:0:
320,192,120312,1,0,0:0:0:0:
64,192,120312,1,0,0:0:0:0:
448,192,120387,1,0,0:0:0:0:
192,192,120462,1,0,0:0:0:0:
320,192,120537,1,0,0:0:0:0:
64,192,120612,1,0,0:0:0:0:
448,192,120612,1,0,0:0:0:0:
448,192,120762,1,0,0:0:0:0:
192,192,120912,1,0,0:0:0:0:
64,192,120912,1,0,0:0:0:0:
192,192,121062,1,0,0:0:0:0:
448,192,121212,1,0,0:0:0:0:
320,192,121212,1,0,0:0:0:0:
320,192,121362,1,0,0:0:0:0:
448,192,121512,1,0,0:0:0:0:
64,192,121512,1,0,0:0:0:0:
192,192,121662,1,0,0:0:0:0:
64,192,121737,1,0,0:0:0:0:
448,192,121812,1,0,0:0:0:0:
320,192,121812,1,0,0:0:0:0:
448,192,121962,1,0,0:0:0:0:
320,192,122037,1,0,0:0:0:0:
64,192,122112,1,0,0:0:0:0:
192,192,122112,1,0,0:0:0:0:
448,192,122187,1,0,0:0:0:0:
64,192,122262,1,0,0:0:0:0:
448,192,122412,1,0,0:0:0:0:
320,192,122412,1,0,0:0:0:0:
192,192,122562,1,0,0:0:0:0:
320,192,122637,1,0,0:0:0:0:
64,192,122712,1,0,0:0:0:0:
192,192,122712,1,0,0:0:0:0:
448,192,122862,1,0,0:0:0:0:
64,192,122937,1,0,0:0:0:0:
448,192,123012,1,0,0:0:0:0:
320,192,123012,1,0,0:0:0:0:
192,192,123087,1,0,0:0:0:0:
64,192,123162,1,0,0:0:0:0:
448,192,123312,1,0,0:0:0:0:
192,192,123312,1,0,0:0:0:0:
64,192,123462,1,0,0:0:0:0:
448,192,123537,1,0,0:0:0:0:
320,192,123612,1,0,0:0:0:0:
192,192,123612,1,0,0:0:0:0:
448,192,123762,1,0,0:0:0:0:
192,192,123837,1,0,0:0:0:0:
448,192,123912,1,0,0:0:0:0:
64,192,123912,1,0,0:0:0:0:
192,192,123987,1,0,0:0:0:0:
320,192,124062,1,0,0:0:0:0:
448,192,124212,1,0,0:0:0:0:
192,192,124212,1,0,0:0:0:0:
448,192,124362,1,0,0:0:0:0:
64,192,124512,1,0,0:0:0:0:
192,192,124512,1,0,0:0:0:0:
64,192,124662,1,0,0:0:0:0:
448,192,124812,1,0,0:0:0:0:
192,192,124812,1,0,0:0:0:0:
448,192,124962,1,0,0:0:0:0:
64,192,125112,1,0,0:0:0:0:
192,192,125112,1,0,0:0:0:0:
320,192,125262,1,0,0:0:0:0:
448,192,125337,1,0,0:0:0:0:
64,192,125412,1,0,0:0:0:0:
192,192,125412,1,0,0:0:0:0:
448,192,125562,1,0,0:0:0:0:
64,192,125712,1,0,0:0:0:0:
192,192,125712,1,0,0:0:0:0:
320,192,125787,1,0,0:0:0:0:
192,192,125862,1,0,0:0:0:0:
64,192,125937,1,0,0:0:0:0:
448,192,126012,1,0,0:0:0:0:
320,192,126012,1,0,0:0:0:0:
320,192,126162,1,0,0:0:0:0:
192,192,126312,1,0,0:0:0:0:
64,192,126312,1,0,0:0:0:0:
192,192,126462,1,0,0:0:0:0:
448,192,126612,1,0,0:0:0:0:
320,192,126612,1,0,0:0:0:0:
320,192,126762,1,0,0:0:0:0:
64,192,126912,1,0,0:0:0:0:
192,192,126912,1,0,0:0:0:0:
448,192,127062,1,0,0:0:0:0:
192,192,127137,1,0,0:0:0:0:
64,192,127212,1,0,0:0:0:0:
320,192,127212,1,0,0:0:0:0:
448,192,127362,1,0,0:0:0:0:
64,192,127437,1,0,0:0:0:0:
448,192,127512,1,0,0:0:0:0:
192,192,127512,1,0,0:0:0:0:
320,192,127587,1,0,0:0:0:0:
64,192,127662,1,0,0:0:0:0:
448,192,127812,1,0,0:0:0:0:
192,192,127812,1,0,0:0:0:0:
64,192,127962,1,0,0:0:0:0:
320,192,128037,1,0,0:0:0:0:
192,192,128112,1,0,0:0:0:0:
64,192,128112,1,0,0:0:0:0:
448,192,128262,1,0,0:0:0:0:
192,192,128337,1,0,0:0:0:0:
320,192,128412,1,0,0:0:0:0:
448,192,128412,1,0,0:0:0:0:
64,192,128487,1,0,0:0:0:0:
192,192,128562,1,0,0:0:0:0:
448,192,128712,1,0,0:0:0:0:
64,192,128712,1,0,0:0:0:0:
320,192,128862,1,0,0:0:0:0:
64,192,128937,1,0,0:0:0:0:
448,192,129012,1,0,0:0:0:0:
320,192,129012,1,0,0:0:0:0:
64,192,129162,1,0,0:0:0:0:
320,192,129237,1,0,0:0:0:0:
448,192,129312,1,0,0:0:0:0:
192,192,129312,1,0,0:0:0:0:
64,192,129387,1,0,0:0:0:0:
448,192,129462,1,0,0:0:0:0:
64,192,129612,1,0,0:0:0:0:
192,192,129612,1,0,0:0:0:0:
448,192,129762,1,0,0:0:0:0:
320,192,129837,1,0,0:0:0:0:
64,192,129912,1,0,0:0:0:0:
448,192,129912,1,0,0:0:0:0:
192,192,130062,1,0,0:0:0:0:
320,192,130137,1,0,0:0:0:0:
64,192,130212,1,0,0:0:0:0:
192,192,130212,1,0,0:0:0:0:
320,192,130287,1,0,0:0:0:0:
448,192,130362,1,0,0:0:0:0:
320,192,130512,1,0,0:0:0:0:
64,192,130512,1,0,0:0:0:0:
192,192,130587,1,0,0:0:0:0:
64,192,130662,1,0,0:0:0:0:
448,192,130737,1,0,0:0:0:0:
320,192,130812,1,0,0:0:0:0:
64,192,130812,1,0,0:0:0:0:
192,192,130887,1,0,0:0:0:0:
448,192,130962,1,0,0:0:0:0:
64,192,131037,1,0,0:0:0:0:
192,192,131112,1,0,0:0:0:0:
448,192,131112,1,0,0:0:0:0:
320,192,131187,1,0,0:0:0:0:
192,192,131262,1,0,0:0:0:0:
64,192,131337,1,0,0:0:0:0:
448,192,131412,1,0,0:0:0:0:
320,192,131412,1,0,0:0:0:0:
192,192,131562,1,0,0:0:0:0:
64,192,131562,1,0,0:0:0:0:
320,192,131712,1,0,0:0:0:0:
448,192,131787,1,0,0:0:0:0:
64,192,131862,1,0,0:0:0:0:
192,192,131862,1,0,0:0:0:0:
320,192,132012,1,0,0:0:0:0:
448,192,132087,1,0,0:0:0:0:
64,192,132162,1,0,0:0:0:0:
192,192,132162,1,0,0:0:0:0:
448,192,132312,1,0,0:0:0:0:
192,192,132312,1,0,0:0:0:0:
320,192,132387,1,0,0:0:0:0:
64,192,132462,1,0,0:0:0:0:
192,192,132537,1,0,0:0:0:0:
320,192,132612,1,0,0:0:0:0:
448,192,132612,1,0,0:0:0:0:
64,192,132687,1,0,0:0:0:0:
320,192,132762,1,0,0:0:0:0:
192,192,132837,1,0,0:0:0:0:
64,192,132912,1,0,0:0:0:0:
448,192,132912,1,0,0:0:0:0:
320,192,132987,1,0,0:0:0:0:
64,192,133062,1,0,0:0:0:0:
448,192,133137,1,0,0:0:0:0:
64,192,133212,1,0,0:0:0:0:
192,192,133212,1,0,0:0:0:0:
320,192,133362,1,0,0:0:0:0:
448,192,133362,1,0,0:0:0:0:
192,192,133512,1,0,0:0:0:0:
64,192,133587,1,0,0:0:0:0:
320,192,133662,1,0,0:0:0:0:
448,192,133662,1,0,0:0:0:0:
192,192,133812,1,0,0:0:0:0:
64,192,133887,1,0,0:0:0:0:
320,192,133962,1,0,0:0:0:0:
448,192,133962,1,0,0:0:0:0:
64,192,134112,1,0,0:0:0:0:
448,192,134112,1,0,0:0:0:0:
192,192,134187,1,0,0:0:0:0:
320,192,134262,1,0,0:0:0:0:
64,192,134337,1,0,0:0:0:0:
448,192,134412,1,0,0:0:0:0:
320,192,134412,1,0,0:0:0:0:
192,192,134487,1,0,0:0:0:0:
64,192,134562,1,0,0:0:0:0:
448,192,134637,1,0,0:0:0:0:
192,192,134712,1,0,0:0:0:0:
320,192,134712,1,0,0:0:0:0:
64,192,134787,1,0,0:0:0:0:
448,192,134862,1,0,0:0:0:0:
64,192,134937,1,0,0:0:0:0:
320,192,135012,1,0,0:0:0:0:
448,192,135012,1,0,0:0:0:0:
64,192,135162,1,0,0:0:0:0:
192,192,135162,1,0,0:0:0:0:
448,192,135312,1,0,0:0:0:0:
320,192,135387,1,0,0:0:0:0:
64,192,135462,1,0,0:0:0:0:
192,192,135462,1,0,0:0:0:0:
448,192,135612,1,0,0:0:0:0:
320,192,135687,1,0,0:0:0:0:
64,192,135762,1,0,0:0:0:0:
192,192,135762,1,0,0:0:0:0:
448,192,135912,1,0,0:0:0:0:
320,192,135912,1,0,0:0:0:0:
64,192,135987,1,0,0:0:0:0:
192,192,136062,1,0,0:0:0:0:
448,192,136137,1,0,0:0:0:0:
320,192,136212,1,0,0:0:0:0:
64,192,136212,1,0,0:0:0:0:
192,192,136287,1,0,0:0:0:0:
448,192,136362,1,0,0:0:0:0:
64,192,136437,1,0,0:0:0:0:
192,192,136512,1,0,0:0:0:0:
320,192,136512,1,0,0:0:0:0:
448,192,136587,1,0,0:0:0:0:
192,192,136662,1,0,0:0:0:0:
64,192,136737,1,0,0:0:0:0:
320,192,136812,1,0,0:0:0:0:
448,192,136812,1,0,0:0:0:0:
192,192,136887,1,0,0:0:0:0:
64,192,136962,1,0,0:0:0:0:
448,192,137037,1,0,0:0:0:0:
64,192,137112,1,0,0:0:0:0:
320,192,137112,1,0,0:0:0:0:
192,192,137187,1,0,0:0:0:0:
448,192,137262,1,0,0:0:0:0:
64,192,137337,1,0,0:0:0:0:
192,192,137412,1,0,0:0:0:0:
448,192,137412,1,0,0:0:0:0:
320,192,137487,1,0,0:0:0:0:
64,192,137562,1,0,0:0:0:0:
192,192,137637,1,0,0:0:0:0:
320,192,137712,1,0,0:0:0:0:
448,192,137712,1,0,0:0:0:0:
64,192,137787,1,0,0:0:0:0:
192,192,137862,1,0,0:0:0:0:
448,192,137937,1,0,0:0:0:0:
320,192,138012,1,0,0:0:0:0:
64,192,138012,1,0,0:0:0:0:
192,192,138087,1,0,0:0:0:0:
448,192,138162,1,0,0:0:0:0:
320,192,138237,1,0,0:0:0:0:
64,192,138312,1,0,0:0:0:0:
192,192,138312,1,0,0:0:0:0:
448,192,138387,1,0,0:0:0:0:
192,192,138462,1,0,0:0:0:0:
320,192,138537,1,0,0:0:0:0:
64,192,138612,1,0,0:0:0:0:
192,192,138612,1,0,0:0:0:0:
320,192,138762,1,0,0:0:0:0:
448,192,138762,1,0,0:0:0:0:
64,192,138912,1,0,0:0:0:0:
192,192,138987,1,0,0:0:0:0:
320,192,139062,1,0,0:0:0:0:
448,192,139062,1,0,0:0:0:0:
64,192,139212,1,0,0:0:0:0:
192,192,139287,1,0,0:0:0:0:
320,192,139362,1,0,0:0:0:0:
448,192,139362,1,0,0:0:0:0:
64,192,139512,1,0,0:0:0:0:
192,192,139512,1,0,0:0:0:0:
448,192,139587,1,0,0:0:0:0:
320,192,139662,1,0,0:0:0:0:
192,192,139737,1,0,0:0:0:0:
64,192,139812,1,0,0:0:0:0:
448,192,139812,1,0,0:0:0:0:
320,192,139887,1,0,0:0:0:0:
64,192,139962,1,0,0:0:0:0:
192,192,140037,1,0,0:0:0:0:
320,192,140112,1,0,0:0:0:0:
448,192,140112,1,0,0:0:0:0:
64,192,140187,1,0,0:0:0:0:
192,192,140262,1,0,0:0:0:0:
320,192,140337,1,0,0:0:0:0:
64,192,140412,1,0,0:0:0:0:
192,192,140412,1,0,0:0:0:0:
448,192,140487,1,0,0:0:0:0:
64,192,140562,1,0,0:0:0:0:
320,192,140637,1,0,0:0:0:0:
64,192,140712,1,0,0:0:0:0:
192,192,140712,1,0,0:0:0:0:
448,192,140787,1,0,0:0:0:0:
320,192,140862,1,0,0:0:0:0:
192,192,140937,1,0,0:0:0:0:
320,192,141012,1,0,0:0:0:0:
448,192,141012,1,0,0:0:0:0:
64,192,141087,1,0,0:0:0:0:
448,192,141162,1,0,0:0:0:0:
192,192,141237,1,0,0:0:0:0:
320,192,141312,1,0,0:0:0:0:
448,192,141312,1,0,0:0:0:0:
64,192,141462,1,0,0:0:0:0:
192,192,141462,1,0,0:0:0:0:
320,192,141612,1,0,0:0:0:0:
448,192,141612,1,0,0:0:0:0:
320,192,141762,1,0,0:0:0:0:
448,192,141762,1,0,0:0:0:0:
64,192,141912,1,0,0:0:0:0:
192,192,141912,1,0,0:0:0:0:
320,192,142062,1,0,0:0:0:0:
448,192,142062,1,0,0:0:0:0:
64,192,142212,1,0,0:0:0:0:
192,192,142212,1,0,0:0:0:0:
64,192,142362,1,0,0:0:0:0:
192,192,142362,1,0,0:0:0:0:
320,192,142512,1,0,0:0:0:0:
448,192,142512,1,0,0:0:0:0:
64,192,142662,1,0,0:0:0:0:
192,192,142662,1,0,0:0:0:0:
320,192,142812,1,0,0:0:0:0:
448,192,142812,1,0,0:0:0:0:
320,192,142962,1,0,0:0:0:0:
448,192,142962,1,0,0:0:0:0:
64,192,143112,1,0,0:0:0:0:
192,192,143112,1,0,0:0:0:0:
448,192,143187,1,0,0:0:0:0:
320,192,143262,1,0,0:0:0:0:
192,192,143337,1,0,0:0:0:0:
448,192,143412,1,0,0:0:0:0:
320,192,143412,1,0,0:0:0:0:
64,192,143487,1,0,0:0:0:0:
192,192,143562,1,0,0:0:0:0:
320,192,143637,1,0,0:0:0:0:
64,192,143712,1,0,0:0:0:0:
192,192,143712,1,0,0:0:0:0:
448,192,143787,1,0,0:0:0:0:
320,192,143862,1,0,0:0:0:0:
192,192,143937,1,0,0:0:0:0:
64,192,144012,1,0,0:0:0:0:
448,192,144012,1,0,0:0:0:0:
192,192,144087,1,0,0:0:0:0:
320,192,144162,1,0,0:0:0:0:
448,192,144237,1,0,0:0:0:0:
64,192,144312,1,0,0:0:0:0:
192,192,144387,1,0,0:0:0:0:
320,192,144462,1,0,0:0:0:0:
448,192,144537,1,0,0:0:0:0:
64,192,144612,1,0,0:0:0:0:
192,192,144687,1,0,0:0:0:0:
320,192,144762,1,0,0:0:0:0:
448,192,144837,1,0,0:0:0:0:
64,192,144912,128,0,144987:0:0:0:0:
448,192,145812,128,0,146712:0:0:0:0:
320,192,146712,128,0,146862:0:0:0:0:
64,192,146712,128,0,146862:0:0:0:0:
448,192,147612,128,0,148062:0:0:0:0:
320,192,148062,128,0,148212:0:0:0:0:
192,192,148212,128,0,148512:0:0:0:0:
448,192,148512,128,0,148662:0:0:0:0:
320,192,148512,128,0,148662:0:0:0:0:
64,192,148812,128,0,148962:0:0:0:0:
192,192,148962,128,0,149112:0:0:0:0:
320,192,149112,128,0,149262:0:0:0:0:
448,192,149262,128,0,149412:0:0:0:0:
64,192,149412,128,0,149562:0:0:0:0:
192,192,149412,128,0,149562:0:0:0:0:
192,192,149712,128,0,149862:0:0:0:0:
320,192,149862,128,0,150012:0:0:0:0:
64,192,150012,128,0,150162:0:0:0:0:
448,192,150162,128,0,150312:0:0:0:0:
320,192,150312,128,0,150462:0:0:0:0:
192,192,150312,128,0,150462:0:0:0:0:
448,192,150612,128,0,150762:0:0:0:0:
192,192,150912,128,0,151062:0:0:0:0:
320,192,151212,128,0,151362:0:0:0:0:
64,192,151212,128,0,151362:0:0:0:0:
192,192,151662,128,0,151812:0:0:0:0:
448,192,151812,128,0,151962:0:0:0:0:
320,192,151962,128,0,152112:0:0:0:0:
192,192,152112,128,0,152262:0:0:0:0:
64,192,152112,128,0,152262:0:0:0:0:
320,192,153012,128,0,153912:0:0:0:0:
448,192,153912,128,0,154062:0:0:0:0:
64,192,153912,128,0,154062:0:0:0:0:
192,192,154512,128,0,154662:0:0:0:0:
320,192,154812,128,0,154962:0:0:0:0:
64,192,155112,128,0,155262:0:0:0:0:
192,192,155262,128,0,155412:0:0:0:0:
448,192,155412,128,0,155562:0:0:0:0:
320,192,155562,128,0,155712:0:0:0:0:
448,192,155712,128,0,155862:0:0:0:0:
64,192,155712,128,0,155862:0:0:0:0:
320,192,156012,128,0,156162:0:0:0:0:
448,192,156312,128,0,156462:0:0:0:0:
320,192,156612,128,0,156762:0:0:0:0:
64,192,156612,128,0,156762:0:0:0:0:
448,192,156912,128,0,157062:0:0:0:0:
192,192,157212,128,0,157362:0:0:0:0:
448,192,157512,128,0,157662:0:0:0:0:
320,192,157512,128,0,157662:0:0:0:0:
192,192,157812,128,0,157962:0:0:0:0:
64,192,158112,128,0,158262:0:0:0:0:
192,192,158262,128,0,158412:0:0:0:0:
320,192,158412,128,0,158562:0:0:0:0:
448,192,158412,128,0,158562:0:0:0:0:
64,192,158562,128,0,158712:0:0:0:0:
448,192,158712,128,0,158862:0:0:0:0:
320,192,158862,128,0,159012:0:0:0:0:
192,192,159012,128,0,159162:0:0:0:0:
64,192,159162,128,0,159312:0:0:0:0:
320,192,159312,128,0,159462:0:0:0:0:
448,192,159312,128,0,159462:0:0:0:0:
320,192,159912,128,0,160212:0:0:0:0:
448,192,160212,128,0,160812:0:0:0:0:
64,192,160812,128,0,160962:0:0:0:0:
192,192,161112,128,0,161262:0:0:0:0:
320,192,161112,128,0,161262:0:0:0:0:
448,192,161712,128,0,162012:0:0:0:0:
320,192,162012,128,0,162312:0:0:0:0:
192,192,162312,128,0,162612:0:0:0:0:
64,192,162612,128,0,162912:0:0:0:0:
320,192,162912,128,0,163062:0:0:0:0:
448,192,162912,128,0,163062:0:0:0:0:
192,192,163212,128,0,163362:0:0:0:0:
448,192,163362,128,0,163512:0:0:0:0:
64,192,163512,128,0,163662:0:0:0:0:
320,192,163662,128,0,163812:0:0:0:0:
192,192,163812,128,0,163962:0:0:0:0:
64,192,163812,128,0,163962:0:0:0:0:
320,192,163962,128,0,164112:0:0:0:0:
448,192,164112,128,0,164262:0:0:0:0:
192,192,164262,1,0,0:0:0:0:
64,192,164337,1,0,0:0:0:0:
320,192,164412,128,0,164562:0:0:0:0:
448,192,164562,128,0,164712:0:0:0:0:
320,192,164712,128,0,164862:0:0:0:0:
192,192,164712,128,0,164862:0:0:0:0:
64,192,164862,1,0,0:0:0:0:
320,192,164937,1,0,0:0:0:0:
448,192,165012,1,0,0:0:0:0:
64,192,165162,1,0,0:0:0:0:
192,192,165237,1,0,0:0:0:0:
448,192,165312,1,0,0:0:0:0:
64,192,165462,1,0,0:0:0:0:
192,192,165537,1,0,0:0:0:0:
320,192,165612,1,0,0:0:0:0:
192,192,165762,1,0,0:0:0:0:
320,192,165837,1,0,0:0:0:0:
448,192,165912,128,0,166062:0:0:0:0:
192,192,166062,128,0,166212:0:0:0:0:
320,192,166212,128,0,166362:0:0:0:0:
64,192,166362,128,0,166512:0:0:0:0:
320,192,166512,128,0,166662:0:0:0:0:
448,192,166512,128,0,166662:0:0:0:0:
320,192,167412,128,0,168312:0:0:0:0:
448,192,168312,128,0,168462:0:0:0:0:
64,192,168312,128,0,168462:0:0:0:0:
192,192,168912,128,0,169212:0:0:0:0:
448,192,169212,128,0,169662:0:0:0:0:
64,192,169812,128,0,169962:0:0:0:0:
192,192,170112,128,0,170262:0:0:0:0:
320,192,170112,128,0,170262:0:0:0:0:
64,192,170412,128,0,170562:0:0:0:0:
320,192,170712,128,0,170862:0:0:0:0:
320,192,171012,128,0,171162:0:0:0:0:
192,192,171312,128,0,171462:0:0:0:0:
448,192,171612,128,0,171762:0:0:0:0:
192,192,171912,128,0,172062:0:0:0:0:
64,192,171912,128,0,172062:0:0:0:0:
320,192,172212,128,0,172362:0:0:0:0:
192,192,172512,128,0,172662:0:0:0:0:
64,192,172812,128,0,173112:0:0:0:0:
320,192,173112,128,0,173412:0:0:0:0:
448,192,173412,128,0,175512:0:0:0:0:
