osu file format v14

[General]
AudioFilename: audio.mp3
AudioLeadIn: 0
PreviewTime: 109276
Countdown: 0
SampleSet: Normal
StackLeniency: 0.7
Mode: 1
LetterboxInBreaks: 0
WidescreenStoryboard: 1

[Editor]
Bookmarks: 22651,43984,65317,86651,109317,130651,151984
DistanceSpacing: 2
BeatDivisor: 4
GridSize: 32
TimelineZoom: 2.9

[Metadata]
Title:Another
TitleUnicode:Another
Artist:Cinamoro
ArtistUnicode:Cinamoro
Creator:Hivie
Version:Oni
Source:
Tags:fa featured artist osu!taiko world cup twc 2023 ro16 hr1 petit house fact_arti artifact artworld electronic instrumental artcore breakbeat hardcore piano vivid/stasis
BeatmapID:4082203
BeatmapSetID:1963582

[Difficulty]
HPDrainRate:5.5
CircleSize:2
OverallDifficulty:5.5
ApproachRate:10
SliderMultiplier:1.4
SliderTickRate:1

[Events]
//Background and Video events
0,0,"bg.jpg",0,-50
//Break Periods
//Storyboard Layer 0 (Background)
//Storyboard Layer 1 (Fail)
//Storyboard Layer 2 (Pass)
//Storyboard Layer 3 (Foreground)
//Storyboard Layer 4 (Overlay)
//Storyboard Sound Samples

[TimingPoints]
1318,333.333333333333,4,1,0,50,1,0
1318,-133.333333333333,4,1,0,50,0,0
22401,-100,4,1,0,90,0,0
38981,-100,4,1,0,90,0,0
39148,-99.5466514645601,4,1,0,90,0,0
39231,-99.3228602383532,4,1,0,90,0,0
39314,-99.1000729670567,4,1,0,90,0,0
39481,-98.6548291633037,4,1,0,90,0,0
39648,-98.2135683102553,4,1,0,90,0,0
39814,-97.7788443591179,4,1,0,90,0,0
39898,-97.5603267087025,4,1,0,90,0,0
39981,-97.3453676665782,4,1,0,90,0,0
40148,-96.9157174194571,4,1,0,90,0,0
40314,-96.4923821803542,4,1,0,90,0,0
40481,-96.0702122085407,4,1,0,90,0,0
40564,-95.8617624761457,4,1,0,90,0,0
40648,-95.651720270235,4,1,0,90,0,0
40814,-95.2393320001039,4,1,0,90,0,0
40981,-94.8280320662012,4,1,0,90,0,0
41064,-94.6249322633086,4,1,0,90,0,0
41148,-94.4202693307928,4,1,0,90,0,0
41231,-94.2189105858171,4,1,0,90,0,0
41314,-94.0184088403456,4,1,0,90,0,0
41648,-93.2201235478048,4,1,0,90,0,0
41814,-92.8283927802952,4,1,0,90,0,0
41981,-92.43761028485,4,1,0,90,0,0
42064,-92.2446104696501,4,1,0,90,0,0
42148,-92.0501041745111,4,1,0,90,0,0
42314,-91.6681248906332,4,1,0,90,0,0
42398,-91.4760396138399,4,1,0,90,0,0
42481,-91.2870301219816,4,1,0,90,0,0
42564,-91.0988000894343,4,1,0,90,0,0
42648,-90.9090909090909,4,1,0,90,0,0
42734,-100,4,1,0,90,0,0
43901,-90.9090909090909,4,1,0,90,0,0
44067,-100,4,1,0,90,0,0
62814,-99.102508650519,4,1,0,90,0,0
62898,-98.6544671689989,4,1,0,90,0,0
62981,-98.2157209451857,4,1,0,90,0,0
63148,-97.3446627721721,4,1,0,90,0,0
63314,-96.4939987365761,4,1,0,90,0,0
63398,-96.0691823899371,4,1,0,90,0,0
63481,-95.6530814590617,4,1,0,90,0,0
63648,-94.8266942576306,4,1,0,90,0,0
63814,-94.0192860073861,4,1,0,90,0,0
63981,-93.2207699740629,4,1,0,90,0,0
64231,-92.0504193240596,4,1,0,90,0,0
64481,-90.9090909090909,4,1,0,90,0,0
64981,-95.2380952380952,4,1,0,90,0,0
65064,-95.9969280983008,4,1,0,90,0,0
65148,-96.7773153972709,4,1,0,90,0,0
65231,-97.5609756097561,4,1,0,90,0,0
65314,-98.3574309039048,4,1,0,90,0,0
65481,-100,4,1,0,90,0,0
86984,-125,4,1,0,50,0,0
97814,-122.538207026942,4,1,0,50,0,0
97898,-122.134108040201,4,1,0,50,0,0
97981,-121.737429074545,4,1,0,52,0,0
98148,-120.947049218568,4,1,0,54,0,0
98314,-120.171508034611,4,1,0,55,0,0
98356,-119.97686077902,4,1,0,55,0,0
98481,-119.401266551526,4,1,0,57,0,0
98648,-118.640835939288,4,1,0,59,0,0
99148,-116.420926577352,4,1,0,61,0,0
99231,-116.06043648573,4,1,0,61,0,0
99314,-115.702171972627,4,1,0,62,0,0
99398,-115.341835978051,4,1,0,64,0,0
99481,-114.987987433007,4,1,0,66,0,0
99564,-114.636303338492,4,1,0,66,0,0
99648,-114.282565571964,4,1,0,68,0,0
99731,-113.935176707563,4,1,0,68,0,0
99814,-113.589893383964,4,1,0,70,0,0
99898,-113.242574257426,4,1,0,70,0,0
99981,-112.901469787697,4,1,0,71,0,0
100314,-111.553356282272,4,1,0,73,0,0
100481,-110.88932454108,4,1,0,75,0,0
100648,-110.233151442137,4,1,0,77,0,0
100814,-109.588558545864,4,1,0,79,0,0
100870,-109.372802700042,4,1,0,79,0,0
100898,-109.372802700042,4,1,0,80,0,0
100926,-109.157894736842,4,1,0,80,0,0
100981,-108.947644895815,4,1,0,82,0,0
101148,-108.314184249008,4,1,0,84,0,0
101314,-107.691775131542,4,1,0,84,0,0
101481,-107.072792978833,4,1,0,86,0,0
101564,-106.767794632439,4,1,0,86,0,0
101648,-106.460885634111,4,1,0,88,0,0
101814,-105.859534503879,4,1,0,89,0,0
101981,-105.261377093554,4,1,0,90,0,0
102148,-104.669941457506,4,1,0,90,0,0
102231,-104.378459989935,4,1,0,90,0,0
102314,-104.088597430407,4,1,0,90,0,0
102398,-103.79687708528,4,1,0,90,0,0
102481,-103.510231242722,4,1,0,90,0,0
102564,-103.225164244475,4,1,0,90,0,0
102648,-102.938256898948,4,1,0,90,0,0
102981,-101.816396661757,4,1,0,90,0,0
103148,-101.262938610768,4,1,0,90,0,0
103231,-100.990099009901,4,1,0,90,0,0
103314,-100.718725718726,4,1,0,90,0,0
103398,-100.445563734986,4,1,0,90,0,0
103481,-100.177105136049,4,1,0,90,0,0
103648,-99.6412785856127,4,1,0,90,0,0
103814,-99.1143112017331,4,1,0,90,0,0
103870,-98.9377941737692,4,1,0,90,0,0
103926,-98.7619047619048,4,1,0,90,0,0
103981,-98.5897639042941,4,1,0,90,0,0
104148,-98.0707395498392,4,1,0,90,0,0
104314,-97.5602107375815,4,1,0,90,0,0
104398,-97.3038909045415,4,1,0,90,0,0
104481,-97.0519419747309,4,1,0,90,0,0
104564,-96.8012944178231,4,1,0,90,0,0
104648,-96.5489417168394,4,1,0,90,0,0
104731,-96.3008822163752,4,1,0,90,0,0
104814,-96.0540941089292,4,1,0,90,0,0
104870,-95.8882998397238,4,1,0,90,0,0
104926,-95.7230769230769,4,1,0,90,0,0
104981,-95.5613577023499,4,1,0,90,0,0
105148,-95.0736507548438,4,1,0,90,0,0
105314,-94.5937728046704,4,1,0,90,0,0
105480,-94.1187148302777,4,1,0,90,0,0
105564,-93.8801376063733,4,1,0,90,0,0
105647,-93.6455856235514,4,1,0,90,0,0
105814,-93.1771894093686,4,1,0,90,0,0
105980,-92.7162186326518,4,1,0,90,0,0
106064,-92.4846899340032,4,1,0,90,0,0
106147,-92.2570505026541,4,1,0,90,0,0
106314,-91.8024079320113,4,1,0,90,0,0
106481,-91.3522243429746,4,1,0,90,0,0
106647,-90.9090909090909,4,1,0,90,0,0
107901,-90.9090909090909,4,1,0,50,0,0
107984,-66.6666666666667,4,1,0,50,0,0
109234,-100,4,1,0,90,0,0
109317,-100,4,1,0,90,0,1
128064,-99.689754420065,4,1,0,90,0,1
128148,-99.3777247829489,4,1,0,90,0,1
128231,-99.0713224368499,4,1,0,90,0,1
128314,-98.766803688479,4,1,0,90,0,1
128398,-98.4605161147414,4,1,0,90,0,1
128481,-98.1597350018403,4,1,0,90,0,1
128564,-97.8607859685172,4,1,0,90,0,1
128648,-97.5600834034459,4,1,0,90,0,1
128731,-97.2647702407002,4,1,0,90,0,1
128814,-96.9712395011453,4,1,0,90,0,1
128898,-96.6759705658462,4,1,0,90,0,1
128981,-96.3859775930611,4,1,0,90,0,1
129064,-96.0977191654956,4,1,0,90,0,1
129148,-95.8077379027912,4,1,0,90,0,1
129231,-95.5229226361031,4,1,0,90,0,1
129314,-95.2397957361711,4,1,0,90,0,1
129398,-94.9549613700288,4,1,0,90,0,1
129481,-94.6751863684771,4,1,0,90,0,1
129564,-94.3970551799809,4,1,0,90,0,1
129648,-94.1172318876381,4,1,0,90,0,1
129731,-93.8423645320197,4,1,0,90,0,1
129814,-93.5690979896853,4,1,0,90,0,1
129981,-93.0240669689571,4,1,0,90,0,1
130037,-92.842720880039,4,1,0,90,0,1
130092,-92.6653000243216,4,1,0,90,0,1
130148,-92.4853486839824,4,1,0,90,0,1
130314,-91.9560045512533,4,1,0,90,0,1
130370,-91.7787948656182,4,1,0,90,0,1
130426,-91.602266872746,4,1,0,90,0,1
130481,-91.4295509084676,4,1,0,90,0,1
130651,-90.9090909090909,4,1,0,90,0,0
130817,-100,4,1,0,90,0,0
149481,-99.3777247829489,4,1,0,90,0,0
149564,-99.0713224368499,4,1,0,90,0,0
149648,-98.7631462005629,4,1,0,90,0,0
149731,-98.4605161147414,4,1,0,90,0,0
149814,-98.1597350018403,4,1,0,90,0,0
149898,-97.8571952740882,4,1,0,90,0,0
149981,-97.5600834034459,4,1,0,90,0,0
150064,-97.2647702407002,4,1,0,90,0,0
150148,-96.9677137870855,4,1,0,90,0,0
150231,-96.6759705658462,4,1,0,90,0,0
150314,-96.3859775930611,4,1,0,90,0,0
150398,-96.0942566837213,4,1,0,90,0,0
150481,-95.8077379027912,4,1,0,90,0,0
150536,-95.6188154309479,4,1,0,90,0,0
150592,-95.427221983684,4,1,0,90,0,0
150647,-95.2397957361711,4,1,0,90,0,0
150814,-94.6751863684771,4,1,0,90,0,0
150898,-94.3937141643661,4,1,0,90,0,0
150981,-94.1172318876381,4,1,0,90,0,0
151064,-93.8423645320197,4,1,0,90,0,0
151148,-93.565815324165,4,1,0,90,0,0
151231,-93.2941546856963,4,1,0,90,0,0
151314,-93.0240669689571,4,1,0,90,0,0
151369,-92.845953002611,4,1,0,90,0,0
151425,-92.6653000243216,4,1,0,90,0,0
151480,-92.488555971702,4,1,0,90,0,0
151648,-91.9528340918494,4,1,0,90,0,0
151703,-91.7787948656182,4,1,0,90,0,0
151759,-91.602266872746,4,1,0,90,0,0
151814,-91.4295509084676,4,1,0,90,0,0
151981,-90.9090909090909,4,1,0,90,0,0

[HitObjects]
256,192,22484,5,0,0:0:0:0:
256,96,22651,1,12,0:0:0:0:
256,192,22817,1,0,0:0:0:0:
256,192,22984,1,0,0:0:0:0:
256,192,23151,1,8,0:0:0:0:
256,192,23317,1,0,0:0:0:0:
256,192,23484,1,0,0:0:0:0:
256,192,23567,1,8,0:0:0:0:
256,192,23651,1,0,0:0:0:0:
256,192,23817,1,8,0:0:0:0:
256,192,23984,1,0,0:0:0:0:
256,192,24151,1,8,0:0:0:0:
256,192,24317,1,8,0:0:0:0:
256,192,24484,1,0,0:0:0:0:
256,192,24651,1,8,0:0:0:0:
256,192,24734,1,0,0:0:0:0:
256,192,24817,1,8,0:0:0:0:
256,192,24984,1,0,0:0:0:0:
256,192,25151,1,0,0:0:0:0:
256,192,25234,1,0,0:0:0:0:
256,192,25317,1,8,0:0:0:0:
256,192,25651,1,0,0:0:0:0:
256,192,25818,1,8,0:0:0:0:
256,192,25984,1,0,0:0:0:0:
256,192,26151,1,8,0:0:0:0:
256,192,26234,1,8,0:0:0:0:
256,192,26318,1,0,0:0:0:0:
256,192,26484,1,8,0:0:0:0:
256,192,26817,1,8,0:0:0:0:
256,192,26984,1,8,0:0:0:0:
256,192,27151,1,0,0:0:0:0:
256,192,27317,1,8,0:0:0:0:
256,192,27484,1,0,0:0:0:0:
256,192,27567,1,8,0:0:0:0:
256,192,27651,1,0,0:0:0:0:
256,192,27817,1,0,0:0:0:0:
256,192,27901,1,0,0:0:0:0:
256,192,27984,1,8,0:0:0:0:
256,192,28151,1,0,0:0:0:0:
256,192,28317,1,0,0:0:0:0:
256,192,28484,1,8,0:0:0:0:
256,192,28651,1,0,0:0:0:0:
256,192,28734,1,8,0:0:0:0:
256,192,28817,1,0,0:0:0:0:
256,192,28984,1,8,0:0:0:0:
256,192,29151,1,8,0:0:0:0:
256,192,29317,1,0,0:0:0:0:
256,192,29484,1,8,0:0:0:0:
256,192,29651,1,8,0:0:0:0:
256,192,29817,1,0,0:0:0:0:
256,192,29984,1,8,0:0:0:0:
256,192,30151,1,0,0:0:0:0:
256,192,30234,1,0,0:0:0:0:
256,192,30317,1,8,0:0:0:0:
256,192,30484,1,0,0:0:0:0:
256,192,30651,1,8,0:0:0:0:
256,192,30984,1,0,0:0:0:0:
256,192,31151,1,8,0:0:0:0:
256,192,31317,1,0,0:0:0:0:
256,192,31484,1,0,0:0:0:0:
256,192,31567,1,8,0:0:0:0:
256,192,31651,1,0,0:0:0:0:
256,192,31817,1,0,0:0:0:0:
256,192,31901,1,0,0:0:0:0:
256,192,31984,1,8,0:0:0:0:
256,192,32151,1,0,0:0:0:0:
256,192,32317,1,0,0:0:0:0:
256,192,32484,1,8,0:0:0:0:
256,192,32651,1,0,0:0:0:0:
256,192,32817,1,8,0:0:0:0:
256,192,32901,1,0,0:0:0:0:
256,192,32984,1,8,0:0:0:0:
256,192,33067,1,8,0:0:0:0:
256,192,33151,1,0,0:0:0:0:
256,192,33317,1,8,0:0:0:0:
256,192,33651,1,0,0:0:0:0:
256,192,33817,1,8,0:0:0:0:
256,192,33984,1,0,0:0:0:0:
256,192,34151,1,8,0:0:0:0:
256,192,34317,1,0,0:0:0:0:
256,192,34484,1,8,0:0:0:0:
256,192,34567,1,8,0:0:0:0:
256,192,34651,1,0,0:0:0:0:
256,192,34817,1,0,0:0:0:0:
256,192,34984,1,8,0:0:0:0:
256,192,35151,1,0,0:0:0:0:
256,192,35234,1,0,0:0:0:0:
256,192,35317,1,8,0:0:0:0:
256,192,35484,1,0,0:0:0:0:
256,192,35651,1,8,0:0:0:0:
256,192,35817,1,8,0:0:0:0:
256,192,35901,1,8,0:0:0:0:
256,192,35984,1,0,0:0:0:0:
256,192,36151,1,0,0:0:0:0:
256,192,36317,1,8,0:0:0:0:
256,192,36484,1,0,0:0:0:0:
256,192,36567,1,8,0:0:0:0:
256,192,36651,1,0,0:0:0:0:
256,192,36817,1,0,0:0:0:0:
256,192,36984,1,8,0:0:0:0:
256,192,37151,1,0,0:0:0:0:
256,192,37234,1,0,0:0:0:0:
256,192,37317,1,8,0:0:0:0:
256,192,37484,1,0,0:0:0:0:
256,192,37651,1,8,0:0:0:0:
256,192,37734,1,8,0:0:0:0:
256,192,37817,1,0,0:0:0:0:
256,192,37901,1,0,0:0:0:0:
256,192,37984,1,8,0:0:0:0:
256,192,38151,1,0,0:0:0:0:
256,192,38317,1,8,0:0:0:0:
256,192,38484,1,8,0:0:0:0:
256,192,38567,1,8,0:0:0:0:
256,192,38651,1,0,0:0:0:0:
256,192,38984,1,8,0:0:0:0:
256,192,39151,1,0,0:0:0:0:
256,192,39234,1,8,0:0:0:0:
256,192,39317,1,0,0:0:0:0:
256,192,39484,1,8,0:0:0:0:
256,192,39651,1,0,0:0:0:0:
256,192,39817,1,8,0:0:0:0:
256,192,39901,1,8,0:0:0:0:
256,192,39984,1,0,0:0:0:0:
256,192,40151,1,0,0:0:0:0:
256,192,40317,1,8,0:0:0:0:
256,192,40484,1,8,0:0:0:0:
256,192,40567,1,8,0:0:0:0:
256,192,40651,1,0,0:0:0:0:
256,192,40817,1,0,0:0:0:0:
256,192,40984,1,8,0:0:0:0:
256,192,41067,1,8,0:0:0:0:
256,192,41151,1,8,0:0:0:0:
256,192,41234,1,8,0:0:0:0:
256,192,41317,1,0,0:0:0:0:
256,192,41651,1,8,0:0:0:0:
256,192,41817,1,8,0:0:0:0:
256,192,41984,1,0,0:0:0:0:
256,192,42067,1,0,0:0:0:0:
256,192,42151,1,0,0:0:0:0:
256,192,42317,1,8,0:0:0:0:
256,192,42401,1,8,0:0:0:0:
256,192,42484,1,8,0:0:0:0:
256,192,42567,1,8,0:0:0:0:
256,192,42817,2,0,L|256:256,12,35
256,96,43984,1,12,0:0:0:0:
256,192,44317,1,0,0:0:0:0:
256,192,44484,1,8,0:0:0:0:
256,192,44567,1,8,0:0:0:0:
256,192,44651,1,0,0:0:0:0:
256,192,44817,1,0,0:0:0:0:
256,192,44984,1,8,0:0:0:0:
256,192,45067,1,0,0:0:0:0:
256,192,45151,1,8,0:0:0:0:
256,192,45317,1,0,0:0:0:0:
256,192,45484,1,8,0:0:0:0:
256,192,45567,1,8,0:0:0:0:
256,192,45651,1,8,0:0:0:0:
256,192,45817,1,0,0:0:0:0:
256,192,45984,1,8,0:0:0:0:
256,192,46151,1,0,0:0:0:0:
256,192,46317,1,8,0:0:0:0:
256,192,46484,1,8,0:0:0:0:
256,192,46567,1,8,0:0:0:0:
256,192,46651,1,0,0:0:0:0:
256,192,46984,1,8,0:0:0:0:
256,192,47151,1,0,0:0:0:0:
256,192,47317,1,8,0:0:0:0:
256,192,47401,1,8,0:0:0:0:
256,192,47484,1,0,0:0:0:0:
256,192,47567,1,0,0:0:0:0:
256,192,47651,1,8,0:0:0:0:
256,192,47817,1,8,0:0:0:0:
256,192,47984,1,0,0:0:0:0:
256,192,48151,1,8,0:0:0:0:
256,192,48234,1,0,0:0:0:0:
256,192,48317,1,8,0:0:0:0:
256,192,48401,1,8,0:0:0:0:
256,192,48484,1,0,0:0:0:0:
256,192,48651,1,8,0:0:0:0:
256,192,48817,1,0,0:0:0:0:
256,192,48984,1,8,0:0:0:0:
256,192,49151,1,0,0:0:0:0:
256,192,49234,1,0,0:0:0:0:
256,192,49317,1,8,0:0:0:0:
256,192,49651,1,0,0:0:0:0:
256,192,49734,1,0,0:0:0:0:
256,192,49817,1,8,0:0:0:0:
256,192,49901,1,8,0:0:0:0:
256,192,49984,1,8,0:0:0:0:
256,192,50151,1,0,0:0:0:0:
256,192,50317,1,8,0:0:0:0:
256,192,50401,1,0,0:0:0:0:
256,192,50484,1,8,0:0:0:0:
256,192,50651,1,0,0:0:0:0:
256,192,50817,1,8,0:0:0:0:
256,192,50984,1,0,0:0:0:0:
256,192,51067,1,8,0:0:0:0:
256,192,51151,1,0,0:0:0:0:
256,192,51317,1,0,0:0:0:0:
256,192,51484,1,8,0:0:0:0:
256,192,51651,1,0,0:0:0:0:
256,192,51734,1,0,0:0:0:0:
256,192,51817,1,8,0:0:0:0:
256,192,51984,1,0,0:0:0:0:
256,192,52317,1,8,0:0:0:0:
256,192,52401,1,0,0:0:0:0:
256,192,52484,1,0,0:0:0:0:
256,192,52567,1,0,0:0:0:0:
256,192,52651,1,8,0:0:0:0:
256,192,52817,1,0,0:0:0:0:
256,192,52984,1,8,0:0:0:0:
256,192,53067,1,8,0:0:0:0:
256,192,53151,1,0,0:0:0:0:
256,192,53317,1,0,0:0:0:0:
256,192,53484,1,8,0:0:0:0:
256,192,53567,1,8,0:0:0:0:
256,192,53651,1,8,0:0:0:0:
256,192,53817,1,0,0:0:0:0:
256,192,53901,1,0,0:0:0:0:
256,192,53984,1,8,0:0:0:0:
256,192,54151,1,0,0:0:0:0:
256,192,54317,1,8,0:0:0:0:
256,192,54401,1,8,0:0:0:0:
256,192,54484,1,8,0:0:0:0:
256,96,54651,1,4,0:0:0:0:
256,192,54984,1,0,0:0:0:0:
256,192,55151,1,8,0:0:0:0:
256,192,55318,1,0,0:0:0:0:
256,192,55401,1,8,0:0:0:0:
256,192,55484,1,0,0:0:0:0:
256,192,55567,1,0,0:0:0:0:
256,192,55651,1,8,0:0:0:0:
256,192,55818,1,8,0:0:0:0:
256,192,55984,1,0,0:0:0:0:
256,192,56067,1,0,0:0:0:0:
256,192,56151,1,0,0:0:0:0:
256,192,56318,1,8,0:0:0:0:
256,192,56484,1,0,0:0:0:0:
256,192,56651,1,8,0:0:0:0:
256,192,56734,1,0,0:0:0:0:
256,192,56817,1,8,0:0:0:0:
256,192,56901,1,8,0:0:0:0:
256,192,56984,1,0,0:0:0:0:
256,192,57151,1,8,0:0:0:0:
256,192,57317,1,0,0:0:0:0:
256,192,57651,1,8,0:0:0:0:
256,192,57817,1,0,0:0:0:0:
256,192,57901,1,0,0:0:0:0:
256,192,57984,1,8,0:0:0:0:
256,192,58151,1,0,0:0:0:0:
256,192,58317,1,8,0:0:0:0:
256,192,58401,1,0,0:0:0:0:
256,192,58484,1,8,0:0:0:0:
256,192,58651,1,0,0:0:0:0:
256,192,58817,1,8,0:0:0:0:
256,192,58901,1,8,0:0:0:0:
256,192,58984,1,0,0:0:0:0:
256,192,59151,1,0,0:0:0:0:
256,192,59317,1,8,0:0:0:0:
256,192,59484,1,0,0:0:0:0:
256,192,59567,1,0,0:0:0:0:
256,192,59651,1,8,0:0:0:0:
256,192,59734,1,8,0:0:0:0:
256,192,59817,1,0,0:0:0:0:
256,192,59984,1,8,0:0:0:0:
256,192,60317,1,0,0:0:0:0:
256,192,60484,1,8,0:0:0:0:
256,192,60567,1,8,0:0:0:0:
256,192,60651,1,0,0:0:0:0:
256,192,60817,1,0,0:0:0:0:
256,192,60901,1,0,0:0:0:0:
256,192,60984,1,8,0:0:0:0:
256,192,61151,1,0,0:0:0:0:
256,192,61317,1,8,0:0:0:0:
256,192,61401,1,8,0:0:0:0:
256,192,61484,1,8,0:0:0:0:
256,192,61567,1,8,0:0:0:0:
256,192,61651,1,0,0:0:0:0:
256,192,61817,1,8,0:0:0:0:
256,192,61984,1,0,0:0:0:0:
256,192,62151,1,0,0:0:0:0:
256,192,62234,1,0,0:0:0:0:
256,192,62317,1,8,0:0:0:0:
256,192,62484,1,0,0:0:0:0:
256,96,62651,1,12,0:0:0:0:
256,192,62817,1,0,0:0:0:0:
256,192,62984,1,0,0:0:0:0:
256,96,63151,1,12,0:0:0:0:
256,192,63317,1,0,0:0:0:0:
256,192,63484,1,8,0:0:0:0:
256,96,63651,1,4,0:0:0:0:
256,96,63817,1,4,0:0:0:0:
256,96,63984,1,12,0:0:0:0:
256,96,64234,1,12,0:0:0:0:
256,96,64484,1,12,0:0:0:0:
256,192,64984,1,8,0:0:0:0:
256,192,65067,1,0,0:0:0:0:
256,192,65151,1,8,0:0:0:0:
256,192,65317,1,0,0:0:0:0:
256,192,65484,1,8,0:0:0:0:
256,192,65651,1,0,0:0:0:0:
256,192,65734,1,0,0:0:0:0:
256,192,65817,1,8,0:0:0:0:
256,192,65901,1,0,0:0:0:0:
256,192,65984,1,8,0:0:0:0:
256,192,66151,1,0,0:0:0:0:
256,192,66317,1,8,0:0:0:0:
256,192,66401,1,8,0:0:0:0:
256,192,66484,1,0,0:0:0:0:
256,192,66651,1,8,0:0:0:0:
256,192,66817,1,0,0:0:0:0:
256,192,66901,1,8,0:0:0:0:
256,192,67067,1,0,0:0:0:0:
256,192,67151,1,8,0:0:0:0:
256,192,67317,1,0,0:0:0:0:
256,192,67484,1,8,0:0:0:0:
256,192,67651,1,0,0:0:0:0:
256,192,67734,1,8,0:0:0:0:
256,192,67817,1,0,0:0:0:0:
256,192,67901,1,0,0:0:0:0:
256,192,67984,1,8,0:0:0:0:
256,192,68317,1,8,0:0:0:0:
256,192,68484,1,8,0:0:0:0:
256,192,68567,1,8,0:0:0:0:
256,192,68651,1,0,0:0:0:0:
256,192,68817,1,8,0:0:0:0:
256,192,68984,1,0,0:0:0:0:
256,192,69067,1,0,0:0:0:0:
256,192,69151,1,0,0:0:0:0:
256,192,69317,1,8,0:0:0:0:
256,192,69484,1,0,0:0:0:0:
256,192,69567,1,8,0:0:0:0:
256,192,69734,1,0,0:0:0:0:
256,192,69817,1,8,0:0:0:0:
256,192,69984,1,0,0:0:0:0:
256,192,70067,1,0,0:0:0:0:
256,192,70151,1,8,0:0:0:0:
256,192,70317,1,8,0:0:0:0:
256,192,70401,1,8,0:0:0:0:
256,192,70484,1,0,0:0:0:0:
256,192,70651,1,8,0:0:0:0:
256,192,70984,1,8,0:0:0:0:
256,192,71151,1,8,0:0:0:0:
256,192,71234,1,8,0:0:0:0:
256,192,71317,1,0,0:0:0:0:
256,192,71401,1,8,0:0:0:0:
256,192,71484,1,0,0:0:0:0:
256,192,71651,1,8,0:0:0:0:
256,192,71817,1,0,0:0:0:0:
256,192,71984,1,8,0:0:0:0:
256,192,72151,1,0,0:0:0:0:
256,192,72234,1,8,0:0:0:0:
256,192,72401,1,0,0:0:0:0:
256,192,72484,1,8,0:0:0:0:
256,192,72651,1,8,0:0:0:0:
256,192,72817,1,0,0:0:0:0:
256,192,72984,1,8,0:0:0:0:
256,192,73067,1,0,0:0:0:0:
256,192,73151,1,0,0:0:0:0:
256,192,73234,1,0,0:0:0:0:
256,192,73317,1,8,0:0:0:0:
256,192,73651,1,0,0:0:0:0:
256,192,73817,1,8,0:0:0:0:
256,192,73901,1,8,0:0:0:0:
256,192,73984,1,0,0:0:0:0:
256,192,74067,1,0,0:0:0:0:
256,192,74151,1,8,0:0:0:0:
256,192,74317,1,8,0:0:0:0:
256,192,74484,1,0,0:0:0:0:
256,192,74567,1,0,0:0:0:0:
256,192,74651,1,8,0:0:0:0:
256,192,74817,1,0,0:0:0:0:
256,192,74901,1,8,0:0:0:0:
256,192,75067,1,0,0:0:0:0:
256,192,75151,1,8,0:0:0:0:
256,192,75317,1,0,0:0:0:0:
256,192,75484,1,8,0:0:0:0:
256,192,75567,1,0,0:0:0:0:
256,192,75651,1,8,0:0:0:0:
256,192,75817,1,8,0:0:0:0:
256,192,75901,1,8,0:0:0:0:
256,192,75984,1,0,0:0:0:0:
256,192,76317,1,8,0:0:0:0:
256,192,76484,1,0,0:0:0:0:
256,192,76651,1,8,0:0:0:0:
256,192,76734,1,8,0:0:0:0:
256,192,76817,1,8,0:0:0:0:
256,192,76901,1,8,0:0:0:0:
256,192,76984,1,0,0:0:0:0:
256,192,77151,1,0,0:0:0:0:
256,192,77317,1,8,0:0:0:0:
256,192,77484,1,0,0:0:0:0:
256,192,77567,1,8,0:0:0:0:
256,192,77651,1,0,0:0:0:0:
256,192,77817,1,0,0:0:0:0:
256,192,77984,1,8,0:0:0:0:
256,192,78067,1,8,0:0:0:0:
256,192,78151,1,0,0:0:0:0:
256,192,78234,1,0,0:0:0:0:
256,192,78317,1,8,0:0:0:0:
256,192,78484,1,0,0:0:0:0:
256,192,78651,1,8,0:0:0:0:
256,192,78984,1,8,0:0:0:0:
256,192,79067,1,0,0:0:0:0:
256,192,79151,1,0,0:0:0:0:
256,192,79317,1,8,0:0:0:0:
256,192,79401,1,8,0:0:0:0:
256,192,79484,1,0,0:0:0:0:
256,192,79651,1,8,0:0:0:0:
256,192,79817,1,0,0:0:0:0:
256,192,79901,1,0,0:0:0:0:
256,192,79984,1,8,0:0:0:0:
256,192,80151,1,0,0:0:0:0:
256,192,80317,1,8,0:0:0:0:
256,192,80484,1,0,0:0:0:0:
256,192,80567,1,8,0:0:0:0:
256,192,80651,1,0,0:0:0:0:
256,192,80734,1,0,0:0:0:0:
256,192,80817,1,8,0:0:0:0:
256,192,80984,1,0,0:0:0:0:
256,192,81151,1,8,0:0:0:0:
256,192,81317,1,0,0:0:0:0:
256,192,81651,1,8,0:0:0:0:
256,192,81817,1,0,0:0:0:0:
256,192,81901,1,0,0:0:0:0:
256,192,81984,1,8,0:0:0:0:
256,192,82067,1,8,0:0:0:0:
256,192,82151,1,0,0:0:0:0:
256,192,82317,1,8,0:0:0:0:
256,192,82484,1,0,0:0:0:0:
256,192,82567,1,8,0:0:0:0:
256,192,82651,1,0,0:0:0:0:
256,192,82817,1,0,0:0:0:0:
256,192,82984,1,8,0:0:0:0:
256,192,83067,1,0,0:0:0:0:
256,192,83151,1,8,0:0:0:0:
256,192,83234,1,8,0:0:0:0:
256,192,83317,1,0,0:0:0:0:
256,192,83484,1,8,0:0:0:0:
256,192,83651,1,0,0:0:0:0:
256,192,83734,1,0,0:0:0:0:
256,192,83817,1,8,0:0:0:0:
256,192,83984,1,0,0:0:0:0:
256,192,84317,1,8,0:0:0:0:
256,192,84484,1,0,0:0:0:0:
256,192,84651,1,8,0:0:0:0:
256,192,84734,1,8,0:0:0:0:
256,192,84817,1,8,0:0:0:0:
256,192,84901,1,8,0:0:0:0:
256,192,84984,1,0,0:0:0:0:
256,192,85151,1,8,0:0:0:0:
256,192,85317,1,0,0:0:0:0:
256,192,85484,1,0,0:0:0:0:
256,192,85567,1,8,0:0:0:0:
256,192,85734,1,0,0:0:0:0:
256,192,85817,1,8,0:0:0:0:
256,192,85984,1,0,0:0:0:0:
256,192,86151,1,8,0:0:0:0:
256,192,86317,1,0,0:0:0:0:
256,192,86484,1,0,0:0:0:0:
256,192,86567,1,0,0:0:0:0:
256,192,86651,1,8,0:0:0:0:
256,192,87817,1,0,0:0:0:0:
256,192,87901,1,0,0:0:0:0:
256,192,87984,1,8,0:0:0:0:
256,192,88151,1,0,0:0:0:0:
256,192,88317,1,8,0:0:0:0:
256,192,88484,1,8,0:0:0:0:
256,192,88651,1,0,0:0:0:0:
256,192,88817,1,8,0:0:0:0:
256,192,88901,1,0,0:0:0:0:
256,192,88984,1,8,0:0:0:0:
256,192,89151,1,0,0:0:0:0:
256,192,89317,1,8,0:0:0:0:
256,192,89984,1,8,0:0:0:0:
256,192,90484,1,0,0:0:0:0:
256,192,90651,1,0,0:0:0:0:
256,192,90873,1,8,0:0:0:0:
256,192,91095,1,8,0:0:0:0:
256,192,91317,1,0,0:0:0:0:
256,192,91540,1,0,0:0:0:0:
256,192,91762,1,0,0:0:0:0:
256,192,91984,1,8,0:0:0:0:
256,192,92484,1,0,0:0:0:0:
256,192,92567,1,0,0:0:0:0:
256,192,92651,1,8,0:0:0:0:
256,192,92817,1,0,0:0:0:0:
256,192,92984,1,8,0:0:0:0:
256,192,93151,1,0,0:0:0:0:
256,192,93234,1,8,0:0:0:0:
256,192,93317,1,0,0:0:0:0:
256,192,93984,1,8,0:0:0:0:
256,192,94151,1,8,0:0:0:0:
256,192,94317,1,0,0:0:0:0:
256,192,94484,1,0,0:0:0:0:
256,192,94651,1,8,0:0:0:0:
256,192,95151,1,0,0:0:0:0:
256,192,95234,1,8,0:0:0:0:
256,192,95317,1,8,0:0:0:0:
256,192,95567,1,8,0:0:0:0:
256,192,95817,1,0,0:0:0:0:
256,192,96151,1,0,0:0:0:0:
256,192,96317,1,8,0:0:0:0:
256,192,96484,1,8,0:0:0:0:
256,192,96651,1,8,0:0:0:0:
256,192,96734,1,0,0:0:0:0:
256,192,96817,1,8,0:0:0:0:
256,192,96901,1,8,0:0:0:0:
256,192,96984,1,0,0:0:0:0:
256,192,97151,1,8,0:0:0:0:
256,192,97234,1,8,0:0:0:0:
256,192,97317,1,8,0:0:0:0:
256,192,97817,1,0,0:0:0:0:
256,192,97901,1,8,0:0:0:0:
256,192,97984,1,0,0:0:0:0:
256,192,98151,1,0,0:0:0:0:
256,192,98317,1,8,0:0:0:0:
256,192,98484,1,8,0:0:0:0:
256,192,98651,1,0,0:0:0:0:
256,192,99151,1,8,0:0:0:0:
256,192,99317,1,0,0:0:0:0:
256,192,99401,1,0,0:0:0:0:
256,192,99484,1,8,0:0:0:0:
256,192,99567,1,8,0:0:0:0:
256,192,99651,1,0,0:0:0:0:
256,192,99817,1,8,0:0:0:0:
256,192,99901,1,0,0:0:0:0:
256,192,99984,1,8,0:0:0:0:
256,192,100317,1,0,0:0:0:0:
256,192,100484,1,8,0:0:0:0:
256,192,100651,1,0,0:0:0:0:
256,192,100817,1,0,0:0:0:0:
256,192,100901,1,8,0:0:0:0:
256,192,100984,1,0,0:0:0:0:
256,192,101151,1,8,0:0:0:0:
256,192,101317,1,0,0:0:0:0:
256,192,101484,1,8,0:0:0:0:
256,192,101567,1,8,0:0:0:0:
256,192,101651,1,8,0:0:0:0:
256,192,101817,1,0,0:0:0:0:
256,192,101984,1,8,0:0:0:0:
256,192,102151,1,0,0:0:0:0:
256,192,102234,1,0,0:0:0:0:
256,192,102317,1,8,0:0:0:0:
256,192,102401,1,0,0:0:0:0:
256,192,102484,1,8,0:0:0:0:
256,192,102651,1,0,0:0:0:0:
256,192,102984,1,8,0:0:0:0:
256,192,103151,1,0,0:0:0:0:
256,192,103317,1,8,0:0:0:0:
256,192,103401,1,0,0:0:0:0:
256,192,103484,1,8,0:0:0:0:
256,192,103651,1,0,0:0:0:0:
256,192,103817,1,8,0:0:0:0:
256,192,103901,1,8,0:0:0:0:
256,192,103984,1,0,0:0:0:0:
256,192,104151,1,8,0:0:0:0:
256,192,104317,1,8,0:0:0:0:
256,192,104484,1,0,0:0:0:0:
256,192,104567,1,0,0:0:0:0:
256,192,104651,1,8,0:0:0:0:
256,192,104734,1,8,0:0:0:0:
256,192,104817,1,0,0:0:0:0:
256,192,104984,1,8,0:0:0:0:
256,192,105151,1,0,0:0:0:0:
256,96,105317,1,12,0:0:0:0:
256,192,105483,1,0,0:0:0:0:
256,192,105650,1,0,0:0:0:0:
256,96,105817,1,12,0:0:0:0:
256,192,105983,1,0,0:0:0:0:
256,192,106150,1,0,0:0:0:0:
256,192,106317,1,8,0:0:0:0:
256,192,106484,1,0,0:0:0:0:
256,96,106650,1,12,0:0:0:0:
256,96,106900,1,12,0:0:0:0:
256,96,107150,1,12,0:0:0:0:
256,96,107401,1,12,0:0:0:0:
256,96,107651,1,12,0:0:0:0:
256,192,107984,12,0,109151,0:0:0:0:
256,96,109317,5,12,0:0:0:0:
256,192,109651,1,0,0:0:0:0:
256,192,109817,1,8,0:0:0:0:
256,192,109901,1,0,0:0:0:0:
256,192,109985,1,8,0:0:0:0:
256,192,110068,1,8,0:0:0:0:
256,192,110151,1,0,0:0:0:0:
256,192,110318,1,0,0:0:0:0:
256,192,110485,1,8,0:0:0:0:
256,192,110567,1,8,0:0:0:0:
256,192,110651,1,0,0:0:0:0:
256,192,110818,1,0,0:0:0:0:
256,192,110985,1,8,0:0:0:0:
256,192,111151,1,0,0:0:0:0:
256,192,111234,1,0,0:0:0:0:
256,192,111318,1,8,0:0:0:0:
256,192,111401,1,0,0:0:0:0:
256,192,111484,1,8,0:0:0:0:
256,192,111651,1,8,0:0:0:0:
256,192,111734,1,8,0:0:0:0:
256,192,111818,1,0,0:0:0:0:
256,192,111901,1,0,0:0:0:0:
256,192,111984,1,8,0:0:0:0:
256,192,112318,1,0,0:0:0:0:
256,192,112484,1,8,0:0:0:0:
256,192,112568,1,8,0:0:0:0:
256,192,112651,1,8,0:0:0:0:
256,192,112818,1,0,0:0:0:0:
256,192,112984,1,8,0:0:0:0:
256,192,113068,1,0,0:0:0:0:
256,192,113151,1,8,0:0:0:0:
256,192,113234,1,8,0:0:0:0:
256,192,113318,1,0,0:0:0:0:
256,192,113484,1,8,0:0:0:0:
256,192,113651,1,8,0:0:0:0:
256,192,113734,1,8,0:0:0:0:
256,192,113817,1,8,0:0:0:0:
256,192,113984,1,0,0:0:0:0:
256,192,114067,1,0,0:0:0:0:
256,192,114151,1,8,0:0:0:0:
256,192,114317,1,0,0:0:0:0:
256,192,114484,1,8,0:0:0:0:
256,192,114567,1,8,0:0:0:0:
256,192,114651,1,0,0:0:0:0:
256,192,114984,1,8,0:0:0:0:
256,192,115151,1,0,0:0:0:0:
256,192,115234,1,0,0:0:0:0:
256,192,115317,1,8,0:0:0:0:
256,192,115484,1,8,0:0:0:0:
256,192,115651,1,0,0:0:0:0:
256,192,115734,1,0,0:0:0:0:
256,192,115817,1,8,0:0:0:0:
256,192,115901,1,8,0:0:0:0:
256,192,115984,1,0,0:0:0:0:
256,192,116151,1,0,0:0:0:0:
256,192,116317,1,8,0:0:0:0:
256,192,116484,1,8,0:0:0:0:
256,192,116567,1,8,0:0:0:0:
256,192,116651,1,0,0:0:0:0:
256,192,116817,1,8,0:0:0:0:
256,192,116901,1,0,0:0:0:0:
256,192,116984,1,8,0:0:0:0:
256,192,117151,1,0,0:0:0:0:
256,192,117317,1,8,0:0:0:0:
256,192,117401,1,8,0:0:0:0:
256,192,117484,1,0,0:0:0:0:
256,192,117567,1,0,0:0:0:0:
256,192,117651,1,8,0:0:0:0:
256,192,117817,1,0,0:0:0:0:
256,192,117984,1,8,0:0:0:0:
256,192,118151,1,0,0:0:0:0:
256,192,118234,1,8,0:0:0:0:
256,192,118317,1,0,0:0:0:0:
256,192,118484,1,8,0:0:0:0:
256,192,118567,1,8,0:0:0:0:
256,192,118651,1,8,0:0:0:0:
256,192,118817,1,0,0:0:0:0:
256,192,118984,1,8,0:0:0:0:
256,192,119151,1,0,0:0:0:0:
256,192,119234,1,0,0:0:0:0:
256,192,119317,1,8,0:0:0:0:
256,192,119484,1,8,0:0:0:0:
256,192,119651,1,0,0:0:0:0:
256,192,119734,1,0,0:0:0:0:
256,192,119817,1,8,0:0:0:0:
256,192,119901,1,8,0:0:0:0:
256,192,119984,1,0,0:0:0:0:
256,192,120317,1,8,0:0:0:0:
256,192,120483,1,0,0:0:0:0:
256,192,120651,1,8,0:0:0:0:
256,192,120734,1,8,0:0:0:0:
256,192,120817,1,0,0:0:0:0:
256,192,120901,1,0,0:0:0:0:
256,192,120984,1,8,0:0:0:0:
256,192,121151,1,0,0:0:0:0:
256,192,121233,1,8,0:0:0:0:
256,192,121317,1,0,0:0:0:0:
256,192,121484,1,0,0:0:0:0:
256,192,121651,1,8,0:0:0:0:
256,192,121817,1,0,0:0:0:0:
256,192,121900,1,0,0:0:0:0:
256,192,121984,1,8,0:0:0:0:
256,192,122067,1,0,0:0:0:0:
256,192,122150,1,8,0:0:0:0:
256,192,122317,1,8,0:0:0:0:
256,192,122400,1,8,0:0:0:0:
256,192,122484,1,0,0:0:0:0:
256,192,122567,1,0,0:0:0:0:
256,192,122650,1,8,0:0:0:0:
256,192,122984,1,0,0:0:0:0:
256,192,123150,1,0,0:0:0:0:
256,192,123317,1,8,0:0:0:0:
256,192,123401,1,8,0:0:0:0:
256,192,123484,1,8,0:0:0:0:
256,192,123650,1,0,0:0:0:0:
256,192,123734,1,0,0:0:0:0:
256,192,123817,1,8,0:0:0:0:
256,192,123900,1,8,0:0:0:0:
256,192,123984,1,0,0:0:0:0:
256,192,124150,1,0,0:0:0:0:
256,192,124317,1,8,0:0:0:0:
256,192,124400,1,8,0:0:0:0:
256,192,124483,1,8,0:0:0:0:
256,192,124650,1,0,0:0:0:0:
256,192,124817,1,8,0:0:0:0:
256,192,124901,1,8,0:0:0:0:
256,192,124983,1,0,0:0:0:0:
256,192,125067,5,0,0:0:0:0:
256,192,125151,1,8,0:0:0:0:
256,192,125317,1,0,0:0:0:0:
256,192,125651,1,8,0:0:0:0:
256,192,125817,1,0,0:0:0:0:
256,192,125901,1,0,0:0:0:0:
256,192,125984,1,8,0:0:0:0:
256,192,126151,1,0,0:0:0:0:
256,192,126317,1,8,0:0:0:0:
256,192,126401,1,8,0:0:0:0:
256,192,126484,1,0,0:0:0:0:
256,192,126567,1,0,0:0:0:0:
256,192,126651,1,8,0:0:0:0:
256,192,126817,1,0,0:0:0:0:
256,192,126984,1,8,0:0:0:0:
256,192,127151,1,0,0:0:0:0:
256,192,127234,1,0,0:0:0:0:
256,192,127317,1,8,0:0:0:0:
256,192,127401,1,8,0:0:0:0:
256,192,127484,1,0,0:0:0:0:
256,192,127651,1,8,0:0:0:0:
256,192,127817,1,0,0:0:0:0:
256,192,127984,1,8,0:0:0:0:
256,192,128151,1,0,0:0:0:0:
256,192,128234,1,0,0:0:0:0:
256,192,128317,1,8,0:0:0:0:
256,192,128401,1,0,0:0:0:0:
256,192,128484,1,8,0:0:0:0:
256,192,128651,1,0,0:0:0:0:
256,192,128817,1,8,0:0:0:0:
256,192,128901,1,8,0:0:0:0:
256,192,128984,1,0,0:0:0:0:
256,192,129067,1,8,0:0:0:0:
256,192,129151,1,0,0:0:0:0:
256,192,129317,1,8,0:0:0:0:
256,192,129484,1,0,0:0:0:0:
256,192,129567,1,8,0:0:0:0:
256,192,129734,1,0,0:0:0:0:
256,192,129817,1,8,0:0:0:0:
256,192,129984,1,8,0:0:0:0:
256,192,130067,1,8,0:0:0:0:
256,192,130151,1,0,0:0:0:0:
256,192,130317,1,8,0:0:0:0:
256,192,130401,1,0,0:0:0:0:
256,192,130484,1,8,0:0:0:0:
256,96,130651,1,4,0:0:0:0:
256,192,130984,1,8,0:0:0:0:
256,192,131151,1,0,0:0:0:0:
256,192,131317,1,8,0:0:0:0:
256,192,131401,1,0,0:0:0:0:
256,192,131484,1,8,0:0:0:0:
256,192,131651,1,0,0:0:0:0:
256,192,131734,1,0,0:0:0:0:
256,192,131817,1,0,0:0:0:0:
256,192,131984,1,8,0:0:0:0:
256,192,132151,1,0,0:0:0:0:
256,192,132234,1,0,0:0:0:0:
256,192,132401,1,8,0:0:0:0:
256,192,132484,1,0,0:0:0:0:
256,192,132651,1,8,0:0:0:0:
256,192,132817,1,0,0:0:0:0:
256,192,132901,1,0,0:0:0:0:
256,192,132984,1,8,0:0:0:0:
256,192,133151,1,0,0:0:0:0:
256,192,133317,1,8,0:0:0:0:
256,192,133651,1,0,0:0:0:0:
256,192,133817,1,8,0:0:0:0:
256,192,133901,1,0,0:0:0:0:
256,192,133984,1,8,0:0:0:0:
256,192,134151,1,0,0:0:0:0:
256,192,134317,1,8,0:0:0:0:
256,192,134401,1,8,0:0:0:0:
256,192,134484,1,0,0:0:0:0:
256,192,134651,1,8,0:0:0:0:
256,192,134817,1,8,0:0:0:0:
256,192,134901,1,8,0:0:0:0:
256,192,134984,1,8,0:0:0:0:
256,192,135151,1,0,0:0:0:0:
256,192,135317,1,8,0:0:0:0:
256,192,135401,1,0,0:0:0:0:
256,192,135484,1,8,0:0:0:0:
256,192,135651,1,0,0:0:0:0:
256,192,135762,1,0,0:0:0:0:
256,192,135873,1,0,0:0:0:0:
256,192,135984,1,8,0:0:0:0:
256,192,136317,1,8,0:0:0:0:
256,192,136401,1,8,0:0:0:0:
256,192,136484,1,0,0:0:0:0:
256,192,136567,1,0,0:0:0:0:
256,192,136651,1,8,0:0:0:0:
256,192,136817,1,0,0:0:0:0:
256,192,136984,1,8,0:0:0:0:
256,192,137067,1,8,0:0:0:0:
256,192,137151,1,0,0:0:0:0:
256,192,137317,1,8,0:0:0:0:
256,192,137484,1,8,0:0:0:0:
256,192,137651,1,0,0:0:0:0:
256,192,137734,1,0,0:0:0:0:
256,192,137817,1,8,0:0:0:0:
256,192,137984,1,0,0:0:0:0:
256,192,138095,1,0,0:0:0:0:
256,192,138206,1,0,0:0:0:0:
256,192,138317,1,8,0:0:0:0:
256,192,138540,1,0,0:0:0:0:
256,192,138651,1,8,0:0:0:0:
256,192,138984,1,8,0:0:0:0:
256,192,139067,1,8,0:0:0:0:
256,192,139151,1,0,0:0:0:0:
256,192,139317,1,8,0:0:0:0:
256,192,139484,1,0,0:0:0:0:
256,192,139567,1,0,0:0:0:0:
256,192,139651,1,8,0:0:0:0:
256,192,139734,1,8,0:0:0:0:
256,192,139817,1,0,0:0:0:0:
256,192,139984,1,8,0:0:0:0:
256,192,140151,1,8,0:0:0:0:
256,192,140234,1,8,0:0:0:0:
256,192,140318,1,0,0:0:0:0:
256,192,140484,1,0,0:0:0:0:
256,192,140734,1,0,0:0:0:0:
256,192,140901,1,8,0:0:0:0:
256,192,140984,1,0,0:0:0:0:
256,96,141317,1,12,0:0:0:0:
256,192,141651,1,0,0:0:0:0:
256,192,141817,1,0,0:0:0:0:
256,192,141984,1,8,0:0:0:0:
256,192,142067,1,8,0:0:0:0:
256,192,142151,1,0,0:0:0:0:
256,192,142317,1,8,0:0:0:0:
256,192,142484,1,8,0:0:0:0:
256,192,142567,1,8,0:0:0:0:
256,192,142651,1,0,0:0:0:0:
256,192,142734,1,0,0:0:0:0:
256,192,142817,1,8,0:0:0:0:
256,192,142984,1,0,0:0:0:0:
256,192,143151,1,8,0:0:0:0:
256,192,143317,1,0,0:0:0:0:
256,192,143401,1,8,0:0:0:0:
256,192,143567,1,0,0:0:0:0:
256,192,143651,1,0,0:0:0:0:
256,192,143817,1,8,0:0:0:0:
256,192,143901,1,8,0:0:0:0:
256,192,143983,1,0,0:0:0:0:
256,192,144317,1,8,0:0:0:0:
256,192,144484,1,0,0:0:0:0:
256,192,144567,1,8,0:0:0:0:
256,192,144651,1,0,0:0:0:0:
256,192,144734,1,8,0:0:0:0:
256,192,144817,1,0,0:0:0:0:
256,192,144984,1,8,0:0:0:0:
256,192,145151,1,8,0:0:0:0:
256,192,145234,1,8,0:0:0:0:
256,192,145317,1,0,0:0:0:0:
256,192,145484,1,8,0:0:0:0:
256,192,145651,1,0,0:0:0:0:
256,192,145817,1,8,0:0:0:0:
256,192,145984,1,8,0:0:0:0:
256,192,146067,1,0,0:0:0:0:
256,192,146150,1,8,0:0:0:0:
256,192,146317,1,0,0:0:0:0:
256,192,146401,1,0,0:0:0:0:
256,192,146483,1,0,0:0:0:0:
256,192,146567,1,0,0:0:0:0:
256,192,146651,1,8,0:0:0:0:
256,192,146984,1,0,0:0:0:0:
256,192,147067,1,0,0:0:0:0:
256,192,147151,1,8,0:0:0:0:
256,192,147234,1,8,0:0:0:0:
256,192,147317,1,0,0:0:0:0:
256,192,147484,1,8,0:0:0:0:
256,192,147651,1,0,0:0:0:0:
256,192,147734,1,0,0:0:0:0:
256,192,147817,1,8,0:0:0:0:
256,192,147984,1,0,0:0:0:0:
256,192,148151,1,8,0:0:0:0:
256,192,148234,1,8,0:0:0:0:
256,192,148317,1,0,0:0:0:0:
256,192,148401,1,0,0:0:0:0:
256,192,148483,1,8,0:0:0:0:
256,192,148651,1,0,0:0:0:0:
256,192,148817,1,8,0:0:0:0:
256,192,148901,1,8,0:0:0:0:
256,192,148984,1,0,0:0:0:0:
256,192,149151,1,8,0:0:0:0:
256,192,149317,1,0,0:0:0:0:
256,192,149651,1,0,0:0:0:0:
256,192,149817,1,8,0:0:0:0:
256,192,149901,1,0,0:0:0:0:
256,192,149984,1,8,0:0:0:0:
256,192,150067,1,8,0:0:0:0:
256,192,150151,1,0,0:0:0:0:
256,192,150317,1,8,0:0:0:0:
256,192,150401,1,8,0:0:0:0:
256,192,150484,1,0,0:0:0:0:
256,192,150567,1,0,0:0:0:0:
256,192,150650,1,8,0:0:0:0:
256,192,150817,1,8,0:0:0:0:
256,192,150984,1,0,0:0:0:0:
256,192,151067,1,0,0:0:0:0:
256,192,151151,1,8,0:0:0:0:
256,192,151234,1,8,0:0:0:0:
256,192,151317,1,0,0:0:0:0:
256,192,151483,1,8,0:0:0:0:
256,192,151651,1,8,0:0:0:0:
256,192,151734,1,8,0:0:0:0:
256,192,151817,1,0,0:0:0:0:
256,192,151984,1,8,0:0:0:0:
