osu file format v14

[General]
AudioFilename: audio.mp3
AudioLeadIn: 0
PreviewTime: 109276
Countdown: 0
SampleSet: Normal
StackLeniency: 0.7
Mode: 1
LetterboxInBreaks: 0
WidescreenStoryboard: 1

[Editor]
Bookmarks: 22651,43984,65317,86651,109317,130651,151984
DistanceSpacing: 2
BeatDivisor: 4
GridSize: 32
TimelineZoom: 2.100001

[Metadata]
Title:Another
TitleUnicode:Another
Artist:Cinamoro
ArtistUnicode:Cinamoro
Creator:Hivie
Version:Futsuu
Source:
Tags:fa featured artist osu!taiko world cup twc 2023 ro16 hr1 petit house fact_arti artifact artworld electronic instrumental artcore breakbeat hardcore piano vivid/stasis
BeatmapID:4082200
BeatmapSetID:1963582

[Difficulty]
HPDrainRate:7
CircleSize:2
OverallDifficulty:4
ApproachRate:10
SliderMultiplier:1.4
SliderTickRate:1

[Events]
//Background and Video events
0,0,"bg.jpg",0,-50
//Break Periods
2,86851,96867
//Storyboard Layer 0 (Background)
//Storyboard Layer 1 (Fail)
//Storyboard Layer 2 (Pass)
//Storyboard Layer 3 (Foreground)
//Storyboard Layer 4 (Overlay)
//Storyboard Sound Samples

[TimingPoints]
1318,333.333333333333,4,1,0,50,1,0
1318,-133.333333333333,4,1,0,50,0,0
22401,-100,4,1,0,90,0,0
86984,-125,4,1,0,50,0,0
97317,-100,4,1,0,50,0,0
97814,-100,4,1,0,50,0,0
97981,-100,4,1,0,52,0,0
98148,-100,4,1,0,54,0,0
98314,-100,4,1,0,55,0,0
98481,-100,4,1,0,57,0,0
98648,-100,4,1,0,59,0,0
99148,-100,4,1,0,61,0,0
99314,-100,4,1,0,62,0,0
99398,-100,4,1,0,64,0,0
99481,-100,4,1,0,66,0,0
99648,-100,4,1,0,68,0,0
99814,-100,4,1,0,70,0,0
99981,-100,4,1,0,71,0,0
100314,-100,4,1,0,73,0,0
100481,-100,4,1,0,75,0,0
100648,-100,4,1,0,77,0,0
100814,-100,4,1,0,79,0,0
100898,-100,4,1,0,80,0,0
100981,-100,4,1,0,82,0,0
101148,-100,4,1,0,84,0,0
101481,-100,4,1,0,86,0,0
101648,-100,4,1,0,88,0,0
101814,-100,4,1,0,89,0,0
101981,-100,4,1,0,90,0,0
102148,-100,4,1,0,90,0,0
102231,-100,4,1,0,90,0,0
102314,-100,4,1,0,90,0,0
102481,-100,4,1,0,90,0,0
102648,-100,4,1,0,90,0,0
107901,-100,4,1,0,50,0,0
109234,-100,4,1,0,90,0,0
109317,-100,4,1,0,90,0,1
130651,-100,4,1,0,90,0,0
151981,-100,4,1,0,90,0,0

[HitObjects]
256,96,22651,5,12,0:0:0:0:
256,192,23151,1,8,0:0:0:0:
256,192,23317,1,0,0:0:0:0:
256,192,23484,1,0,0:0:0:0:
256,192,23651,1,8,0:0:0:0:
256,192,23984,1,0,0:0:0:0:
256,192,24484,1,0,0:0:0:0:
256,192,24817,1,8,0:0:0:0:
256,192,24984,1,8,0:0:0:0:
256,192,25317,1,8,0:0:0:0:
256,192,25818,1,8,0:0:0:0:
256,192,26151,1,0,0:0:0:0:
256,192,26317,1,0,0:0:0:0:
256,192,26484,1,8,0:0:0:0:
256,192,27151,1,0,0:0:0:0:
256,192,27317,1,8,0:0:0:0:
256,192,27484,1,0,0:0:0:0:
256,192,27651,1,8,0:0:0:0:
256,192,27984,1,0,0:0:0:0:
256,192,28484,1,8,0:0:0:0:
256,192,28651,1,0,0:0:0:0:
256,192,28817,1,0,0:0:0:0:
256,192,28984,1,8,0:0:0:0:
256,192,29317,1,0,0:0:0:0:
256,192,29817,1,0,0:0:0:0:
256,192,29984,1,8,0:0:0:0:
256,192,30151,1,0,0:0:0:0:
256,192,30317,1,8,0:0:0:0:
256,192,30651,1,0,0:0:0:0:
256,192,31151,1,8,0:0:0:0:
256,192,31984,1,8,0:0:0:0:
256,192,32484,1,8,0:0:0:0:
256,192,32651,1,0,0:0:0:0:
256,192,32817,1,8,0:0:0:0:
256,192,32984,1,8,0:0:0:0:
256,192,33317,1,0,0:0:0:0:
256,192,33817,1,0,0:0:0:0:
256,192,34151,1,8,0:0:0:0:
256,192,34317,1,8,0:0:0:0:
256,192,34484,1,8,0:0:0:0:
256,192,34651,1,0,0:0:0:0:
256,192,35151,1,0,0:0:0:0:
256,192,35317,1,8,0:0:0:0:
256,192,35484,1,8,0:0:0:0:
256,192,35651,1,0,0:0:0:0:
256,192,35984,1,8,0:0:0:0:
256,192,36484,1,0,0:0:0:0:
256,192,36651,1,0,0:0:0:0:
256,192,36817,1,8,0:0:0:0:
256,192,36984,1,8,0:0:0:0:
256,192,37317,1,0,0:0:0:0:
256,192,37817,1,0,0:0:0:0:
256,192,37984,1,8,0:0:0:0:
256,192,38151,1,8,0:0:0:0:
256,192,38317,1,0,0:0:0:0:
256,192,38651,1,0,0:0:0:0:
256,192,39317,1,8,0:0:0:0:
256,192,39651,1,0,0:0:0:0:
256,192,39817,1,8,0:0:0:0:
256,192,39984,1,0,0:0:0:0:
256,192,40317,1,8,0:0:0:0:
256,192,40484,1,8,0:0:0:0:
256,192,40651,1,0,0:0:0:0:
256,192,40817,1,0,0:0:0:0:
256,192,40984,1,8,0:0:0:0:
256,192,41317,1,0,0:0:0:0:
256,192,41651,1,8,0:0:0:0:
256,192,41984,1,0,0:0:0:0:
256,192,42151,1,0,0:0:0:0:
256,192,42317,1,8,0:0:0:0:
256,192,42484,1,8,0:0:0:0:
256,192,42817,2,0,L|256:256,10,35
256,96,43984,5,12,0:0:0:0:
256,192,44651,1,8,0:0:0:0:
256,192,44817,1,0,0:0:0:0:
256,192,44984,1,8,0:0:0:0:
256,192,45151,1,8,0:0:0:0:
256,192,45484,1,0,0:0:0:0:
256,192,45651,1,8,0:0:0:0:
256,192,45984,1,0,0:0:0:0:
256,192,46151,1,0,0:0:0:0:
256,192,46317,1,8,0:0:0:0:
256,192,46651,1,0,0:0:0:0:
256,192,47317,1,8,0:0:0:0:
256,192,47484,1,0,0:0:0:0:
256,192,47651,1,8,0:0:0:0:
256,192,47817,1,8,0:0:0:0:
256,192,48151,1,0,0:0:0:0:
256,192,48317,1,8,0:0:0:0:
256,192,48651,1,0,0:0:0:0:
256,192,48817,1,8,0:0:0:0:
256,192,48984,1,0,0:0:0:0:
256,192,49317,1,8,0:0:0:0:
256,192,49984,1,8,0:0:0:0:
256,192,50317,1,0,0:0:0:0:
256,192,50484,1,8,0:0:0:0:
256,192,50817,1,8,0:0:0:0:
256,192,50984,1,0,0:0:0:0:
256,192,51151,1,0,0:0:0:0:
256,192,51317,1,8,0:0:0:0:
256,192,51651,1,8,0:0:0:0:
256,192,51817,1,8,0:0:0:0:
256,192,51984,1,0,0:0:0:0:
256,192,52317,1,8,0:0:0:0:
256,192,52651,1,0,0:0:0:0:
256,192,52817,1,0,0:0:0:0:
256,192,52984,1,8,0:0:0:0:
256,192,53151,1,8,0:0:0:0:
256,192,53317,1,0,0:0:0:0:
256,192,53651,1,8,0:0:0:0:
256,192,53984,1,0,0:0:0:0:
256,192,54151,1,8,0:0:0:0:
256,192,54317,1,0,0:0:0:0:
256,96,54651,1,12,0:0:0:0:
256,192,55318,1,8,0:0:0:0:
256,192,55484,1,8,0:0:0:0:
256,192,55651,1,0,0:0:0:0:
256,192,55817,1,8,0:0:0:0:
256,192,55984,1,0,0:0:0:0:
256,192,56317,1,8,0:0:0:0:
256,192,56651,1,0,0:0:0:0:
256,192,56817,1,0,0:0:0:0:
256,192,56984,1,8,0:0:0:0:
256,192,57151,1,0,0:0:0:0:
256,192,57317,1,8,0:0:0:0:
256,192,57651,1,0,0:0:0:0:
256,192,57984,1,8,0:0:0:0:
256,192,58151,1,0,0:0:0:0:
256,192,58317,1,8,0:0:0:0:
256,192,58651,1,0,0:0:0:0:
256,192,58984,1,8,0:0:0:0:
256,192,59151,1,8,0:0:0:0:
256,192,59317,1,0,0:0:0:0:
256,192,59484,1,0,0:0:0:0:
256,192,59651,1,8,0:0:0:0:
256,192,59984,1,8,0:0:0:0:
256,192,60651,1,0,0:0:0:0:
256,192,60817,1,0,0:0:0:0:
256,192,60984,1,8,0:0:0:0:
256,192,61151,1,0,0:0:0:0:
256,192,61317,1,8,0:0:0:0:
256,192,61651,1,0,0:0:0:0:
256,192,61984,1,8,0:0:0:0:
256,192,62151,1,8,0:0:0:0:
256,192,62317,1,0,0:0:0:0:
256,96,62651,1,12,0:0:0:0:
256,96,63151,1,12,0:0:0:0:
256,96,63984,1,12,0:0:0:0:
256,96,64234,1,12,0:0:0:0:
256,96,64484,1,12,0:0:0:0:
256,192,64984,1,8,0:0:0:0:
256,192,65151,1,8,0:0:0:0:
256,192,65317,1,0,0:0:0:0:
256,192,65651,1,8,0:0:0:0:
256,192,65984,1,0,0:0:0:0:
256,192,66151,1,8,0:0:0:0:
256,192,66317,1,0,0:0:0:0:
256,192,66651,1,8,0:0:0:0:
256,192,66901,1,8,0:0:0:0:
256,192,67151,1,8,0:0:0:0:
256,192,67651,1,8,0:0:0:0:
256,192,67817,1,8,0:0:0:0:
256,192,67984,1,0,0:0:0:0:
256,192,68317,1,8,0:0:0:0:
256,192,68651,1,0,0:0:0:0:
256,192,68817,1,0,0:0:0:0:
256,192,68984,1,8,0:0:0:0:
256,192,69317,1,8,0:0:0:0:
256,192,69567,1,8,0:0:0:0:
256,192,69817,1,8,0:0:0:0:
256,192,70651,1,8,0:0:0:0:
256,192,70984,1,0,0:0:0:0:
256,192,71151,1,8,0:0:0:0:
256,192,71484,1,8,0:0:0:0:
256,192,71651,1,0,0:0:0:0:
256,192,71984,1,8,0:0:0:0:
256,192,72235,1,0,0:0:0:0:
256,192,72484,1,8,0:0:0:0:
256,192,72984,1,0,0:0:0:0:
256,192,73151,1,0,0:0:0:0:
256,192,73317,1,8,0:0:0:0:
256,192,73651,1,0,0:0:0:0:
256,192,73984,1,8,0:0:0:0:
256,192,74151,1,8,0:0:0:0:
256,192,74317,1,0,0:0:0:0:
256,192,74651,1,8,0:0:0:0:
256,192,74901,1,8,0:0:0:0:
256,192,75151,1,8,0:0:0:0:
256,192,75651,1,8,0:0:0:0:
256,192,75984,1,0,0:0:0:0:
256,192,76651,1,8,0:0:0:0:
256,192,76984,1,0,0:0:0:0:
256,192,77317,1,0,0:0:0:0:
256,192,77484,1,8,0:0:0:0:
256,192,77651,1,0,0:0:0:0:
256,192,77984,1,8,0:0:0:0:
256,192,78317,1,8,0:0:0:0:
256,192,78651,1,0,0:0:0:0:
256,192,79317,1,8,0:0:0:0:
256,192,79651,1,0,0:0:0:0:
256,192,79817,1,0,0:0:0:0:
256,192,79984,1,8,0:0:0:0:
256,192,80317,1,8,0:0:0:0:
256,192,80651,1,0,0:0:0:0:
256,192,80984,1,8,0:0:0:0:
256,192,81151,1,8,0:0:0:0:
256,192,81317,1,0,0:0:0:0:
256,192,81984,1,8,0:0:0:0:
256,192,82317,1,0,0:0:0:0:
256,192,82484,1,8,0:0:0:0:
256,192,82651,1,0,0:0:0:0:
256,192,82984,1,8,0:0:0:0:
256,192,83317,1,0,0:0:0:0:
256,192,83484,1,0,0:0:0:0:
256,192,83651,1,8,0:0:0:0:
256,192,83984,1,0,0:0:0:0:
256,192,84651,1,8,0:0:0:0:
256,192,84984,1,8,0:0:0:0:
256,192,85317,1,0,0:0:0:0:
256,192,85567,1,0,0:0:0:0:
256,192,85817,1,0,0:0:0:0:
256,192,86317,1,0,0:0:0:0:
256,192,86651,1,8,0:0:0:0:
256,192,97317,5,8,0:0:0:0:
256,192,97817,1,0,0:0:0:0:
256,192,97984,1,8,0:0:0:0:
256,192,98317,1,8,0:0:0:0:
256,192,98484,1,8,0:0:0:0:
256,192,98651,1,0,0:0:0:0:
256,192,99151,1,8,0:0:0:0:
256,192,99317,1,0,0:0:0:0:
256,192,99651,1,0,0:0:0:0:
256,192,99817,1,0,0:0:0:0:
256,192,99984,1,8,0:0:0:0:
256,192,100317,1,0,0:0:0:0:
256,192,100484,1,8,0:0:0:0:
256,192,100651,1,0,0:0:0:0:
256,192,100984,1,8,0:0:0:0:
256,192,101151,1,8,0:0:0:0:
256,192,101484,1,0,0:0:0:0:
256,192,101651,1,8,0:0:0:0:
256,192,101984,1,0,0:0:0:0:
256,192,102317,1,8,0:0:0:0:
256,192,102484,1,8,0:0:0:0:
256,192,102651,1,0,0:0:0:0:
256,192,103317,1,8,0:0:0:0:
256,192,103484,1,8,0:0:0:0:
256,192,103651,1,0,0:0:0:0:
256,192,103817,1,8,0:0:0:0:
256,192,104151,1,0,0:0:0:0:
256,192,104317,1,0,0:0:0:0:
256,192,104651,1,8,0:0:0:0:
256,192,104817,1,8,0:0:0:0:
256,192,104984,1,0,0:0:0:0:
256,96,105317,1,12,0:0:0:0:
256,96,105817,1,12,0:0:0:0:
256,96,106650,1,12,0:0:0:0:
256,96,106900,1,12,0:0:0:0:
256,96,107150,1,12,0:0:0:0:
256,96,107651,1,12,0:0:0:0:
256,192,107984,12,0,108651,0:0:0:0:
256,96,109317,5,12,0:0:0:0:
256,192,109985,1,8,0:0:0:0:
256,192,110151,1,0,0:0:0:0:
256,192,110317,1,8,0:0:0:0:
256,192,110485,1,8,0:0:0:0:
256,192,110984,1,0,0:0:0:0:
256,192,111317,1,8,0:0:0:0:
256,192,111484,1,8,0:0:0:0:
256,192,111651,1,0,0:0:0:0:
256,192,111984,1,8,0:0:0:0:
256,192,112318,1,0,0:0:0:0:
256,192,112651,1,8,0:0:0:0:
256,192,112817,1,8,0:0:0:0:
256,192,112984,1,0,0:0:0:0:
256,192,113151,1,8,0:0:0:0:
256,192,113484,1,8,0:0:0:0:
256,192,113651,1,0,0:0:0:0:
256,192,113984,1,8,0:0:0:0:
256,192,114151,1,8,0:0:0:0:
256,192,114317,1,0,0:0:0:0:
256,192,114651,1,8,0:0:0:0:
256,192,115317,1,8,0:0:0:0:
256,192,115484,1,8,0:0:0:0:
256,192,115651,1,0,0:0:0:0:
256,192,115817,1,0,0:0:0:0:
256,192,116317,1,0,0:0:0:0:
256,192,116651,1,8,0:0:0:0:
256,192,116817,1,8,0:0:0:0:
256,192,116984,1,0,0:0:0:0:
256,192,117151,1,0,0:0:0:0:
256,192,117317,1,8,0:0:0:0:
256,192,117651,1,0,0:0:0:0:
256,192,117984,1,8,0:0:0:0:
256,192,118151,1,0,0:0:0:0:
256,192,118317,1,8,0:0:0:0:
256,192,118484,1,8,0:0:0:0:
256,192,118817,1,0,0:0:0:0:
256,192,118984,1,0,0:0:0:0:
256,192,119317,1,8,0:0:0:0:
256,192,119484,1,8,0:0:0:0:
256,192,119651,1,0,0:0:0:0:
256,192,119817,1,0,0:0:0:0:
256,192,119984,1,8,0:0:0:0:
256,192,120651,1,0,0:0:0:0:
256,192,120817,1,8,0:0:0:0:
256,192,120983,1,0,0:0:0:0:
256,192,121151,1,8,0:0:0:0:
256,192,121650,1,0,0:0:0:0:
256,192,121983,1,8,0:0:0:0:
256,192,122150,1,8,0:0:0:0:
256,192,122317,1,0,0:0:0:0:
256,192,122484,1,0,0:0:0:0:
256,192,122650,1,8,0:0:0:0:
256,192,122984,1,0,0:0:0:0:
256,192,123317,1,8,0:0:0:0:
256,192,123483,1,8,0:0:0:0:
256,192,123650,1,0,0:0:0:0:
256,192,123817,1,8,0:0:0:0:
256,192,123984,1,0,0:0:0:0:
256,192,124317,1,8,0:0:0:0:
256,192,124650,1,0,0:0:0:0:
256,192,124817,1,0,0:0:0:0:
256,192,124983,5,8,0:0:0:0:
256,192,125317,5,0,0:0:0:0:
256,192,125984,1,8,0:0:0:0:
256,192,126317,1,0,0:0:0:0:
256,192,126484,1,0,0:0:0:0:
256,192,126651,1,8,0:0:0:0:
256,192,126984,1,0,0:0:0:0:
256,192,127317,1,8,0:0:0:0:
256,192,127484,1,0,0:0:0:0:
256,192,127651,1,8,0:0:0:0:
256,192,127817,1,8,0:0:0:0:
256,192,127984,1,0,0:0:0:0:
256,192,128317,1,0,0:0:0:0:
256,192,128651,1,8,0:0:0:0:
256,192,128817,1,8,0:0:0:0:
256,192,128984,1,0,0:0:0:0:
256,192,129151,1,0,0:0:0:0:
256,192,129317,1,8,0:0:0:0:
256,192,129651,1,0,0:0:0:0:
256,192,129817,1,0,0:0:0:0:
256,192,129984,1,8,0:0:0:0:
256,192,130151,1,0,0:0:0:0:
256,192,130317,1,8,0:0:0:0:
256,96,130651,5,12,0:0:0:0:
256,192,131317,1,8,0:0:0:0:
256,192,131651,1,0,0:0:0:0:
256,192,131817,1,0,0:0:0:0:
256,192,131984,1,8,0:0:0:0:
256,192,132234,1,0,0:0:0:0:
256,192,132484,1,8,0:0:0:0:
256,192,132984,1,0,0:0:0:0:
256,192,133317,1,8,0:0:0:0:
256,192,133651,1,0,0:0:0:0:
256,192,133817,1,0,0:0:0:0:
256,192,133984,1,8,0:0:0:0:
256,192,134151,1,0,0:0:0:0:
256,192,134317,1,8,0:0:0:0:
256,192,134651,1,0,0:0:0:0:
256,192,134817,1,8,0:0:0:0:
256,192,134984,1,8,0:0:0:0:
256,192,135317,1,0,0:0:0:0:
256,192,135651,1,8,0:0:0:0:
256,192,135984,1,0,0:0:0:0:
256,192,136651,1,8,0:0:0:0:
256,192,136984,1,0,0:0:0:0:
256,192,137151,1,8,0:0:0:0:
256,192,137484,1,8,0:0:0:0:
256,192,137651,1,0,0:0:0:0:
256,192,137984,1,8,0:0:0:0:
256,192,138317,1,0,0:0:0:0:
256,192,138651,1,8,0:0:0:0:
256,192,138984,1,0,0:0:0:0:
256,192,139151,1,0,0:0:0:0:
256,192,139317,1,8,0:0:0:0:
256,192,139651,1,0,0:0:0:0:
256,192,139817,1,8,0:0:0:0:
256,192,140151,1,8,0:0:0:0:
256,192,140318,1,8,0:0:0:0:
256,192,140651,1,0,0:0:0:0:
256,192,140984,1,0,0:0:0:0:
256,96,141317,1,12,0:0:0:0:
256,192,141984,1,8,0:0:0:0:
256,192,142151,1,0,0:0:0:0:
256,192,142317,1,8,0:0:0:0:
256,192,142484,1,8,0:0:0:0:
256,192,142817,1,8,0:0:0:0:
256,192,142984,1,0,0:0:0:0:
256,192,143151,1,8,0:0:0:0:
256,192,143317,1,0,0:0:0:0:
256,192,143651,1,8,0:0:0:0:
256,192,143983,1,0,0:0:0:0:
256,192,144317,1,8,0:0:0:0:
256,192,144651,1,0,0:0:0:0:
256,192,144817,1,0,0:0:0:0:
256,192,144984,1,8,0:0:0:0:
256,192,145151,1,8,0:0:0:0:
256,192,145484,1,8,0:0:0:0:
256,192,145651,1,0,0:0:0:0:
256,192,145984,1,8,0:0:0:0:
256,192,146317,1,0,0:0:0:0:
256,192,146483,1,0,0:0:0:0:
256,192,146651,1,8,0:0:0:0:
256,192,147317,1,0,0:0:0:0:
256,192,147484,1,8,0:0:0:0:
256,192,147651,1,0,0:0:0:0:
256,192,147817,1,0,0:0:0:0:
256,192,147984,1,8,0:0:0:0:
256,192,148317,1,0,0:0:0:0:
256,192,148484,1,8,0:0:0:0:
256,192,148817,1,0,0:0:0:0:
256,192,149151,1,8,0:0:0:0:
256,192,149317,1,0,0:0:0:0:
256,192,149651,1,0,0:0:0:0:
256,192,149984,1,8,0:0:0:0:
256,192,150151,1,8,0:0:0:0:
256,192,150317,1,0,0:0:0:0:
256,192,150484,1,0,0:0:0:0:
256,192,150650,1,8,0:0:0:0:
256,192,150984,1,0,0:0:0:0:
256,192,151151,1,0,0:0:0:0:
256,192,151317,1,8,0:0:0:0:
256,192,151484,1,8,0:0:0:0:
256,192,151651,1,0,0:0:0:0:
256,192,151984,1,8,0:0:0:0:
