osu file format v14

[General]
AudioFilename: Another_Loud.ogg
AudioLeadIn: 0
PreviewTime: 43935
Countdown: 0
SampleSet: Soft
StackLeniency: 0.7
Mode: 3
LetterboxInBreaks: 0
SpecialStyle: 0
WidescreenStoryboard: 1

[Editor]
Bookmarks: 22644,43977,65310,75810,86644,109310,130644,151977
DistanceSpacing: 0.6
BeatDivisor: 4
GridSize: 4
TimelineZoom: 1.9

[Metadata]
Title:Another
TitleUnicode:Another
Artist:Cinamoro
ArtistUnicode:Cinamoro
Creator:FAMoss
Version:Insane
Source:
Tags:petit house fact_arti artifact artworld electronic instrumental artcore core breakbeat hardcore chiptune piano vivid/stasis
BeatmapID:3939725
BeatmapSetID:1910036

[Difficulty]
HPDrainRate:8.3
CircleSize:4
OverallDifficulty:8.3
ApproachRate:5
SliderMultiplier:1.4
SliderTickRate:1

[Events]
//Background and Video events
0,0,"eytan-zana-water-temple-hires.jpg",0,0
//Break Periods
//Storyboard Layer 0 (Background)
//Storyboard Layer 1 (Fail)
//Storyboard Layer 2 (Pass)
//Storyboard Layer 3 (Foreground)
//Storyboard Layer 4 (Overlay)
//Storyboard Sound Samples
Sample,10331,0,"F6S_s.wav",80
Sample,13165,0,"D7S_s.wav",80
Sample,15665,0,"F6S_s.wav",80
Sample,72227,0,"amenbreak_snare1.wav",50
Sample,137560,0,"amenbreak_snare1.wav",50
Sample,138144,0,"amenbreak_snare2.wav",50
Sample,149644,0,"amenbreak_snare1.wav",50
Sample,150894,0,"amenbreak_snare1.wav",50

[TimingPoints]
1311,333.333333333333,4,2,1,60,1,0
43977,-100,4,2,1,60,0,1
65310,-100,4,2,1,60,0,0
86644,-100,4,2,1,30,0,0
101310,-100,4,2,1,40,0,0
102644,-100,4,2,1,50,0,0
109310,-100,4,2,1,60,0,1
130644,-100,4,2,1,60,0,0

[HitObjects]
320,192,1311,5,0,0:0:0:80:G6S_s.wav
448,192,1311,1,0,0:0:0:0:
64,192,2144,1,0,0:0:0:80:A#6S_Bb6S_s.wav
192,192,2310,1,0,0:0:0:80:A6S_s.wav
320,192,2477,1,0,0:0:0:80:F6S_s.wav
64,192,2644,1,0,0:0:0:80:D6S_s.wav
448,192,2644,1,0,0:0:0:0:
192,192,3144,1,0,0:0:0:80:C6S_s.wav
320,192,3227,1,0,0:0:0:80:A#5S_Bb5S_s.wav
448,192,3310,1,0,0:0:0:80:A5S_s.wav
64,192,3477,1,0,0:0:0:80:A#5S_Bb5S_s.wav
448,192,3644,1,0,0:0:0:80:C6S_s.wav
320,192,3810,1,0,0:0:0:80:D6S_s.wav
64,192,3977,1,0,0:0:0:80:D6S_s.wav
192,192,3977,1,0,0:0:0:0:
320,192,4644,1,0,0:0:0:80:D6S_s.wav
64,192,4810,1,0,0:0:0:80:G6S_s.wav
192,192,4977,1,0,0:0:0:80:A6S_s.wav
448,192,5144,1,0,0:0:0:80:A#6S_Bb6S_s.wav
320,192,5477,1,0,0:0:0:80:D7S_s.wav
192,192,5644,1,0,0:0:0:80:C7S_s.wav
448,192,5810,1,0,0:0:0:80:A#6S_Bb6S_s.wav
64,192,5977,1,0,0:0:0:80:A6S_s.wav
448,192,6144,1,0,0:0:0:80:F6S_s.wav
320,192,6199,1,0,0:0:0:80:D6S_s.wav
192,192,6255,1,0,0:0:0:80:F6S_s.wav
64,192,6310,1,0,0:0:0:80:D6S_s.wav
320,192,6477,1,0,0:0:0:80:C6S_s.wav
64,192,6644,1,0,0:0:0:80:D6S_s.wav
448,192,6644,1,0,0:0:0:0:
192,192,6977,1,0,0:0:0:80:F6S_s.wav
320,192,7144,1,0,0:0:0:80:G6S_s.wav
64,192,7477,1,0,0:0:0:80:A6S_s.wav
448,192,7810,1,0,0:0:0:80:A#6S_Bb6S_s.wav
192,192,8144,1,0,0:0:0:80:D7S_s.wav
320,192,8310,1,0,0:0:0:80:C7S_s.wav
64,192,8477,1,0,0:0:0:80:A#6S_Bb6S_s.wav
448,192,8644,1,0,0:0:0:80:A6S_s.wav
192,192,8810,1,0,0:0:0:80:G6S_s.wav
64,192,8977,1,0,0:0:0:80:F6S_s.wav
448,192,9144,1,0,0:0:0:80:D6S_s.wav
64,192,9310,1,0,0:0:0:80:C6S_s.wav
192,192,9310,1,0,0:0:0:0:
320,192,9644,1,0,0:0:0:80:C6S_s.wav
192,192,9810,1,0,0:0:0:80:A#5S_Bb5S_s.wav
448,192,9977,1,0,0:0:0:80:C6S_s.wav
64,192,10144,1,0,0:0:0:80:D6S_s.wav
192,192,10310,1,0,0:0:0:80:D6S_s.wav
448,192,10477,1,0,0:0:0:80:C6S_s.wav
320,192,10810,1,0,0:0:0:80:A#5S_Bb5S_s.wav
64,192,10977,1,0,0:0:0:80:C6S_s.wav
192,192,11144,1,0,0:0:0:80:D6S_s.wav
448,192,11310,1,0,0:0:0:80:D6S_s.wav
320,192,11477,1,0,0:0:0:80:F6S_s.wav
64,192,11644,1,0,0:0:0:80:G6S_s.wav
192,192,11810,1,0,0:0:0:80:A6S_s.wav
320,192,11977,1,0,0:0:0:80:G6S_s.wav
448,192,11977,1,0,0:0:0:0:
64,192,12310,1,0,0:0:0:80:A6S_s.wav
448,192,12477,1,0,0:0:0:80:A#6S_Bb6S_s.wav
192,192,12810,1,0,0:0:0:80:C7S_s.wav
320,192,13144,1,0,0:0:0:80:C#7S_Db7S_s.wav
64,192,13477,1,0,0:0:0:80:C7S_s.wav
448,192,13644,1,0,0:0:0:80:A#6S_Bb6S_s.wav
192,192,13810,1,0,0:0:0:80:A6S_s.wav
320,192,13977,1,0,0:0:0:80:G6S_s.wav
64,192,14144,1,0,0:0:0:80:G6S_s.wav
192,192,14199,1,0,0:0:0:80:A6S_s.wav
320,192,14255,1,0,0:0:0:80:F6S_s.wav
448,192,14310,1,0,0:0:0:80:D6S_s.wav
192,192,14477,1,0,0:0:0:80:C6S_s.wav
64,192,14644,1,0,0:0:0:80:D6S_s.wav
448,192,14644,1,0,0:0:0:0:
320,192,14977,1,0,0:0:0:80:D6S_s.wav
192,192,15144,1,0,0:0:0:80:C6S_s.wav
448,192,15310,1,0,0:0:0:80:D6S_s.wav
64,192,15477,1,0,0:0:0:80:F6S_s.wav
320,192,15644,1,0,0:0:0:80:G6S_s.wav
192,192,15810,1,0,0:0:0:80:D6S_s.wav
320,192,16144,1,0,0:0:0:80:C6S_s.wav
448,192,16310,1,0,0:0:0:80:D6S_s.wav
64,192,16477,1,0,0:0:0:80:F6S_s.wav
320,192,16644,1,0,0:0:0:80:F6S_s.wav
192,192,16810,1,0,0:0:0:80:G6S_s.wav
448,192,16977,1,0,0:0:0:80:A6S_s.wav
320,192,17144,1,0,0:0:0:80:F6S_s.wav
64,192,17310,1,0,0:0:0:80:G6S_s.wav
192,192,17310,1,0,0:0:0:0:
448,192,17477,1,0,0:0:0:80:A6S_s.wav
192,192,17810,1,0,0:0:0:80:A#6S_Bb6S_s.wav
320,192,18144,1,0,0:0:0:80:C7S_s.wav
64,192,18477,1,0,0:0:0:80:D7S_s.wav
448,192,18810,1,0,0:0:0:80:F7S_s.wav
192,192,18977,1,0,0:0:0:80:D7S_s.wav
320,192,19144,1,0,0:0:0:80:F7S_s.wav
64,192,19310,1,0,0:0:0:80:A#7S_Bb7S_s.wav
448,192,19477,1,0,0:0:0:80:A7S_s.wav
192,192,19644,1,0,0:0:0:80:F7S_s.wav
320,192,19810,1,0,0:0:0:80:D7S_s.wav
64,192,19977,1,0,0:0:0:80:C7S_s.wav
448,192,19977,1,0,0:0:0:0:
192,192,20310,1,0,0:0:0:80:A#6S_Bb6S_s.wav
320,192,20477,1,0,0:0:0:80:C7S_s.wav
64,192,20810,1,0,0:0:0:80:D7S_s.wav
448,192,21144,1,0,0:0:0:80:C7S_s.wav
192,192,21477,1,0,0:0:0:80:F6S_s.wav
320,192,21644,1,0,0:0:0:80:G6S_s.wav
64,192,21810,1,0,0:0:0:80:A6S_s.wav
448,192,21977,1,0,0:0:0:80:A#6S_Bb6S_s.wav
320,192,22144,1,0,0:0:0:80:C7S_s.wav
64,192,22310,1,0,0:0:0:80:D7S_s.wav
320,192,22477,1,2,0:0:0:0:
448,192,22477,1,0,0:0:0:0:
64,192,22644,1,2,0:0:0:0:
192,192,22644,1,0,0:0:0:0:
448,192,22810,1,0,0:0:0:0:
192,192,22894,1,0,0:0:0:0:
320,192,22977,1,0,0:0:0:0:
64,192,23144,1,2,0:0:0:0:
192,192,23144,1,0,0:0:0:0:
448,192,23227,1,0,0:0:0:0:
320,192,23310,1,0,0:0:0:0:
64,192,23477,1,0,0:0:0:0:
192,192,23644,1,0,0:0:0:0:
448,192,23810,1,0,0:0:0:0:
64,192,23977,1,2,0:0:0:0:
192,192,23977,1,0,0:0:0:0:
320,192,24144,1,0,0:0:0:0:
64,192,24227,1,0,0:0:0:0:
448,192,24310,1,0,0:0:0:0:
64,192,24477,1,2,0:0:0:0:
192,192,24477,1,0,0:0:0:0:
320,192,24644,1,0,0:0:0:0:
192,192,24810,1,0,0:0:0:0:
448,192,24977,1,0,0:0:0:0:
320,192,25144,1,0,0:0:0:0:
192,192,25227,1,2,0:0:0:0:
320,192,25269,1,2,0:0:0:0:
64,192,25310,1,2,0:0:0:0:
448,192,25310,1,0,0:0:0:0:
192,192,25477,1,0,0:0:0:0:
320,192,25560,1,0,0:0:0:0:
448,192,25644,1,0,0:0:0:0:
64,192,25810,1,2,0:0:0:0:
192,192,25810,1,0,0:0:0:0:
320,192,25977,1,0,0:0:0:0:
64,192,26144,1,0,0:0:0:0:
448,192,26310,1,0,0:0:0:0:
192,192,26477,1,0,0:0:0:0:
320,192,26644,128,0,26810:0:0:0:0:
64,192,26810,128,0,26977:0:0:0:0:
448,192,26977,128,0,27144:0:0:0:0:
64,192,27144,1,2,0:0:0:0:
192,192,27144,128,0,27310:0:0:0:0:
320,192,27310,128,0,27477:0:0:0:0:
64,192,27477,1,0,0:0:0:0:
192,192,27533,1,0,0:0:0:0:
320,192,27588,1,0,0:0:0:0:
64,192,27644,1,2,0:0:0:0:
448,192,27644,1,0,0:0:0:0:
320,192,27810,1,2,0:0:0:0:
64,192,27894,1,2,0:0:0:0:
192,192,27935,1,2,0:0:0:0:
320,192,27977,1,2,0:0:0:0:
448,192,27977,1,0,0:0:0:0:
64,192,28144,1,0,0:0:0:0:
320,192,28227,1,0,0:0:0:0:
192,192,28310,1,0,0:0:0:0:
320,192,28477,1,2,0:0:0:0:
448,192,28477,1,0,0:0:0:0:
64,192,28560,1,0,0:0:0:0:
192,192,28644,1,0,0:0:0:0:
448,192,28810,1,0,0:0:0:0:
320,192,28977,1,0,0:0:0:0:
64,192,29144,1,0,0:0:0:0:
320,192,29310,1,2,0:0:0:0:
448,192,29310,1,0,0:0:0:0:
192,192,29477,1,0,0:0:0:0:
448,192,29560,1,0,0:0:0:0:
64,192,29644,1,0,0:0:0:0:
320,192,29810,1,2,0:0:0:0:
448,192,29810,1,0,0:0:0:0:
192,192,29977,1,0,0:0:0:0:
320,192,30144,1,0,0:0:0:0:
64,192,30310,1,0,0:0:0:0:
320,192,30477,1,2,0:0:0:0:
448,192,30477,1,0,0:0:0:0:
192,192,30560,1,0,0:0:0:0:
64,192,30644,1,2,0:0:0:0:
448,192,30644,1,0,0:0:0:0:
320,192,30810,1,0,0:0:0:0:
192,192,30894,1,0,0:0:0:0:
64,192,30977,1,0,0:0:0:0:
320,192,31144,1,2,0:0:0:0:
448,192,31144,1,0,0:0:0:0:
192,192,31310,1,0,0:0:0:0:
448,192,31477,1,0,0:0:0:0:
320,192,31560,1,0,0:0:0:0:
64,192,31644,1,0,0:0:0:0:
192,192,31810,1,2,0:0:0:0:
448,192,31894,1,2,0:0:0:0:
320,192,31935,1,2,0:0:0:0:
64,192,31977,128,2,32144:0:0:0:0:
192,192,31977,1,0,0:0:0:0:
448,192,32144,128,0,32310:0:0:0:0:
64,192,32310,128,0,32477:0:0:0:0:
320,192,32477,128,2,32644:0:0:0:0:
448,192,32477,1,0,0:0:0:0:
192,192,32644,128,0,32810:0:0:0:0:
448,192,32810,1,0,0:0:0:0:
320,192,32866,1,0,0:0:0:0:
192,192,32922,1,0,0:0:0:0:
64,192,32977,1,0,0:0:0:0:
448,192,32977,1,0,0:0:0:0:
64,192,33144,1,2,0:0:0:0:
192,192,33144,1,0,0:0:0:0:
320,192,33227,1,0,0:0:0:0:
64,192,33310,1,2,0:0:0:0:
448,192,33310,128,0,33644:0:0:0:0:
192,192,33477,1,0,0:0:0:0:
320,192,33644,1,0,0:0:0:30:amenbreak_snare2.wav
64,192,33810,128,0,34144:0:0:0:0:
320,192,33977,1,0,0:0:0:0:
448,192,34144,1,0,0:0:0:0:
192,192,34310,1,0,0:0:0:0:
320,192,34477,1,0,0:0:0:0:
64,192,34644,1,2,0:0:0:0:
448,192,34644,128,0,34977:0:0:0:0:
192,192,34810,1,0,0:0:0:0:
320,192,34977,1,0,0:0:0:0:
64,192,35144,128,2,35477:0:0:0:0:
448,192,35144,1,0,0:0:0:0:
320,192,35310,1,0,0:0:0:0:
192,192,35477,1,0,0:0:0:0:
448,192,35644,1,0,0:0:0:0:
64,192,35810,1,2,0:0:0:0:
192,192,35810,1,0,0:0:0:0:
320,192,35894,1,2,0:0:0:0:
64,192,35977,1,2,0:0:0:0:
448,192,35977,1,0,0:0:0:0:
320,192,36144,1,0,0:0:0:0:
448,192,36227,1,0,0:0:0:0:
192,192,36310,1,0,0:0:0:0:
64,192,36477,1,2,0:0:0:0:
448,192,36477,1,0,0:0:0:0:
320,192,36644,1,0,0:0:0:0:
64,192,36810,1,0,0:0:0:0:
192,192,36894,1,0,0:0:0:0:
320,192,36977,1,2,0:0:0:0:
448,192,36977,1,0,0:0:0:0:
192,192,37144,1,2,0:0:0:0:
320,192,37227,1,2,0:0:0:0:
192,192,37269,1,2,0:0:0:0:
64,192,37310,1,2,0:0:0:0:
448,192,37310,1,0,0:0:0:0:
320,192,37477,1,0,0:0:0:0:
64,192,37560,1,0,0:0:0:0:
192,192,37644,1,0,0:0:0:0:
64,192,37810,1,2,0:0:0:0:
448,192,37810,1,0,0:0:0:0:
320,192,37977,1,0,0:0:0:0:
64,192,38144,1,0,0:0:0:0:
192,192,38227,1,0,0:0:0:0:
320,192,38310,1,2,0:0:0:0:
448,192,38310,1,0,0:0:0:0:
64,192,38477,1,2,0:0:0:0:
192,192,38477,1,0,0:0:0:0:
320,192,38560,1,2,0:0:0:0:
64,192,38644,1,2,0:0:0:0:
448,192,38644,1,0,0:0:0:0:
192,192,38810,1,0,0:0:0:0:
64,192,38894,1,0,0:0:0:0:
320,192,38977,1,0,0:0:0:50:amenbreak_snare2.wav
448,192,38977,1,0,0:0:0:0:
64,192,39144,1,2,0:0:0:0:
192,192,39144,1,0,0:0:0:0:
320,192,39227,1,0,0:0:0:0:
192,192,39310,1,0,0:0:0:0:
320,192,39477,1,0,0:0:0:0:
64,192,39560,1,0,0:0:0:0:
192,192,39644,1,0,0:0:0:0:
320,192,39810,1,2,0:0:0:0:
448,192,39810,1,0,0:0:0:0:
64,192,39977,1,2,0:0:0:0:
448,192,39977,1,0,0:0:0:0:
320,192,40144,1,0,0:0:0:0:
448,192,40227,1,0,0:0:0:0:
64,192,40310,1,0,0:0:0:0:
320,192,40477,1,2,0:0:0:0:
448,192,40477,1,0,0:0:0:0:
192,192,40560,1,0,0:0:0:0:
320,192,40644,1,0,0:0:0:0:
192,192,40810,1,0,0:0:0:0:
448,192,40894,1,0,0:0:0:0:
64,192,40977,1,0,0:0:0:0:
320,192,41060,1,0,0:0:0:0:
192,192,41144,1,0,0:0:0:0:
320,192,41227,1,0,0:0:0:0:
64,192,41310,1,2,0:0:0:0:
448,192,41310,1,0,0:0:0:0:
192,192,41477,1,0,0:0:0:0:
320,192,41560,1,0,0:0:0:0:
448,192,41644,1,0,0:0:0:0:
64,192,41810,1,2,0:0:0:0:
192,192,41810,1,0,0:0:0:0:
448,192,41977,1,2,0:0:0:0:
320,192,42019,1,2,0:0:0:0:
192,192,42060,1,2,0:0:0:0:
64,192,42102,1,2,0:0:0:0:
320,192,42144,1,2,0:0:0:0:
448,192,42144,1,0,0:0:0:0:
64,192,42310,1,2,0:0:0:0:
192,192,42310,1,0,0:0:0:0:
320,192,42477,1,2,0:0:0:0:
448,192,42477,1,0,0:0:0:0:
192,192,42644,1,0,0:0:0:100:D8H_s.wav
448,192,42810,1,0,0:0:0:100:C8H_s.wav
64,192,42894,1,0,0:0:0:100:D8H_s.wav
320,192,42977,1,0,0:0:0:100:C8H_s.wav
192,192,43144,1,0,0:0:0:100:A#7H_Bb7H_s.wav
448,192,43227,1,0,0:0:0:0:
64,192,43310,1,0,0:0:0:100:A7H_s.wav
320,192,43477,1,0,0:0:0:100:F7H_s.wav
192,192,43644,1,0,0:0:0:100:D7H_s.wav
320,192,43810,1,0,0:0:0:100:F7H_s.wav
64,192,43977,1,2,0:0:0:0:
192,192,43977,1,4,0:0:0:0:
448,192,43977,1,0,0:0:0:0:
320,192,44144,1,0,0:0:0:0:
64,192,44310,1,8,0:0:0:0:
448,192,44310,1,0,0:0:0:0:
192,192,44394,1,0,0:0:0:0:
320,192,44477,1,0,0:0:0:0:
64,192,44560,1,0,0:0:0:0:
448,192,44644,1,0,0:0:0:0:
64,192,44810,1,2,0:0:0:0:
192,192,44810,1,0,0:0:0:0:
320,192,44894,1,0,0:0:0:0:
64,192,44977,1,8,0:0:0:0:
448,192,44977,1,0,0:0:0:0:
192,192,45144,128,0,45310:0:0:0:0:
320,192,45310,1,2,0:0:0:0:
448,192,45310,1,0,0:0:0:0:
192,192,45477,1,0,0:0:0:0:
320,192,45560,1,0,0:0:0:0:
64,192,45644,1,8,0:0:0:0:
448,192,45644,1,0,0:0:0:0:
64,192,45810,1,0,0:0:0:0:
320,192,45977,1,0,0:0:0:0:
64,192,46144,1,2,0:0:0:0:
192,192,46144,1,0,0:0:0:0:
64,192,46310,1,8,0:0:0:0:
448,192,46310,1,0,0:0:0:0:
320,192,46477,1,0,0:0:0:0:
192,192,46560,1,0,0:0:0:0:
320,192,46644,1,2,0:0:0:0:
448,192,46644,1,0,0:0:0:0:
192,192,46810,1,0,0:0:0:0:
64,192,46977,1,8,0:0:0:0:
448,192,46977,1,0,0:0:0:0:
448,192,47144,1,0,0:0:0:0:
192,192,47310,1,0,0:0:0:0:
320,192,47477,1,2,0:0:0:0:
448,192,47477,1,0,0:0:0:0:
192,192,47560,1,0,0:0:0:0:
64,192,47644,1,8,0:0:0:0:
448,192,47644,1,0,0:0:0:0:
320,192,47810,128,0,47977:0:0:0:0:
64,192,47977,1,2,0:0:0:0:
192,192,47977,1,0,0:0:0:0:
320,192,48144,1,0,0:0:0:0:
192,192,48227,1,0,0:0:0:0:
320,192,48310,1,8,0:0:0:0:
448,192,48310,1,0,0:0:0:0:
192,192,48477,1,0,0:0:0:0:
64,192,48560,1,0,0:0:0:0:
320,192,48644,1,0,0:0:0:0:
64,192,48810,1,2,0:0:0:0:
192,192,48810,1,0,0:0:0:0:
64,192,48977,1,8,0:0:0:0:
448,192,48977,1,0,0:0:0:0:
320,192,49144,1,2,0:0:0:0:
64,192,49227,1,2,0:0:0:0:
192,192,49269,1,2,0:0:0:0:
320,192,49310,1,2,0:0:0:0:
448,192,49310,1,0,0:0:0:0:
192,192,49477,1,0,0:0:0:0:
64,192,49644,1,8,0:0:0:0:
448,192,49644,1,2,0:0:0:0:
320,192,49727,1,0,0:0:0:0:
192,192,49810,1,0,0:0:0:0:
448,192,49894,1,0,0:0:0:0:
64,192,49977,1,2,0:0:0:0:
192,192,49977,1,0,0:0:0:0:
320,192,50144,1,2,0:0:0:0:
448,192,50144,1,0,0:0:0:0:
64,192,50310,1,8,0:0:0:0:
448,192,50310,1,2,0:0:0:0:
192,192,50477,1,2,0:0:0:0:
320,192,50477,1,0,0:0:0:0:
64,192,50644,1,2,0:0:0:0:
192,192,50644,1,0,0:0:0:0:
320,192,50810,1,0,0:0:0:0:
192,192,50894,1,0,0:0:0:0:
64,192,50977,1,8,0:0:0:0:
448,192,50977,1,0,0:0:0:0:
192,192,51144,1,0,0:0:0:0:
320,192,51227,1,0,0:0:0:0:
448,192,51310,1,0,0:0:0:0:
64,192,51477,1,2,0:0:0:0:
192,192,51477,1,0,0:0:0:0:
64,192,51644,1,8,0:0:0:0:
448,192,51644,1,0,0:0:0:0:
320,192,51810,128,0,51977:0:0:0:0:
64,192,51977,1,2,0:0:0:0:
192,192,51977,1,0,0:0:0:0:
320,192,52144,1,0,0:0:0:0:
64,192,52310,1,8,0:0:0:0:
448,192,52310,1,2,0:0:0:0:
192,192,52394,1,0,0:0:0:0:
448,192,52477,1,0,0:0:0:0:
320,192,52560,1,0,0:0:0:0:
64,192,52644,1,2,0:0:0:0:
192,192,52644,1,0,0:0:0:0:
320,192,52810,1,2,0:0:0:0:
448,192,52810,1,0,0:0:0:0:
192,192,52866,1,0,0:0:0:0:
320,192,52922,1,0,0:0:0:0:
64,192,52977,1,8,0:0:0:0:
448,192,52977,1,2,0:0:0:0:
64,192,53144,1,2,0:0:0:0:
192,192,53144,1,0,0:0:0:0:
320,192,53227,1,2,0:0:0:0:
64,192,53310,1,2,0:0:0:0:
448,192,53310,1,0,0:0:0:0:
192,192,53477,1,0,0:0:0:0:
320,192,53560,1,2,0:0:0:0:
448,192,53560,1,0,0:0:0:0:
64,192,53644,1,8,0:0:0:0:
192,192,53644,1,2,0:0:0:0:
320,192,53810,1,2,0:0:0:0:
448,192,53810,1,0,0:0:0:0:
64,192,53977,1,2,0:0:0:0:
192,192,53977,1,0,0:0:0:0:
320,192,54060,1,2,0:0:0:0:
448,192,54060,1,0,0:0:0:0:
192,192,54144,1,0,0:0:0:0:
320,192,54227,1,2,0:0:0:0:
448,192,54227,1,0,0:0:0:0:
64,192,54310,1,8,0:0:0:0:
192,192,54310,1,2,0:0:0:0:
320,192,54394,1,2,0:0:0:0:
64,192,54477,1,2,0:0:0:0:
448,192,54477,1,0,0:0:0:0:
192,192,54560,1,2,0:0:0:0:
64,192,54644,1,2,0:0:0:0:
320,192,54644,1,4,0:0:0:0:
448,192,54644,1,0,0:0:0:0:
192,192,54810,1,0,0:0:0:0:
64,192,54977,1,8,0:0:0:0:
448,192,54977,1,0,0:0:0:0:
448,192,55144,1,0,0:0:0:0:
320,192,55227,1,0,0:0:0:0:
64,192,55310,128,0,55477:0:0:0:0:
192,192,55477,1,2,0:0:0:0:
320,192,55477,128,0,55644:0:0:0:0:
64,192,55644,1,8,0:0:0:0:
448,192,55644,128,0,55810:0:0:0:0:
192,192,55810,128,0,55977:0:0:0:0:
320,192,55977,1,2,0:0:0:0:
448,192,55977,1,0,0:0:0:0:
192,192,56144,1,0,0:0:0:0:
320,192,56227,1,0,0:0:0:0:
64,192,56310,1,8,0:0:0:0:
448,192,56310,1,0,0:0:0:0:
192,192,56477,1,0,0:0:0:0:
320,192,56560,1,0,0:0:0:0:
64,192,56644,128,0,56810:0:0:0:0:
320,192,56810,1,2,0:0:0:0:
448,192,56810,1,0,0:0:0:0:
192,192,56866,1,0,0:0:0:0:
320,192,56922,1,0,0:0:0:0:
64,192,56977,1,8,0:0:0:0:
448,192,56977,128,0,57144:0:0:0:0:
64,192,57144,1,2,0:0:0:0:
192,192,57144,1,0,0:0:0:0:
320,192,57227,1,2,0:0:0:0:
64,192,57310,1,2,0:0:0:0:
448,192,57310,1,0,0:0:0:0:
192,192,57477,1,0,0:0:0:0:
64,192,57644,1,8,0:0:0:0:
448,192,57644,1,0,0:0:0:0:
320,192,57727,1,0,0:0:0:0:
192,192,57810,1,0,0:0:0:0:
448,192,57894,1,0,0:0:0:0:
64,192,57977,1,0,0:0:0:0:
192,192,58060,1,0,0:0:0:0:
320,192,58144,1,2,0:0:0:0:
448,192,58144,1,0,0:0:0:0:
192,192,58227,1,0,0:0:0:0:
64,192,58310,1,8,0:0:0:0:
448,192,58310,1,0,0:0:0:0:
320,192,58477,1,0,0:0:0:0:
192,192,58560,1,0,0:0:0:0:
320,192,58644,1,2,0:0:0:0:
448,192,58644,1,0,0:0:0:0:
192,192,58810,1,0,0:0:0:0:
448,192,58866,1,0,0:0:0:0:
320,192,58922,1,0,0:0:0:0:
64,192,58977,1,8,0:0:0:0:
192,192,58977,1,0,0:0:0:0:
320,192,59144,1,0,0:0:0:0:
192,192,59227,1,0,0:0:0:0:
64,192,59310,1,2,0:0:0:0:
448,192,59310,128,0,59477:0:0:0:0:
192,192,59477,128,2,59644:0:0:0:0:
320,192,59477,1,0,0:0:0:0:
64,192,59644,128,8,59810:0:0:0:0:
448,192,59644,1,0,0:0:0:0:
320,192,59810,128,0,59977:0:0:0:0:
64,192,59977,1,2,0:0:0:0:
192,192,59977,1,0,0:0:0:0:
320,192,60144,1,0,0:0:0:0:
64,192,60310,1,8,0:0:0:0:
448,192,60310,1,2,0:0:0:0:
192,192,60394,1,0,0:0:0:0:
320,192,60477,1,0,0:0:0:0:
64,192,60560,1,0,0:0:0:0:
320,192,60644,1,2,0:0:0:0:
448,192,60644,1,0,0:0:0:0:
64,192,60810,1,2,0:0:0:0:
192,192,60810,1,0,0:0:0:0:
320,192,60866,1,0,0:0:0:0:
192,192,60922,1,0,0:0:0:0:
64,192,60977,1,8,0:0:0:0:
448,192,60977,1,2,0:0:0:0:
192,192,61144,1,2,0:0:0:0:
320,192,61144,1,0,0:0:0:0:
64,192,61310,1,2,0:0:0:0:
448,192,61310,1,0,0:0:0:0:
320,192,61477,1,0,0:0:0:0:
64,192,61560,1,2,0:0:0:0:
192,192,61560,1,0,0:0:0:0:
320,192,61644,1,8,0:0:0:0:
448,192,61644,1,2,0:0:0:0:
64,192,61810,1,2,0:0:0:0:
192,192,61810,1,0,0:0:0:0:
320,192,61977,1,2,0:0:0:0:
448,192,61977,1,0,0:0:0:0:
192,192,62060,1,2,0:0:0:0:
64,192,62144,1,2,0:0:0:0:
448,192,62144,1,0,0:0:0:0:
64,192,62310,1,8,0:0:0:0:
192,192,62310,1,2,0:0:0:0:
320,192,62477,1,2,0:0:0:0:
448,192,62477,1,0,0:0:0:0:
64,192,62644,1,2,0:0:0:0:
448,192,62644,1,8,0:0:0:0:
192,192,62810,1,0,0:0:0:0:
320,192,62894,1,0,0:0:0:0:
64,192,62977,1,0,0:0:0:0:
192,192,63060,1,0,0:0:0:0:
320,192,63144,1,2,0:0:0:0:
448,192,63144,1,8,0:0:0:0:
192,192,63310,1,0,0:0:0:0:
64,192,63394,1,0,0:0:0:0:
448,192,63477,1,0,0:0:0:0:
320,192,63560,1,0,0:0:0:0:
64,192,63644,1,8,0:0:0:0:
192,192,63644,1,2,0:0:0:0:
320,192,63810,1,2,0:0:0:0:
448,192,63810,1,8,0:0:0:0:
64,192,63977,1,6,0:0:0:0:
448,192,63977,1,8,0:0:0:0:
320,192,64144,1,0,0:0:0:0:
64,192,64227,1,2,0:0:0:0:
192,192,64227,1,0,0:0:0:0:
192,192,64394,1,0,0:0:0:0:
320,192,64477,1,2,0:0:0:0:
448,192,64477,1,0,0:0:0:0:
64,192,64644,1,0,0:0:0:0:
192,192,64699,1,0,0:0:0:0:
448,192,64755,1,0,0:0:0:0:
320,192,64810,1,0,0:0:0:0:
64,192,64866,1,0,0:0:0:0:
192,192,64922,1,0,0:0:0:0:
320,192,64977,1,2,0:0:0:0:
448,192,64977,1,8,0:0:0:0:
192,192,65060,1,10,0:0:0:0:
64,192,65144,1,2,0:0:0:0:
448,192,65144,1,8,0:0:0:0:
320,192,65227,1,10,0:0:0:0:
64,192,65310,1,2,0:0:0:0:
192,192,65310,1,4,0:0:0:0:
448,192,65310,1,0,0:0:0:0:
320,192,65477,1,0,0:0:0:0:
192,192,65560,1,0,0:0:0:0:
448,192,65644,1,0,0:0:0:50:amenbreak_snare1.wav
320,192,65727,1,0,0:0:0:0:
64,192,65810,1,2,0:0:0:0:
192,192,65810,1,0,0:0:0:0:
320,192,65977,1,0,0:0:0:0:
64,192,66060,1,0,0:0:0:0:
448,192,66144,1,0,0:0:0:50:amenbreak_snare2.wav
320,192,66227,1,0,0:0:0:0:
64,192,66310,1,2,0:0:0:0:
192,192,66310,1,0,0:0:0:0:
448,192,66394,1,0,0:0:0:0:
192,192,66477,1,2,0:0:0:0:
320,192,66560,1,0,0:0:0:0:
64,192,66644,1,2,0:0:0:0:
448,192,66644,1,0,0:0:0:50:amenbreak_snare1.wav
64,192,66810,1,2,0:0:0:0:
192,192,66810,1,0,0:0:0:0:
320,192,66894,1,0,0:0:0:50:amenbreak_snare1.wav
448,192,66977,1,0,0:0:0:0:
192,192,67060,1,0,0:0:0:0:
320,192,67144,1,2,0:0:0:0:
448,192,67144,1,0,0:0:0:50:amenbreak_snare1.wav
64,192,67310,1,2,0:0:0:0:
192,192,67310,1,0,0:0:0:0:
192,192,67477,1,0,0:0:0:50:amenbreak_snare2.wav
320,192,67560,1,0,0:0:0:0:
64,192,67644,1,2,0:0:0:0:
448,192,67644,1,0,0:0:0:0:
192,192,67727,1,0,0:0:0:50:amenbreak_snare1.wav
320,192,67810,1,2,0:0:0:0:
448,192,67810,1,0,0:0:0:0:
192,192,67894,1,0,0:0:0:50:amenbreak_snare1.wav
64,192,67977,1,2,0:0:0:0:
448,192,67977,1,0,0:0:0:0:
320,192,68144,1,0,0:0:0:0:
192,192,68227,1,0,0:0:0:0:
64,192,68310,1,0,0:0:0:50:amenbreak_snare1.wav
448,192,68394,1,0,0:0:0:0:
64,192,68477,1,2,0:0:0:0:
192,192,68477,1,0,0:0:0:0:
192,192,68644,1,0,0:0:0:0:
448,192,68727,1,0,0:0:0:50:amenbreak_snare2.wav
320,192,68810,1,0,0:0:0:0:
64,192,68894,1,0,0:0:0:50:amenbreak_snare2.wav
320,192,68977,1,2,0:0:0:0:
448,192,68977,1,0,0:0:0:0:
192,192,69060,1,0,0:0:0:0:
64,192,69144,1,2,0:0:0:0:
448,192,69144,1,0,0:0:0:0:
320,192,69227,1,0,0:0:0:0:
64,192,69310,1,2,0:0:0:0:
192,192,69310,1,0,0:0:0:50:amenbreak_snare1.wav
320,192,69477,1,0,0:0:0:0:
64,192,69560,1,2,0:0:0:0:
448,192,69560,1,0,0:0:0:50:amenbreak_snare1.wav
192,192,69727,1,0,0:0:0:0:
320,192,69810,1,2,0:0:0:0:
448,192,69810,1,0,0:0:0:50:amenbreak_snare1.wav
64,192,69977,1,2,0:0:0:0:
448,192,69977,1,0,0:0:0:0:
320,192,70019,1,2,0:0:0:0:
192,192,70060,1,2,0:0:0:0:
64,192,70102,1,2,0:0:0:0:
448,192,70144,1,2,0:0:0:0:
64,192,70310,1,2,0:0:0:0:
192,192,70310,1,0,0:0:0:50:amenbreak_snare1.wav
448,192,70352,1,2,0:0:0:0:
320,192,70394,1,2,0:0:0:0:
192,192,70435,1,2,0:0:0:0:
64,192,70477,1,2,0:0:0:0:
64,192,70644,1,2,0:0:0:0:
448,192,70644,1,0,0:0:0:0:
192,192,70810,1,0,0:0:0:0:
320,192,70894,1,0,0:0:0:0:
64,192,70977,1,0,0:0:0:50:amenbreak_snare1.wav
192,192,71060,1,0,0:0:0:0:
320,192,71144,1,2,0:0:0:0:
448,192,71144,1,0,0:0:0:0:
192,192,71227,1,0,0:0:0:0:
64,192,71310,1,2,0:0:0:0:
448,192,71310,1,0,0:0:0:0:
320,192,71477,1,0,0:0:0:50:amenbreak_snare2.wav
64,192,71560,1,2,0:0:0:0:
192,192,71560,1,0,0:0:0:0:
192,192,71727,1,0,0:0:0:0:
320,192,71810,1,2,0:0:0:0:
448,192,71810,1,0,0:0:0:0:
64,192,71977,1,2,0:0:0:0:
448,192,71977,1,0,0:0:0:50:amenbreak_snare1.wav
192,192,72060,1,0,0:0:0:0:
320,192,72144,1,2,0:0:0:0:
64,192,72185,1,2,0:0:0:0:
192,192,72227,1,2,0:0:0:0:
320,192,72269,1,2,0:0:0:0:
64,192,72310,1,2,0:0:0:0:
448,192,72310,1,0,0:0:0:0:
192,192,72477,1,2,0:0:0:0:
448,192,72477,1,0,0:0:0:50:amenbreak_snare1.wav
64,192,72644,1,2,0:0:0:0:
320,192,72644,1,0,0:0:0:0:
192,192,72810,1,0,0:0:0:50:amenbreak_snare2.wav
64,192,72894,1,2,0:0:0:0:
448,192,72894,1,0,0:0:0:0:
320,192,73060,1,2,0:0:0:0:
448,192,73060,1,0,0:0:0:0:
64,192,73144,1,2,0:0:0:0:
192,192,73185,1,2,0:0:0:0:
320,192,73227,1,2,0:0:0:0:
448,192,73269,1,2,0:0:0:0:
64,192,73310,1,2,0:0:0:0:
192,192,73310,1,0,0:0:0:50:amenbreak_snare1.wav
320,192,73477,1,0,0:0:0:0:
64,192,73560,1,2,0:0:0:0:
448,192,73560,1,0,0:0:0:0:
192,192,73727,1,0,0:0:0:0:
320,192,73810,1,2,0:0:0:0:
448,192,73810,1,0,0:0:0:0:
320,192,73977,1,0,0:0:0:0:
64,192,74060,1,2,0:0:0:0:
192,192,74060,1,0,0:0:0:50:amenbreak_snare2.wav
192,192,74227,1,0,0:0:0:50:amenbreak_snare2.wav
64,192,74310,1,2,0:0:0:0:
448,192,74310,1,0,0:0:0:0:
320,192,74394,1,2,0:0:0:0:
64,192,74477,1,2,0:0:0:0:
192,192,74519,1,2,0:0:0:0:
320,192,74560,1,2,0:0:0:0:
448,192,74602,1,2,0:0:0:0:
64,192,74644,1,2,0:0:0:0:
192,192,74644,1,0,0:0:0:50:amenbreak_snare1.wav
192,192,74810,1,0,0:0:0:0:
320,192,74894,1,2,0:0:0:0:
448,192,74894,1,0,0:0:0:50:amenbreak_snare1.wav
448,192,75060,1,0,0:0:0:0:
64,192,75144,1,2,0:0:0:0:
192,192,75144,1,0,0:0:0:50:amenbreak_snare1.wav
64,192,75310,1,2,0:0:0:0:
320,192,75310,1,0,0:0:0:0:
448,192,75477,1,2,0:0:0:0:
320,192,75519,1,0,0:0:0:0:
64,192,75560,1,0,0:0:0:0:
192,192,75602,1,0,0:0:0:0:
320,192,75644,1,2,0:0:0:0:
448,192,75644,1,0,0:0:0:50:amenbreak_snare1.wav
64,192,75810,1,2,0:0:0:0:
192,192,75852,1,2,0:0:0:0:
448,192,75894,1,2,0:0:0:0:
320,192,75935,1,2,0:0:0:0:
64,192,75977,1,4,0:0:0:0:
192,192,75977,1,2,0:0:0:0:
320,192,76144,1,0,0:0:0:0:
192,192,76227,1,0,0:0:0:0:
448,192,76310,1,0,0:0:0:0:
320,192,76394,1,0,0:0:0:0:
64,192,76477,1,0,0:0:0:0:
192,192,76560,1,0,0:0:0:0:
448,192,76644,1,0,0:0:0:0:
320,192,76727,1,0,0:0:0:0:
192,192,76810,1,0,0:0:0:0:
64,192,76894,1,0,0:0:0:0:
320,192,76977,1,0,0:0:0:0:
448,192,77060,1,0,0:0:0:0:
64,192,77144,1,0,0:0:0:0:
192,192,77227,1,0,0:0:0:0:
448,192,77310,1,0,0:0:0:0:
320,192,77394,1,0,0:0:0:0:
64,192,77477,1,0,0:0:0:0:
192,192,77560,1,0,0:0:0:0:
448,192,77644,1,0,0:0:0:0:
64,192,77727,1,0,0:0:0:0:
320,192,77810,1,0,0:0:0:0:
192,192,77894,1,0,0:0:0:0:
448,192,77977,1,0,0:0:0:0:
64,192,78060,1,0,0:0:0:0:
192,192,78144,1,0,0:0:0:0:
320,192,78227,1,0,0:0:0:0:
64,192,78310,1,0,0:0:0:0:
192,192,78394,1,0,0:0:0:0:
320,192,78477,1,2,0:0:0:0:
448,192,78477,1,0,0:0:0:0:
64,192,78644,1,2,0:0:0:0:
448,192,78644,1,0,0:0:0:0:
192,192,78727,1,0,0:0:0:0:
320,192,78810,1,0,0:0:0:0:
448,192,78894,1,0,0:0:0:0:
64,192,78977,1,0,0:0:0:0:
192,192,79060,1,0,0:0:0:0:
448,192,79144,1,0,0:0:0:0:
320,192,79227,1,0,0:0:0:0:
64,192,79310,1,0,0:0:0:0:
192,192,79394,1,0,0:0:0:0:
320,192,79477,1,0,0:0:0:0:
448,192,79560,1,0,0:0:0:0:
192,192,79644,1,0,0:0:0:0:
64,192,79727,1,0,0:0:0:0:
448,192,79810,1,0,0:0:0:0:
320,192,79894,1,0,0:0:0:0:
64,192,79977,1,0,0:0:0:0:
192,192,80060,1,0,0:0:0:0:
448,192,80144,1,0,0:0:0:0:
320,192,80227,1,0,0:0:0:0:
64,192,80310,1,0,0:0:0:0:
448,192,80394,1,0,0:0:0:0:
192,192,80477,1,0,0:0:0:0:
320,192,80560,1,0,0:0:0:0:
64,192,80644,1,0,0:0:0:0:
192,192,80727,1,0,0:0:0:0:
320,192,80810,1,2,0:0:0:0:
448,192,80810,1,0,0:0:0:0:
192,192,80894,1,0,0:0:0:0:
448,192,80977,1,0,0:0:0:50:amenbreak_snare1.wav
320,192,81060,1,0,0:0:0:0:
64,192,81144,1,2,0:0:0:0:
192,192,81144,1,0,0:0:0:0:
64,192,81310,1,2,0:0:0:0:
448,192,81310,1,0,0:0:0:0:
320,192,81394,1,0,0:0:0:0:
64,192,81477,1,0,0:0:0:0:
192,192,81560,1,0,0:0:0:0:
320,192,81644,1,0,0:0:0:50:amenbreak_snare2.wav
64,192,81727,1,0,0:0:0:0:
192,192,81810,1,0,0:0:0:0:
448,192,81894,1,0,0:0:0:0:
64,192,81977,1,0,0:0:0:0:
320,192,82060,1,0,0:0:0:0:
448,192,82144,1,0,0:0:0:0:
64,192,82227,1,0,0:0:0:0:
320,192,82310,1,0,0:0:0:0:
192,192,82394,1,0,0:0:0:0:
448,192,82477,1,0,0:0:0:0:
320,192,82560,1,0,0:0:0:0:
64,192,82644,1,2,0:0:0:0:
192,192,82644,1,0,0:0:0:50:amenbreak_snare1.wav
448,192,82727,1,0,0:0:0:0:
320,192,82810,1,0,0:0:0:0:
64,192,82894,1,0,0:0:0:50:amenbreak_snare1.wav
192,192,82977,1,0,0:0:0:0:
448,192,83060,1,0,0:0:0:0:
320,192,83144,1,0,0:0:0:50:amenbreak_snare1.wav
64,192,83227,1,0,0:0:0:0:
448,192,83310,1,0,0:0:0:0:
192,192,83394,1,0,0:0:0:0:
64,192,83477,1,0,0:0:0:0:
448,192,83560,1,0,0:0:0:0:
192,192,83644,1,0,0:0:0:0:
320,192,83727,1,0,0:0:0:0:
64,192,83810,1,2,0:0:0:0:
448,192,83810,1,0,0:0:0:0:
320,192,83977,1,2,0:0:0:0:
448,192,83977,1,0,0:0:0:0:
192,192,84060,1,0,0:0:0:0:
64,192,84144,1,0,0:0:0:0:
320,192,84227,1,0,0:0:0:0:
192,192,84310,1,0,0:0:0:0:
448,192,84394,1,0,0:0:0:0:
320,192,84477,1,0,0:0:0:0:
192,192,84560,1,0,0:0:0:0:
64,192,84644,1,0,0:0:0:0:
320,192,84727,1,0,0:0:0:0:
448,192,84810,1,0,0:0:0:0:
192,192,84894,1,0,0:0:0:0:
320,192,84977,1,2,0:0:0:0:
448,192,84977,1,0,0:0:0:0:
192,192,85144,1,0,0:0:0:0:
320,192,85227,1,0,0:0:0:0:
64,192,85310,1,2,0:0:0:0:
448,192,85310,1,0,0:0:0:50:amenbreak_snare1.wav
192,192,85394,1,0,0:0:0:0:
448,192,85477,1,0,0:0:0:0:
320,192,85560,1,0,0:0:0:50:amenbreak_snare1.wav
192,192,85644,1,0,0:0:0:0:
64,192,85727,1,0,0:0:0:0:
320,192,85810,1,2,0:0:0:0:
448,192,85810,1,0,0:0:0:50:amenbreak_snare1.wav
64,192,85977,1,0,0:0:0:0:
320,192,86060,1,0,0:0:0:0:
192,192,86144,1,2,0:0:0:0:
320,192,86227,1,0,0:0:0:0:
64,192,86310,1,2,0:0:0:0:
448,192,86310,1,0,0:0:0:0:
192,192,86477,1,2,0:0:0:0:
448,192,86560,1,2,0:0:0:0:
320,192,86602,1,2,0:0:0:0:
64,192,86644,128,0,86810:0:0:0:0:
64,192,87144,128,0,87310:0:0:0:0:
448,192,87810,1,0,0:0:0:80:F5S_s.wav
320,192,87894,1,0,0:0:0:80:G5S_s.wav
64,192,87977,128,0,88144:0:0:0:80:A5S_s.wav
192,192,87977,1,0,0:0:0:0:
320,192,88144,1,0,0:0:0:80:A#5S_Bb5S_s.wav
448,192,88310,1,0,0:0:0:80:D6S_s.wav
64,192,88477,128,4,88644:0:0:0:80:F6S_s.wav
192,192,88477,1,0,0:0:0:0:
320,192,88644,1,0,0:0:0:80:D6S_s.wav
448,192,88810,1,0,0:0:0:80:C6S_s.wav
320,192,88866,1,0,0:0:0:80:D6S_s.wav
192,192,88922,1,0,0:0:0:80:C6S_s.wav
64,192,88977,1,0,0:0:0:80:A#5S_Bb5S_s.wav
320,192,89144,1,0,0:0:0:80:C6S_s.wav
192,192,89310,1,0,0:0:0:80:D6S_s.wav
448,192,89310,128,0,89477:0:0:0:0:
448,192,89810,128,0,89977:0:0:0:0:
64,192,89977,1,0,0:0:0:80:C6S_s.wav
192,192,90477,1,0,0:0:0:80:A#5S_Bb5S_s.wav
320,192,90644,1,0,0:0:0:80:A5S_s.wav
448,192,90644,128,0,90810:0:0:0:0:
64,192,90866,1,0,0:0:0:80:A#5S_Bb5S_s.wav
192,192,91088,1,0,0:0:0:80:C6S_s.wav
320,192,91310,1,0,0:0:0:80:A#5S_Bb5S_s.wav
64,192,91533,1,0,0:0:0:80:A5S_s.wav
448,192,91755,1,0,0:0:0:80:F5S_s.wav
192,192,91977,128,0,92144:0:0:0:80:G5S_s.wav
320,192,91977,1,0,0:0:0:0:
448,192,92477,1,0,0:0:0:0:
320,192,92533,1,0,0:0:0:50:F5S_s.wav
64,192,92588,1,0,0:0:0:50:G5S_s.wav
192,192,92644,1,0,0:0:0:80:A5S_s.wav
320,192,92810,1,0,0:0:0:80:A#5S_Bb5S_s.wav
64,192,92977,1,0,0:0:0:80:C6S_s.wav
448,192,93144,1,0,0:0:0:80:A#5S_Bb5S_s.wav
320,192,93227,1,0,0:0:0:80:C6S_s.wav
64,192,93310,1,0,0:0:0:80:D6S_s.wav
192,192,93310,128,0,93477:0:0:0:0:
192,192,93810,128,0,93977:0:0:0:0:
320,192,93977,1,0,0:0:0:80:A#6S_Bb6S_s.wav
64,192,94144,1,0,0:0:0:80:A6S_s.wav
320,192,94310,1,0,0:0:0:80:G6S_s.wav
192,192,94477,1,0,0:0:0:80:F6S_s.wav
64,192,94644,1,0,0:0:0:80:C6S_s.wav
320,192,94644,128,0,94810:0:0:0:0:
64,192,95144,1,0,0:0:0:80:A#5S_Bb5S_s.wav
192,192,95227,1,0,0:0:0:80:C6S_s.wav
320,192,95310,1,0,0:0:0:80:D6S_s.wav
192,192,95560,1,0,0:0:0:80:F6S_s.wav
448,192,95810,1,0,0:0:0:80:C6S_s.wav
320,192,95977,128,0,96144:0:0:0:0:
64,192,96144,1,0,0:0:0:80:A#5S_Bb5S_s.wav
448,192,96310,1,0,0:0:0:80:C6S_s.wav
192,192,96477,1,0,0:0:0:80:D6S_s.wav
320,192,96477,128,0,96644:0:0:0:0:
64,192,96644,1,0,0:0:0:80:F6S_s.wav
192,192,96727,1,0,0:0:0:80:C6S_s.wav
448,192,96810,1,0,0:0:0:80:D6S_s.wav
64,192,96894,1,0,0:0:0:80:F6S_s.wav
192,192,96977,1,0,0:0:0:80:A6S_s.wav
448,192,97060,1,0,0:0:0:80:F6S_s.wav
320,192,97144,1,0,0:0:0:80:G6S_s.wav
192,192,97227,1,0,0:0:0:80:A6S_s.wav
64,192,97310,1,2,0:0:0:0:
448,192,97310,1,0,0:0:0:0:
320,192,97477,1,0,0:0:0:0:
192,192,97560,1,0,0:0:0:0:
448,192,97644,1,0,0:0:0:30:amenbreak_snare1.wav
64,192,97810,1,2,0:0:0:0:
192,192,97894,1,0,0:0:0:0:
320,192,97977,1,0,0:0:0:0:
448,192,98144,1,0,0:0:0:0:
192,192,98310,1,0,0:0:0:0:
320,192,98477,1,0,0:0:0:0:
64,192,98644,1,2,0:0:0:0:
448,192,98644,1,0,0:0:0:0:
192,192,98810,1,0,0:0:0:0:
320,192,98894,1,0,0:0:0:0:
64,192,98977,1,0,0:0:0:0:
320,192,99144,1,2,0:0:0:0:
448,192,99144,1,0,0:0:0:0:
192,192,99227,1,0,0:0:0:0:
64,192,99310,1,0,0:0:0:0:
448,192,99394,1,0,0:0:0:0:
320,192,99477,1,0,0:0:0:0:
192,192,99560,1,0,0:0:0:0:
448,192,99644,1,0,0:0:0:0:
320,192,99727,1,0,0:0:0:0:
64,192,99810,1,0,0:0:0:0:
192,192,99894,1,0,0:0:0:0:
320,192,99977,1,2,0:0:0:0:
448,192,99977,1,0,0:0:0:0:
64,192,100144,1,0,0:0:0:0:
192,192,100227,1,0,0:0:0:0:
448,192,100310,1,0,0:0:0:0:
64,192,100477,1,2,0:0:0:0:
192,192,100477,1,0,0:0:0:0:
320,192,100644,1,0,0:0:0:0:
192,192,100810,1,0,0:0:0:0:
448,192,100866,1,0,0:0:0:0:
320,192,100922,1,0,0:0:0:0:
64,192,100977,1,2,0:0:0:0:
192,192,100977,1,0,0:0:0:0:
320,192,101144,1,0,0:0:0:0:
64,192,101310,1,2,0:0:0:0:
448,192,101310,1,0,0:0:0:0:
192,192,101477,1,0,0:0:0:0:
320,192,101560,1,0,0:0:0:0:
64,192,101644,1,2,0:0:0:0:
448,192,101644,1,0,0:0:0:0:
192,192,101727,1,2,0:0:0:0:
320,192,101810,1,2,0:0:0:0:
448,192,101810,1,0,0:0:0:0:
192,192,101977,1,0,0:0:0:0:
448,192,102060,1,0,0:0:0:0:
64,192,102144,1,2,0:0:0:0:
192,192,102144,1,0,0:0:0:0:
320,192,102227,1,2,0:0:0:0:
64,192,102310,1,2,0:0:0:0:
448,192,102310,1,0,0:0:0:0:
192,192,102477,1,2,0:0:0:0:
320,192,102560,1,2,0:0:0:0:
192,192,102602,1,2,0:0:0:0:
64,192,102644,1,2,0:0:0:0:
448,192,102644,1,0,0:0:0:0:
320,192,102810,1,0,0:0:0:0:
64,192,102894,1,0,0:0:0:0:
192,192,102977,1,0,0:0:0:30:amenbreak_snare1.wav
64,192,103144,1,2,0:0:0:0:
448,192,103144,1,0,0:0:0:0:
320,192,103227,1,0,0:0:0:0:
192,192,103310,1,0,0:0:0:0:
64,192,103477,1,0,0:0:0:0:
192,192,103560,1,0,0:0:0:0:
320,192,103644,1,2,0:0:0:0:
448,192,103644,1,0,0:0:0:0:
192,192,103810,1,2,0:0:0:0:
448,192,103894,1,2,0:0:0:0:
320,192,103935,1,2,0:0:0:0:
64,192,103977,1,2,0:0:0:0:
192,192,103977,1,0,0:0:0:0:
320,192,104144,1,2,0:0:0:0:
448,192,104144,1,0,0:0:0:0:
192,192,104227,1,2,0:0:0:0:
320,192,104310,1,0,0:0:0:0:
64,192,104477,1,2,0:0:0:0:
448,192,104477,1,0,0:0:0:0:
192,192,104644,1,0,0:0:0:0:
320,192,104810,1,2,0:0:0:0:
64,192,104894,1,2,0:0:0:0:
192,192,104935,1,2,0:0:0:0:
320,192,104977,1,2,0:0:0:0:
448,192,104977,1,0,0:0:0:0:
64,192,105144,1,2,0:0:0:0:
192,192,105144,1,0,0:0:0:0:
64,192,105310,1,2,0:0:0:0:
448,192,105310,1,0,0:0:0:0:
320,192,105477,1,0,0:0:0:0:
192,192,105560,1,0,0:0:0:0:
448,192,105644,1,0,0:0:0:0:
320,192,105727,1,0,0:0:0:0:
64,192,105810,1,2,0:0:0:0:
192,192,105810,1,8,0:0:0:0:
320,192,105977,1,0,0:0:0:0:
64,192,106060,1,0,0:0:0:0:
192,192,106144,1,0,0:0:0:0:
320,192,106227,1,0,0:0:0:0:
64,192,106310,1,2,0:0:0:0:
448,192,106310,1,8,0:0:0:0:
192,192,106394,1,0,0:0:0:0:
320,192,106477,1,2,0:0:0:0:
192,192,106560,1,2,0:0:0:0:
320,192,106602,1,2,0:0:0:0:
64,192,106644,1,2,0:0:0:0:
448,192,106644,1,8,0:0:0:0:
192,192,106810,1,0,0:0:0:0:
64,192,106894,1,2,0:0:0:0:
320,192,106894,1,8,0:0:0:0:
448,192,107060,1,0,0:0:0:0:
64,192,107144,1,2,0:0:0:0:
192,192,107144,1,8,0:0:0:0:
320,192,107310,1,0,0:0:0:0:
64,192,107394,1,2,0:0:0:0:
448,192,107394,1,8,0:0:0:0:
320,192,107560,1,0,0:0:0:0:
192,192,107644,1,2,0:0:0:0:
448,192,107644,1,8,0:0:0:0:
64,192,107810,1,0,0:0:0:0:
192,192,107894,1,0,0:0:0:0:
320,192,107977,128,0,109310:0:0:0:50:G3H.wav
448,192,107977,1,0,0:0:0:0:
64,192,109310,1,2,0:0:0:0:
192,192,109310,1,4,0:0:0:0:
448,192,109310,1,0,0:0:0:0:
64,192,109477,1,0,0:0:0:0:
192,192,109560,1,0,0:0:0:0:
320,192,109644,1,2,0:0:0:0:
448,192,109644,1,0,0:0:0:0:
64,192,109727,1,0,0:0:0:0:
192,192,109810,1,0,0:0:0:0:
320,192,109894,1,0,0:0:0:0:
64,192,109977,1,2,0:0:0:0:
448,192,109977,1,0,0:0:0:0:
192,192,110144,1,0,0:0:0:0:
448,192,110199,1,0,0:0:0:0:
320,192,110255,1,0,0:0:0:0:
64,192,110310,1,2,0:0:0:0:
192,192,110310,1,0,0:0:0:0:
448,192,110394,1,0,0:0:0:0:
320,192,110477,1,0,0:0:0:0:
192,192,110560,1,0,0:0:0:0:
64,192,110644,1,2,0:0:0:0:
448,192,110644,1,0,0:0:0:0:
320,192,110699,1,0,0:0:0:0:
192,192,110755,1,0,0:0:0:0:
64,192,110810,1,0,0:0:0:0:
448,192,110866,1,0,0:0:0:0:
320,192,110922,1,0,0:0:0:0:
64,192,110977,1,2,0:0:0:0:
192,192,110977,1,0,0:0:0:0:
448,192,111060,1,0,0:0:0:0:
192,192,111144,1,0,0:0:0:0:
320,192,111227,1,0,0:0:0:0:
64,192,111310,1,2,0:0:0:0:
448,192,111310,1,0,0:0:0:0:
64,192,111477,1,0,0:0:0:0:
192,192,111560,1,0,0:0:0:0:
320,192,111644,1,2,0:0:0:0:
448,192,111644,1,0,0:0:0:0:
64,192,111727,1,0,0:0:0:0:
192,192,111810,1,0,0:0:0:0:
320,192,111894,1,0,0:0:0:0:
64,192,111977,1,2,0:0:0:0:
448,192,111977,1,0,0:0:0:0:
448,192,112144,1,0,0:0:0:0:
320,192,112227,1,0,0:0:0:0:
64,192,112310,1,2,0:0:0:0:
192,192,112310,1,0,0:0:0:0:
448,192,112394,1,0,0:0:0:0:
320,192,112477,1,0,0:0:0:0:
192,192,112560,1,0,0:0:0:0:
64,192,112644,1,2,0:0:0:0:
448,192,112644,1,0,0:0:0:0:
64,192,112810,1,0,0:0:0:0:
192,192,112866,1,0,0:0:0:0:
320,192,112922,1,0,0:0:0:0:
64,192,112977,1,2,0:0:0:0:
448,192,112977,1,0,0:0:0:0:
192,192,113144,128,0,113310:0:0:0:0:
320,192,113310,1,2,0:0:0:0:
448,192,113310,1,0,0:0:0:0:
448,192,113477,1,0,0:0:0:0:
320,192,113560,1,0,0:0:0:0:
64,192,113644,1,2,0:0:0:0:
192,192,113644,1,0,0:0:0:0:
448,192,113727,1,0,0:0:0:0:
64,192,113810,1,0,0:0:0:0:
192,192,113894,1,0,0:0:0:0:
320,192,113977,1,2,0:0:0:0:
448,192,113977,1,0,0:0:0:0:
192,192,114144,1,0,0:0:0:0:
320,192,114227,1,0,0:0:0:0:
64,192,114310,1,2,0:0:0:0:
448,192,114310,1,0,0:0:0:0:
192,192,114394,1,0,0:0:0:0:
448,192,114477,1,2,0:0:0:0:
320,192,114560,1,2,0:0:0:0:
192,192,114602,1,2,0:0:0:0:
64,192,114644,128,2,114810:0:0:0:0:
448,192,114644,1,0,0:0:0:0:
320,192,114810,1,0,0:0:0:0:
448,192,114894,1,0,0:0:0:0:
64,192,114977,1,2,0:0:0:0:
192,192,114977,1,0,0:0:0:0:
320,192,115033,1,0,0:0:0:0:
448,192,115088,1,0,0:0:0:0:
64,192,115144,1,0,0:0:0:0:
192,192,115199,1,0,0:0:0:0:
320,192,115255,1,0,0:0:0:0:
64,192,115310,1,2,0:0:0:0:
448,192,115310,1,0,0:0:0:0:
320,192,115477,1,0,0:0:0:0:
192,192,115560,1,0,0:0:0:0:
320,192,115644,1,2,0:0:0:0:
448,192,115644,1,0,0:0:0:0:
64,192,115727,1,0,0:0:0:0:
192,192,115810,1,0,0:0:0:0:
320,192,115894,1,0,0:0:0:0:
64,192,115977,1,2,0:0:0:0:
448,192,115977,1,0,0:0:0:0:
192,192,116033,1,0,0:0:0:0:
320,192,116088,1,0,0:0:0:0:
448,192,116144,1,0,0:0:0:0:
64,192,116199,1,0,0:0:0:0:
192,192,116255,1,0,0:0:0:0:
320,192,116310,1,2,0:0:0:0:
448,192,116310,1,0,0:0:0:0:
64,192,116394,1,0,0:0:0:0:
320,192,116477,1,0,0:0:0:0:
192,192,116560,1,0,0:0:0:0:
64,192,116644,1,2,0:0:0:0:
448,192,116644,1,0,0:0:0:0:
320,192,116810,1,0,0:0:0:0:
192,192,116866,1,0,0:0:0:0:
64,192,116922,1,0,0:0:0:0:
320,192,116977,1,2,0:0:0:0:
448,192,116977,1,0,0:0:0:0:
192,192,117060,1,0,0:0:0:0:
448,192,117144,1,0,0:0:0:0:
320,192,117227,1,0,0:0:0:0:
64,192,117310,1,2,0:0:0:0:
192,192,117310,1,0,0:0:0:0:
64,192,117477,1,0,0:0:0:0:
192,192,117560,1,0,0:0:0:0:
320,192,117644,1,2,0:0:0:0:
448,192,117644,1,0,0:0:0:0:
64,192,117699,1,0,0:0:0:0:
192,192,117755,1,0,0:0:0:0:
448,192,117810,1,0,0:0:0:0:
320,192,117866,1,0,0:0:0:0:
192,192,117922,1,0,0:0:0:0:
64,192,117977,1,2,0:0:0:0:
448,192,117977,1,0,0:0:0:0:
320,192,118144,1,0,0:0:0:0:
192,192,118227,1,0,0:0:0:0:
320,192,118310,1,2,0:0:0:0:
448,192,118310,1,0,0:0:0:0:
64,192,118394,1,0,0:0:0:0:
448,192,118477,128,0,118644:0:0:0:0:
64,192,118644,1,2,0:0:0:0:
192,192,118644,1,0,0:0:0:0:
320,192,118727,1,0,0:0:0:0:
448,192,118810,1,0,0:0:0:0:
192,192,118894,1,0,0:0:0:0:
64,192,118977,1,2,0:0:0:0:
448,192,118977,1,0,0:0:0:0:
320,192,119060,1,0,0:0:0:0:
64,192,119144,1,0,0:0:0:0:
192,192,119199,1,0,0:0:0:0:
320,192,119255,1,0,0:0:0:0:
64,192,119310,1,2,0:0:0:0:
448,192,119310,1,0,0:0:0:0:
320,192,119477,1,0,0:0:0:0:
192,192,119560,1,0,0:0:0:0:
64,192,119644,1,2,0:0:0:0:
448,192,119644,1,0,0:0:0:0:
320,192,119727,1,0,0:0:0:0:
192,192,119810,1,0,0:0:0:0:
320,192,119894,1,0,0:0:0:0:
64,192,119977,1,4,0:0:0:0:
448,192,119977,1,2,0:0:0:0:
448,192,120144,1,0,0:0:0:0:
320,192,120227,1,0,0:0:0:0:
64,192,120310,1,2,0:0:0:0:
192,192,120310,1,0,0:0:0:0:
448,192,120394,1,0,0:0:0:0:
320,192,120477,1,0,0:0:0:0:
192,192,120560,1,0,0:0:0:0:
64,192,120644,1,2,0:0:0:0:
448,192,120644,1,0,0:0:0:0:
320,192,120810,1,0,0:0:0:0:
64,192,120866,1,0,0:0:0:0:
192,192,120922,1,0,0:0:0:0:
320,192,120977,1,2,0:0:0:0:
448,192,120977,1,0,0:0:0:0:
64,192,121060,1,0,0:0:0:0:
192,192,121144,1,0,0:0:0:0:
320,192,121227,1,0,0:0:0:0:
64,192,121310,1,2,0:0:0:0:
448,192,121310,1,0,0:0:0:0:
192,192,121366,1,0,0:0:0:0:
320,192,121422,1,0,0:0:0:0:
448,192,121477,1,0,0:0:0:0:
64,192,121533,1,0,0:0:0:0:
192,192,121588,1,0,0:0:0:0:
320,192,121644,1,2,0:0:0:0:
448,192,121644,1,0,0:0:0:0:
64,192,121727,1,0,0:0:0:0:
320,192,121810,1,0,0:0:0:0:
192,192,121894,1,0,0:0:0:0:
64,192,121977,1,2,0:0:0:0:
448,192,121977,1,0,0:0:0:0:
448,192,122144,1,0,0:0:0:0:
320,192,122227,1,0,0:0:0:0:
64,192,122310,1,2,0:0:0:0:
192,192,122310,1,0,0:0:0:0:
448,192,122394,1,0,0:0:0:0:
320,192,122477,1,0,0:0:0:0:
192,192,122560,1,0,0:0:0:0:
64,192,122644,1,2,0:0:0:0:
448,192,122644,1,0,0:0:0:0:
64,192,122810,1,0,0:0:0:0:
192,192,122894,1,0,0:0:0:0:
320,192,122977,1,2,0:0:0:0:
448,192,122977,1,0,0:0:0:0:
64,192,123060,1,0,0:0:0:0:
192,192,123144,1,0,0:0:0:0:
320,192,123227,1,0,0:0:0:0:
64,192,123310,1,2,0:0:0:0:
448,192,123310,1,0,0:0:0:0:
192,192,123394,1,0,0:0:0:0:
320,192,123477,1,0,0:0:0:0:
64,192,123560,1,0,0:0:0:0:
320,192,123644,1,2,0:0:0:0:
448,192,123644,1,0,0:0:0:0:
192,192,123727,1,0,0:0:0:0:
448,192,123810,128,0,123977:0:0:0:0:
64,192,123977,1,2,0:0:0:0:
192,192,123977,1,0,0:0:0:0:
64,192,124144,1,0,0:0:0:0:
192,192,124227,1,0,0:0:0:0:
320,192,124310,1,2,0:0:0:0:
448,192,124310,1,0,0:0:0:0:
64,192,124394,1,0,0:0:0:0:
448,192,124477,1,0,0:0:0:0:
320,192,124560,1,0,0:0:0:0:
64,192,124644,1,2,0:0:0:0:
192,192,124644,1,0,0:0:0:0:
448,192,124810,1,0,0:0:0:0:
320,192,124866,1,0,0:0:0:0:
192,192,124922,1,0,0:0:0:0:
64,192,124977,1,2,0:0:0:0:
448,192,124977,1,8,0:0:0:0:
320,192,125060,1,10,0:0:0:0:
64,192,125144,1,2,0:0:0:0:
192,192,125144,1,8,0:0:0:0:
320,192,125227,1,10,0:0:0:0:
64,192,125310,1,2,0:0:0:0:
448,192,125310,1,8,0:0:0:0:
192,192,125477,1,2,0:0:0:0:
448,192,125477,1,0,0:0:0:0:
192,192,125644,1,2,0:0:0:0:
320,192,125644,1,8,0:0:0:0:
64,192,125810,1,2,0:0:0:0:
320,192,125810,1,0,0:0:0:0:
64,192,125977,1,2,0:0:0:0:
448,192,125977,1,8,0:0:0:0:
192,192,126144,1,2,0:0:0:0:
448,192,126144,1,0,0:0:0:0:
192,192,126310,1,2,0:0:0:0:
320,192,126310,1,8,0:0:0:0:
64,192,126477,1,2,0:0:0:0:
320,192,126477,1,0,0:0:0:0:
64,192,126644,1,2,0:0:0:0:
192,192,126644,1,8,0:0:0:0:
448,192,126644,1,0,0:0:0:0:
320,192,126810,1,2,0:0:0:0:
448,192,126810,1,0,0:0:0:0:
192,192,126977,1,2,0:0:0:0:
320,192,126977,1,8,0:0:0:0:
64,192,127144,1,2,0:0:0:0:
192,192,127144,1,0,0:0:0:0:
64,192,127310,1,2,0:0:0:0:
448,192,127310,1,8,0:0:0:0:
320,192,127477,1,2,0:0:0:0:
448,192,127477,1,0,0:0:0:0:
64,192,127644,1,2,0:0:0:0:
320,192,127644,1,8,0:0:0:0:
64,192,127810,1,2,0:0:0:0:
192,192,127810,1,0,0:0:0:0:
320,192,127977,1,8,0:0:0:0:
448,192,127977,1,2,0:0:0:0:
192,192,128060,1,2,0:0:0:0:
64,192,128144,1,2,0:0:0:0:
320,192,128144,1,0,0:0:0:0:
448,192,128227,1,2,0:0:0:0:
64,192,128310,1,8,0:0:0:0:
192,192,128310,1,2,0:0:0:0:
320,192,128394,1,2,0:0:0:0:
192,192,128477,1,2,0:0:0:0:
448,192,128477,1,0,0:0:0:0:
64,192,128560,1,2,0:0:0:0:
320,192,128644,1,8,0:0:0:0:
448,192,128644,1,2,0:0:0:0:
192,192,128727,1,2,0:0:0:0:
64,192,128810,1,2,0:0:0:0:
320,192,128810,1,0,0:0:0:0:
448,192,128894,1,2,0:0:0:0:
64,192,128977,1,8,0:0:0:0:
192,192,128977,1,2,0:0:0:0:
320,192,129060,1,2,0:0:0:0:
192,192,129144,1,2,0:0:0:0:
448,192,129144,1,0,0:0:0:0:
64,192,129227,1,2,0:0:0:0:
320,192,129310,1,2,0:0:0:0:
448,192,129310,1,8,0:0:0:0:
192,192,129394,1,2,0:0:0:0:
64,192,129477,1,2,0:0:0:0:
448,192,129477,1,0,0:0:0:0:
320,192,129560,1,2,0:0:0:0:
64,192,129644,1,2,0:0:0:0:
192,192,129644,1,8,0:0:0:0:
320,192,129727,1,2,0:0:0:0:
64,192,129810,1,2,0:0:0:0:
448,192,129810,1,0,0:0:0:0:
192,192,129894,1,2,0:0:0:0:
448,192,129977,1,10,0:0:0:0:
320,192,130019,1,2,0:0:0:0:
64,192,130060,1,2,0:0:0:0:
192,192,130102,1,2,0:0:0:0:
448,192,130144,1,2,0:0:0:0:
320,192,130227,1,2,0:0:0:0:
64,192,130310,1,10,0:0:0:0:
192,192,130352,1,2,0:0:0:0:
448,192,130394,1,2,0:0:0:0:
320,192,130435,1,2,0:0:0:0:
64,192,130477,1,2,0:0:0:0:
192,192,130560,1,2,0:0:0:0:
64,192,130644,1,4,0:0:0:0:
320,192,130644,1,2,0:0:0:0:
448,192,130644,1,0,0:0:0:0:
320,192,130810,1,0,0:0:0:0:
64,192,130894,1,2,0:0:0:0:
192,192,130894,1,0,0:0:0:0:
448,192,130977,1,0,0:0:0:50:amenbreak_snare1.wav
320,192,131060,1,0,0:0:0:0:
64,192,131144,1,2,0:0:0:0:
192,192,131144,1,0,0:0:0:0:
448,192,131227,1,0,0:0:0:0:
320,192,131310,1,0,0:0:0:0:
64,192,131394,1,2,0:0:0:0:
192,192,131394,1,0,0:0:0:0:
320,192,131477,1,0,0:0:0:50:amenbreak_snare2.wav
192,192,131560,1,0,0:0:0:0:
64,192,131644,1,2,0:0:0:0:
448,192,131644,1,8,0:0:0:0:
320,192,131727,1,10,0:0:0:0:
64,192,131810,1,2,0:0:0:0:
192,192,131810,1,8,0:0:0:0:
320,192,131894,1,10,0:0:0:0:
64,192,131977,1,10,0:0:0:0:
448,192,131977,1,0,0:0:0:50:amenbreak_snare1.wav
192,192,132144,1,2,0:0:0:0:
320,192,132227,1,2,0:0:0:0:
448,192,132227,1,0,0:0:0:50:amenbreak_snare1.wav
64,192,132310,1,0,0:0:0:0:
320,192,132394,1,0,0:0:0:0:
64,192,132477,1,2,0:0:0:0:
448,192,132477,1,0,0:0:0:50:amenbreak_snare1.wav
192,192,132560,1,0,0:0:0:0:
320,192,132644,1,0,0:0:0:0:
64,192,132727,1,2,0:0:0:0:
192,192,132727,1,0,0:0:0:0:
448,192,132810,1,0,0:0:0:50:amenbreak_snare2.wav
320,192,132894,1,0,0:0:0:0:
64,192,132977,1,2,0:0:0:0:
448,192,132977,1,8,0:0:0:0:
320,192,133144,1,2,0:0:0:0:
64,192,133185,1,2,0:0:0:0:
192,192,133227,1,2,0:0:0:0:
320,192,133269,1,2,0:0:0:0:
64,192,133310,1,2,0:0:0:0:
448,192,133310,1,0,0:0:0:50:amenbreak_snare1.wav
192,192,133477,1,0,0:0:0:0:
320,192,133560,1,2,0:0:0:0:
448,192,133560,1,0,0:0:0:0:
64,192,133644,1,0,0:0:0:0:
192,192,133727,1,0,0:0:0:0:
320,192,133810,1,2,0:0:0:0:
448,192,133810,1,0,0:0:0:0:
64,192,133894,1,0,0:0:0:0:
192,192,133977,1,0,0:0:0:0:
320,192,134060,1,2,0:0:0:0:
448,192,134060,1,0,0:0:0:0:
192,192,134144,1,0,0:0:0:50:amenbreak_snare2.wav
320,192,134227,1,0,0:0:0:0:
64,192,134310,1,2,0:0:0:0:
448,192,134310,1,8,0:0:0:0:
192,192,134394,1,10,0:0:0:0:
320,192,134477,1,8,0:0:0:0:
448,192,134477,1,2,0:0:0:0:
192,192,134560,1,10,0:0:0:0:
64,192,134644,1,0,0:0:0:50:amenbreak_snare1.wav
448,192,134644,1,0,0:0:0:0:
320,192,134699,1,0,0:0:0:50:amenbreak_snare1.wav
192,192,134755,1,0,0:0:0:50:amenbreak_snare1.wav
448,192,134810,1,0,0:0:0:50:amenbreak_snare1.wav
320,192,134866,1,0,0:0:0:50:amenbreak_snare1.wav
192,192,134922,1,0,0:0:0:50:amenbreak_snare1.wav
64,192,134977,1,2,0:0:0:0:
448,192,134977,1,0,0:0:0:0:
320,192,135060,1,2,0:0:0:0:
64,192,135144,1,2,0:0:0:0:
192,192,135144,1,0,0:0:0:50:amenbreak_snare1.wav
448,192,135227,1,0,0:0:0:0:
192,192,135310,1,0,0:0:0:0:
320,192,135394,1,0,0:0:0:0:
64,192,135477,1,2,0:0:0:0:
448,192,135477,1,0,0:0:0:50:amenbreak_snare2.wav
192,192,135560,1,2,0:0:0:0:
320,192,135644,1,2,0:0:0:0:
448,192,135644,1,8,0:0:0:0:
320,192,135755,1,10,0:0:0:0:
64,192,135866,1,10,0:0:0:0:
64,192,135977,1,8,0:0:0:0:
448,192,135977,1,2,0:0:0:0:
320,192,136144,1,0,0:0:0:0:
64,192,136227,1,2,0:0:0:0:
192,192,136227,1,0,0:0:0:0:
448,192,136310,1,0,0:0:0:50:amenbreak_snare1.wav
320,192,136394,1,0,0:0:0:0:
64,192,136477,1,2,0:0:0:0:
192,192,136477,1,0,0:0:0:0:
448,192,136560,1,0,0:0:0:0:
320,192,136644,1,0,0:0:0:0:
64,192,136727,1,2,0:0:0:0:
192,192,136727,1,0,0:0:0:0:
320,192,136810,1,0,0:0:0:50:amenbreak_snare2.wav
192,192,136894,1,0,0:0:0:0:
64,192,136977,1,2,0:0:0:0:
448,192,136977,1,8,0:0:0:0:
320,192,137033,1,2,0:0:0:0:
192,192,137088,1,2,0:0:0:0:
64,192,137144,1,2,0:0:0:0:
448,192,137199,1,2,0:0:0:0:
320,192,137255,1,2,0:0:0:0:
64,192,137310,1,2,0:0:0:0:
192,192,137310,1,0,0:0:0:50:amenbreak_snare1.wav
320,192,137477,1,2,0:0:0:0:
448,192,137477,1,0,0:0:0:0:
64,192,137644,1,2,0:0:0:0:
448,192,137644,1,0,0:0:0:0:
192,192,137699,1,2,0:0:0:0:
320,192,137755,1,2,0:0:0:0:
64,192,137810,1,2,0:0:0:0:
448,192,137810,1,0,0:0:0:50:amenbreak_snare1.wav
192,192,137977,1,2,0:0:0:0:
192,192,138088,1,2,0:0:0:0:
448,192,138199,1,2,0:0:0:0:
448,192,138310,1,2,0:0:0:0:
320,192,138310,1,8,0:0:0:0:
64,192,138422,1,2,0:0:0:0:
64,192,138533,1,2,0:0:0:0:
448,192,138644,1,2,0:0:0:0:
320,192,138644,1,8,0:0:0:0:
192,192,138810,1,0,0:0:0:0:
320,192,138894,1,2,0:0:0:0:
448,192,138894,1,0,0:0:0:0:
64,192,138977,1,0,0:0:0:50:amenbreak_snare1.wav
192,192,139060,1,0,0:0:0:0:
320,192,139144,1,2,0:0:0:0:
448,192,139144,1,0,0:0:0:0:
192,192,139227,1,0,0:0:0:0:
64,192,139310,1,2,0:0:0:0:
448,192,139310,1,0,0:0:0:0:
320,192,139394,1,0,0:0:0:0:
64,192,139477,1,0,0:0:0:50:amenbreak_snare2.wav
192,192,139533,1,0,0:0:0:0:
320,192,139588,1,0,0:0:0:0:
64,192,139644,1,2,0:0:0:0:
448,192,139644,1,8,0:0:0:0:
192,192,139810,1,2,0:0:0:0:
448,192,139852,1,2,0:0:0:0:
320,192,139894,1,2,0:0:0:0:
192,192,139935,1,2,0:0:0:0:
64,192,139977,1,0,0:0:0:50:amenbreak_snare1.wav
448,192,139977,1,0,0:0:0:0:
320,192,140144,1,0,0:0:0:50:amenbreak_snare1.wav
64,192,140199,1,0,0:0:0:50:amenbreak_snare1.wav
192,192,140255,1,0,0:0:0:50:amenbreak_snare1.wav
320,192,140310,1,2,0:0:0:0:
448,192,140310,1,8,0:0:0:0:
64,192,140477,1,2,0:0:0:0:
192,192,140477,1,8,0:0:0:0:
192,192,140644,1,0,0:0:0:0:
320,192,140727,1,8,0:0:0:0:
448,192,140727,1,2,0:0:0:0:
320,192,140894,1,0,0:0:0:0:
64,192,140977,1,2,0:0:0:0:
448,192,140977,1,8,0:0:0:0:
192,192,141144,1,0,0:0:0:0:
320,192,141227,1,8,0:0:0:0:
448,192,141227,1,2,0:0:0:0:
64,192,141310,1,2,0:0:0:0:
192,192,141310,1,4,0:0:0:0:
320,192,141477,1,0,0:0:0:0:
64,192,141560,1,2,0:0:0:0:
448,192,141560,1,0,0:0:0:0:
192,192,141644,1,0,0:0:0:50:amenbreak_snare1.wav
320,192,141727,1,0,0:0:0:0:
64,192,141810,1,2,0:0:0:0:
448,192,141810,1,0,0:0:0:0:
192,192,141894,1,0,0:0:0:0:
320,192,141977,1,0,0:0:0:0:
64,192,142060,1,2,0:0:0:0:
448,192,142060,1,0,0:0:0:0:
192,192,142144,1,0,0:0:0:50:amenbreak_snare2.wav
320,192,142227,1,0,0:0:0:0:
64,192,142310,1,8,0:0:0:0:
192,192,142310,1,2,0:0:0:0:
448,192,142394,1,10,0:0:0:0:
64,192,142477,1,8,0:0:0:0:
320,192,142477,1,2,0:0:0:0:
192,192,142560,1,10,0:0:0:0:
320,192,142644,1,2,0:0:0:0:
448,192,142644,1,0,0:0:0:50:amenbreak_snare1.wav
64,192,142699,1,0,0:0:0:50:amenbreak_snare1.wav
192,192,142755,1,0,0:0:0:50:amenbreak_snare1.wav
448,192,142810,1,0,0:0:0:50:amenbreak_snare1.wav
320,192,142866,1,0,0:0:0:50:amenbreak_snare1.wav
192,192,142922,1,0,0:0:0:50:amenbreak_snare1.wav
64,192,142977,1,0,0:0:0:50:amenbreak_snare1.wav
448,192,142977,1,0,0:0:0:0:
64,192,143144,1,2,0:0:0:0:
192,192,143144,1,0,0:0:0:0:
320,192,143227,1,0,0:0:0:0:
192,192,143310,1,0,0:0:0:0:
64,192,143394,1,2,0:0:0:0:
448,192,143394,1,0,0:0:0:0:
320,192,143477,1,0,0:0:0:50:amenbreak_snare2.wav
192,192,143560,1,0,0:0:0:0:
320,192,143644,1,8,0:0:0:0:
448,192,143644,1,2,0:0:0:0:
64,192,143810,1,2,0:0:0:0:
192,192,143852,1,2,0:0:0:0:
448,192,143894,1,2,0:0:0:0:
320,192,143935,1,2,0:0:0:0:
64,192,143977,1,2,0:0:0:0:
192,192,143977,1,0,0:0:0:50:amenbreak_snare1.wav
448,192,144144,1,0,0:0:0:0:
64,192,144227,1,2,0:0:0:0:
192,192,144227,1,0,0:0:0:0:
320,192,144310,1,0,0:0:0:0:
192,192,144394,1,0,0:0:0:0:
64,192,144477,1,2,0:0:0:0:
448,192,144477,1,0,0:0:0:0:
320,192,144560,1,0,0:0:0:0:
192,192,144644,1,0,0:0:0:0:
64,192,144727,1,2,0:0:0:0:
448,192,144727,1,0,0:0:0:0:
320,192,144810,1,0,0:0:0:50:amenbreak_snare2.wav
192,192,144894,1,0,0:0:0:0:
320,192,144977,1,8,0:0:0:0:
448,192,144977,1,2,0:0:0:0:
64,192,145060,1,10,0:0:0:0:
192,192,145144,1,2,0:0:0:0:
448,192,145144,1,8,0:0:0:0:
320,192,145227,1,10,0:0:0:0:
64,192,145310,1,10,0:0:0:0:
192,192,145310,1,0,0:0:0:50:amenbreak_snare1.wav
320,192,145477,1,0,0:0:0:0:
64,192,145560,1,2,0:0:0:0:
192,192,145560,1,0,0:0:0:50:amenbreak_snare1.wav
448,192,145644,1,0,0:0:0:0:
320,192,145727,1,0,0:0:0:0:
64,192,145810,1,2,0:0:0:0:
192,192,145810,1,0,0:0:0:50:amenbreak_snare1.wav
448,192,145977,1,2,0:0:0:0:
320,192,146019,1,2,0:0:0:0:
64,192,146060,1,2,0:0:0:0:
192,192,146102,1,2,0:0:0:0:
320,192,146144,1,2,0:0:0:0:
448,192,146144,1,0,0:0:0:50:amenbreak_snare2.wav
64,192,146310,1,10,0:0:0:0:
192,192,146352,1,2,0:0:0:0:
448,192,146394,1,2,0:0:0:0:
320,192,146435,1,2,0:0:0:0:
64,192,146477,1,2,0:0:0:0:
192,192,146477,1,0,0:0:0:0:
320,192,146560,1,2,0:0:0:0:
64,192,146644,1,2,0:0:0:0:
448,192,146644,1,0,0:0:0:0:
192,192,146810,1,0,0:0:0:0:
320,192,146894,1,2,0:0:0:0:
448,192,146894,1,0,0:0:0:0:
64,192,146977,1,0,0:0:0:50:amenbreak_snare1.wav
320,192,147060,1,0,0:0:0:0:
64,192,147144,1,2,0:0:0:0:
448,192,147144,1,0,0:0:0:0:
192,192,147227,1,2,0:0:0:0:
320,192,147310,1,0,0:0:0:0:
64,192,147394,1,2,0:0:0:0:
192,192,147394,1,0,0:0:0:0:
448,192,147477,1,0,0:0:0:50:amenbreak_snare2.wav
320,192,147560,1,0,0:0:0:0:
64,192,147644,1,8,0:0:0:0:
448,192,147644,1,2,0:0:0:0:
192,192,147727,1,0,0:0:0:0:
64,192,147810,1,2,0:0:0:0:
320,192,147810,1,0,0:0:0:0:
448,192,147894,1,0,0:0:0:0:
64,192,147977,1,2,0:0:0:0:
192,192,147977,1,0,0:0:0:50:amenbreak_snare1.wav
320,192,148144,1,0,0:0:0:0:
192,192,148227,1,2,0:0:0:0:
448,192,148310,1,2,0:0:0:0:
320,192,148352,1,2,0:0:0:0:
64,192,148394,1,2,0:0:0:0:
192,192,148435,1,2,0:0:0:0:
320,192,148477,1,2,0:0:0:0:
448,192,148477,1,0,0:0:0:50:amenbreak_snare1.wav
192,192,148644,1,0,0:0:0:0:
64,192,148727,1,2,0:0:0:0:
448,192,148727,1,0,0:0:0:0:
320,192,148810,1,0,0:0:0:0:
192,192,148894,1,0,0:0:0:0:
64,192,148977,1,8,0:0:0:0:
448,192,148977,1,2,0:0:0:0:
320,192,149060,1,0,0:0:0:0:
64,192,149144,1,2,0:0:0:0:
192,192,149144,1,0,0:0:0:0:
320,192,149227,1,0,0:0:0:0:
64,192,149310,1,2,0:0:0:0:
448,192,149310,1,0,0:0:0:0:
320,192,149477,1,2,0:0:0:0:
448,192,149477,1,0,0:0:0:0:
64,192,149560,1,2,0:0:0:0:
192,192,149560,1,0,0:0:0:0:
320,192,149727,1,2,0:0:0:0:
448,192,149727,1,0,0:0:0:0:
64,192,149810,1,2,0:0:0:0:
192,192,149810,1,0,0:0:0:0:
320,192,149894,1,0,0:0:0:0:
64,192,149977,1,2,0:0:0:0:
448,192,149977,1,0,0:0:0:0:
64,192,150144,1,2,0:0:0:0:
192,192,150144,1,0,0:0:0:50:amenbreak_snare2.wav
320,192,150227,1,2,0:0:0:0:
448,192,150227,1,0,0:0:0:0:
64,192,150394,1,2,0:0:0:0:
192,192,150394,1,0,0:0:0:0:
448,192,150477,1,2,0:0:0:0:
320,192,150519,1,2,0:0:0:0:
64,192,150560,1,2,0:0:0:0:
192,192,150602,1,2,0:0:0:0:
320,192,150644,1,2,0:0:0:0:
448,192,150644,1,0,0:0:0:50:amenbreak_snare1.wav
64,192,150727,1,0,0:0:0:0:
192,192,150810,1,2,0:0:0:0:
448,192,150810,1,0,0:0:0:0:
320,192,150894,1,2,0:0:0:0:
64,192,150977,1,2,0:0:0:0:
192,192,150977,1,0,0:0:0:0:
448,192,151060,1,2,0:0:0:0:
64,192,151144,1,2,0:0:0:0:
320,192,151144,1,0,0:0:0:50:amenbreak_snare1.wav
192,192,151227,1,2,0:0:0:0:
448,192,151310,1,2,0:0:0:0:
64,192,151366,1,0,0:0:0:0:
192,192,151422,1,0,0:0:0:0:
320,192,151477,1,2,0:0:0:0:
448,192,151477,1,0,0:0:0:50:amenbreak_snare2.wav
192,192,151560,1,2,0:0:0:0:
64,192,151644,1,2,0:0:0:0:
448,192,151699,1,0,0:0:0:0:
320,192,151755,1,0,0:0:0:0:
64,192,151810,1,2,0:0:0:0:
192,192,151810,1,0,0:0:0:0:
320,192,151894,1,2,0:0:0:0:
64,192,151977,1,0,0:0:0:50:G3H.wav
448,192,151977,128,0,154644:0:0:0:0:
64,192,154644,128,0,157310:0:0:0:50:G3H.wav
192,192,154644,1,0,0:0:0:0:
448,192,155977,128,0,157310:0:0:0:0:
