osu file format v14

[General]
AudioFilename: Another_Loud.ogg
AudioLeadIn: 0
PreviewTime: 43935
Countdown: 0
SampleSet: Soft
StackLeniency: 0.7
Mode: 3
LetterboxInBreaks: 0
SpecialStyle: 0
WidescreenStoryboard: 1

[Editor]
Bookmarks: 22644,43977,65310,86644,109310,130644,151977
DistanceSpacing: 0.6
BeatDivisor: 4
GridSize: 4
TimelineZoom: 0.6999999

[Metadata]
Title:Another
TitleUnicode:Another
Artist:Cinamoro
ArtistUnicode:Cinamoro
Creator:FAMoss
Version:Beginner
Source:
Tags:petit house fact_arti artifact artworld electronic instrumental artcore core breakbeat hardcore chiptune piano vivid/stasis
BeatmapID:3944673
BeatmapSetID:1910036

[Difficulty]
HPDrainRate:6.5
CircleSize:4
OverallDifficulty:6.5
ApproachRate:5
SliderMultiplier:1.4
SliderTickRate:1

[Events]
//Background and Video events
0,0,"eytan-zana-water-temple-hires.jpg",0,0
//Break Periods
2,86844,96110
//Storyboard Layer 0 (Background)
//Storyboard Layer 1 (Fail)
//Storyboard Layer 2 (Pass)
//Storyboard Layer 3 (Foreground)
//Storyboard Layer 4 (Overlay)
//Storyboard Sound Samples
Sample,2144,0,"A#6S_Bb6S_s.wav",80
Sample,2310,0,"A6S_s.wav",80
Sample,2477,0,"F6S_s.wav",80
Sample,3144,0,"C6S_s.wav",80
Sample,3227,0,"A#5S_Bb5S_s.wav",80
Sample,3310,0,"A5S_s.wav",80
Sample,3477,0,"A#5S_Bb5S_s.wav",80
Sample,3644,0,"C6S_s.wav",80
Sample,3810,0,"D6S_s.wav",80
Sample,4810,0,"G6S_s.wav",80
Sample,4977,0,"A6S_s.wav",80
Sample,5144,0,"A#6S_Bb6S_s.wav",80
Sample,5477,0,"D7S_s.wav",80
Sample,5644,0,"C7S_s.wav",80
Sample,5810,0,"A#6S_Bb6S_s.wav",80
Sample,6144,0,"F6S_s.wav",80
Sample,6199,0,"D6S_s.wav",80
Sample,6255,0,"F6S_s.wav",80
Sample,6310,0,"D6S_s.wav",80
Sample,6477,0,"C6S_s.wav",80
Sample,6977,0,"F6S_s.wav",80
Sample,7144,0,"G6S_s.wav",80
Sample,7477,0,"A6S_s.wav",80
Sample,7810,0,"A#6S_Bb6S_s.wav",80
Sample,8144,0,"D7S_s.wav",80
Sample,8310,0,"C7S_s.wav",80
Sample,8477,0,"A#6S_Bb6S_s.wav",80
Sample,8810,0,"G6S_s.wav",80
Sample,8977,0,"F6S_s.wav",80
Sample,9144,0,"D6S_s.wav",80
Sample,9644,0,"C6S_s.wav",80
Sample,9810,0,"A#5S_Bb5S_s.wav",80
Sample,9977,0,"C6S_s.wav",80
Sample,10144,0,"D6S_s.wav",80
Sample,10331,0,"F6S_s.wav",80
Sample,10477,0,"C6S_s.wav",80
Sample,10810,0,"A#5S_Bb5S_s.wav",80
Sample,10977,0,"C6S_s.wav",80
Sample,11144,0,"D6S_s.wav",80
Sample,11477,0,"F6S_s.wav",80
Sample,11644,0,"G6S_s.wav",80
Sample,11810,0,"A6S_s.wav",80
Sample,12310,0,"A6S_s.wav",80
Sample,12477,0,"A#6S_Bb6S_s.wav",80
Sample,12810,0,"C7S_s.wav",80
Sample,13165,0,"D7S_s.wav",80
Sample,13477,0,"C7S_s.wav",80
Sample,13644,0,"A#6S_Bb6S_s.wav",80
Sample,13810,0,"A6S_s.wav",80
Sample,13977,0,"G6S_s.wav",80
Sample,14144,0,"G6S_s.wav",80
Sample,14199,0,"A6S_s.wav",80
Sample,14255,0,"F6S_s.wav",80
Sample,14310,0,"D6S_s.wav",80
Sample,14477,0,"C6S_s.wav",80
Sample,14977,0,"D6S_s.wav",80
Sample,15144,0,"C6S_s.wav",80
Sample,15477,0,"F6S_s.wav",80
Sample,15644,0,"G6S_s.wav",80
Sample,15665,0,"F6S_s.wav",80
Sample,15810,0,"D6S_s.wav",80
Sample,16144,0,"C6S_s.wav",80
Sample,16310,0,"D6S_s.wav",80
Sample,16477,0,"F6S_s.wav",80
Sample,16810,0,"G6S_s.wav",80
Sample,16977,0,"A6S_s.wav",80
Sample,17144,0,"F6S_s.wav",80
Sample,17477,0,"A6S_s.wav",80
Sample,17810,0,"A#6S_Bb6S_s.wav",80
Sample,18144,0,"C7S_s.wav",80
Sample,18477,0,"D7S_s.wav",80
Sample,18810,0,"F7S_s.wav",80
Sample,18977,0,"D7S_s.wav",80
Sample,19144,0,"F7S_s.wav",80
Sample,19477,0,"A7S_s.wav",80
Sample,19644,0,"F7S_s.wav",80
Sample,19810,0,"D7S_s.wav",80
Sample,20310,0,"A#6S_Bb6S_s.wav",80
Sample,20477,0,"C7S_s.wav",80
Sample,20810,0,"D7S_s.wav",80
Sample,21477,0,"F6S_s.wav",80
Sample,21644,0,"G6S_s.wav",80
Sample,21810,0,"A6S_s.wav",80
Sample,22144,0,"C7S_s.wav",80
Sample,22310,0,"D7S_s.wav",80
Sample,42810,0,"C8H_s.wav",100
Sample,42894,0,"D8H_s.wav",100
Sample,42977,0,"C8H_s.wav",100
Sample,43144,0,"A#7H_Bb7H_s.wav",100
Sample,43310,0,"A7H_s.wav",100
Sample,43477,0,"F7H_s.wav",100
Sample,43644,0,"D7H_s.wav",100
Sample,43810,0,"F7H_s.wav",100
Sample,87810,0,"F5S_s.wav",80
Sample,87894,0,"G5S_s.wav",80
Sample,87977,0,"A5S_s.wav",80
Sample,88144,0,"A#5S_Bb5S_s.wav",80
Sample,88310,0,"D6S_s.wav",80
Sample,88477,0,"F6S_s.wav",80
Sample,88644,0,"D6S_s.wav",80
Sample,88810,0,"C6S_s.wav",80
Sample,88866,0,"D6S_s.wav",80
Sample,88922,0,"C6S_s.wav",80
Sample,88977,0,"A#5S_Bb5S_s.wav",80
Sample,89144,0,"C6S_s.wav",80
Sample,89310,0,"D6S_s.wav",80
Sample,89977,0,"C6S_s.wav",80
Sample,90477,0,"A#5S_Bb5S_s.wav",80
Sample,90644,0,"A5S_s.wav",80
Sample,90866,0,"A#5S_Bb5S_s.wav",80
Sample,91088,0,"C6S_s.wav",80
Sample,91310,0,"A#5S_Bb5S_s.wav",80
Sample,91533,0,"A5S_s.wav",80
Sample,91755,0,"F5S_s.wav",80
Sample,91977,0,"G5S_s.wav",80
Sample,92533,0,"F5S_s.wav",50
Sample,92588,0,"G5S_s.wav",50
Sample,92644,0,"A5S_s.wav",80
Sample,92810,0,"A#5S_Bb5S_s.wav",80
Sample,92977,0,"C6S_s.wav",80
Sample,93144,0,"A#5S_Bb5S_s.wav",80
Sample,93227,0,"C6S_s.wav",80
Sample,93310,0,"D6S_s.wav",80
Sample,93977,0,"A#6S_Bb6S_s.wav",80
Sample,94144,0,"A6S_s.wav",80
Sample,94310,0,"G6S_s.wav",80
Sample,94477,0,"F6S_s.wav",80
Sample,94644,0,"C6S_s.wav",80
Sample,95144,0,"A#5S_Bb5S_s.wav",80
Sample,95227,0,"C6S_s.wav",80
Sample,95310,0,"D6S_s.wav",80
Sample,95560,0,"F6S_s.wav",80
Sample,95810,0,"C6S_s.wav",80
Sample,96144,0,"A#5S_Bb5S_s.wav",80
Sample,96310,0,"C6S_s.wav",80
Sample,96477,0,"D6S_s.wav",80
Sample,96644,0,"F6S_s.wav",80
Sample,96727,0,"C6S_s.wav",80
Sample,96810,0,"D6S_s.wav",80
Sample,96894,0,"F6S_s.wav",80
Sample,96977,0,"A6S_s.wav",80
Sample,97060,0,"F6S_s.wav",80
Sample,97144,0,"G6S_s.wav",80
Sample,97227,0,"A6S_s.wav",80

[TimingPoints]
1311,333.333333333333,4,2,1,60,1,0
43977,-100,4,2,1,60,0,1
65310,-100,4,2,1,60,0,0
86644,-100,4,2,1,30,0,0
101310,-100,4,2,1,40,0,0
102644,-100,4,2,1,50,0,0
109310,-100,4,2,1,60,0,1
130644,-100,4,2,1,60,0,0

[HitObjects]
448,192,1311,1,0,0:0:0:80:G6S_s.wav
320,192,2644,1,0,0:0:0:80:D6S_s.wav
64,192,3977,1,0,0:0:0:80:D6S_s.wav
320,192,4644,1,0,0:0:0:80:D6S_s.wav
192,192,5977,1,0,0:0:0:80:A6S_s.wav
448,192,6644,1,0,0:0:0:80:D6S_s.wav
320,192,8644,1,0,0:0:0:80:A6S_s.wav
64,192,9310,1,0,0:0:0:80:C6S_s.wav
448,192,10310,1,0,0:0:0:80:D6S_s.wav
320,192,11310,1,0,0:0:0:80:D6S_s.wav
64,192,11977,1,0,0:0:0:80:G6S_s.wav
192,192,13144,1,0,0:0:0:80:C#7S_Db7S_s.wav
448,192,14644,1,0,0:0:0:80:D6S_s.wav
192,192,15310,1,0,0:0:0:80:D6S_s.wav
320,192,16644,1,0,0:0:0:80:F6S_s.wav
64,192,17310,1,0,0:0:0:80:G6S_s.wav
192,192,19310,1,0,0:0:0:80:A#7S_Bb7S_s.wav
448,192,19977,1,0,0:0:0:80:C7S_s.wav
64,192,21144,1,0,0:0:0:80:C7S_s.wav
192,192,21977,1,0,0:0:0:80:A#6S_Bb6S_s.wav
448,192,22644,1,2,0:0:0:0:
320,192,23144,1,2,0:0:0:0:
192,192,23977,1,2,0:0:0:0:
64,192,25310,1,2,0:0:0:0:
192,192,25810,1,2,0:0:0:0:
320,192,26644,128,0,27977:0:0:0:0:
64,192,27977,1,2,0:0:0:0:
192,192,28477,1,2,0:0:0:0:
448,192,29310,1,2,0:0:0:0:
320,192,30644,1,2,0:0:0:0:
192,192,31144,1,2,0:0:0:0:
64,192,31977,128,2,33310:0:0:0:0:
448,192,33310,1,2,0:0:0:0:
320,192,34644,1,2,0:0:0:0:
192,192,35977,1,2,0:0:0:0:
64,192,37310,1,2,0:0:0:0:
192,192,38644,1,2,0:0:0:0:
320,192,39977,1,2,0:0:0:0:
448,192,41310,1,2,0:0:0:0:
192,192,41977,1,2,0:0:0:0:
320,192,42644,128,0,43977:0:0:0:100:D8H_s.wav
64,192,43977,1,6,0:0:0:0:
448,192,44644,1,0,0:0:0:0:
192,192,45310,1,2,0:0:0:0:
320,192,45977,1,0,0:0:0:0:
192,192,46310,1,8,0:0:0:0:
64,192,46644,1,2,0:0:0:0:
448,192,47310,1,0,0:0:0:0:
320,192,47977,1,2,0:0:0:0:
64,192,48644,1,0,0:0:0:0:
192,192,48977,1,8,0:0:0:0:
448,192,49310,1,2,0:0:0:0:
64,192,49977,1,2,0:0:0:0:
320,192,50644,1,2,0:0:0:0:
192,192,51310,1,0,0:0:0:0:
320,192,51644,1,8,0:0:0:0:
448,192,51977,1,2,0:0:0:0:
64,192,52644,1,2,0:0:0:0:
192,192,53310,1,2,0:0:0:0:
448,192,53977,1,2,0:0:0:0:
320,192,54310,1,10,0:0:0:0:
64,192,54644,1,6,0:0:0:0:
192,192,55310,1,0,0:0:0:0:
448,192,55977,1,2,0:0:0:0:
64,192,56644,1,0,0:0:0:0:
192,192,56977,1,8,0:0:0:0:
320,192,57310,1,2,0:0:0:0:
192,192,57977,1,0,0:0:0:0:
448,192,58644,1,2,0:0:0:0:
192,192,59310,1,2,0:0:0:0:
320,192,59644,1,8,0:0:0:0:
448,192,59977,1,2,0:0:0:0:
64,192,60644,1,2,0:0:0:0:
192,192,61310,1,2,0:0:0:0:
320,192,61977,1,2,0:0:0:0:
192,192,62310,1,10,0:0:0:0:
64,192,62644,128,10,63644:0:0:0:0:
320,192,63644,1,10,0:0:0:0:
448,192,63977,128,14,64977:0:0:0:0:
192,192,64977,1,10,0:0:0:0:
64,192,65310,1,6,0:0:0:0:
320,192,65810,1,2,0:0:0:0:
192,192,66644,128,2,67310:0:0:0:0:
448,192,67310,1,2,0:0:0:0:
320,192,67977,1,2,0:0:0:0:
192,192,68477,1,2,0:0:0:0:
64,192,69310,128,2,69977:0:0:0:0:
320,192,69977,1,2,0:0:0:0:
448,192,70644,1,2,0:0:0:0:
64,192,71310,1,2,0:0:0:0:
320,192,71977,128,2,72644:0:0:0:0:
192,192,72644,1,2,0:0:0:0:
64,192,73310,1,2,0:0:0:0:
320,192,73810,1,2,0:0:0:0:
448,192,74644,128,2,75310:0:0:0:0:
64,192,75310,1,2,0:0:0:0:
192,192,75977,1,6,0:0:0:0:
320,192,77310,128,0,78644:0:0:0:0:
192,192,78644,1,2,0:0:0:0:
448,192,79977,128,0,81310:0:0:0:0:
64,192,81310,1,2,0:0:0:0:
192,192,82644,128,2,83977:0:0:0:0:
448,192,83977,1,2,0:0:0:0:
320,192,85310,128,2,86310:0:0:0:0:
64,192,86310,1,2,0:0:0:0:
192,192,86644,1,0,0:0:0:0:
448,192,97310,5,2,0:0:0:0:
320,192,98644,1,2,0:0:0:0:
192,192,99977,1,2,0:0:0:0:
64,192,101310,1,2,0:0:0:0:
192,192,102644,1,2,0:0:0:0:
320,192,103977,1,2,0:0:0:0:
64,192,105310,1,2,0:0:0:0:
320,192,105810,1,10,0:0:0:0:
448,192,106644,128,10,107644:0:0:0:0:
192,192,107644,1,10,0:0:0:0:
64,192,107977,128,0,109310:0:0:0:50:G3H.wav
448,192,109310,1,6,0:0:0:0:
320,192,109977,1,2,0:0:0:0:
64,192,110644,1,2,0:0:0:0:
192,192,111310,1,2,0:0:0:0:
320,192,111644,1,2,0:0:0:0:
448,192,111977,1,2,0:0:0:0:
64,192,112644,1,2,0:0:0:0:
192,192,113310,1,2,0:0:0:0:
448,192,113977,1,2,0:0:0:0:
320,192,114310,1,2,0:0:0:0:
64,192,114644,1,2,0:0:0:0:
192,192,115310,1,2,0:0:0:0:
448,192,115977,1,2,0:0:0:0:
320,192,116644,1,2,0:0:0:0:
192,192,116977,1,2,0:0:0:0:
64,192,117310,1,2,0:0:0:0:
448,192,117977,1,2,0:0:0:0:
320,192,118644,1,2,0:0:0:0:
64,192,119310,1,2,0:0:0:0:
192,192,119644,1,2,0:0:0:0:
448,192,119977,1,6,0:0:0:0:
320,192,120644,1,2,0:0:0:0:
192,192,121310,1,2,0:0:0:0:
64,192,121977,1,2,0:0:0:0:
320,192,122310,1,2,0:0:0:0:
448,192,122644,1,2,0:0:0:0:
64,192,123310,1,2,0:0:0:0:
192,192,123977,1,2,0:0:0:0:
448,192,124644,1,2,0:0:0:0:
320,192,124977,1,10,0:0:0:0:
64,192,125310,1,10,0:0:0:0:
192,192,125977,1,10,0:0:0:0:
448,192,126644,1,10,0:0:0:0:
320,192,127310,1,10,0:0:0:0:
64,192,127977,128,10,129310:0:0:0:0:
448,192,129310,128,10,130644:0:0:0:0:
64,192,130644,1,6,0:0:0:0:
192,192,130977,1,0,0:0:0:50:amenbreak_snare1.wav
320,192,131310,1,0,0:0:0:0:
192,192,131977,128,10,133310:0:0:0:0:
320,192,133310,1,2,0:0:0:0:
448,192,133977,1,0,0:0:0:0:
64,192,134644,1,0,0:0:0:50:amenbreak_snare1.wav
192,192,135310,1,0,0:0:0:0:
448,192,135977,1,10,0:0:0:0:
320,192,136310,1,0,0:0:0:50:amenbreak_snare1.wav
64,192,136644,1,0,0:0:0:0:
320,192,137310,128,2,138644:0:0:0:0:
64,192,138644,1,10,0:0:0:0:
448,192,139310,1,2,0:0:0:0:
192,192,139977,1,0,0:0:0:50:amenbreak_snare1.wav
320,192,140644,1,0,0:0:0:0:
448,192,141310,1,6,0:0:0:0:
64,192,141644,1,0,0:0:0:50:amenbreak_snare1.wav
192,192,141977,1,0,0:0:0:0:
320,192,142644,128,2,143977:0:0:0:0:
192,192,143977,1,2,0:0:0:0:
64,192,144644,1,0,0:0:0:0:
192,192,144977,1,10,0:0:0:0:
320,192,145310,1,10,0:0:0:0:
448,192,145977,1,2,0:0:0:0:
320,192,146310,1,10,0:0:0:0:
192,192,146644,1,2,0:0:0:0:
64,192,147310,1,0,0:0:0:0:
448,192,147977,1,2,0:0:0:0:
320,192,148310,1,2,0:0:0:0:
192,192,148644,1,0,0:0:0:0:
448,192,149310,1,2,0:0:0:0:
64,192,149977,1,2,0:0:0:0:
192,192,150310,1,8,0:0:0:0:
320,192,150644,1,2,0:0:0:0:
448,192,151310,1,2,0:0:0:0:
320,192,151644,1,2,0:0:0:0:
64,192,151977,128,0,154644:0:0:0:50:G3H.wav
320,192,154644,128,0,157310:0:0:0:50:G3H.wav
