osu file format v14

[General]
AudioFilename: nejimaki_4.mp3
AudioLeadIn: 1000
PreviewTime: 99772
Countdown: 0
SampleSet: Normal
StackLeniency: 0.7
Mode: 0
LetterboxInBreaks: 0
EpilepsyWarning: 1
WidescreenStoryboard: 0

[Editor]
Bookmarks: 19490,33012,75265,88786,100512,131040,144561,158082,173399,207202,213962
DistanceSpacing: 0.9
BeatDivisor: 4
GridSize: 32
TimelineZoom: 3

[Metadata]
Title:Kamisama Nejimaki
TitleUnicode:カミサマネジマキ
Artist:Cilvery
ArtistUnicode:Cilvery
Creator:sukiNathan
Version:pk's Extra
Source:
Tags:vocaloid cover 11t utaite kemu pkk pkmnyab meyrink mitsumo みつも wind-up wind up god
BeatmapID:827835
BeatmapSetID:374900

[Difficulty]
HPDrainRate:5.5
CircleSize:4
OverallDifficulty:8.5
ApproachRate:9.5
SliderMultiplier:1.6
SliderTickRate:1

[Events]
//Background and Video events
0,0,"cilveryoneechan.png",0,0
Video,747,"thanksrichard.avi"
//Break Periods
2,2789,4599
2,117519,123649
2,158282,163578
2,173493,177839
2,185324,187346
//Storyboard Layer 0 (Background)
//Storyboard Layer 1 (Fail)
//Storyboard Layer 2 (Pass)
//Storyboard Layer 3 (Foreground)
//Storyboard Sound Samples

[TimingPoints]
1005,211.267605633803,4,1,2,75,1,0
2272,-76.9230769230769,4,1,2,75,0,0
2483,-100,4,1,2,75,0,0
5969,-86.9565217391304,4,1,2,75,0,0
19490,-117.647058823529,4,2,2,75,0,0
26251,-100,4,1,2,75,0,0
33012,-133.333333333333,4,2,2,75,0,0
39033,-76.9230769230769,4,1,2,75,0,0
39455,-100,4,1,2,75,0,0
41568,-76.9230769230769,4,1,2,75,0,0
42413,-100,4,1,2,75,0,0
45688,-100,4,2,1,75,0,0
46216,-100,4,2,1,55,0,0
46533,-86.9565217391304,4,1,2,85,0,1
53082,-86.9565217391304,4,1,2,85,0,0
53293,-86.9565217391304,4,1,2,85,0,1
58364,-86.9565217391304,4,1,1,75,0,0
58681,-117.647058823529,4,1,1,75,0,0
61216,-86.9565217391304,4,2,1,75,0,0
61744,-86.9565217391304,4,1,2,75,0,0
75265,-117.647058823529,4,2,1,75,0,0
80652,-200,4,2,1,75,0,0
81286,-200,4,1,1,75,0,0
82026,-100,4,1,2,75,0,0
85406,-100,4,1,2,75,0,0
88786,-117.647058823529,4,2,1,75,0,0
91427,-117.647058823529,4,1,1,75,0,0
91850,-117.647058823529,4,2,1,75,0,0
93328,-117.647058823529,4,1,1,75,0,0
93540,-117.647058823529,4,2,1,75,0,0
94807,-76.9230769230769,4,1,1,75,0,0
95547,-100,4,1,1,75,0,0
97343,-133.333333333333,4,1,1,75,0,0
99878,-133.333333333333,4,2,1,45,0,0
100300,-133.333333333333,4,2,1,55,0,0
102307,-86.9565217391304,4,1,2,85,0,1
108857,-86.9565217391304,4,1,2,85,0,0
109068,-86.9565217391304,4,1,2,85,0,1
114138,-86.9565217391304,4,1,1,75,0,0
114455,-117.647058823529,4,1,1,75,0,0
124174,-153.846153846154,4,3,1,75,0,0
129350,-100,4,1,1,75,0,0
130300,-100,4,2,1,75,0,0
131040,-100,4,1,1,75,0,0
144561,-86.9565217391304,4,1,1,85,0,0
155019,-86.9565217391304,4,1,2,85,0,0
157343,-86.9565217391304,4,1,1,85,0,0
157765,-100,4,1,1,85,0,0
158082,-166.666666666667,4,2,2,75,0,0
163152,-166.666666666667,4,1,1,75,0,0
164103,-76.9230769230769,4,1,1,75,0,0
164843,-100,4,1,1,75,0,0
166638,-133.333333333333,4,1,1,75,0,0
167906,-100,4,1,1,75,0,0
170441,-100,4,1,1,45,0,0
170547,-100,4,1,1,75,0,0
170652,-100,4,1,1,45,0,0
170758,-100,4,1,1,75,0,0
172131,-100,4,1,1,45,0,0
172237,-100,4,1,1,75,0,0
172343,-100,4,1,1,45,0,0
172448,-100,4,1,1,75,0,0
178364,-333.333333333333,4,1,1,75,0,0
179209,-333.333333333333,4,1,1,45,0,0
179737,-166.666666666667,4,2,1,55,0,0
180054,-86.9565217391304,4,1,2,85,0,1
185124,-86.9565217391304,4,2,2,75,0,0
187871,-86.9565217391304,4,1,2,85,0,0
188505,-86.9565217391304,4,1,2,85,0,1
191674,-86.9565217391304,4,1,2,85,0,0
191885,-86.9565217391304,4,1,2,85,0,1
196955,-117.647058823529,4,1,1,85,0,0
199490,-86.9565217391304,4,1,1,85,0,0
200335,-86.9565217391304,4,1,2,75,0,0
207096,-86.9565217391304,4,1,1,75,0,0
207413,-86.9565217391304,4,1,2,75,0,0
210476,-86.9565217391304,4,1,1,75,0,0

[Colours]
Combo1 : 182,108,255
Combo2 : 255,94,94
Combo3 : 119,187,255
Combo4 : 255,184,113

[HitObjects]
117,73,1005,6,0,L|108:126,2,53.3333333333333,8|0|0,0:0|0:0|0:0,0:0:0:0:
187,198,1216,2,0,L|196:145,2,53.3333333333333,0|0|0,0:0|0:0|0:0,0:0:0:0:
293,88,1427,2,0,L|284:141,2,53.3333333333333,8|0|0,0:0|0:0|0:0,0:0:0:0:
363,213,1638,2,0,L|372:160,2,53.3333333333333,0|0|0,0:0|0:0|0:0,0:0:0:0:
282,285,1850,1,8,0:0:0:0:
282,285,1990,6,0,L|272:345,3,53.3333333333333,0|0|0|0,0:0|0:0|0:0|0:0,0:0:0:0:
287,264,2272,1,4,0:2:0:0:
256,112,2483,5,0,0:0:0:0:
256,128,2589,1,4,0:0:0:0:
153,44,5124,5,6,1:2:0:0:
153,44,5230,2,0,P|199:35|244:12,1,80,0|8,0:0|1:0,0:0:0:0:
93,133,5441,2,0,P|56:117|16:110,1,80,0|0,3:0|3:0,0:0:0:0:
208,217,5652,1,12,1:2:0:0:
208,217,5758,2,0,L|201:125,1,80,0|8,0:0|2:0,0:0:0:0:
17,111,5969,6,0,B|-2:205|-2:205|33:295,1,184.000003509522,4|0,1:0|0:0,0:0:0:0:
119,335,6286,1,10,0:2:0:0:
200,273,6392,1,0,3:0:0:0:
297,296,6497,2,0,L|395:287,1,92.0000017547608,2|0,3:2|3:2,0:0:0:0:
283,190,6709,2,0,L|185:181,1,92.0000017547608,8|0,0:0|0:0,0:0:0:0:
292,93,6920,5,2,3:2:0:0:
371,147,7026,1,0,3:2:0:0:
464,127,7131,2,0,P|484:77|483:32,1,92.0000017547608,10|0,0:2|0:0,0:0:0:0:
371,147,7343,2,0,P|372:192|391:234,2,92.0000017547608,0|0|8,3:2|0:0|0:0,0:0:0:0:
283,190,7659,6,0,B|219:157|219:157|109:190,1,184.000003509522,4|0,3:2|0:0,0:0:0:0:
167,334,7976,2,0,P|194:294|205:245,1,92.0000017547608,10|0,0:2|0:0,0:0:0:0:
320,82,8188,2,0,L|328:195,1,92.0000017547608,2|0,3:2|3:2,0:0:0:0:
466,327,8399,2,0,L|458:214,1,92.0000017547608,8|0,0:2|0:2,0:0:0:0:
326,173,8610,6,0,P|274:213|153:166,1,184.000003509522,2|8,3:2|0:0,0:0:0:0:
105,98,8927,1,0,0:0:0:0:
15,226,9033,2,0,L|-1:104,1,92.0000017547608,2|0,0:2|3:0,0:0:0:0:
118,285,9244,1,8,0:0:0:0:
320,192,9350,6,0,P|274:152|166:185,1,184.000003509522,4|0,3:2|3:0,0:0:0:0:
319,191,9666,2,0,L|330:100,1,92.0000017547608,10|0,0:2|0:0,0:0:0:0:
417,238,9878,2,0,P|470:221|510:221,1,92.0000017547608,2|0,3:2|3:2,0:0:0:0:
397,344,10089,2,0,P|351:341|308:326,1,92.0000017547608,8|0,0:0|0:2,0:0:0:0:
169,261,10300,6,0,P|210:243|258:237,1,92.0000017547608,2|0,3:2|3:0,0:0:0:0:
358,145,10512,2,0,P|312:139|270:120,1,92.0000017547608,10|0,0:2|0:0,0:0:0:0:
159,142,10723,1,0,3:2:0:0:
278,29,10828,2,0,L|269:143,1,92.0000017547608,0|8,3:0|0:2,0:0:0:0:
464,222,11040,6,0,P|408:180|310:226,1,184.000003509522,4|0,1:2|0:0,0:0:0:0:
238,291,11357,1,10,1:2:0:0:
139,269,11462,1,0,0:0:0:0:
91,179,11568,2,0,L|83:79,1,92.0000017547608,10|0,1:2|0:0,0:0:0:0:
207,23,11779,2,0,L|199:114,2,92.0000017547608,8|8|8,1:2|0:3|3:0,0:0:0:0:
303,72,12096,1,0,3:0:0:0:
374,144,12202,2,0,P|419:142|462:125,1,92.0000017547608,0|0,3:0|3:0,0:0:0:0:
309,62,12413,5,2,1:2:0:0:
250,187,12519,1,2,1:2:0:0:
250,187,12730,6,0,L|58:176,1,184.000003509522,4|0,1:0|0:0,0:0:0:0:
98,277,13047,2,0,P|121:328|128:374,1,92.0000017547608,10|0,0:2|3:0,0:0:0:0:
222,273,13258,2,0,P|231:228|251:186,1,92.0000017547608,2|0,3:2|3:2,0:0:0:0:
342,145,13469,1,8,0:0:0:0:
420,209,13575,1,0,0:0:0:0:
503,151,13681,6,0,L|512:59,1,92.0000017547608,2|0,3:2|3:2,0:0:0:0:
425,5,13892,2,0,L|415:96,1,92.0000017547608,10|0,0:2|0:0,0:0:0:0:
330,152,14103,1,0,3:2:0:0:
242,101,14209,2,0,L|148:90,1,92.0000017547608,0|8,0:0|0:0,0:0:0:0:
23,213,14420,6,0,P|108:184|194:248,1,184.000003509522,4|0,3:2|0:0,0:0:0:0:
298,213,14737,2,0,L|288:320,1,92.0000017547608,10|0,0:2|0:0,0:0:0:0:
417,223,14948,2,0,L|408:130,1,92.0000017547608,2|0,3:2|3:2,0:0:0:0:
388,100,15107,1,2,0:2:0:0:
388,100,15159,1,10,0:2:0:0:
291,73,15265,1,0,0:2:0:0:
217,144,15371,6,0,P|179:156|126:153,1,92.0000017547608,2|0,3:2|0:0,0:0:0:0:
262,317,15582,2,0,L|273:224,1,92.0000017547608,8|0,0:0|0:0,0:0:0:0:
377,159,15793,1,2,0:2:0:0:
377,159,15899,2,0,L|366:254,1,92.0000017547608,0|8,3:0|0:0,0:0:0:0:
485,356,16110,6,0,B|466:288|466:288|481:174,1,184.000003509522,4|0,3:2|3:0,0:0:0:0:
377,159,16427,2,0,P|336:174|282:170,1,92.0000017547608,10|0,0:2|0:0,0:0:0:0:
238,84,16638,2,0,P|200:69|150:68,1,92.0000017547608,2|0,3:2|3:2,0:0:0:0:
79,142,16850,1,8,0:0:0:0:
119,234,16955,1,0,0:2:0:0:
219,222,17061,6,0,P|267:208|309:215,1,92.0000017547608,2|0,3:2|3:0,0:0:0:0:
359,327,17272,2,0,P|313:333|270:319,1,92.0000017547608,10|0,0:2|0:0,0:0:0:0:
406,241,17483,1,0,3:2:0:0:
406,241,17589,2,0,P|418:200|395:137,1,92.0000017547608,0|8,3:0|0:2,0:0:0:0:
190,75,17800,6,0,P|259:113|342:61,1,184.000003509522,4|0,1:0|3:0,0:0:0:0:
406,153,18117,2,0,L|416:251,1,92.0000017547608,8|0,1:0|0:0,0:0:0:0:
209,283,18328,2,0,L|199:191,1,92.0000017547608,0|0,3:0|3:0,0:0:0:0:
307,230,18540,2,0,L|316:321,1,92.0000017547608,0|0,3:0|3:0,0:0:0:0:
236,368,18751,5,8,1:0:0:0:
150,348,18857,1,8,1:0:0:0:
103,273,18962,1,8,1:0:0:0:
122,187,19068,1,8,1:0:0:0:
198,140,19174,1,0,1:0:0:0:
198,140,19490,6,0,B|233:157|262:140|290:122|330:138,1,136.000002593994,4|0,3:2|0:0,0:0:0:0:
413,187,19807,2,0,P|446:159|464:115,1,68.0000012969971,2|0,0:2|0:0,0:0:0:0:
322,232,20019,2,0,P|317:280|331:315,1,68.0000012969971,0|0,3:0|0:0,0:0:0:0:
241,340,20230,2,0,L|156:329,1,68.0000012969971,2|0,0:0|0:0,0:0:0:0:
142,240,20441,5,0,3:0:0:0:
142,240,20547,2,0,L|57:229,1,68.0000012969971,0|2,0:0|0:0,0:0:0:0:
146,139,20758,2,0,P|161:106|165:67,1,68.0000012969971,2|0,0:0|0:0,0:0:0:0:
239,181,20969,2,0,P|243:214|258:245,1,68.0000012969971,2|0,0:0|0:0,0:0:0:0:
173,331,21181,6,0,P|240:332|304:355,1,136.000002593994,0|0,3:0|0:0,0:0:0:0:
436,281,21497,2,0,L|369:286,1,68.0000012969971,2|0,0:0|0:0,0:0:0:0:
411,186,21709,2,0,L|478:181,1,68.0000012969971,0|0,3:0|0:0,0:0:0:0:
411,90,21920,2,0,L|344:95,1,68.0000012969971,2|0,0:0|0:0,0:0:0:0:
272,156,22131,5,0,3:0:0:0:
272,156,22237,2,0,P|240:143|207:136,1,68.0000012969971,0|0,0:0|0:0,0:0:0:0:
189,42,22448,2,0,P|157:55|129:74,1,68.0000012969971,2|0,0:2|3:0,0:0:0:0:
53,17,22659,2,0,P|40:48|33:81,1,68.0000012969971,2|2,0:2|0:0,0:0:0:0:
93,157,22871,6,0,B|114:198|114:198|95:298,1,136.000002593994,0|0,1:0|0:0,0:0:0:0:
174,343,23188,2,0,L|187:267,1,68.0000012969971,2|0,0:2|0:0,0:0:0:0:
277,247,23399,2,0,L|264:313,1,68.0000012969971,0|0,3:0|0:0,0:0:0:0:
348,359,23610,2,0,L|360:292,1,68.0000012969971,2|0,0:0|0:0,0:0:0:0:
450,253,23821,5,0,3:0:0:0:
450,253,23927,2,0,L|450:185,1,68.0000012969971,2|0,0:0|0:0,0:0:0:0:
364,106,24138,2,0,L|364:174,1,68.0000012969971,2|0,3:2|0:0,0:0:0:0:
277,247,24350,2,0,L|277:160,1,68.0000012969971,0|0,0:0|0:0,0:0:0:0:
191,117,24561,6,0,P|146:155|59:138,1,136.000002593994,2|0,3:2|0:0,0:0:0:0:
104,238,24878,2,0,L|114:312,1,68.0000012969971,2|0,0:2|0:0,0:0:0:0:
201,339,25089,2,0,L|210:271,1,68.0000012969971,0|0,3:0|0:0,0:0:0:0:
285,211,25300,1,2,0:0:0:0:
367,259,25406,1,0,0:0:0:0:
452,216,25512,6,0,P|480:156|449:94,1,136.000002593994,6|2,3:2|0:0,0:0:0:0:
452,96,25828,1,2,0:0:0:0:
267,195,25934,5,0,1:0:0:0:
396,154,26040,1,0,1:0:0:0:
396,154,26251,6,0,P|367:213|410:291,1,160,4|2,1:0|3:2,0:0:0:0:
324,352,26568,2,0,L|242:345,1,80,10|0,0:2|2:1,0:0:0:0:
167,196,26779,2,0,P|181:240|178:286,1,80,0|2,3:0|3:2,0:0:0:0:
75,345,26990,2,0,P|75:305|88:267,1,80,10|0,0:2|0:0,0:0:0:0:
10,100,27202,5,2,3:2:0:0:
10,100,27307,2,0,L|22:180,1,80,0|8,3:1|0:0,0:0:0:0:
112,119,27519,2,0,P|148:105|188:106,1,80,0|0,2:0|0:0,0:0:0:0:
328,196,27730,2,0,P|289:197|252:183,1,80,0|8,3:0|0:0,0:0:0:0:
387,112,27941,6,0,L|371:287,1,160,0|0,3:0|3:0,0:0:0:0:
435,344,28258,2,0,P|467:321|506:314,1,80,8|2,0:0|2:2,0:0:0:0:
337,361,28469,2,0,P|297:353|265:330,1,80,0|2,3:0|3:2,0:0:0:0:
168,284,28681,2,0,L|178:378,1,80,10|0,0:2|0:0,0:0:0:0:
65,311,28892,5,2,3:2:0:0:
65,311,28997,2,0,L|73:231,1,80,0|8,3:0|0:0,0:0:0:0:
176,101,29209,2,0,L|167:180,1,80,0|0,2:0|0:0,0:0:0:0:
248,317,29420,2,0,L|256:237,1,80,0|8,3:0|0:0,0:0:0:0:
414,120,29631,6,0,P|354:168|282:143,1,160,4|0,1:0|3:0,0:0:0:0:
167,180,29948,2,0,P|130:164|90:159,1,80,8|0,0:0|0:0,0:0:0:0:
197,285,30159,2,0,P|233:269|273:264,1,80,0|0,3:0|0:0,0:0:0:0:
363,300,30371,1,8,0:0:0:0:
455,276,30476,1,0,3:0:0:0:
470,181,30582,6,0,L|474:101,2,80,0|0|0,3:0|3:0|1:0,0:0:0:0:
367,213,30899,2,0,L|371:133,1,80,2|0,3:2|0:0,0:0:0:0:
273,93,31110,2,0,L|268:172,1,80,2|8,3:2|0:0,0:0:0:0:
112,273,31321,6,0,P|183:244|251:281,1,160,4|0,3:2|3:0,0:0:0:0:
408,182,31638,2,0,P|336:210|268:173,1,160,8|0,0:2|3:0,0:0:0:0:
188,70,31955,1,0,0:0:0:0:
188,70,32061,2,0,L|178:161,1,80,8|0,0:2|0:0,0:0:0:0:
69,279,32272,5,0,3:0:0:0:
139,228,32378,1,0,3:0:0:0:
226,222,32483,1,0,1:0:0:0:
303,261,32589,1,0,1:0:0:0:
348,339,32695,1,0,1:0:0:0:
348,339,32906,5,0,0:0:0:0:
348,339,33012,2,0,P|384:296|382:232,1,120.000004577637,4|2,1:0|0:2,0:0:0:0:
320,160,33328,2,0,L|320:96,1,60.0000022888184,0|0,0:0|0:0,0:0:0:0:
410,132,33540,2,0,L|410:68,1,60.0000022888184,2|0,0:2|0:0,0:0:0:0:
230,109,33751,2,0,L|230:45,1,60.0000022888184,2|0,0:2|0:0,0:0:0:0:
164,174,33962,5,2,0:0:0:0:
164,174,34068,2,0,P|114:156|82:153,1,60.0000022888184,0|0,0:0|0:0,0:0:0:0:
216,251,34279,2,0,P|245:243|272:231,1,60.0000022888184
358,193,34490,2,0,L|366:260,1,60.0000022888184,0|0,0:0|0:0,0:0:0:0:
443,363,34702,6,0,L|452:219,1,120.000004577637,2|0,1:2|0:0,0:0:0:0:
504,170,35019,2,0,L|509:111,1,60.0000022888184,2|0,0:2|0:0,0:0:0:0:
427,72,35230,1,2,0:2:0:0:
427,72,35335,2,0,P|401:90|364:97,1,60.0000022888184,0|0,0:0|0:0,0:0:0:0:
217,165,35547,6,0,P|274:152|326:194,1,120.000004577637,2|0,0:2|0:0,0:0:0:0:
321,185,35864,1,0,0:0:0:0:
68,197,36075,2,0,L|128:198,1,60.0000022888184,2|0,0:2|0:0,0:0:0:0:
68,197,36392,6,0,P|88:247|77:320,1,120.000004577637,2|2,1:2|0:2,0:0:0:0:
168,334,36709,2,0,P|204:316|238:312,1,60.0000022888184,2|0,0:2|0:0,0:0:0:0:
283,244,36920,2,0,P|249:221|228:194,2,60.0000022888184
372,233,37237,2,0,P|401:180|380:115,1,120.000004577637,2|0,0:2|0:0,0:0:0:0:
317,67,37554,1,2,0:2:0:0:
317,67,37765,2,0,L|251:62,1,60.0000022888184
102,211,38082,6,0,P|146:187|218:213,1,120.000004577637,8|0,1:0|0:0,0:0:0:0:
281,149,38399,2,0,P|336:168|389:143,1,120.000004577637,0|0,0:0|1:0,0:0:0:0:
449,76,38716,1,0,0:0:0:0:
484,158,38821,1,0,0:0:0:0:
161,265,39033,6,0,P|141:217|149:165,1,103.999995239258,6|0,0:2|2:0,0:0:0:0:
315,144,39244,2,0,P|334:191|327:244,1,103.999995239258,6|0,0:2|2:0,0:0:0:0:
148,166,39455,5,2,1:0:0:0:
328,243,39561,1,2,1:0:0:0:
328,243,39772,6,0,B|378:268|378:268|494:238,1,160,4|0,1:0|3:0,0:0:0:0:
428,99,40089,2,0,P|402:133|391:171,1,80,8|0,0:0|0:0,0:0:0:0:
300,146,40300,2,0,P|259:129|209:126,1,80,0|0,3:0|3:0,0:0:0:0:
145,250,40512,2,0,P|184:244|221:229,1,80,8|0,0:0|0:0,0:0:0:0:
327,242,40723,6,0,L|331:332,2,80,0|0|8,3:0|3:0|0:0,0:0:0:0:
221,229,41040,1,0,0:0:0:0:
221,229,41145,2,0,L|217:149,1,80,0|0,3:0|0:0,0:0:0:0:
114,219,41357,2,0,L|118:299,1,80,8|0,0:0|0:0,0:0:0:0:
277,303,41568,6,0,P|353:239|451:262,1,207.999990478516,4|0,1:0|0:0,0:0:0:0:
414,364,41885,2,0,P|349:287|372:189,1,207.999990478516,4|0,1:2|0:0,0:0:0:0:
246,67,42202,2,0,L|258:171,1,103.999995239258,4|0,1:2|0:0,0:0:0:0:
178,241,42413,6,0,P|141:223|102:217,2,80,0|4|0,0:0|1:2|0:0,0:0:0:0:
256,320,42730,1,0,3:0:0:0:
334,241,42835,2,0,P|370:223|409:217,2,80,0|0|0,3:0|3:0|3:0,0:0:0:0:
443,302,43152,6,0,L|453:128,1,160,4|0,1:0|3:0,0:0:0:0:
359,53,43469,2,0,L|366:136,1,80,0|2,0:0|0:2,0:0:0:0:
279,181,43681,2,0,L|272:101,1,80,0|2,3:0|3:2,0:0:0:0:
178,66,43892,2,0,L|184:145,1,80,0|2,0:2|0:2,0:0:0:0:
103,282,44103,6,0,P|104:242|122:207,1,80,0|2,3:0|3:2,0:0:0:0:
243,321,44314,2,0,P|207:339|168:342,1,80,0|2,0:2|0:2,0:0:0:0:
240,230,44526,1,2,1:2:0:0:
318,267,44631,1,2,1:2:0:0:
391,218,44737,1,2,1:2:0:0:
381,130,44843,1,2,3:2:0:0:
302,91,44948,6,0,B|246:115|246:115|137:88,1,160,4|0,1:0|1:0,0:0:0:0:
100,247,45265,2,0,P|146:216|165:180,1,80,0|0,1:0|2:0,0:0:0:0:
319,277,45476,2,0,P|273:246|254:210,1,80,0|0,1:0|2:0,0:0:0:0:
423,202,45688,5,0,1:0:0:0:
423,202,46216,5,0,2:0:0:0:
423,202,46321,2,0,L|428:123,1,80,0|0,2:0|2:0,0:0:0:0:
331,50,46533,6,0,P|282:92|179:48,1,184.000003509522,4|2,1:0|0:2,0:0:0:0:
64,79,46850,2,0,L|78:189,1,92.0000017547608,8|0,0:0|0:0,0:0:0:0:
181,219,47061,2,0,P|226:196|270:195,1,92.0000017547608,0|2,3:2|3:2,0:0:0:0:
346,331,47272,2,0,P|300:328|260:306,1,92.0000017547608,8|0,0:0|0:0,0:0:0:0:
58,312,47483,5,0,3:2:0:0:
58,312,47589,2,0,L|149:318,1,92.0000017547608,2|0,3:2|0:0,0:0:0:0:
181,219,47800,2,0,L|89:212,1,92.0000017547608,0|0,0:0|0:0,0:0:0:0:
54,106,48012,2,0,L|146:113,1,92.0000017547608,2|8,3:2|0:0,0:0:0:0:
381,33,48223,6,0,P|304:76|226:34,1,184.000003509522,4|2,0:2|0:2,0:0:0:0:
414,147,48540,2,0,L|407:247,1,92.0000017547608,8|0,0:0|0:0,0:0:0:0:
303,296,48751,2,0,L|296:204,2,92.0000017547608,0|2|8,3:2|3:2|0:0,0:0:0:0:
397,362,49068,6,0,P|329:322|217:349,1,184.000003509522,0|2,0:2|3:2,0:0:0:0:
128,260,49385,2,0,L|115:361,1,92.0000017547608,8|2,0:0|0:2,0:0:0:0:
214,136,49596,1,0,3:0:0:0:
214,136,49702,2,0,L|227:237,1,92.0000017547608,2|8,3:2|0:0,0:0:0:0:
126,76,49913,6,0,B|195:111|195:111|304:80,1,184.000003509522,4|2,1:0|0:2,0:0:0:0:
471,152,50230,2,0,L|379:161,1,92.0000017547608,8|0,0:0|0:0,0:0:0:0:
494,50,50441,2,0,L|402:40,1,92.0000017547608,0|2,3:0|0:2,0:0:0:0:
456,175,50652,2,0,L|355:185,1,92.0000017547608,8|0,0:0|0:0,0:0:0:0:
256,75,50864,5,0,3:2:0:0:
196,144,50969,1,0,0:0:0:0:
247,220,51075,2,0,L|252:327,1,92.0000017547608,8|0,0:0|0:0,0:0:0:0:
120,251,51286,1,0,3:0:0:0:
120,251,51392,2,0,L|115:159,1,92.0000017547608,2|8,3:2|0:0,0:0:0:0:
355,43,51603,6,0,P|307:85|190:34,1,184.000003509522,4|2,1:0|0:2,0:0:0:0:
383,181,51920,2,0,L|393:283,1,92.0000017547608,2|2,1:2|1:2,0:0:0:0:
282,224,52131,1,2,1:2:0:0:
282,224,52237,2,0,L|290:315,1,92.0000017547608,2|2,2:2|2:2,0:0:0:0:
164,101,52448,6,0,L|181:293,1,184.000003509522,4|0,1:2|0:0,0:0:0:0:
81,344,52765,2,0,L|73:253,1,92.0000017547608,0|0,1:0|1:0,0:0:0:0:
164,101,52976,5,0,1:0:0:0:
73,252,53082,1,2,1:3:0:0:
73,252,53293,6,0,B|114:228|156:251|203:283|251:252,1,184.000003509522,4|2,1:0|0:2,0:0:0:0:
235,80,53610,2,0,P|207:131|204:172,1,92.0000017547608,8|0,0:2|0:0,0:0:0:0:
349,257,53821,2,0,P|341:211|317:173,1,92.0000017547608,0|2,3:2|3:2,0:0:0:0:
429,19,54033,2,0,L|425:125,1,92.0000017547608,8|0,0:0|0:0,0:0:0:0:
317,173,54244,5,0,3:0:0:0:
317,173,54350,2,0,L|320:81,1,92.0000017547608,0|8,0:0|0:0,0:0:0:0:
186,125,54561,2,0,B|174:169|174:169|182:216,1,92.0000017547608,0|0,0:0|0:0,0:0:0:0:
383,351,54772,2,0,B|392:306|392:306|380:257,1,92.0000017547608,2|8,3:2|0:0,0:0:0:0:
124,292,54983,6,0,B|178:319|178:319|241:290|241:290|308:320,1,184.000003509522,4|2,3:2|3:2,0:0:0:0:
381,261,55300,2,0,P|350:218|338:174,1,92.0000017547608,8|0,0:0|0:0,0:0:0:0:
502,128,55512,2,0,L|475:321,1,184.000003509522,0|0,3:2|0:0,0:0:0:0:
250,150,55828,6,0,P|305:93|413:122,1,184.000003509522,4|0,3:2|3:0,0:0:0:0:
307,233,56145,2,0,P|220:252|156:192,1,184.000003509522,8|0,0:0|1:0,0:0:0:0:
38,222,56462,2,0,L|55:124,1,92.0000017547608,0|8,1:0|1:0,0:0:0:0:
90,317,56674,6,0,B|150:311|150:311|200:352|200:352|266:348,1,184.000003509522,4|2,1:0|3:2,0:0:0:0:
384,308,56990,2,0,B|398:264|398:264|386:214,1,92.0000017547608,8|0,0:0|0:0,0:0:0:0:
255,134,57202,1,0,3:0:0:0:
255,134,57307,2,0,B|241:178|241:178|253:228,1,92.0000017547608,0|8,0:0|0:0,0:0:0:0:
332,82,57519,6,0,P|289:48|172:89,1,184.000003509522,4|2,1:0|3:2,0:0:0:0:
175,214,57835,2,0,P|218:248|335:207,1,184.000003509522,0|0,1:0|1:0,0:0:0:0:
413,152,58152,1,2,1:2:0:0:
490,217,58258,1,0,1:0:0:0:
445,308,58364,5,4,0:0:0:0:
429,318,58681,2,0,P|360:306|275:308,2,136.000002593994,0|0|0,1:0|1:0|3:0,0:0:0:0:
436,328,59209,1,0,0:0:0:0:
436,328,59314,2,0,L|435:244,1,68.0000012969971,0|0,0:0|0:0,0:0:0:0:
380,83,59631,5,2,1:3:0:0:
378,90,59843,1,2,1:3:0:0:
376,97,60054,6,0,B|339:114|306:95|279:77|242:90,1,136.000002593994,6|0,0:2|0:0,0:0:0:0:
162,150,60371,2,0,L|167:232,1,68.0000012969971,0|0,0:0|0:0,0:0:0:0:
260,260,60582,2,0,L|256:193,1,68.0000012969971,0|0,0:0|0:0,0:0:0:0:
342,217,60793,1,0,0:0:0:0:
325,319,60899,6,0,P|272:348|196:317,1,136.000002593994,4|2,0:2|2:0,0:0:0:0:
124,248,61216,2,0,L|112:311,2,61.3333345031739,2|2|2,0:0|0:0|0:0,0:0:0:0:
35,223,61427,6,0,L|51:128,1,92.0000017547608,2|8,3:2|0:0,0:0:0:0:
42,21,61638,1,0,1:0:0:0:
290,43,61744,6,0,P|227:103|145:73,1,184.000003509522,4|0,1:0|0:0,0:0:0:0:
391,73,62061,2,0,L|384:181,1,92.0000017547608,10|0,0:2|3:0,0:0:0:0:
293,272,62272,2,0,L|287:180,1,92.0000017547608,2|0,3:2|3:2,0:0:0:0:
184,292,62483,1,8,0:0:0:0:
247,371,62589,1,0,0:0:0:0:
347,357,62695,6,0,L|446:351,1,92.0000017547608,2|0,3:2|3:2,0:0:0:0:
293,272,62906,2,0,L|201:266,1,92.0000017547608,10|0,0:2|0:0,0:0:0:0:
389,184,63117,1,0,3:2:0:0:
389,184,63223,2,0,L|297:178,1,92.0000017547608,0|8,0:0|0:0,0:0:0:0:
115,35,63434,6,0,P|156:79|275:36,1,184.000003509522,4|0,3:2|0:0,0:0:0:0:
401,92,63751,2,0,L|388:186,1,92.0000017547608,10|0,0:2|0:0,0:0:0:0:
284,284,63962,2,0,P|275:239|271:192,1,92.0000017547608,2|0,3:2|3:2,0:0:0:0:
158,218,64174,2,0,P|116:237|70:240,1,92.0000017547608,8|0,0:2|0:2,0:0:0:0:
149,78,64385,6,0,B|202:111|202:111|255:82|322:92,1,184.000003509522,2|8,3:2|0:0,0:0:0:0:
402,166,64702,1,0,0:0:0:0:
501,118,64807,1,2,0:2:0:0:
501,118,64913,2,0,L|513:210,1,92.0000017547608,0|8,3:0|0:0,0:0:0:0:
252,267,65124,6,0,P|314:232|418:299,1,184.000003509522,4|0,3:2|3:0,0:0:0:0:
293,362,65441,2,0,P|243:356|185:351,1,92.0000017547608,10|0,0:2|0:0,0:0:0:0:
93,219,65652,2,0,P|143:213|201:208,1,92.0000017547608,2|0,3:2|3:2,0:0:0:0:
264,111,65864,1,8,0:0:0:0:
339,178,65969,1,0,0:2:0:0:
418,113,66075,6,0,L|513:106,1,92.0000017547608,2|0,3:2|3:0,0:0:0:0:
432,221,66286,2,0,L|341:215,1,92.0000017547608,10|0,0:2|0:0,0:0:0:0:
264,111,66497,1,0,3:2:0:0:
173,180,66603,2,0,L|164:276,1,92.0000017547608,0|8,3:0|0:2,0:0:0:0:
57,326,66814,6,0,P|143:304|212:359,1,184.000003509522,4|0,1:2|0:0,0:0:0:0:
382,315,67131,2,0,L|394:216,1,92.0000017547608,10|0,1:2|0:0,0:0:0:0:
226,148,67343,2,0,L|238:240,1,92.0000017547608,10|0,1:2|0:0,0:0:0:0:
403,306,67554,2,0,L|415:207,1,92.0000017547608,8|8,1:2|0:3,0:0:0:0:
376,77,67765,5,8,3:0:0:0:
314,139,67871,1,0,3:0:0:0:
226,148,67976,1,0,3:0:0:0:
153,97,68082,1,0,3:0:0:0:
65,117,68188,1,2,1:2:0:0:
29,200,68293,1,2,1:2:0:0:
29,200,68505,6,0,P|60:243|96:377,1,184.000003509522,4|0,1:0|0:0,0:0:0:0:
200,314,68821,2,0,P|242:292|293:288,1,92.0000017547608,10|0,0:2|3:0,0:0:0:0:
363,194,69033,2,0,P|317:188|277:167,1,92.0000017547608,2|0,3:2|3:2,0:0:0:0:
418,98,69244,1,8,0:0:0:0:
496,160,69350,1,0,0:0:0:0:
477,253,69455,6,0,L|472:359,1,92.0000017547608,2|0,3:2|3:2,0:0:0:0:
364,286,69666,2,0,L|363:194,1,92.0000017547608,10|0,0:2|0:0,0:0:0:0:
249,337,69878,1,0,3:2:0:0:
249,337,69983,2,0,L|249:245,1,92.0000017547608,0|0,0:0|0:0,0:0:0:0:
174,166,70195,6,0,P|145:213|13:187,1,184.000003509522,4|0,3:2|0:0,0:0:0:0:
40,73,70512,2,0,P|79:112|88:163,1,92.0000017547608,10|0,0:2|0:0,0:0:0:0:
245,106,70723,2,0,P|207:80|162:76,1,92.0000017547608,2|0,3:2|3:2,0:0:0:0:
162,76,70881,1,2,0:2:0:0:
162,76,70934,2,0,L|176:181,1,92.0000017547608,10|0,0:2|0:2,0:0:0:0:
309,255,71145,6,0,L|321:163,1,92.0000017547608,2|0,3:2|0:0,0:0:0:0:
475,164,71357,2,0,P|464:119|447:77,1,92.0000017547608,8|0,0:0|0:0,0:0:0:0:
346,32,71568,1,2,0:2:0:0:
253,88,71674,2,0,L|149:74,1,92.0000017547608,0|8,3:0|0:0,0:0:0:0:
161,234,71885,6,0,B|222:220|222:220|256:176|256:176|340:159,1,184.000003509522,4|0,3:2|3:0,0:0:0:0:
415,271,72202,2,0,P|363:269|309:257,1,92.0000017547608,10|0,0:2|0:0,0:0:0:0:
165,351,72413,2,0,P|210:342|256:341,1,92.0000017547608,2|0,3:2|3:2,0:0:0:0:
161,234,72624,1,8,0:0:0:0:
80,288,72730,1,0,0:2:0:0:
13,217,72835,6,0,L|3:116,1,92.0000017547608,2|0,3:2|3:0,0:0:0:0:
91,31,73047,2,0,L|100:122,1,92.0000017547608,10|0,0:2|0:0,0:0:0:0:
197,94,73258,1,0,3:2:0:0:
265,168,73364,2,0,P|319:189|367:178,1,92.0000017547608,0|8,3:0|0:2,0:0:0:0:
473,66,73575,6,0,L|451:266,1,184.000003509522,4|0,1:0|3:0,0:0:0:0:
362,314,73892,2,0,P|322:293|277:287,1,92.0000017547608,8|0,1:0|0:0,0:0:0:0:
287,176,74103,2,0,P|241:181|200:202,1,92.0000017547608,0|0,3:0|3:0,0:0:0:0:
149,104,74314,2,0,P|114:134|93:174,1,92.0000017547608,0|0,3:0|3:0,0:0:0:0:
96,288,74526,5,8,1:0:0:0:
176,288,74631,1,8,1:0:0:0:
256,288,74737,1,8,1:0:0:0:
336,288,74843,1,8,1:0:0:0:
416,288,74948,1,0,1:0:0:0:
416,288,75265,6,0,P|440:231|419:156,1,136.000002593994,0|0,3:0|0:0,0:0:0:0:
362,86,75582,2,0,L|450:72,1,68.0000012969971,2|0,0:0|0:0,0:0:0:0:
333,169,75793,2,0,L|245:155,1,68.0000012969971,0|0,3:0|0:0,0:0:0:0:
246,60,76005,2,0,P|214:71|187:91,1,68.0000012969971,2|0,0:0|0:0,0:0:0:0:
107,155,76216,5,0,3:0:0:0:
107,155,76321,2,0,L|96:74,1,68.0000012969971,0|2,0:0|0:0,0:0:0:0:
196,24,76533,2,0,L|186:91,1,68.0000012969971,0|0,0:0|3:0,0:0:0:0:
265,158,76744,2,0,L|274:90,1,68.0000012969971,0|2,0:0|0:0,0:0:0:0:
371,57,76955,6,0,P|419:100|498:78,1,136.000002593994,0|0,3:0|0:0,0:0:0:0:
445,183,77272,2,0,P|429:219|432:259,1,68.0000012969971,2|0,0:0|0:0,0:0:0:0:
343,303,77483,2,0,P|341:269|326:238,1,68.0000012969971,0|0,3:0|0:0,0:0:0:0:
302,137,77695,2,0,P|271:152|238:159,1,68.0000012969971,2|0,0:0|0:0,0:0:0:0:
170,52,77906,5,0,3:0:0:0:
170,52,78012,2,0,L|238:57,1,68.0000012969971,0|0,0:0|0:0,0:0:0:0:
119,141,78223,2,0,L|35:135,1,68.0000012969971,2|0,0:2|3:0,0:0:0:0:
146,241,78434,2,0,L|214:246,1,68.0000012969971,2|2,0:2|0:0,0:0:0:0:
321,178,78645,6,0,P|304:229|322:321,1,136.000002593994,0|0,1:0|0:0,0:0:0:0:
406,356,78962,2,0,P|423:305|405:213,1,136.000002593994,2|0,0:2|3:0,0:0:0:0:
501,177,79279,1,0,0:0:0:0:
501,177,79385,2,0,L|511:100,1,68.0000012969971,2|2,0:0|0:2,0:0:0:0:
401,52,79596,5,0,3:0:0:0:
401,52,79702,2,0,L|409:119,1,68.0000012969971,0|0,0:0|0:0,0:0:0:0:
314,123,79913,2,0,P|283:108|249:102,1,68.0000012969971,0|0,3:0|0:0,0:0:0:0:
186,218,80124,2,0,P|216:203|250:197,1,68.0000012969971,0|0,0:0|0:0,0:0:0:0:
325,262,80335,5,0,1:0:0:0:
325,262,81286,6,0,L|364:259,1,40,2|0,2:0|2:0,0:0:0:0:
239,176,81497,2,0,L|199:173,1,40,2|0,2:0|2:0,0:0:0:0:
421,136,81709,5,0,0:0:0:0:
365,260,81814,1,0,0:0:0:0:
365,260,82026,6,0,P|414:299|503:265,1,160,4|2,0:0|3:2,0:0:0:0:
406,154,82343,2,0,P|389:105|384:65,1,80,8|2,0:0|2:2,0:0:0:0:
292,154,82554,2,0,P|284:193|270:230,1,80,2|0,3:2|3:1,0:0:0:0:
183,271,82765,1,8,0:0:0:0:
93,235,82871,1,2,2:2:0:0:
62,144,82976,6,0,L|53:36,2,80,2|0|8,3:2|3:0|0:0,0:0:0:0:
225,82,83293,2,0,P|185:87|151:107,1,80,0|0,2:0|0:0,0:0:0:0:
218,176,83505,2,0,P|252:195|292:200,1,80,0|8,3:0|0:0,0:0:0:0:
413,90,83716,6,0,L|427:266,1,160,0|2,3:0|3:2,0:0:0:0:
315,353,84033,2,0,P|329:298|345:272,1,80,8|2,0:0|2:2,0:0:0:0:
293,200,84244,2,0,P|241:224|211:229,1,80,0|2,3:0|3:2,0:0:0:0:
249,76,84455,2,0,P|280:99|318:114,1,80,10|0,0:2|0:0,0:0:0:0:
159,142,84666,5,0,3:1:0:0:
159,142,84772,2,0,L|150:53,1,80,2|0,3:2|0:0,0:0:0:0:
51,143,84983,2,0,L|42:222,1,80,2|0,2:2|0:0,0:0:0:0:
129,329,85195,2,0,L|138:249,1,80,0|8,3:0|2:0,0:0:0:0:
375,207,85406,6,0,P|313:246|230:206,1,160,4|0,0:0|3:0,0:0:0:0:
247,68,85723,1,8,0:0:0:0:
324,122,85828,1,0,2:0:0:0:
409,81,85934,2,0,L|498:71,1,80,0|0,3:0|0:0,0:0:0:0:
385,175,86145,2,0,L|296:165,1,80,8|0,0:0|2:0,0:0:0:0:
150,200,86357,5,0,3:0:0:0:
219,123,86462,2,0,P|230:66|218:22,1,80,0|8,3:0|0:0,0:0:0:0:
47,168,86674,2,0,P|43:207|54:246,1,80,0|0,2:0|3:0,0:0:0:0:
215,345,86885,2,0,P|225:306|222:266,1,80,0|8,3:0|0:0,0:0:0:0:
146,126,87096,6,0,P|209:161|310:114,1,160,4|0,3:2|3:0,0:0:0:0:
453,225,87413,2,0,P|378:201|309:236,1,160,12|0,0:0|3:0,0:0:0:0:
272,328,87730,1,0,0:0:0:0:
363,369,87835,2,0,P|381:321|377:274,1,80,12|0,0:0|0:0,0:0:0:0:
289,155,88047,5,0,3:0:0:0:
309,236,88152,1,0,3:0:0:0:
390,257,88258,1,0,1:0:0:0:
449,196,88364,1,0,1:0:0:0:
424,116,88469,1,0,1:0:0:0:
424,116,88681,5,2,2:0:0:0:
424,116,88786,2,0,P|376:129|288:81,1,136.000002593994,0|0,3:0|0:0,0:0:0:0:
145,187,89103,2,0,P|190:171|213:152,1,68.0000012969971,0|0,1:0|0:0,0:0:0:0:
331,266,89314,2,0,P|299:234|289:205,1,68.0000012969971,0|0,3:0|0:0,0:0:0:0:
464,218,89526,2,0,P|449:248|423:270,1,68.0000012969971,0|0,1:0|0:0,0:0:0:0:
377,187,89737,5,0,3:0:0:0:
377,187,89843,2,0,L|374:102,1,68.0000012969971,0|0,0:0|0:0,0:0:0:0:
290,60,90054,2,0,L|287:127,1,68.0000012969971,2|0,0:2|3:0,0:0:0:0:
198,178,90265,2,0,L|195:110,1,68.0000012969971,0|0,0:0|0:0,0:0:0:0:
103,168,90476,6,0,B|105:223|105:223|131:253|131:253|135:310,1,136.000002593994,0|0,3:0|0:0,0:0:0:0:
282,249,90793,2,0,P|246:265|224:291,1,68.0000012969971,0|2,1:0|0:2,0:0:0:0:
309,347,91005,1,0,3:0:0:0:
309,347,91110,2,0,P|345:331|367:305,1,68.0000012969971,0|0,0:0|1:0,0:0:0:0:
373,207,91321,1,2,0:2:0:0:
284,156,91427,6,0,P|271:113|270:84,1,68.0000012969971,0|0,3:0|0:0,0:0:0:0:
186,149,91638,2,0,P|182:182|171:214,1,68.0000012969971,0|2,0:0|2:2,0:0:0:0:
58,224,91850,1,0,3:0:0:0:
117,314,91955,1,2,0:2:0:0:
117,314,92166,6,0,P|200:337|270:305,1,136.000002593994,0|0,3:0|0:0,0:0:0:0:
318,251,92483,2,0,L|331:168,1,68.0000012969971,0|0,1:0|0:0,0:0:0:0:
416,130,92695,2,0,L|426:197,1,68.0000012969971,0|0,3:0|0:0,0:0:0:0:
467,325,92906,2,0,P|440:304|408:297,1,68.0000012969971,0|0,1:0|0:0,0:0:0:0:
245,322,93117,6,0,P|272:343|305:351,2,68.0000012969971,0|0|0,3:0|0:0|0:0,0:0:0:0:
169,252,93434,1,2,2:2:0:0:
247,186,93540,2,0,L|255:107,1,68.0000012969971,0|2,3:0|0:2,0:0:0:0:
269,71,93857,6,0,L|275:229,1,136.000002593994,2|2,3:2|0:0,0:0:0:0:
344,271,94174,1,0,3:0:0:0:
438,265,94279,1,0,3:0:0:0:
494,187,94385,2,0,P|499:156|495:114,1,68.0000012969971,2|2,0:0|0:0,0:0:0:0:
390,66,94596,2,0,P|387:99|392:133,1,68.0000012969971,0|0,3:0|0:0,0:0:0:0:
190,171,94807,6,0,P|256:147|295:153,1,103.999995239258,6|0,0:2|2:0,0:0:0:0:
140,263,95019,2,0,P|88:264|41:242,1,103.999995239258,6|0,0:2|2:0,0:0:0:0:
190,171,95230,5,2,1:0:0:0:
41,243,95335,1,2,1:0:0:0:
41,243,95547,6,0,B|49:195|29:157|29:157|60:128|54:83,1,160,4|0,0:0|3:0,0:0:0:0:
216,125,95864,2,0,P|174:157|138:166,1,80,8|0,0:0|0:0,0:0:0:0:
273,316,96075,2,0,L|264:227,1,80,0|0,3:0|3:0,0:0:0:0:
369,105,96286,2,0,L|360:184,1,80,8|0,0:0|2:0,0:0:0:0:
436,262,96497,6,0,P|491:242|519:241,2,80,6|0|2,1:2|0:0|1:2,0:0:0:0:
350,321,96814,1,0,0:0:0:0:
249,347,96920,2,0,P|209:341|173:325,1,80,0|0,3:0|3:0,0:0:0:0:
152,176,97131,2,0,P|191:181|227:197,1,80,0|0,3:0|3:0,0:0:0:0:
456,83,97343,6,0,P|401:118|306:65,1,180.000006866455,4|2,3:2|2:0,0:0:0:0:
56,301,97976,2,0,P|111:266|206:319,1,180.000006866455,2|2,2:0|2:0,0:0:0:0:
256,64,98610,5,0,3:0:0:0:
256,144,98716,1,2,2:0:0:0:
256,224,98821,1,0,2:0:0:0:
256,304,98927,1,4,0:0:0:0:
255,334,99878,6,0,P|291:320|328:313,1,60.0000022888184,0|0,0:0|0:0,0:0:0:0:
398,192,100089,2,0,P|384:156|377:119,1,60.0000022888184,0|0,0:0|0:0,0:0:0:0:
256,49,100300,2,0,P|220:63|183:70,1,60.0000022888184,0|0,0:0|0:0,0:0:0:0:
113,191,100512,2,0,P|127:227|134:264,1,60.0000022888184,0|0,0:0|0:0,0:0:0:0:
256,192,100723,5,2,2:0:0:0:
256,96,101990,5,0,2:0:0:0:
256,96,102096,2,0,L|256:160,1,60.0000022888184,0|0,2:0|2:0,0:0:0:0:
115,292,102307,6,0,P|169:247|289:296,1,184.000003509522,4|2,1:0|0:2,0:0:0:0:
391,257,102624,2,0,P|420:200|417:159,1,92.0000017547608,8|0,0:0|0:0,0:0:0:0:
343,79,102835,2,0,P|279:82|245:105,1,92.0000017547608,0|2,3:2|3:2,0:0:0:0:
214,205,103047,2,0,P|248:258|285:276,1,92.0000017547608,8|0,0:0|0:0,0:0:0:0:
209,361,103258,5,0,3:2:0:0:
209,361,103364,2,0,L|108:351,1,92.0000017547608,2|0,3:2|0:0,0:0:0:0:
64,156,103575,2,0,P|80:198|86:244,1,92.0000017547608,0|0,0:0|0:0,0:0:0:0:
200,193,103786,2,0,P|211:148|227:105,1,92.0000017547608,2|8,3:2|0:0,0:0:0:0:
427,281,103997,6,0,B|367:305|367:305|244:276,1,184.000003509522,4|2,0:2|0:2,0:0:0:0:
110,201,104314,2,0,P|156:188|208:196,1,92.0000017547608,8|0,0:0|0:0,0:0:0:0:
320,102,104526,1,0,3:2:0:0:
320,102,104631,2,0,P|274:106|230:93,1,92.0000017547608,2|8,3:2|0:0,0:0:0:0:
390,16,104843,1,0,0:2:0:0:
470,99,104948,6,0,L|477:199,1,92.0000017547608,0|2,0:0|3:2,0:0:0:0:
368,292,105159,2,0,L|374:200,1,92.0000017547608,8|2,0:0|0:2,0:0:0:0:
199,192,105371,1,0,3:0:0:0:
278,57,105476,2,0,L|285:149,1,92.0000017547608,2|8,3:2|0:0,0:0:0:0:
97,303,105688,6,0,B|126:282|150:276|150:276|196:299|196:299|246:272|264:276,1,184.000003509522,4|2,1:0|0:2,0:0:0:0:
444,253,106005,2,0,P|398:246|352:221,1,92.0000017547608,8|0,0:0|0:0,0:0:0:0:
171,178,106216,2,0,P|217:170|263:145,1,92.0000017547608,0|2,3:0|0:2,0:0:0:0:
374,12,106427,2,0,L|376:110,1,92.0000017547608,8|0,0:0|0:0,0:0:0:0:
257,149,106638,5,0,3:2:0:0:
172,92,106744,1,0,0:0:0:0:
83,140,106850,2,0,P|63:182|64:228,1,92.0000017547608,8|0,0:0|0:0,0:0:0:0:
188,296,107061,1,0,3:0:0:0:
275,236,107166,2,0,P|275:190|256:148,1,92.0000017547608,2|8,3:2|0:0,0:0:0:0:
496,62,107378,6,0,P|448:114|337:64,1,184.000003509522,4|2,1:0|0:2,0:0:0:0:
161,58,107695,2,0,P|209:45|259:53,1,92.0000017547608,2|2,1:2|1:2,0:0:0:0:
154,168,107906,1,2,1:2:0:0:
63,112,108012,2,0,P|50:67|61:11,1,92.0000017547608,2|2,2:2|2:2,0:0:0:0:
154,168,108223,6,0,L|137:355,1,184.000003509522,4|0,1:2|0:0,0:0:0:0:
288,298,108540,2,0,L|284:197,1,92.0000017547608,0|0,1:0|1:0,0:0:0:0:
251,111,108751,5,0,1:0:0:0:
390,163,108857,1,2,1:3:0:0:
390,163,109068,6,0,P|336:186|252:91,1,184.000003509522,4|2,1:0|0:2,0:0:0:0:
97,49,109385,2,0,L|90:156,1,92.0000017547608,8|0,0:2|0:0,0:0:0:0:
112,253,109596,2,0,P|167:232|221:232,1,92.0000017547608,0|2,3:2|3:2,0:0:0:0:
361,326,109807,2,0,P|315:320|273:302,1,92.0000017547608,8|0,0:0|0:0,0:0:0:0:
400,211,110019,5,0,3:0:0:0:
482,282,110124,2,0,L|473:393,1,92.0000017547608,0|8,0:0|0:0,0:0:0:0:
379,227,110335,2,0,L|371:135,1,92.0000017547608,0|0,0:0|0:0,0:0:0:0:
176,151,110547,2,0,P|215:176|271:181,1,92.0000017547608,2|8,3:2|0:0,0:0:0:0:
155,54,110758,6,0,L|123:252,1,184.000003509522,4|2,3:2|3:2,0:0:0:0:
235,375,111075,2,0,P|227:323|207:269,1,92.0000017547608,8|0,0:0|0:0,0:0:0:0:
408,192,111286,2,0,P|330:232|259:181,1,184.000003509522,0|0,3:2|0:0,0:0:0:0:
457,105,111603,6,0,B|439:188|439:188|460:235|458:291,1,184.000003509522,4|0,3:2|3:0,0:0:0:0:
258,360,111920,2,0,B|256:310|277:263|277:263|259:180,1,184.000003509522,8|0,0:0|1:0,0:0:0:0:
102,94,112237,2,0,B|85:139|85:139|85:186,1,92.0000017547608,0|8,1:0|1:0,0:0:0:0:
323,123,112448,6,0,P|259:93|172:170,1,184.000003509522,4|2,1:0|3:2,0:0:0:0:
427,189,112765,2,0,L|431:98,1,92.0000017547608,8|0,0:0|0:0,0:0:0:0:
319,31,112976,1,0,3:0:0:0:
319,31,113082,2,0,L|323:123,1,92.0000017547608,0|8,0:0|0:0,0:0:0:0:
80,96,113293,6,0,P|159:135|236:90,1,184.000003509522,4|2,1:0|3:2,0:0:0:0:
407,49,113610,2,0,P|364:32|318:31,1,92.0000017547608,0|0,1:0|0:0,0:0:0:0:
236,90,113821,1,0,1:0:0:0:
232,191,113927,1,2,1:2:0:0:
308,258,114033,1,0,1:0:0:0:
407,241,114138,5,4,0:0:0:0:
417,254,114455,2,0,L|432:104,2,136.000002593994,0|0|0,1:0|1:0|3:0,0:0:0:0:
395,290,114983,1,0,0:0:0:0:
395,290,115089,2,0,P|341:277|322:276,1,68.0000012969971,0|0,0:0|0:0,0:0:0:0:
197,136,115406,5,2,1:3:0:0:
198,149,115617,1,2,1:3:0:0:
200,162,115828,6,0,P|253:186|330:150,1,136.000002593994,6|0,0:2|0:0,0:0:0:0:
461,261,116145,2,0,P|408:237|331:273,1,136.000002593994,0|0,0:0|0:0,0:0:0:0:
265,318,116462,2,0,L|197:306,1,68.0000012969971,0|0,0:0|0:0,0:0:0:0:
140,223,116674,5,4,0:2:0:0:
383,71,124174,5,0,0:0:0:0:
383,71,124279,2,0,P|332:96|269:82,1,103.999995239258,4|0,1:1|0:0,0:0:0:0:
185,49,124596,2,0,P|189:74|191:100,1,51.999997619629,2|0,0:0|0:0,0:0:0:0:
117,159,124807,2,0,P|112:184|110:210,1,51.999997619629,8|0,0:0|0:0,0:0:0:0:
248,226,125019,2,0,P|208:197|190:192,1,51.999997619629,2|0,0:0|0:0,0:0:0:0:
335,150,125230,6,0,L|404:144,1,51.999997619629,4|0,0:0|0:0,0:0:0:0:
434,230,125441,2,0,L|503:224,1,51.999997619629,2|0,0:0|0:0,0:0:0:0:
382,312,125652,1,8,0:0:0:0:
382,312,125758,2,0,P|341:294|312:286,1,51.999997619629,2|0,0:0|0:0,0:0:0:0:
200,319,125969,6,0,P|225:271|218:212,1,103.999995239258,4|0,0:0|0:0,0:0:0:0:
137,171,126286,2,0,P|128:134|126:115,1,51.999997619629,0|0,0:0|0:0,0:0:0:0:
235,78,126497,2,0,P|231:103|224:128,1,51.999997619629,10|0,0:0|0:0,0:0:0:0:
309,181,126709,2,0,P|319:157|332:134,1,51.999997619629,0|0,0:0|0:0,0:0:0:0:
395,238,126920,5,6,0:0:0:0:
312,293,127026,1,0,0:0:0:0:
230,235,127131,2,0,P|206:227|181:222,1,51.999997619629,2|0,0:0|0:0,0:0:0:0:
112,322,127343,2,0,P|137:316|161:308,2,51.999997619629,10|0|0,0:0|0:0|0:0,0:0:0:0:
50,245,127659,6,0,B|70:200|70:200|58:132,1,103.999995239258,6|0,0:0|0:0,0:0:0:0:
168,64,127976,2,0,P|150:108|145:129,1,51.999997619629,2|0,0:0|0:0,0:0:0:0:
236,210,128188,2,0,L|232:153,1,51.999997619629,8|0,0:0|0:0,0:0:0:0:
324,74,128399,2,0,L|320:125,1,51.999997619629,2|0,0:0|0:0,0:0:0:0:
392,201,128610,6,0,P|420:185|451:176,1,51.999997619629,4|0,0:0|0:0,0:0:0:0:
312,258,128821,2,0,P|287:249|265:235,1,51.999997619629,2|0,0:0|0:0,0:0:0:0:
160,200,129033,2,0,L|169:269,2,51.999997619629,8|2|0,0:0|0:0|0:0,0:0:0:0:
83,321,129350,6,0,P|165:288|239:331,1,160,8|8,0:0|0:0,0:0:0:0:
296,379,129666,1,0,0:0:0:0:
387,350,129772,1,0,0:0:0:0:
451,278,129878,2,0,P|462:228|453:189,1,80,0|0,0:0|0:0,0:0:0:0:
349,139,130089,2,0,P|344:178|355:216,1,80,0|0,3:0|0:0,0:0:0:0:
233,215,130300,6,0,P|194:201|146:198,2,80,2|2|2,0:2|0:2|0:2,0:0:0:0:
171,294,130617,1,0,0:0:0:0:
171,294,130723,2,0,P|132:308|84:311,1,80,2|2,1:2|1:2,0:0:0:0:
50,204,130934,1,2,1:2:0:0:
168,109,131040,6,0,P|216:139|307:74,1,160,4|2,0:0|0:2,0:0:0:0:
421,211,131357,2,0,L|404:132,1,80,10|2,0:2|0:2,0:0:0:0:
269,278,131568,2,0,P|308:285|345:299,1,80,2|2,0:2|0:2,0:0:0:0:
161,243,131779,2,0,L|88:275,1,80,10|2,0:2|0:2,0:0:0:0:
163,144,131990,5,0,0:0:0:0:
237,191,132096,1,2,0:2:0:0:
307,138,132202,2,0,L|396:129,1,80,8|0,0:0|0:0,0:0:0:0:
231,66,132413,2,0,L|151:57,2,80,0|2|8,0:0|0:2|0:0,0:0:0:0:
237,191,132730,6,0,B|195:213|161:193|126:167|81:190,1,160,4|2,0:0|0:2,0:0:0:0:
64,335,133047,2,0,P|98:313|120:277,1,80,10|2,0:2|0:2,0:0:0:0:
237,191,133258,2,0,P|243:230|256:268,1,80,2|2,0:2|0:2,0:0:0:0:
377,327,133469,2,0,P|389:289|396:249,1,80,8|2,0:0|0:2,0:0:0:0:
465,86,133681,5,0,3:0:0:0:
392,132,133786,1,0,0:0:0:0:
304,137,133892,1,8,3:1:0:0:
228,92,133997,1,0,0:0:0:0:
158,38,134103,1,2,3:1:0:0:
70,37,134209,1,0,0:0:0:0:
12,100,134314,1,8,3:1:0:0:
39,184,134420,6,0,P|66:238|22:332,1,160,6|2,0:0|0:0,0:0:0:0:
118,382,134737,1,10,0:0:0:0:
189,306,134843,2,0,P|240:286|272:284,1,80,2|0,0:2|0:0,0:0:0:0:
338,206,135054,2,0,P|298:200|262:183,1,80,0|8,0:0|0:0,0:0:0:0:
365,91,135265,6,0,P|416:147|493:137,1,160,2|0,0:2|0:0,0:0:0:0:
258,12,135582,2,0,L|268:105,1,80,8|0,0:0|0:0,0:0:0:0:
161,172,135793,1,2,0:2:0:0:
161,172,135899,2,0,L|167:82,1,80,0|10,0:0|0:2,0:0:0:0:
81,234,136110,6,0,B|126:228|153:216|153:216|200:216|248:243,1,160,2|0,0:0|0:0,0:0:0:0:
298,309,136427,1,8,0:0:0:0:
393,298,136533,1,0,0:0:0:0:
438,214,136638,2,0,L|446:123,1,80,0|0,0:0|0:0,0:0:0:0:
347,131,136850,2,0,L|340:52,1,80,8|2,0:0|0:2,0:0:0:0:
251,149,137061,5,0,0:0:0:0:
169,196,137166,1,0,0:0:0:0:
95,133,137272,2,0,P|39:120|7:120,1,80,0|0,0:0|0:0,0:0:0:0:
177,275,137483,2,0,L|168:193,1,80,0|0,0:0|0:0,0:0:0:0:
259,69,137695,2,0,L|250:148,1,80,2|4,0:2|0:0,0:0:0:0:
393,114,138012,5,0,0:0:0:0:
393,114,138064,1,0,0:0:0:0:
393,114,138117,2,0,P|436:102|487:104,1,80,0|0,3:0|3:0,0:0:0:0:
412,224,138328,1,0,0:0:0:0:
412,224,138381,1,0,0:0:0:0:
412,224,138434,2,0,P|372:222|333:211,1,80,0|0,0:0|3:0,0:0:0:0:
154,125,138645,2,0,P|199:177|180:288,1,160,8|8,0:0|0:0,0:0:0:0:
287,344,138962,6,0,L|283:290,2,53.3333333333333,0|0|0,0:0|0:0|0:0,0:0:0:0:
292,350,139174,1,0,3:0:0:0:
394,321,139279,2,0,P|448:307|487:306,1,80,8|0,0:0|0:0,0:0:0:0:
402,211,139490,2,0,P|362:207|324:195,1,80,12|0,0:2|0:0,0:0:0:0:
229,118,139702,6,0,L|222:206,2,80,0|8|0,3:0|0:0|3:0,0:0:0:0:
134,100,140019,2,0,L|127:38,2,53.3333333333333
50,165,140230,2,0,L|38:71,1,80
118,240,140441,5,12,0:0:0:0:
205,280,140547,1,0,0:0:0:0:
296,252,140652,1,12,0:0:0:0:
360,179,140758,2,0,P|397:167|437:166,1,80,0|2,0:0|0:2,0:0:0:0:
503,275,140969,2,0,P|463:273|425:261,1,80,2|0,0:2|0:0,0:0:0:0:
319,261,141181,6,0,B|271:278|271:278|212:252|212:252|159:270,1,160,4|8,0:0|0:0,0:0:0:0:
77,219,141497,1,0,0:0:0:0:
77,219,141603,2,0,L|73:126,1,80,0|8,0:0|0:0,0:0:0:0:
179,68,141814,2,0,L|175:147,1,80,0|0,0:0|0:0,0:0:0:0:
303,262,142026,6,0,P|234:226|169:266,1,160,8|8,0:0|0:0,0:0:0:0:
124,65,142554,1,8,0:0:0:0:
124,65,142659,1,0,0:0:0:0:
124,65,142765,6,0,P|169:101|264:58,1,160,12|0,0:2|0:0,0:0:0:0:
354,31,143082,1,0,0:0:0:0:
431,100,143188,2,0,L|434:209,1,80,0|0,3:0|3:0,0:0:0:0:
339,239,143399,2,0,L|341:159,1,80,0|0,3:0|3:0,0:0:0:0:
174,160,143610,5,0,0:0:0:0:
174,160,143663,1,0,0:0:0:0:
174,160,143716,2,0,P|229:157|245:51,1,160,6|2,0:2|0:2,0:0:0:0:
64,111,144033,2,0,L|72:200,1,80,10|10,0:2|0:2,0:0:0:0:
232,290,144244,5,10,0:2:0:0:
143,252,144350,1,10,0:2:0:0:
65,307,144455,1,10,0:2:0:0:
217,328,144561,6,0,P|253:260|202:165,1,184.000003509522,6|2,0:2|0:2,0:0:0:0:
33,88,144878,2,0,P|72:114|128:116,1,92.0000017547608,10|0,0:2|0:0,0:0:0:0:
291,35,145089,2,0,P|245:39|207:65,1,92.0000017547608,0|2,0:0|0:2,0:0:0:0:
359,197,145300,2,0,L|371:92,1,92.0000017547608,8|2,0:2|0:2,0:0:0:0:
190,47,145512,6,0,L|200:138,1,92.0000017547608,0|2,0:0|0:2,0:0:0:0:
40,248,145723,2,0,P|79:222|135:220,1,92.0000017547608,0|2,0:0|0:2,0:0:0:0:
316,280,145934,1,0,0:0:0:0:
316,280,146040,2,0,P|270:275|232:249,1,92.0000017547608,2|0,0:2|0:0,0:0:0:0:
432,82,146251,6,0,B|430:139|402:189|402:189|435:231|429:278,1,184.000003509522,2|2,0:2|0:2,0:0:0:0:
233,249,146568,2,0,P|279:251|320:271,1,92.0000017547608,10|0,0:2|0:0,0:0:0:0:
192,345,146779,2,0,P|150:364|105:366,1,92.0000017547608,0|2,0:0|0:2,0:0:0:0:
0,265,146990,2,0,P|41:245|86:243,1,92.0000017547608,8|2,0:0|0:2,0:0:0:0:
191,148,147202,5,2,0:2:0:0:
191,148,147307,2,0,P|145:146|104:126,1,92.0000017547608,2|2,0:2|0:2,0:0:0:0:
237,50,147519,1,2,0:2:0:0:
335,106,147624,2,0,L|328:213,2,92.0000017547608,0|2|0,0:0|0:2|0:0,0:0:0:0:
240,250,147941,6,0,P|285:293|417:253,1,184.000003509522,6|0,0:2|0:0,0:0:0:0:
453,90,148258,1,8,0:0:0:0:
484,190,148364,1,0,0:0:0:0:
335,106,148469,2,0,B|288:86|288:86|236:106|236:106|196:84|151:99,1,184.000003509522,2|8,0:2|0:0,0:0:0:0:
106,244,148786,5,2,0:2:0:0:
106,244,148892,2,0,P|144:224|173:181,1,92.0000017547608,0|0,0:0|0:0,0:0:0:0:
280,256,149103,2,0,B|288:355,1,92.0000017547608,8|2,0:0|0:2,0:0:0:0:
420,230,149314,1,0,0:0:0:0:
420,230,149420,2,0,B|427:138,1,92.0000017547608,2|8,0:2|0:0,0:0:0:0:
203,65,149631,6,0,P|275:102|356:36,1,184.000003509522,6|0,0:2|0:0,0:0:0:0:
505,93,149948,2,0,P|469:125|422:140,1,92.0000017547608,8|0,3:1|0:0,0:0:0:0:
447,248,150159,2,0,P|398:245|355:222,1,92.0000017547608,0|0,3:0|0:0,0:0:0:0:
295,317,150371,2,0,P|262:280|248:233,1,92.0000017547608,8|0,3:1|0:0,0:0:0:0:
142,188,150582,6,0,B|125:257,2,61.3333345031739,0|0|0,3:0|3:0|3:0,0:0:0:0:
63,102,150793,2,0,B|46:171,2,61.3333345031739,0|0|0,3:0|3:0|3:0,0:0:0:0:
144,44,151005,5,2,0:2:0:0:
209,107,151110,1,6,0:2:0:0:
301,101,151216,1,0,0:0:0:0:
360,31,151321,6,0,P|392:79|329:187,1,184.000003509522,4|2,0:0|0:2,0:0:0:0:
163,257,151638,2,0,P|204:237|249:239,1,92.0000017547608,10|0,0:2|0:0,0:0:0:0:
430,307,151850,2,0,P|384:308|343:289,1,92.0000017547608,2|0,0:2|0:0,0:0:0:0:
146,235,152061,2,0,P|187:215|232:217,1,92.0000017547608,8|0,0:2|0:0,0:0:0:0:
121,319,152272,6,0,P|76:290|55:248,1,92.0000017547608,2|0,0:2|0:0,0:0:0:0:
169,155,152483,2,0,P|214:184|235:226,1,92.0000017547608,10|0,0:2|0:0,0:0:0:0:
120,336,152695,2,0,P|75:307|54:265,1,92.0000017547608,2|0,3:2|3:0,0:0:0:0:
166,140,152906,2,0,P|211:169|232:211,1,92.0000017547608,8|2,0:0|0:2,0:0:0:0:
70,105,153117,6,0,P|112:66|162:58,1,92.0000017547608,0|2,0:0|0:2,0:0:0:0:
241,195,153328,2,0,P|199:234|149:242,1,92.0000017547608,10|0,0:2|0:0,0:0:0:0:
69,95,153540,2,0,P|111:56|161:48,1,92.0000017547608,2|0,0:2|0:0,0:0:0:0:
262,196,153751,2,0,P|220:235|170:243,1,92.0000017547608,8|0,0:0|0:0,0:0:0:0:
308,312,153962,5,0,3:0:0:0:
394,250,154068,1,0,0:0:0:0:
347,156,154174,2,0,L|359:53,1,92.0000017547608,8|2,0:0|0:2,0:0:0:0:
250,202,154385,1,8,0:0:0:0:
250,202,154490,2,0,L|238:99,1,92.0000017547608,10|8,0:2|0:0,0:0:0:0:
175,319,154702,6,0,P|238:295|331:368,1,184.000003509522,6|2,0:2|0:2,0:0:0:0:
143,219,155019,2,0,L|126:106,1,92.0000017547608,2|0,0:3|0:0,0:0:0:0:
374,135,155230,2,0,L|359:226,1,92.0000017547608,2|0,0:3|0:0,0:0:0:0:
256,160,155441,2,0,L|256:68,1,92.0000017547608,2|0,0:3|0:0,0:0:0:0:
128,128,155652,6,0,L|111:241,1,92.0000017547608,2|0,0:3|0:0,0:0:0:0:
388,225,155864,2,0,L|374:135,1,92.0000017547608,2|0,0:3|0:0,0:0:0:0:
256,197,156075,2,0,L|256:295,2,92.0000017547608,2|4|0,0:3|0:2|0:0,0:0:0:0:
176,51,156392,6,0,P|256:89|336:52,1,184.000003509522,4|2,0:0|0:2,0:0:0:0:
448,110,156709,2,0,L|437:213,1,92.0000017547608,10|2,0:2|0:2,0:0:0:0:
329,249,156920,2,0,P|296:216|255:196,1,92.0000017547608,10|2,0:2|0:2,0:0:0:0:
88,221,157131,2,0,P|129:201|161:168,1,92.0000017547608,10|2,0:2|0:2,0:0:0:0:
37,148,157343,5,6,0:2:0:0:
0,227,157448,1,0,0:0:0:0:
49,300,157554,1,10,0:2:0:0:
135,298,157659,1,8,0:0:0:0:
200,239,157765,6,0,B|244:224|286:254|286:254|331:235|331:235|368:251,1,160,8|0,0:0|0:0,0:0:0:0:
199,353,158082,1,4,1:0:0:0:
393,99,164103,6,0,B|416:109|416:109|443:94|443:94|472:112|503:102,1,103.999995239258,6|0,0:2|2:0,0:0:0:0:
301,188,164314,2,0,B|278:198|278:198|251:183|251:183|222:201|191:191,1,103.999995239258,6|0,0:2|2:0,0:0:0:0:
244,41,164526,5,2,0:0:0:0:
301,188,164631,1,2,0:0:0:0:
301,188,164843,6,0,L|288:348,1,160,4|0,0:0|3:0,0:0:0:0:
184,335,165159,2,0,P|150:315|112:306,1,80,8|0,0:0|0:0,0:0:0:0:
45,200,165371,1,0,3:0:0:0:
45,200,165476,1,0,3:0:0:0:
45,200,165582,2,0,P|83:190|117:170,1,80,8|0,0:0|0:0,0:0:0:0:
204,69,165793,6,0,L|214:153,1,80,0|0,3:0|3:0,0:0:0:0:
313,130,166005,2,0,L|303:209,1,80,8|0,0:0|0:0,0:0:0:0:
117,170,166216,2,0,L|137:250,1,80,0|0,3:0|0:0,0:0:0:0:
402,205,166427,2,0,L|373:285,1,80,8|8,1:0|1:0,0:0:0:0:
239,346,166638,6,0,P|195:333|163:331,2,60.0000022888184,4|0|0,1:0|0:0|0:0,0:0:0:0:
375,280,166955,2,0,P|385:324|400:353,2,60.0000022888184,4|0|0,1:2|0:0|0:0,0:0:0:0:
259,190,167272,2,0,P|292:158|309:131,2,60.0000022888184,4|0|0,1:2|0:0|1:0,0:0:0:0:
145,132,167589,1,4,1:2:0:0:
145,132,167695,1,0,0:0:0:0:
145,132,167800,1,0,0:0:0:0:
145,132,167906,6,0,L|136:221,2,80,0|0|0,3:0|3:0|3:0,0:0:0:0:
231,73,168223,6,0,P|269:95|365:40,1,160,4|2,1:0|0:2,0:0:0:0:
487,90,168540,2,0,B|487:182,1,80,8|0,0:0|2:0,0:0:0:0:
371,244,168751,2,0,B|371:164,1,80,0|0,3:0|2:0,0:0:0:0:
255,238,168962,2,0,L|255:334,1,80,8|0,0:0|2:0,0:0:0:0:
102,201,169174,6,0,L|72:126,1,80,0|2,3:0|2:0,0:0:0:0:
198,134,169385,2,0,L|185:54,1,80,4|2,1:2|2:2,0:0:0:0:
314,134,169596,2,0,L|326:55,1,80,2|0,1:2|0:0,0:0:0:0:
410,201,169807,2,0,L|440:126,1,80,4|2,1:2|3:2,0:0:0:0:
406,304,170019,6,0,B|361:321|361:321|301:294|301:294|236:317,1,160,4|0,0:0|1:0,0:0:0:0:
279,139,170335,2,0,L|359:132,1,80,4|0,1:2|0:0,0:0:0:0:
181,217,170547,2,0,L|101:209,1,80,4|0,1:2|0:0,0:0:0:0:
165,83,170758,1,4,1:2:0:0:
149,92,170969,6,0,L|141:12,2,80,0|0|0,1:0|1:0|1:0,0:0:0:0:
266,156,171286,2,0,P|314:144|347:126,1,80,2|2,1:2|1:2,0:0:0:0:
166,231,171497,2,0,P|127:222|91:205,1,80,2|2,1:2|1:2,0:0:0:0:
340,130,171709,6,0,P|372:174|329:277,1,160,4|0,1:2|1:0,0:0:0:0:
251,96,172026,2,0,L|346:89,1,80,4|0,1:2|0:0,0:0:0:0:
166,231,172237,2,0,L|71:224,1,80,4|0,1:2|0:0,0:0:0:0:
232,338,172448,1,4,1:2:0:0:
256,192,172554,12,4,173293,1:0:0:0:
164,191,178364,6,0,B|196:194|224:178|224:178|276:197|276:197|315:182|348:192,1,191.999994140625,0|2,2:0|2:0,0:0:0:0:
310,39,179737,5,0,0:0:0:0:
310,39,179843,2,0,L|295:106,1,47.9999985351563,0|0,0:0|0:0,0:0:0:0:
149,169,180054,6,0,B|206:160|206:160|260:192|260:192|337:183,1,184.000003509522,4|2,1:0|0:2,0:0:0:0:
447,134,180371,2,0,P|425:182|420:237,1,92.0000017547608,8|0,0:2|0:0,0:0:0:0:
359,374,180582,2,0,P|351:328|331:287,1,92.0000017547608,0|2,3:2|3:2,0:0:0:0:
136,304,180793,2,0,P|181:307|225:294,1,92.0000017547608,8|0,0:0|0:0,0:0:0:0:
285,113,181005,5,0,3:0:0:0:
285,113,181110,2,0,L|275:206,1,92.0000017547608,0|8,0:0|0:0,0:0:0:0:
218,36,181321,2,0,P|270:18|330:20,1,92.0000017547608,0|0,0:0|0:0,0:0:0:0:
141,139,181533,2,0,P|95:135|52:119,1,92.0000017547608,2|8,3:2|0:0,0:0:0:0:
136,304,181744,6,0,P|189:253|311:237,1,184.000003509522,4|2,3:2|3:2,0:0:0:0:
425,359,182061,2,0,P|395:317|385:276,1,92.0000017547608,8|0,0:0|0:0,0:0:0:0:
500,72,182272,2,0,P|517:143|470:257,1,184.000003509522,0|0,3:2|0:0,0:0:0:0:
230,144,182589,6,0,P|308:125|399:202,1,184.000003509522,4|0,3:2|3:0,0:0:0:0:
283,324,182906,2,0,L|295:230,1,92.0000017547608,8|0,0:0|0:0,0:0:0:0:
125,152,183117,1,0,1:0:0:0:
242,53,183223,2,0,L|230:144,1,92.0000017547608,0|8,1:0|1:0,0:0:0:0:
453,237,183434,6,0,P|375:195|294:232,1,184.000003509522,4|0,1:0|3:0,0:0:0:0:
171,223,183751,2,0,L|180:315,1,92.0000017547608,8|0,0:0|0:0,0:0:0:0:
294,232,183962,1,0,3:0:0:0:
294,232,184068,2,0,L|303:132,1,92.0000017547608,0|8,0:0|0:0,0:0:0:0:
89,36,184279,6,0,P|160:87|241:52,1,184.000003509522,4|0,0:0|3:0,0:0:0:0:
336,17,184596,1,8,0:0:0:0:
433,43,184702,1,0,0:0:0:0:
473,135,184807,2,0,L|464:234,2,92.0000017547608,0|0|8,3:0|3:0|2:0,0:0:0:0:
207,115,185124,5,6,1:2:0:0:
207,115,187871,5,6,0:2:0:0:
207,115,187976,2,0,L|109:108,1,92.0000017547608,2|0,0:2|3:0,0:0:0:0:
309,286,188188,5,6,0:2:0:0:
309,286,188293,2,0,L|407:279,1,92.0000017547608,2|0,0:2|3:0,0:0:0:0:
255,29,188505,6,0,B|220:74|250:111|283:158|252:204,1,184.000003509522,4|2,1:0|0:2,0:0:0:0:
85,279,188821,2,0,P|133:261|179:265,1,92.0000017547608,8|0,0:0|0:0,0:0:0:0:
250,329,189033,1,0,3:0:0:0:
350,322,189138,1,2,0:2:0:0:
422,250,189244,2,0,P|436:203|429:154,1,92.0000017547608,8|0,0:0|0:0,0:0:0:0:
221,131,189455,6,0,P|276:158|313:159,2,92.0000017547608,0|0|8,3:2|0:0|0:0,0:0:0:0:
149,199,189772,2,0,P|124:160|121:114,1,92.0000017547608,0|0,0:0|3:0,0:0:0:0:
334,76,189983,2,0,P|330:121|306:160,1,92.0000017547608,2|8,3:2|0:0,0:0:0:0:
221,328,190195,6,0,P|285:284|391:337,1,184.000003509522,4|2,1:0|0:2,0:0:0:0:
465,246,190512,2,0,L|459:154,1,92.0000017547608,2|2,1:2|1:2,0:0:0:0:
265,139,190723,1,2,1:2:0:0:
265,139,190828,2,0,P|314:161|357:158,1,92.0000017547608,2|2,2:2|2:2,0:0:0:0:
208,39,191040,6,0,P|165:89|52:56,1,184.000003509522,4|0,1:2|0:0,0:0:0:0:
92,230,191357,2,0,P|141:208|184:211,1,92.0000017547608,0|0,1:0|1:0,0:0:0:0:
352,192,191568,5,0,1:0:0:0:
290,358,191674,1,2,1:3:0:0:
290,358,191885,6,0,B|208:324|208:324|108:350,1,184.000003509522,4|0,0:0|3:0,0:0:0:0:
41,192,192202,2,0,P|84:213|140:211,1,92.0000017547608,12|2,0:2|2:2,0:0:0:0:
384,165,192413,2,0,P|336:165|286:140,1,92.0000017547608,12|2,0:2|2:2,0:0:0:0:
118,106,192624,2,0,P|161:86|196:42,1,92.0000017547608,12|2,0:2|2:2,0:0:0:0:
368,200,192835,6,0,P|324:180|289:136,1,92.0000017547608,12|2,0:2|2:2,0:0:0:0:
40,236,193047,2,0,P|85:234|126:213,1,92.0000017547608,12|2,0:2|2:2,0:0:0:0:
323,308,193258,2,0,P|277:306|236:285,2,92.0000017547608,12|2|12,0:2|2:2|0:2,0:0:0:0:
461,340,193575,6,0,B|436:266|436:266|464:160,1,184.000003509522,4|0,0:0|0:0,0:0:0:0:
340,80,193892,2,0,L|350:180,1,92.0000017547608,12|0,0:2|0:0,0:0:0:0:
239,258,194103,1,12,0:2:0:0:
239,258,194209,2,0,L|248:166,1,92.0000017547608,0|12,0:0|0:0,0:0:0:0:
138,318,194420,6,0,B|230:356|230:356|316:330,1,184.000003509522,4|0,0:0|0:0,0:0:0:0:
417,261,194737,2,0,L|404:363,1,92.0000017547608,8|0,0:0|0:0,0:0:0:0:
512,253,194948,1,0,3:0:0:0:
512,253,195054,2,0,L|500:161,1,92.0000017547608,2|8,3:0|0:0,0:0:0:0:
233,178,195265,6,0,P|290:209|381:141,1,184.000003509522,4|0,0:0|3:0,0:0:0:0:
321,28,195582,2,0,P|304:76|299:120,1,92.0000017547608,8|0,0:0|0:0,0:0:0:0:
201,212,195793,1,0,3:0:0:0:
201,212,195899,2,0,P|194:166|179:123,1,92.0000017547608,0|8,3:0|0:0,0:0:0:0:
102,277,196110,6,0,B|149:280|193:254|193:254|296:294,1,184.000003509522,4|0,0:0|3:0,0:0:0:0:
433,334,196427,2,0,P|402:286|399:241,1,92.0000017547608,10|2,0:2|3:2,0:0:0:0:
509,104,196638,5,10,0:2:0:0:
447,168,196744,1,2,3:2:0:0:
357,164,196850,1,2,3:2:0:0:
302,94,196955,1,4,0:0:0:0:
160,288,197272,5,0,0:0:0:0:
352,288,197483,1,0,0:0:0:0:
256,160,197695,1,0,0:0:0:0:
256,192,197906,5,6,0:2:0:0:
256,224,198012,1,0,0:0:0:0:
416,192,198223,5,2,0:3:0:0:
421,179,198434,1,2,0:3:0:0:
426,166,198645,6,0,P|459:216|424:300,1,136.000002593994,4|0,0:0|3:0,0:0:0:0:
372,358,198962,2,0,P|339:308|374:224,1,136.000002593994,0|0,0:0|0:0,0:0:0:0:
226,200,199279,2,0,P|238:236|249:284,1,68.0000012969971,0|0,3:0|0:0,0:0:0:0:
140,166,199490,6,0,P|206:109|290:137,1,184.000003509522,4|2,0:2|2:0,0:0:0:0:
418,154,199807,2,0,L|429:54,1,92.0000017547608,2|0,3:2|0:0,0:0:0:0:
290,137,200019,1,10,1:2:0:0:
290,137,200124,2,0,L|300:228,1,92.0000017547608,0|10,3:0|1:2,0:0:0:0:
88,58,200335,5,4,0:0:0:0:
