osu file format v14

[General]
AudioFilename: nejimaki_4.mp3
AudioLeadIn: 1000
PreviewTime: 99772
Countdown: 0
SampleSet: Normal
StackLeniency: 0.7
Mode: 0
LetterboxInBreaks: 0
EpilepsyWarning: 1
WidescreenStoryboard: 0

[Editor]
DistanceSpacing: 1.2
BeatDivisor: 4
GridSize: 32
TimelineZoom: 1.9

[Metadata]
Title:Kamisama Nejimaki
TitleUnicode:カミサマネジマキ
Artist:Cilvery
ArtistUnicode:Cilvery
Creator:sukiNathan
Version:Catastrophe
Source:
Tags:vocaloid cover 11t utaite kemu pkk pkmnyab meyrink mitsumo みつも wind-up wind up god
BeatmapID:821238
BeatmapSetID:374900

[Difficulty]
HPDrainRate:6
CircleSize:4
OverallDifficulty:8.6
ApproachRate:9.6
SliderMultiplier:1.6
SliderTickRate:1

[Events]
//Background and Video events
0,0,"cilveryoneechan.png",0,0
Video,747,"thanksrichard.avi"
//Break Periods
2,2789,4596
2,117719,123665
2,173493,176165
//Storyboard Layer 0 (Background)
//Storyboard Layer 1 (Fail)
//Storyboard Layer 2 (Pass)
//Storyboard Layer 3 (Foreground)
//Storyboard Sound Samples

[TimingPoints]
1005,211.267605633803,4,1,2,75,1,0
14526,-100,4,1,2,75,0,0
19490,-133.333333333333,4,2,2,75,0,0
21286,-133.333333333333,4,2,2,75,0,0
26251,-117.647058823529,4,1,2,75,0,0
27941,-117.647058823529,4,1,2,75,0,0
29631,-117.647058823529,4,1,2,75,0,0
33012,-166.666666666667,4,2,2,75,0,0
34068,-166.666666666667,4,2,2,75,0,0
38082,-200,4,2,2,75,0,0
39033,-100,4,1,2,75,0,0
45688,-100,4,2,1,75,0,0
46216,-100,4,2,1,75,0,0
46533,-100,4,1,2,85,0,1
53082,-100,4,1,2,85,0,0
53293,-100,4,1,2,85,0,1
58364,-100,4,1,1,75,0,0
58681,-133.333333333333,4,1,1,75,0,0
61216,-133.333333333333,4,2,1,75,0,0
61744,-100,4,1,2,75,0,0
75265,-133.333333333333,4,2,1,75,0,0
80652,-200,4,2,1,75,0,0
81075,-200,4,2,1,75,0,0
81286,-200,4,1,1,75,0,0
82026,-117.647058823529,4,1,2,75,0,0
85406,-117.647058823529,4,1,2,75,0,0
88786,-166.666666666667,4,2,1,75,0,0
91427,-166.666666666667,4,1,1,75,0,0
91850,-166.666666666667,4,2,1,75,0,0
93328,-166.666666666667,4,1,1,75,0,0
93540,-166.666666666667,4,2,1,75,0,0
94807,-100,4,1,1,75,0,0
95547,-100,4,1,1,75,0,0
97343,-133.333333333333,4,1,1,75,0,0
101990,-100,4,2,0,75,0,0
102307,-100,4,1,2,85,0,1
108857,-100,4,1,2,85,0,0
109068,-100,4,1,2,85,0,1
114138,-100,4,1,1,75,0,0
114455,-133.333333333333,4,1,1,75,0,0
124174,-153.846153846154,4,3,1,75,0,0
129350,-100,4,1,1,75,0,0
130300,-100,4,2,1,75,0,0
131040,-100,4,1,1,75,0,0
137061,-100,4,1,1,75,0,0
137800,-100,4,1,1,75,0,0
140441,-100,4,1,0,75,0,0
141392,-100,4,1,1,75,0,0
155019,-100,4,1,2,75,0,0
157343,-100,4,1,1,75,0,0
158082,-166.666666666667,4,2,2,75,0,0
163152,-200,4,1,1,75,0,0
164103,-100,4,1,1,75,0,0
164843,-100,4,1,1,75,0,0
179737,-166.666666666667,4,2,1,75,0,0
180054,-100,4,1,2,85,0,1
185124,-181.818181818182,4,2,2,75,0,0
187871,-100,4,1,2,85,0,0
188505,-100,4,1,2,85,0,1
191674,-100,4,1,2,85,0,0
191885,-83.3333333333333,4,1,2,85,0,1
196955,-100,4,1,1,85,0,0
197272,-133.333333333333,4,1,1,85,0,0
200335,-100,4,1,2,75,0,0
207096,-153.846153846154,4,1,1,75,0,0
207413,-100,4,1,2,75,0,0
210476,-90.9090909090909,4,1,1,75,0,0
212166,-100,4,1,1,75,0,0

[Colours]
Combo1 : 182,108,255
Combo2 : 255,94,94
Combo3 : 119,187,255
Combo4 : 255,184,113

[HitObjects]
256,192,1005,12,0,2589,0:0:0:0:
378,350,5125,6,0,P|306:346|215:387,1,160,6|8,1:2|1:0,0:0:0:0:
203,257,5442,2,0,P|257:260|309:241,1,80,0|0,3:0|3:0,0:0:0:0:
100,228,5653,2,0,P|46:225|-6:244,1,80,12|0,1:2|0:0,0:0:0:0:
144,141,5864,1,8,2:0:0:0:
259,233,5970,6,0,P|305:215|314:102,1,160,4|0,1:1|0:0,0:0:0:0:
153,52,6287,2,0,L|145:141,1,80,12|0,0:2|0:0,0:0:0:0:
307,14,6498,2,0,L|300:93,1,80,4|2,3:2|3:2,0:0:0:0:
454,80,6709,2,0,L|446:169,1,80,8|2,0:0|0:2,0:0:0:0:
395,299,6921,6,0,P|436:313|502:299,1,80,0|0,3:0|3:0,0:0:0:0:
289,217,7132,2,0,P|244:212|202:226,1,80,8|0,0:2|0:0,0:0:0:0:
423,106,7343,2,0,L|434:195,2,80,4|0|8,3:2|0:0|0:0,0:0:0:0:
316,13,7659,6,0,B|211:4|265:67|141:62,1,160,0|0,3:0|0:0,0:0:0:0:
227,153,7977,1,12,0:2:0:0:
300,99,8083,1,0,0:0:0:0:
307,193,8188,2,0,P|347:191|386:182,1,80,2|2,3:0|3:2,0:0:0:0:
378,87,8347,1,2,0:2:0:0:
378,87,8400,2,0,P|313:94|270:112,1,80,10|2,0:2|0:2,0:0:0:0:
470,116,8610,6,0,L|459:37,1,80,2|0,3:0|0:0,0:0:0:0:
219,67,8821,2,0,L|230:146,1,80,8|0,0:0|0:0,0:0:0:0:
398,224,9033,2,0,B|360:238|360:238|320:236,2,80,2|0|8,0:3|3:0|0:0,0:0:0:0:
496,76,9350,6,0,B|436:78|436:78|403:101|403:101|343:106,1,160,4|0,1:0|3:0,0:0:0:0:
262,38,9667,1,12,0:2:0:0:
262,38,9773,1,0,0:0:0:0:
223,144,9878,2,0,P|184:148|144:142,1,80,4|2,3:2|3:2,0:0:0:0:
53,93,10090,2,0,P|48:54|52:14,1,80,8|2,0:0|0:2,0:0:0:0:
85,234,10301,6,0,B|41:248|41:248|-13:245,1,80,0|0,3:0|3:0,0:0:0:0:
223,144,10512,2,0,B|266:141|266:141|310:155,1,80,8|0,0:0|0:0,0:0:0:0:
468,153,10723,2,0,P|472:113|469:73,1,80,4|0,3:2|3:0,0:0:0:0:
313,23,10935,1,8,0:0:0:0:
378,106,11040,6,0,P|310:133|222:79,1,160,4|0,1:0|0:0,0:0:0:0:
441,42,11357,2,0,P|467:100|463:147,1,80,12|0,1:2|0:0,0:0:0:0:
260,242,11569,2,0,P|318:216|365:220,1,80,12|0,1:2|0:0,0:0:0:0:
478,316,11780,2,0,P|443:336|404:342,1,80,12|0,1:2|0:0,0:0:0:0:
186,293,11990,5,0,3:0:0:0:
186,293,12096,2,0,B|172:257|172:257|183:207,1,80,0|0,3:0|3:0,0:0:0:0:
332,20,12308,2,0,B|340:60|340:60|326:96,1,80,0|0,3:0|1:0,0:0:0:0:
95,64,12519,1,0,1:0:0:0:
89,50,12730,6,0,L|275:41,1,160,4|0,3:1|3:0,0:0:0:0:
363,159,13047,2,0,P|408:158|449:139,1,80,12|0,0:2|0:0,0:0:0:0:
214,215,13258,2,0,L|227:303,2,80,4|2|0,3:2|3:2|0:0,0:0:0:0:
209,103,13576,1,2,0:2:0:0:
119,165,13681,6,0,B|75:180|75:180|30:176,1,80,0|0,3:0|3:0,0:0:0:0:
214,65,13892,2,0,B|255:48|255:48|303:54,1,80,8|0,0:0|0:0,0:0:0:0:
440,129,14104,2,0,L|438:49,1,80,4|0,3:2|0:0,0:0:0:0:
505,221,14315,1,8,0:0:0:0:
370,226,14421,6,0,B|310:232|310:232|285:266|285:266|199:280,1,160,0|0,3:0|3:0,0:0:0:0:
246,130,14738,2,0,P|288:118|348:135,1,80,12|2,0:2|0:3,0:0:0:0:
161,198,14949,2,0,P|117:206|74:194,1,80,4|2,3:2|3:3,0:0:0:0:
123,99,15107,1,2,2:0:0:0:
123,99,15159,2,0,L|127:1,1,80,8|0,0:0|0:0,0:0:0:0:
306,229,15371,5,0,3:0:0:0:
234,153,15477,1,0,3:0:0:0:
162,221,15583,2,0,P|119:229|75:218,1,80,8|0,0:0|0:0,0:0:0:0:
317,91,15794,2,0,L|315:2,2,80,0|0|0,1:0|1:0|1:0,0:0:0:0:
446,214,16111,6,0,B|385:218|385:218|355:193|355:193|276:199,1,160,4|0,1:0|3:0,0:0:0:0:
217,106,16428,2,0,P|185:146|175:197,1,80,12|0,0:2|0:0,0:0:0:0:
409,171,16639,2,0,P|394:128|363:96,1,80,4|2,3:2|3:2,0:0:0:0:
256,302,16850,2,0,P|299:310|343:299,1,80,8|2,0:0|0:2,0:0:0:0:
293,127,17061,6,0,L|297:217,1,80,0|0,3:0|3:0,0:0:0:0:
180,103,17273,2,0,L|177:14,1,80,8|0,0:0|0:0,0:0:0:0:
407,92,17484,2,0,L|403:2,2,80,4|0|0,1:2|1:0|1:0,0:0:0:0:
410,251,17801,6,0,P|354:239|252:309,1,160,4|0,1:0|3:0,0:0:0:0:
106,312,18118,2,0,P|64:327|19:326,1,80,8|0,1:0|0:0,0:0:0:0:
219,163,18329,2,0,P|253:191|274:230,1,80,0|0,3:0|3:0,0:0:0:0:
45,137,18540,2,0,P|52:92|75:54,1,80,0|0,3:0|3:0,0:0:0:0:
254,31,18752,5,8,1:0:0:0:
174,109,18857,1,8,1:0:0:0:
266,184,18963,2,0,L|379:190,1,80,8|8,1:0|1:0,0:0:0:0:
85,35,19174,1,0,1:0:0:0:
64,44,19491,6,0,P|68:139|70:190,1,120.000004577637,0|0,3:0|0:0,0:0:0:0:
140,219,19808,1,2,0:2:0:0:
159,223,20019,2,0,P|197:230|227:226,1,60.0000022888184,0|0,3:0|0:0,0:0:0:0:
59,267,20230,2,0,P|33:296|20:323,1,60.0000022888184,2|0,0:0|0:0,0:0:0:0:
69,164,20442,5,0,3:0:0:0:
69,164,20547,2,0,P|56:126|42:104,1,60.0000022888184,0|2,0:0|0:0,0:0:0:0:
183,228,20759,1,0,0:0:0:0:
28,93,20970,1,0,0:0:0:0:
213,11,21181,6,0,L|218:150,2,120.000004577637,0|0|0,3:0|0:0|0:0,0:0:0:0:
306,101,21709,2,0,P|337:110|374:107,1,60.0000022888184,0|0,3:0|0:0,0:0:0:0:
491,13,21921,2,0,P|461:12|432:21,1,60.0000022888184,2|0,0:0|0:0,0:0:0:0:
476,118,22132,5,0,3:0:0:0:
476,118,22238,1,0,0:0:0:0:
273,98,22449,2,0,L|277:157,1,60.0000022888184,2|0,0:2|3:0,0:0:0:0:
400,303,22660,2,0,L|404:243,1,60.0000022888184,2|2,0:2|0:0,0:0:0:0:
459,187,22871,6,0,P|382:205|327:180,1,120.000004577637,0|0,1:0|0:0,0:0:0:0:
455,98,23188,2,0,P|488:103|518:117,1,60.0000022888184,2|0,0:2|0:0,0:0:0:0:
351,103,23400,2,0,P|321:106|293:118,1,60.0000022888184,0|0,3:0|0:0,0:0:0:0:
400,22,23611,1,2,0:0:0:0:
300,259,23822,5,0,3:0:0:0:
300,259,23927,2,0,L|299:199,1,60.0000022888184
117,258,24139,2,0,L|117:198,1,60.0000022888184,0|0,3:0|0:0,0:0:0:0:
211,228,24350,1,0,0:0:0:0:
211,207,24561,6,0,L|211:74,1,120.000004577637,2|0,3:2|0:0,0:0:0:0:
305,58,24878,2,0,P|310:102|299:133,1,60.0000022888184,2|0,0:2|0:0,0:0:0:0:
112,111,25090,2,0,P|107:81|113:52,1,60.0000022888184,0|0,3:0|0:0,0:0:0:0:
208,162,25301,1,2,0:0:0:0:
208,189,25512,6,0,L|208:269,1,60.0000022888184,2|2,3:2|0:0,0:0:0:0:
208,68,25723,2,0,L|208:-12,1,60.0000022888184,2|2,0:0|0:0,0:0:0:0:
125,133,25934,5,0,1:0:0:0:
288,132,26040,1,0,1:0:0:0:
311,146,26252,6,0,P|383:144|434:81,1,136.000002593994,4|2,1:0|3:2,0:0:0:0:
329,52,26569,2,0,L|237:71,1,68.0000012969971,10|0,0:2|2:1,0:0:0:0:
274,229,26780,2,0,L|366:248,1,68.0000012969971,0|2,3:0|3:2,0:0:0:0:
178,152,26991,1,10,0:2:0:0:
157,173,27202,6,0,L|73:168,2,68.0000012969971,2|0|8,3:2|3:1|0:0,0:0:0:0:
241,145,27519,2,0,B|246:180|246:180|237:224,1,68.0000012969971,0|0,2:0|0:0,0:0:0:0:
13,205,27730,2,0,B|7:173|7:173|11:138,1,68.0000012969971,0|8,3:0|0:0,0:0:0:0:
175,40,27942,6,0,B|121:39|121:39|97:62|97:62|23:64,1,136.000002593994,0|0,3:0|3:0,0:0:0:0:
191,119,28259,2,0,L|278:117,1,68.0000012969971,8|2,0:0|2:2,0:0:0:0:
72,151,28470,2,0,L|-15:153,1,68.0000012969971,0|2,3:0|3:2,0:0:0:0:
149,208,28681,1,10,0:2:0:0:
411,70,28892,5,2,3:2:0:0:
411,70,28997,2,0,L|420:165,1,68.0000012969971,0|8,3:0|0:0,0:0:0:0:
336,219,29209,2,0,L|329:151,1,68.0000012969971,0|0,2:0|0:0,0:0:0:0:
231,93,29421,2,0,L|240:188,1,68.0000012969971,0|8,3:0|0:0,0:0:0:0:
315,14,29632,5,4,1:0:0:0:
344,29,29843,2,0,P|385:31|419:39,2,68.0000012969971,0|8|0,3:0|0:0|0:0,0:0:0:0:
209,79,30160,2,0,P|190:42|180:9,1,68.0000012969971,0|0,3:0|0:0,0:0:0:0:
305,158,30371,2,0,P|282:192|258:217,1,68.0000012969971,8|0,0:0|3:0,0:0:0:0:
116,191,30582,5,0,3:0:0:0:
116,191,30688,2,0,L|107:272,1,68.0000012969971,0|0,3:0|1:0,0:0:0:0:
220,377,30900,2,0,B|228:340|228:340|222:310,1,68.0000012969971,2|0,3:2|0:0,0:0:0:0:
292,216,31111,2,0,P|329:209|382:213,1,68.0000012969971,2|8,3:2|0:0,0:0:0:0:
159,206,31322,6,0,P|106:231|6:204,1,136.000002593994,4|0,3:2|3:0,0:0:0:0:
86,53,31639,2,0,L|90:149,1,68.0000012969971,12|0,0:2|0:0,0:0:0:0:
185,255,31850,2,0,L|183:188,1,68.0000012969971,0|0,3:0|0:0,0:0:0:0:
261,52,32061,2,0,L|265:148,1,68.0000012969971,12|0,0:2|0:0,0:0:0:0:
91,79,32273,6,0,B|125:78|125:78|156:90,1,68.0000012969971,0|0,3:0|3:0,0:0:0:0:
420,74,32484,2,0,B|389:86|389:86|354:85,1,68.0000012969971,0|0,1:0|1:0,0:0:0:0:
259,20,32695,1,0,1:0:0:0:
340,275,32906,1,0,0:0:0:0:
340,275,33012,6,0,P|389:291|454:290,1,95.9999970703126,4|2,1:0|0:2,0:0:0:0:
394,183,33328,2,0,P|360:179|337:184,1,47.9999985351563
257,193,33540,2,0,P|246:142|212:93,1,95.9999970703126,2|2,0:2|0:2,0:0:0:0:
221,20,33857,5,0,0:0:0:0:
221,20,33963,2,0,P|270:36|320:34,1,95.9999970703126,2|0,0:3|0:0,0:0:0:0:
441,49,34280,2,0,P|417:43|394:42,1,47.9999985351563,0|2,0:0|0:3,0:0:0:0:
347,115,34491,1,0,0:0:0:0:
130,16,34702,6,0,L|137:162,1,143.999995605469,2|2,1:2|0:2,0:0:0:0:
142,383,35230,2,0,L|137:288,1,95.9999970703126,2|0,0:2|0:0,0:0:0:0:
70,253,35547,5,0,0:0:0:0:
70,253,35652,2,0,P|124:275|205:250,1,143.999995605469,2|0,0:2|0:0,0:0:0:0:
136,159,36075,1,2,0:2:0:0:
136,159,36181,1,2,0:0:0:0:
268,21,36392,6,0,B|247:67|247:67|254:131,1,95.9999970703126,2|2,1:3|0:2,0:0:0:0:
284,207,36709,2,0,P|254:210|224:210,1,47.9999985351563,2|0,0:2|0:0,0:0:0:0:
368,209,36920,2,0,P|387:209|421:213,2,47.9999985351563,2|0|0,0:3|0:0|0:0,0:0:0:0:
316,129,37238,6,0,P|354:127|465:137,1,143.999995605469,2|2,0:2|0:2,0:0:0:0:
399,45,37659,2,0,P|420:45|446:49,2,47.9999985351563,0|2|0,0:0|0:3|0:0,0:0:0:0:
316,43,37976,5,0,0:0:0:0:
316,43,38083,2,0,P|272:117|221:45,1,200,8|0,1:0|1:0,0:0:0:0:
326,226,38821,1,0,0:0:0:0:
355,229,39033,6,0,L|453:235,1,80,2|0,1:0|0:0,0:0:0:0:
344,111,39245,2,0,L|246:117,1,80,2|0,1:0|0:0,0:0:0:0:
467,139,39456,5,2,1:0:0:0:
344,255,39561,1,2,1:0:0:0:
454,33,39773,6,0,B|363:27|399:86|285:76,1,160,4|0,1:0|3:0,0:0:0:0:
442,134,40090,2,0,P|444:185|436:228,1,80,8|0,0:0|0:0,0:0:0:0:
333,331,40301,2,0,P|373:326|413:328,1,80,0|0,3:0|3:0,0:0:0:0:
229,262,40512,2,0,P|189:266|149:264,1,80,8|0,0:0|0:0,0:0:0:0:
305,156,40723,6,0,L|309:244,2,80,0|0|8,3:0|3:0|0:0,0:0:0:0:
247,66,41040,1,0,0:0:0:0:
154,132,41146,2,0,L|157:52,2,80,0|0|8,3:0|0:0|0:0,0:0:0:0:
135,294,41463,1,0,0:0:0:0:
29,175,41569,6,0,B|81:182|81:182|112:215|112:215|200:225,1,160,4|0,1:0|0:0,0:0:0:0:
304,77,41885,2,0,B|242:84|242:84|211:117|211:117|159:124,1,160,4|0,1:2|0:0,0:0:0:0:
397,133,42202,2,0,B|393:243|393:243|330:194,1,160,4|0,1:2|0:0,0:0:0:0:
380,17,42519,6,0,L|474:49,1,80,4|0,1:2|0:0,0:0:0:0:
380,144,42730,1,0,3:0:0:0:
282,83,42836,2,0,L|206:108,1,80,0|0,3:0|3:0,0:0:0:0:
406,150,43047,1,0,3:0:0:0:
306,205,43152,6,0,B|288:277|288:277|320:360,1,160,4|0,1:0|3:0,0:0:0:0:
398,248,43469,2,0,P|435:235|475:228,1,80,0|2,3:0|3:2,0:0:0:0:
195,254,43681,2,0,P|150:246|110:231,1,80,0|2,3:0|3:2,0:0:0:0:
296,107,43892,2,0,P|335:113|373:126,1,80,4|2,0:2|0:2,0:0:0:0:
177,130,44104,6,0,L|201:36,1,80,0|2,3:0|3:2,0:0:0:0:
397,153,44315,2,0,L|377:230,1,80,4|2,0:2|0:2,0:0:0:0:
130,210,44526,6,0,B|165:232|165:232|226:231,1,80,2|2,1:2|1:2,0:0:0:0:
414,66,44737,2,0,B|379:44|379:44|318:45,1,80,2|2,1:2|3:2,0:0:0:0:
98,93,44948,6,0,B|128:104|155:94|155:94|191:124|191:124|225:111|261:124,1,160,4|0,1:0|1:0,0:0:0:0:
120,183,45265,2,0,P|80:199|34:201,1,80,0|0,1:0|0:0,0:0:0:0:
305,180,45476,2,0,P|341:194|381:197,1,80,0|0,1:0|0:0,0:0:0:0:
212,261,45688,5,0,1:0:0:0:
212,293,46216,2,0,L|205:372,2,80,2|2|2,2:0|2:0|2:0,0:0:0:0:
152,166,46533,6,0,P|189:194|318:174,1,160,4|2,1:0|0:2,0:0:0:0:
410,276,46850,2,0,P|360:310|320:330,1,80,8|0,0:0|0:0,0:0:0:0:
440,144,47061,2,0,P|494:170|531:194,1,80,4|2,3:2|3:2,0:0:0:0:
297,189,47273,2,0,P|292:128|295:84,1,80,8|0,0:0|0:0,0:0:0:0:
475,67,47484,5,0,3:2:0:0:
353,46,47590,2,0,B|259:44|306:102|189:99,1,160,2|0,3:2|0:0,0:0:0:0:
348,141,47907,1,0,0:0:0:0:
348,141,48012,2,0,L|351:232,1,80,2|8,3:2|0:0,0:0:0:0:
184,197,48223,6,0,B|136:159|136:159|132:53,1,160,4|2,0:0|0:2,0:0:0:0:
42,74,48540,2,0,L|45:154,1,80,8|0,0:0|0:0,0:0:0:0:
227,116,48752,2,0,L|225:37,2,80,4|2|8,3:2|3:2|0:0,0:0:0:0:
343,77,49069,6,0,B|425:91|425:91|500:52,1,160,4|2,0:0|3:2,0:0:0:0:
397,193,49385,2,0,L|315:180,1,80,8|2,0:0|0:2,0:0:0:0:
144,122,49597,2,0,L|226:109,1,80,0|2,3:0|3:2,0:0:0:0:
298,38,49808,1,8,0:0:0:0:
279,196,49914,6,0,P|270:280|266:370,1,160,4|2,1:0|0:2,0:0:0:0:
168,297,50230,2,0,P|172:250|182:202,1,80,8|0,0:0|0:0,0:0:0:0:
373,238,50442,2,0,P|369:285|359:333,1,80,2|2,3:0|0:2,0:0:0:0:
274,269,50653,1,8,0:0:0:0:
274,269,50759,1,0,0:0:0:0:
368,139,50864,6,0,L|462:147,1,80,4|0,3:2|0:0,0:0:0:0:
373,238,51076,1,8,0:0:0:0:
269,136,51181,2,0,B|261:98|261:98|268:58,1,80,0|2,0:0|3:0,0:0:0:0:
197,210,51392,2,0,L|103:218,1,80,2|8,3:2|0:0,0:0:0:0:
347,294,51604,6,0,B|404:272|404:272|524:289,1,160,4|2,1:0|0:2,0:0:0:0:
249,325,51920,2,0,B|243:282|243:282|263:226,1,80,2|2,1:2|1:2,2:0:0:0:
262,39,52132,1,2,1:2:0:0:
179,130,52238,2,0,L|79:117,1,80,2|2,2:2|2:2,2:0:0:0:
363,95,52449,6,0,B|479:109|479:109|428:146,1,160,4|2,1:0|0:3,0:0:0:0:
271,125,52766,2,0,P|267:73|283:35,1,80,0|2,1:0|1:3,0:0:0:0:
345,196,52977,5,0,1:0:0:0:
183,192,53083,1,2,1:3:0:0:
156,192,53294,6,0,L|140:375,1,160,4|2,1:0|0:2,0:0:0:0:
0,235,53611,2,0,P|46:240|90:253,1,80,12|0,0:2|0:0,0:0:0:0:
297,327,53822,2,0,P|258:336|218:340,1,80,4|2,3:2|3:2,0:0:0:0:
181,169,54033,2,0,P|219:159|259:155,1,80,8|0,0:0|0:0,0:0:0:0:
466,209,54245,6,0,P|430:243|312:209,1,160,0|8,3:0|0:0,0:0:0:0:
393,102,54561,2,0,B|404:140|404:140|391:193,1,80,0|0,0:0|0:0,0:0:0:0:
243,295,54773,2,0,B|233:255|233:255|244:217,1,80,2|8,3:2|0:0,0:0:0:0:
304,6,54984,6,0,B|316:52|316:52|304:108|304:108|316:184,1,160,4|2,3:2|3:2,0:0:0:0:
221,52,55301,1,8,0:0:0:0:
189,55,55512,2,0,L|93:46,1,80,4|0,3:2|3:0,0:0:0:0:
279,106,55723,1,8,0:0:0:0:
187,162,55829,6,0,P|105:173|9:120,1,160,4|0,3:2|3:0,0:0:0:0:
266,81,56145,2,0,P|302:76|351:97,1,80,8|0,0:0|0:0,0:0:0:0:
217,272,56357,1,8,0:0:0:0:
293,187,56462,1,0,0:0:0:0:
368,277,56568,1,8,0:0:0:0:
205,268,56674,6,0,B|254:260|254:260|284:281|284:281|313:262|355:274,1,160,4|2,1:0|3:2,0:0:0:0:
468,213,56991,2,0,P|482:249|481:289,1,80,8|0,0:0|0:0,0:0:0:0:
280,371,57202,2,0,P|232:308|249:227,1,160,0|8,3:0|0:0,0:0:0:0:
324,110,57519,6,0,B|266:106|266:106|231:126|231:126|154:120,1,160,4|2,1:0|3:2,0:0:0:0:
358,240,57836,2,0,L|437:248,1,80,0|2,1:0|1:2,0:0:0:0:
446,124,58047,5,0,1:0:0:0:
436,271,58153,1,2,1:2:0:0:
447,100,58259,1,0,1:0:0:0:
435,291,58364,5,4,0:0:0:0:
434,311,58681,2,0,L|286:303,2,120.000004577637,0|0|0,1:0|1:0|3:0,0:0:0:0:
410,213,59315,5,0,0:0:0:0:
410,213,59421,2,0,L|351:210,1,60.0000022888184,0|0,0:0|2:0,0:0:0:0:
273,179,59632,2,0,P|263:231|272:254,1,60.0000022888184,2|0,1:3|0:0,0:0:0:0:
350,347,59843,2,0,P|309:312|285:308,1,60.0000022888184,2|0,1:3|0:0,0:0:0:0:
110,354,60054,6,0,P|210:319|226:288,1,120.000004577637,6|0,0:2|0:0,0:0:0:0:
132,249,60371,2,0,L|113:186,1,60.0000022888184,0|0,0:0|0:0,0:0:0:0:
213,46,60583,2,0,L|195:103,2,60.0000022888184,0|0|0,0:0|0:0|0:0,0:0:0:0:
248,193,60900,6,0,L|383:203,1,120.000004577637,4|2,0:2|2:0,0:0:0:0:
465,149,61216,2,0,L|493:114,2,40.000001525879,2|2|2,0:0|0:0|0:0,0:0:0:0:
462,250,61428,2,0,L|496:310,1,60.0000022888184,10|0,0:0|0:0,0:0:0:0:
389,326,61639,1,0,1:0:0:0:
340,236,61745,6,0,P|275:236|180:302,1,160,4|0,1:1|3:0,0:0:0:0:
27,245,62061,2,0,P|65:232|105:229,1,80,12|0,0:2|0:0,0:0:0:0:
246,363,62273,2,0,P|208:376|168:379,1,80,4|2,3:2|3:2,0:0:0:0:
254,200,62484,2,0,P|292:187|332:184,1,80,8|2,0:0|0:2,0:0:0:0:
157,62,62695,6,0,L|168:141,1,80,0|0,3:0|3:0,0:0:0:0:
71,245,62907,2,0,L|82:324,1,80,8|0,0:0|0:0,0:0:0:0:
298,287,63118,2,0,L|287:208,2,80,4|0|0,3:2|3:0|0:0,0:0:0:0:
175,356,63435,6,0,B|270:322|230:394|349:367,1,160,0|0,3:0|3:0,0:0:0:0:
434,296,63752,2,0,P|433:335|418:372,1,80,12|0,0:2|0:0,0:0:0:0:
261,229,63963,2,0,P|300:229|337:244,1,80,2|2,3:3|3:2,0:0:0:0:
427,187,64121,1,2,0:2:0:0:
427,187,64174,2,0,P|427:147|442:110,1,80,10|2,0:2|0:2,0:0:0:0:
310,93,64385,6,0,L|221:64,1,80,2|0,3:0|3:0,0:0:0:0:
189,221,64597,2,0,L|265:245,1,80,8|0,0:0|0:0,0:0:0:0:
254,157,64808,1,2,1:3:0:0:
114,168,64914,2,0,B|98:202|98:202|101:252,1,80,0|0,1:0|1:0,0:0:0:0:
214,361,65125,6,0,B|146:329|146:329|61:334,1,160,4|0,1:0|3:0,0:0:0:0:
241,246,65442,1,12,0:2:0:0:
241,246,65547,1,0,0:0:0:0:
133,195,65653,2,0,L|39:201,1,80,4|2,3:2|3:2,0:0:0:0:
219,114,65864,2,0,L|298:108,1,80,8|2,0:0|0:2,0:0:0:0:
133,85,66076,6,0,P|129:123|138:164,1,80,0|0,3:0|3:0,0:0:0:0:
385,146,66287,2,0,P|388:106|380:67,1,80,8|0,0:0|0:0,0:0:0:0:
253,33,66498,2,0,L|258:112,1,80,4|0,3:2|3:0,0:0:0:0:
274,306,66709,1,8,0:0:0:0:
346,228,66815,6,0,B|266:209|266:209|178:248,1,160,4|0,1:1|0:0,0:0:0:0:
306,109,67131,2,0,L|397:128,1,80,12|0,1:2|0:0,0:0:0:0:
348,347,67343,2,0,L|257:328,1,80,12|0,1:2|0:0,0:0:0:0:
467,217,67554,2,0,B|466:256|466:256|450:295,1,80,12|0,1:2|0:0,0:0:0:0:
203,203,67765,5,0,3:0:0:0:
203,203,67871,2,0,B|161:206|99:179,1,80,0|0,3:0|3:0,0:0:0:0:
334,49,68082,2,0,B|376:46|412:62,1,80,0|0,3:0|1:0,0:0:0:0:
123,13,68293,1,0,1:0:0:0:
101,27,68505,6,0,L|98:223,1,160,4|0,1:0|3:0,0:0:0:0:
192,144,68821,2,0,P|193:104|189:64,1,80,12|0,0:2|0:0,0:0:0:0:
16,65,69033,2,0,P|12:104|13:144,2,80,4|2|8,3:2|3:2|0:0,0:0:0:0:
104,115,69350,1,2,0:2:0:0:
64,228,69455,6,0,B|103:237|103:237|166:220,1,80,0|0,3:0|3:0,0:0:0:0:
283,149,69666,2,0,B|244:140|244:140|181:157,1,80,8|0,0:0|0:0,0:0:0:0:
374,142,69878,2,0,L|373:222,1,80,4|0,3:2|0:0,0:0:0:0:
270,61,70089,1,8,0:0:0:0:
361,56,70195,6,0,B|451:50|413:109|512:101,1,160,0|0,3:0|3:0,0:0:0:0:
341,262,70512,2,0,L|243:258,1,80,12|2,0:2|0:3,0:0:0:0:
271,154,70670,1,0,0:0:0:0:
271,154,70723,2,0,P|324:155|365:163,1,80,4|2,3:2|3:3,0:0:0:0:
335,362,70934,2,0,P|282:361|241:353,1,80,8|0,0:0|0:0,0:0:0:0:
109,177,71145,5,0,3:0:0:0:
169,262,71251,1,0,3:0:0:0:
74,307,71357,2,0,B|59:345|59:345|74:410,1,80,8|0,0:0|0:0,0:0:0:0:
223,175,71568,2,0,B|231:136|231:136|216:98,2,80,0|0|0,1:0|1:0|1:0,0:0:0:0:
72,221,71885,6,0,B|130:229|130:229|156:257|156:257|217:270,1,160,4|0,1:0|3:0,0:0:0:0:
85,313,72202,2,0,L|7:298,1,80,12|0,0:2|0:0,0:0:0:0:
222,174,72413,2,0,L|301:190,1,80,4|2,3:2|3:2,0:0:0:0:
123,30,72624,2,0,L|44:14,1,80,8|2,0:0|0:2,0:0:0:0:
261,6,72835,6,0,P|260:68|241:97,1,80,0|0,3:0|3:0,0:0:0:0:
68,186,73047,2,0,P|93:155|130:140,1,80,8|0,0:0|0:0,0:0:0:0:
304,237,73258,2,0,P|264:229|233:206,2,80,4|0|0,1:2|1:0|1:0,0:0:0:0:
352,153,73575,6,0,L|343:342,1,160,4|0,1:0|3:0,0:0:0:0:
447,198,73892,2,0,B|458:159|458:159|447:119,1,80,8|0,1:0|1:0,0:0:0:0:
257,110,74103,2,0,B|246:149|246:149|257:189,1,80,0|0,3:0|3:0,0:0:0:0:
398,40,74314,2,0,L|308:38,1,80,0|0,3:0|3:0,0:0:0:0:
352,153,74526,5,8,1:0:0:0:
286,55,74631,1,8,1:0:0:0:
420,58,74737,2,0,L|499:59,1,80,8|8,1:0|1:0,0:0:0:0:
351,182,74948,1,0,1:0:0:0:
352,214,75265,6,0,L|351:344,1,120.000004577637,0|0,3:0|0:0,0:0:0:0:
496,208,75582,2,0,P|461:204|431:210,1,60.0000022888184,2|0,0:0|0:0,0:0:0:0:
435,351,75793,2,0,P|470:355|500:349,1,60.0000022888184,0|0,3:0|0:0,0:0:0:0:
466,280,76005,1,2,0:0:0:0:
414,35,76216,5,0,3:0:0:0:
414,35,76321,2,0,L|454:98,1,60.0000022888184,0|2,0:0|0:0,0:0:0:0:
327,99,76533,2,0,L|341:181,1,60.0000022888184,0|0,0:0|3:0,0:0:0:0:
222,74,76744,2,0,L|214:142,1,60.0000022888184,0|2,0:0|0:0,0:0:0:0:
305,0,76955,5,0,3:0:0:0:
136,191,77166,1,0,0:0:0:0:
136,191,77272,2,0,P|163:218|194:229,1,60.0000022888184,2|0,0:0|0:0,0:0:0:0:
334,255,77483,2,0,P|280:269|236:313,2,120.000004577637,0|2|0,3:0|0:0|3:0,0:0:0:0:
333,362,78012,5,0,0:0:0:0:
382,121,78223,2,0,L|386:181,1,60.0000022888184,2|0,0:2|3:0,0:0:0:0:
457,299,78434,2,0,L|453:240,1,60.0000022888184,2|2,0:2|0:0,0:0:0:0:
508,172,78645,5,0,1:0:0:0:
278,226,78857,1,0,0:0:0:0:
278,226,78962,2,0,P|237:238|213:236,1,60.0000022888184,2|0,0:2|0:0,0:0:0:0:
292,81,79174,2,0,P|322:115|333:137,1,60.0000022888184,0|0,3:0|0:0,0:0:0:0:
146,152,79385,2,0,P|155:110|169:91,1,60.0000022888184,2|2,0:0|0:2,0:0:0:0:
240,153,79596,5,0,3:0:0:0:
240,153,79702,2,0,L|247:223,1,60.0000022888184,0|0,0:0|0:0,0:0:0:0:
254,304,79913,1,0,3:0:0:0:
112,110,80124,1,0,0:0:0:0:
350,91,80335,5,0,1:0:0:0:
374,91,80652,1,2,2:2:0:0:
404,91,80864,2,0,L|415:182,2,80,2|0|2,2:2|2:0|2:0,0:0:0:0:
443,18,81497,1,0,2:0:0:0:
470,15,81709,5,0,0:0:0:0:
318,31,81814,1,0,0:0:0:0:
286,36,82026,6,0,L|142:58,1,136.000002593994,4|2,0:0|3:2,0:0:0:0:
241,143,82343,2,0,B|249:176|249:176|239:233,1,68.0000012969971,8|2,0:0|2:2,0:0:0:0:
60,101,82554,2,0,B|52:68|52:68|62:11,1,68.0000012969971,2|0,3:2|3:1,0:0:0:0:
145,159,82765,1,8,0:0:0:0:
145,159,82871,1,2,2:2:0:0:
166,38,82976,6,0,L|241:44,2,68.0000012969971,2|0|8,3:2|3:0|0:0,0:0:0:0:
51,152,83293,2,0,L|119:158,1,68.0000012969971,0|0,2:0|0:0,0:0:0:0:
211,279,83505,2,0,L|143:273,1,68.0000012969971,0|8,3:0|0:0,0:0:0:0:
279,172,83716,5,0,3:0:0:0:
438,362,83927,1,2,3:2:0:0:
438,362,84033,2,0,L|450:284,1,68.0000012969971,8|2,0:0|2:2,0:0:0:0:
442,183,84244,2,0,L|368:211,1,68.0000012969971,0|2,3:0|3:2,0:0:0:0:
287,269,84455,2,0,L|348:318,1,68.0000012969971,10|0,0:2|0:0,0:0:0:0:
462,287,84666,5,0,3:1:0:0:
462,287,84772,1,2,3:2:0:0:
337,142,84983,2,0,P|336:192|347:229,1,68.0000012969971,2|0,2:2|0:0,0:0:0:0:
484,131,85194,2,0,P|485:81|474:44,1,68.0000012969971,0|8,3:0|2:0,0:0:0:0:
282,93,85406,6,0,P|345:120|420:87,1,136.000002593994,4|0,0:0|3:0,0:0:0:0:
366,221,85723,2,0,P|324:216|290:221,1,68.0000012969971,8|0,0:0|2:0,0:0:0:0:
191,227,85934,2,0,L|181:69,1,136.000002593994,0|8,3:0|0:0,0:0:0:0:
268,29,86251,5,0,2:0:0:0:
268,29,86357,1,0,3:0:0:0:
366,81,86462,2,0,L|374:216,1,136.000002593994,0|0,3:0|2:0,0:0:0:0:
376,308,86779,1,0,3:0:0:0:
447,259,86885,2,0,L|528:258,1,68.0000012969971,0|8,3:0|0:0,0:0:0:0:
300,258,87096,6,0,P|283:320|316:379,1,136.000002593994,4|0,3:2|3:0,0:0:0:0:
192,319,87413,2,0,P|149:325|123:337,1,68.0000012969971,12|0,0:0|0:0,0:0:0:0:
226,172,87624,2,0,P|269:166|295:154,2,68.0000012969971,0|0|12,3:0|0:0|0:0,0:0:0:0:
240,82,87941,1,0,0:0:0:0:
154,227,88047,6,0,B|139:194|139:194|143:132,1,68.0000012969971,0|0,3:0|3:0,0:0:0:0:
356,104,88258,2,0,B|372:136|372:136|371:198,1,68.0000012969971,0|0,1:0|1:0,0:0:0:0:
233,56,88469,2,0,L|249:135,1,68.0000012969971,0|0,1:0|3:0,0:0:0:0:
278,263,88681,1,2,2:0:0:0:
278,263,88786,5,0,3:0:0:0:
475,115,89103,1,0,1:0:0:0:
460,130,89314,2,0,P|445:180|448:230,1,95.9999970703126,0|0,3:0|1:0,0:0:0:0:
474,313,89631,5,0,0:0:0:0:
474,313,89737,2,0,P|424:298|373:300,1,95.9999970703126,0|0,3:0|0:0,0:0:0:0:
254,335,90054,2,0,P|278:334|301:328,1,47.9999985351563,2|0,0:2|3:0,0:0:0:0:
317,246,90265,1,0,0:0:0:0:
136,76,90476,6,0,L|145:174,1,95.9999970703126,0|0,3:0|0:0,0:0:0:0:
98,252,90793,2,0,L|94:306,1,47.9999985351563,0|2,1:0|0:2,0:0:0:0:
184,253,91005,2,0,P|223:248|281:213,1,95.9999970703126,0|0,3:0|1:0,0:0:0:0:
316,145,91321,5,2,0:2:0:0:
316,145,91427,2,0,P|307:204|337:288,1,143.999995605469,0|2,3:0|2:2,0:0:0:0:
405,343,91850,1,0,3:0:0:0:
405,343,91955,1,2,0:2:0:0:
315,134,92166,6,0,L|162:143,1,143.999995605469,0|0,3:0|1:0,0:0:0:0:
101,101,92589,1,0,0:0:0:0:
101,101,92695,2,0,P|89:139|111:198,1,95.9999970703126,0|0,3:0|1:0,0:0:0:0:
225,218,93117,6,0,B|252:280|252:280|235:355,1,143.999995605469,0|2,3:0|2:2,0:0:0:0:
156,371,93540,1,0,3:0:0:0:
156,371,93645,1,2,0:2:0:0:
401,316,93857,5,2,0:0:0:0:
401,316,93962,2,0,L|448:324,1,47.9999985351563,2|2,0:0|0:0,0:0:0:0:
295,226,94174,2,0,L|261:268,1,47.9999985351563,0|0,3:0|3:0,0:0:0:0:
436,190,94385,2,0,L|417:144,1,47.9999985351563,2|2,0:0|0:0,0:0:0:0:
373,241,94596,1,0,3:0:0:0:
368,274,94807,6,0,L|358:353,1,80,2|0,1:0|0:0,0:0:0:0:
190,249,95019,2,0,L|180:328,1,80,2|0,1:0|0:0,0:0:0:0:
286,208,95230,5,2,1:0:0:0:
271,384,95335,1,2,1:0:0:0:
274,360,95547,6,0,P|186:329|105:353,1,160,4|0,0:0|3:0,0:0:0:0:
181,224,95864,2,0,P|219:222|278:244,1,80,8|0,0:0|0:0,0:0:0:0:
54,232,96075,2,0,P|54:184|74:135,1,80,0|0,3:0|3:0,0:0:0:0:
152,71,96286,1,8,0:0:0:0:
36,36,96392,1,0,2:0:0:0:
178,55,96497,6,0,B|235:46|235:46|272:71|272:71|354:60,1,160,6|2,1:2|1:2,0:0:0:0:
291,154,96814,1,0,0:0:0:0:
404,101,96920,2,0,B|415:64|415:64|403:25,1,80,0|0,3:0|3:0,0:0:0:0:
269,169,97131,2,0,B|257:208|257:208|267:245,1,80,0|0,3:0|3:0,0:0:0:0:
464,204,97343,6,0,P|410:184|345:212,1,120.000004577637,4|0,3:2|2:0,0:0:0:0:
354,347,97659,2,0,P|408:367|473:339,1,120.000004577637,2|0,2:0|2:0,0:0:0:0:
409,276,97976,1,2,2:0:0:0:
390,271,98293,6,0,B|332:263|332:263|254:278,1,120.000004577637,2|0,2:0|0:0,0:0:0:0:
166,258,98610,2,0,L|155:329,2,60.0000022888184,0|2|0,3:0|2:0|2:0,0:0:0:0:
233,174,98927,5,4,0:0:0:0:
256,192,99033,12,2,100723,2:0:0:0:
310,90,101990,6,0,L|395:71,2,80,2|2|2,2:0|2:0|2:0,0:0:0:0:
348,180,102307,6,0,B|441:158|441:158|482:99,1,160,4|2,1:0|3:2,0:0:0:0:
286,98,102624,2,0,L|207:114,1,80,12|0,0:2|0:0,0:0:0:0:
375,295,102835,2,0,L|453:278,1,80,0|2,3:0|3:2,0:0:0:0:
275,228,103047,2,0,L|196:244,1,80,12|0,0:2|0:0,0:0:0:0:
24,251,103258,5,0,3:0:0:0:
114,297,103364,2,0,P|168:241|166:163,1,160,2|4,3:2|0:2,0:0:0:0:
41,72,103681,1,0,0:0:0:0:
41,72,103786,2,0,P|87:61|127:58,1,80,2|8,3:2|0:0,0:0:0:0:
251,160,103997,6,0,P|171:163|91:175,1,160,2|2,3:3|3:2,0:0:0:0:
196,272,104314,2,0,P|260:269|293:266,1,80,8|0,0:0|0:0,0:0:0:0:
351,90,104526,2,0,L|346:183,2,80,2|2|8,3:3|3:2|0:0,0:0:0:0:
440,15,104843,6,0,B|462:68|462:68|455:193,1,160,2|2,3:3|3:2,0:0:0:0:
387,281,105159,2,0,B|428:277|428:277|466:285,1,80,14|2,0:2|0:2,0:0:0:0:
281,309,105371,2,0,B|278:273|278:273|285:229,1,80,6|2,3:2|3:2,0:0:0:0:
381,53,105582,1,10,0:2:0:0:
290,121,105688,6,0,B|229:120|229:120|194:142|194:142|130:142,1,160,4|2,1:0|3:2,0:0:0:0:
103,248,106005,2,0,B|141:256|141:256|207:243,1,80,8|0,0:0|0:0,0:0:0:0:
166,36,106216,2,0,B|124:31|124:31|88:43,1,80,2|2,3:3|3:2,0:0:0:0:
180,145,106427,1,8,0:0:0:0:
180,145,106533,1,0,0:0:0:0:
272,84,106638,6,0,P|280:45|273:2,1,80,0|0,3:0|0:0,0:0:0:0:
266,188,106850,1,8,0:0:0:0:
358,142,106955,2,0,P|405:135|457:147,1,80,0|2,0:0|3:3,0:0:0:0:
256,281,107166,2,0,P|209:288|157:276,1,80,2|8,3:2|0:0,0:0:0:0:
15,139,107378,6,0,B|108:127|69:187|190:176,1,160,4|2,1:0|3:2,0:0:0:0:
30,306,107695,2,0,B|16:266|40:215,1,80,2|2,1:2|0:2,0:0:0:0:
263,175,107906,1,2,1:2:0:0:
199,273,108012,2,0,P|143:277|108:271,1,80,2|2,1:2|1:2,0:0:0:0:
281,150,108223,6,0,L|293:334,1,160,4|2,1:0|3:3,0:0:0:0:
375,226,108540,2,0,P|417:218|458:227,1,80,4|2,1:2|1:3,0:0:0:0:
416,310,108751,5,4,1:2:0:0:
411,132,108857,1,2,1:3:0:0:
408,98,109068,6,0,B|336:135|336:135|250:123,1,160,4|2,1:0|3:2,0:0:0:0:
384,12,109385,2,0,L|486:25,1,80,12|0,0:2|0:0,0:0:0:0:
323,216,109596,2,0,L|243:205,1,80,0|2,3:0|3:2,0:0:0:0:
471,180,109807,2,0,P|477:235|461:282,1,80,12|0,0:2|0:0,0:0:0:0:
248,325,110019,6,0,P|292:351|417:327,1,160,0|8,3:0|0:0,0:0:0:0:
141,252,110335,2,0,P|119:268|97:324,1,80,4|0,0:2|0:0,0:0:0:0:
253,193,110547,2,0,P|249:166|211:119,1,80,2|8,3:2|0:0,0:0:0:0:
5,190,110758,6,0,B|57:210|57:210|175:199,1,160,2|2,3:3|3:2,0:0:0:0:
277,318,111075,2,0,L|187:325,1,80,8|0,0:0|0:0,0:0:0:0:
345,222,111286,2,0,P|390:288|373:375,1,160,2|8,3:3|0:0,0:0:0:0:
257,259,111603,6,0,B|232:164|289:199|256:100,1,160,2|2,3:3|3:2,0:0:0:0:
345,222,111920,2,0,P|386:229|424:219,1,80,8|0,0:0|0:0,0:0:0:0:
172,151,112131,2,0,P|130:141|88:149,1,80,8|0,0:0|1:0,0:0:0:0:
121,354,112343,1,8,0:0:0:0:
53,273,112448,6,0,B|128:248|128:248|226:297,1,160,4|0,0:0|0:0,0:0:0:0:
333,256,112765,2,0,L|342:145,1,80,8|0,0:0|0:0,0:0:0:0:
288,49,112976,2,0,B|281:104|281:104|253:137|253:137|247:198,1,160,0|8,3:0|0:0,0:0:0:0:
56,50,113293,6,0,P|162:30|211:73,1,160,4|2,1:0|3:2,0:0:0:0:
80,230,113610,2,0,L|-12:230,1,80,8|2,0:0|0:2,0:0:0:0:
157,84,113821,5,2,1:2:0:0:
164,224,113927,1,2,1:2:0:0:
55,153,114033,1,2,1:2:0:0:
193,155,114138,5,4,0:0:0:0:
222,169,114455,2,0,L|228:301,2,120.000004577637,0|0|0,0:0|0:0|0:0,0:0:0:0:
254,76,115089,5,0,0:0:0:0:
254,76,115195,2,0,P|221:72|184:80,1,60.0000022888184
290,241,115406,2,0,P|309:214|321:178,1,60.0000022888184,2|0,0:3|0:0,0:0:0:0:
128,190,115617,2,0,P|141:220|166:248,1,60.0000022888184,2|0,0:3|0:0,0:0:0:0:
285,346,115828,6,0,P|228:331|147:357,1,120.000004577637,4|0,0:0|0:0,0:0:0:0:
339,273,116145,2,0,P|398:269|411:265,1,60.0000022888184,0|0,0:0|0:0,0:0:0:0:
253,233,116357,2,0,P|240:174|259:120,1,120.000004577637
354,178,116674,5,4,0:2:0:0:
256,192,116779,12,4,117519,3:1:0:0:
117,297,124174,5,0,0:0:0:0:
117,297,124279,2,0,P|155:245|148:198,1,103.999995239258,4|0,1:1|0:0,0:0:0:0:
22,211,124596,2,0,P|54:223|76:225,1,51.999997619629,2|0,0:0|0:0,0:0:0:0:
156,121,124807,2,0,P|130:124|106:134,1,51.999997619629,8|0,0:0|0:0,0:0:0:0:
152,208,125019,1,2,0:0:0:0:
330,24,125230,6,0,L|390:31,1,51.999997619629,4|0,0:0|0:0,0:0:0:0:
280,145,125441,2,0,L|256:89,1,51.999997619629,2|0,0:0|0:0,0:0:0:0:
430,116,125652,2,0,L|393:164,2,51.999997619629,8|2|0,0:0|0:0|0:0,0:0:0:0:
329,217,125969,6,0,L|320:336,1,103.999995239258,4|0,0:0|0:0,0:0:0:0:
239,258,126286,2,0,P|202:251|168:255,1,51.999997619629,0|0,0:0|0:0,0:0:0:0:
199,346,126497,1,10,0:0:0:0:
179,348,126709,2,0,P|142:355|108:351,1,51.999997619629
45,303,126920,5,6,0:0:0:0:
45,303,127026,1,0,0:0:0:0:
110,236,127131,2,0,L|112:174,1,51.999997619629,2|0,0:0|0:0,0:0:0:0:
21,104,127343,2,0,L|22:155,2,51.999997619629,10|0|0,0:0|0:0|0:0,0:0:0:0:
96,36,127659,1,6,0:0:0:0:
329,71,127871,5,0,0:0:0:0:
329,71,127976,2,0,P|358:79|395:78,1,51.999997619629,2|0,0:0|0:0,0:0:0:0:
280,200,128188,2,0,P|272:170|253:139,1,51.999997619629,8|0,0:0|0:0,0:0:0:0:
426,170,128399,2,0,P|404:191|386:223,1,51.999997619629,2|0,0:0|0:0,0:0:0:0:
273,297,128610,6,0,P|325:291|391:320,2,103.999995239258,4|2|8,0:0|0:0|0:0,0:0:0:0:
196,340,129138,1,2,0:0:0:0:
177,356,129350,6,0,L|176:185,1,160,8|8,0:0|0:0,0:0:0:0:
309,169,129666,2,0,P|323:210|322:257,1,80
151,54,129878,2,0,L|240:45,1,80
399,32,130089,2,0,L|347:38,2,53.3333333333333
427,30,130300,6,0,B|441:67|441:67|428:134,1,80,2|2,0:2|0:2,0:0:0:0:
352,250,130512,1,2,0:2:0:0:
348,278,130723,5,2,1:2:0:0:
276,230,130828,1,2,1:2:0:0:
428,252,130934,1,2,1:2:0:0:
243,238,131040,6,0,B|186:226|186:226|144:244|144:244|55:228,1,160,4|2,0:0|0:2,0:0:0:0:
201,322,131357,2,0,L|287:340,1,80,10|2,0:2|0:2,0:0:0:0:
104,267,131568,2,0,B|88:303|88:303|92:368,1,80,2|2,0:2|0:2,0:0:0:0:
257,227,131779,2,0,B|259:186|259:186|243:150,1,80,10|2,0:2|0:2,0:0:0:0:
126,115,131990,6,0,L|48:132,1,80,0|2,0:0|0:2,0:0:0:0:
71,34,132202,1,8,0:0:0:0:
202,54,132307,2,0,P|221:94|217:138,1,80
171,246,132519,1,2,0:2:0:0:
304,219,132624,1,8,0:0:0:0:
158,218,132730,6,0,B|105:214|105:214|68:237|68:237|-13:236,1,160,0|2,0:0|0:2,0:0:0:0:
54,108,133047,2,0,P|56:28|60:9,1,80,10|2,0:2|0:2,0:0:0:0:
237,151,133258,1,2,0:2:0:0:
156,81,133364,1,2,0:2:0:0:
253,39,133469,2,0,L|343:49,1,80,8|2,0:0|0:2,0:0:0:0:
432,126,133681,6,0,P|434:193|430:207,2,53.3333333333333,0|0|2,3:0|0:0|3:1,0:0:0:0:
309,192,133892,2,0,P|366:156|380:153,2,53.3333333333333,8|0|0,3:1|3:0|3:0,0:0:0:0:
428,268,134103,2,0,P|368:236|358:225,2,53.3333333333333,2|0|0,3:1|0:0|0:0,0:0:0:0:
374,342,134314,5,8,3:1:0:0:
269,275,134420,2,0,B|234:266|203:288|203:288|162:273|162:273|106:296,1,160,6|2,0:0|0:0,0:0:0:0:
232,181,134737,2,0,P|290:183|322:201,1,80,10|2,0:0|0:2,0:0:0:0:
254,359,134948,2,0,P|217:376|175:371,1,80
128,222,135159,5,8,0:0:0:0:
128,222,135265,2,0,B|106:171|106:171|116:61,1,160,2|0,0:2|0:0,0:0:0:0:
236,207,135582,2,0,L|228:299,1,80,8|0,0:0|0:0,0:0:0:0:
330,147,135793,1,0,0:0:0:0:
365,257,135899,2,0,P|421:264|473:254,1,80,0|8,0:0|0:0,0:0:0:0:
350,46,136110,6,0,B|255:30|293:91|174:85,1,160,2|0,0:2|0:0,0:0:0:0:
330,147,136427,2,0,P|395:148|428:138,1,80,8|0,0:0|0:0,0:0:0:0:
238,259,136638,2,0,P|234:233|236:207,2,53.3333333333333,0|0|2,0:0|0:0|0:2,0:0:0:0:
296,349,136850,1,0,0:0:0:0:
176,349,136955,1,2,0:2:0:0:
331,353,137061,6,0,P|370:348|421:329,1,80
258,241,137272,2,0,L|142:237,1,80
331,134,137483,2,0,P|371:139|409:152,1,80
357,247,137695,1,2,0:2:0:0:
484,250,137800,1,4,0:0:0:0:
483,226,138012,6,0,L|477:133,2,80,0|0|0,0:0|3:0|3:0,0:0:0:0:
353,230,138328,2,0,L|352:283,2,40,0|0|0,0:0|0:0|0:0,0:0:0:0:
416,343,138540,1,0,3:0:0:0:
283,335,138645,1,8,0:0:0:0:
263,350,138857,5,8,0:0:0:0:
183,278,138962,2,0,L|113:273,2,53.3333333333333,0|0|0,0:0|0:0|0:0,0:0:0:0:
268,221,139174,1,0,3:0:0:0:
259,371,139279,1,8,0:0:0:0:
305,79,139490,6,0,L|384:84,1,80,12|0,0:2|0:0,0:0:0:0:
254,193,139702,1,0,3:0:0:0:
254,193,139807,2,0,L|140:201,1,80,8|0,0:0|3:0,0:0:0:0:
353,261,140019,2,0,B|361:288|361:288|359:313,2,53.3333333333333
249,307,140230,2,0,B|239:345|239:345|256:395,1,80,0|0,0:0|3:0,0:0:0:0:
136,371,140441,6,0,B|128:345|128:345|130:320,2,53.3333333333333,8|0|0,0:2|0:0|0:0,0:0:0:0:
151,215,140652,2,0,L|46:209,1,80,8|0,0:2|0:0,0:0:0:0:
231,70,140864,2,0,B|245:109|245:109|235:147,2,80,2|2|0,0:2|0:2|0:0,0:0:0:0:
161,22,141181,6,0,P|217:47|331:22,1,160,4|8,0:0|0:0,0:0:0:0:
419,0,141497,2,0,P|425:49|409:91,1,80,0|0,0:0|0:0,0:0:0:0:
325,177,141709,2,0,P|374:171|416:187,2,80,8|0|0,0:0|0:0|0:0,0:0:0:0:
230,216,142026,6,0,L|235:136,1,80,8|0,0:0|0:0,0:0:0:0:
359,277,142237,1,8,0:0:0:0:
358,301,142554,2,0,L|352:380,1,80,8|0,0:0|0:0,0:0:0:0:
507,239,142765,1,12,0:2:0:0:
321,55,143082,5,0,0:0:0:0:
321,55,143188,2,0,P|380:46|424:56,1,80,0|0,3:0|3:0,0:0:0:0:
228,146,143399,2,0,P|188:148|149:139,1,80,0|0,3:0|3:0,0:0:0:0:
371,185,143610,5,0,0:0:0:0:
371,185,143716,2,0,B|405:219|405:219|418:346,1,160,6|2,0:2|0:2,0:0:0:0:
291,375,144033,2,0,L|282:295,1,80,10|10,0:2|0:2,0:0:0:0:
189,150,144244,2,0,B|182:198|182:198|189:228,1,80,10|10,0:2|0:2,0:0:0:0:
371,215,144455,1,10,0:2:0:0:
281,264,144561,6,0,B|242:248|242:248|206:262|206:262|172:246|172:246|133:260,1,160,6|2,0:2|0:2,0:0:0:0:
34,142,144878,2,0,B|25:180|25:180|34:219,2,80,10|0|0,0:2|0:0|0:0,0:0:0:0:
109,70,145195,1,2,0:2:0:0:
163,157,145300,1,8,0:2:0:0:
219,69,145406,6,0,B|323:51|283:111|389:96,1,160,2|2,0:2|0:2,0:0:0:0:
251,161,145723,1,0,0:0:0:0:
251,161,145828,2,0,B|243:200|243:200|256:251,1,80,2|0,0:2|0:0,0:0:0:0:
452,144,146040,2,0,B|461:105|461:105|453:66,1,80,2|0,0:2|0:0,0:0:0:0:
346,242,146251,6,0,B|388:217|388:217|520:237,1,160,2|2,0:2|0:2,0:0:0:0:
370,330,146568,2,0,L|280:316,1,80,10|0,0:2|0:0,0:0:0:0:
372,131,146779,2,0,L|462:145,1,80,0|2,0:0|0:2,0:0:0:0:
287,74,146990,2,0,P|271:110|272:150,1,80,8|2,0:0|0:2,0:0:0:0:
471,86,147202,6,0,P|447:54|413:36,2,80,2|2|2,0:2|0:2|0:2,0:0:0:0:
367,243,147519,2,0,P|406:238|440:217,1,80,2|0,0:2|0:0,0:0:0:0:
272,150,147730,2,0,P|232:154|198:175,1,80,2|0,0:2|0:0,0:0:0:0:
313,361,147941,6,0,B|398:350|398:350|487:372,1,160,6|0,0:2|0:0,0:0:0:0:
326,266,148258,2,0,B|312:227|312:227|325:184,1,80,8|0,0:0|0:0,0:0:0:0:
446,65,148469,2,0,B|468:138|468:138|440:216,1,160,2|8,0:2|0:0,0:0:0:0:
282,91,148786,6,0,L|378:99,1,80,0|0,0:0|0:0,0:0:0:0:
220,222,148997,2,0,L|140:228,2,80,0|8|2,0:0|0:0|0:2,0:0:0:0:
279,323,149314,1,0,0:0:0:0:
386,218,149420,2,0,B|397:255|397:255|388:295,1,80,2|8,0:2|0:0,0:0:0:0:
307,121,149631,6,0,P|386:93|470:139,1,160,6|0,0:2|0:0,0:0:0:0:
279,206,149948,2,0,B|304:210|304:210|331:208,2,53.3333333333333,8|0|0,3:1|3:0|3:0,0:0:0:0:
483,208,150159,2,0,B|457:212|457:212|430:210,2,53.3333333333333,0|0|0,3:0|3:0|3:0,0:0:0:0:
385,287,150371,2,0,L|385:343,2,53.3333333333333,8|0|0,3:1|3:0|3:0,0:0:0:0:
297,359,150582,5,0,3:0:0:0:
265,363,150652,1,0,3:0:0:0:
232,360,150723,1,0,3:0:0:0:
203,345,150793,1,0,3:0:0:0:
181,320,150864,1,0,3:0:0:0:
173,289,150934,1,0,3:0:0:0:
176,256,151005,2,0,L|179:164,1,80,2|6,0:2|0:2,0:0:0:0:
181,154,151321,6,0,P|237:171|344:130,1,160,4|2,0:0|0:2,0:0:0:0:
466,188,151638,2,0,P|472:247|462:277,1,80,10|0,0:2|0:0,0:0:0:0:
423,83,151850,2,0,P|482:77|512:87,1,80,2|0,0:2|0:0,0:0:0:0:
365,228,152061,2,0,P|306:234|276:224,1,80,8|0,0:2|0:0,0:0:0:0:
142,83,152272,6,0,B|193:70|193:70|221:93|221:93|257:78|293:98,1,160,2|10,0:2|0:2,0:0:0:0:
317,218,152589,1,0,0:0:0:0:
433,174,152695,2,0,B|446:213|446:213|437:250,1,80,2|0,3:2|3:0,0:0:0:0:
369,371,152906,5,8,0:0:0:0:
242,314,153012,2,0,P|158:298|74:333,1,160,2|2,0:2|0:2,0:0:0:0:
29,196,153328,2,0,P|24:143|32:110,1,80,10|0,0:2|0:0,0:0:0:0:
133,6,153540,2,0,P|139:53|134:74,2,53.3333333333333,2|0|0,0:2|0:0|0:0,0:0:0:0:
168,156,153751,2,0,P|121:162|100:157,2,53.3333333333333,8|0|4,0:0|0:0|0:2,0:0:0:0:
242,77,153962,5,0,3:0:0:0:
273,68,154033,1,0,3:0:0:0:
304,69,154103,1,0,3:0:0:0:
333,82,154174,2,0,P|369:84|443:77,1,80,8|2,0:0|0:2,0:0:0:0:
284,164,154385,2,0,P|282:200|289:274,1,80,8|10,0:0|0:2,0:0:0:0:
306,383,154596,1,8,0:0:0:0:
203,263,154702,6,0,B|298:249|256:307|351:306,1,160,6|2,0:2|0:2,0:0:0:0:
224,354,155019,2,0,B|182:362|182:362|145:354,1,80,2|0,0:3|0:0,0:0:0:0:
348,209,155230,2,0,B|390:201|390:201|427:208,1,80,2|0,0:3|0:0,0:0:0:0:
215,99,155441,2,0,B|173:107|173:107|135:99,1,80,2|0,0:3|0:0,0:0:0:0:
308,56,155652,6,0,B|316:98|316:98|308:135,1,80,2|0,0:3|0:0,0:0:0:0:
44,133,155864,2,0,B|36:96|36:96|44:54,1,80,2|0,0:3|0:0,0:0:0:0:
183,19,156075,5,2,0:3:0:0:
178,194,156181,1,4,0:2:0:0:
189,220,156392,6,0,L|295:224,1,80,4|0,0:0|0:0,0:0:0:0:
402,343,156603,2,0,L|296:347,1,80,2|10,0:2|0:2,0:0:0:0:
226,314,156814,1,2,0:2:0:0:
361,260,156920,2,0,P|366:218|357:172,1,80,10|2,0:2|0:2,0:0:0:0:
264,93,157131,2,0,P|261:117|271:159,3,40,10|0|2|0,0:2|0:0|0:2|0:0,0:0:0:0:
259,173,157343,6,0,L|156:169,1,80,6|0,0:2|0:0,0:0:0:0:
112,104,157554,1,10,0:2:0:0:
104,226,157659,1,8,0:0:0:0:
113,77,157765,1,8,0:0:0:0:
104,251,157871,1,8,0:0:0:0:
103,282,158082,6,0,P|167:273|215:292,1,95.9999970703126,4|0,1:0|0:0,0:0:0:0:
307,259,158399,2,0,P|309:283|306:307,1,47.9999985351563,2|0,0:2|0:0,0:0:0:0:
229,194,158610,2,0,P|218:146|242:94,1,95.9999970703126,2|2,0:2|0:2,0:0:0:0:
427,155,159033,6,0,P|382:164|326:154,1,95.9999970703126,2|0,0:3|0:0,0:0:0:0:
352,64,159350,2,0,P|384:66|414:60,1,47.9999985351563,2|0,0:2|0:0,0:0:0:0:
489,83,159561,1,2,0:2:0:0:
266,101,159772,6,0,B|185:97|212:143|119:143,1,143.999995605469,2|0,1:3|0:0,0:0:0:0:
95,39,160300,2,0,P|70:46|41:52,2,47.9999985351563,2|0|0,0:2|0:0|0:0,0:0:0:0:
59,137,160617,6,0,P|52:197|59:244,1,95.9999970703126,2|0,0:2|0:0,0:0:0:0:
115,317,160934,2,0,P|112:349|103:372,2,47.9999985351563,0|2|2,0:0|1:2|0:2,0:0:0:0:
173,238,161251,1,2,1:2:0:0:
328,353,161462,6,0,P|390:350|438:359,1,95.9999970703126,2|0,1:3|0:0,0:0:0:0:
494,287,161779,2,0,L|487:233,1,47.9999985351563,2|0,0:2|0:0,0:0:0:0:
415,179,161990,2,0,L|421:131,1,47.9999985351563,2|0,0:2|0:0,0:0:0:0:
486,68,162202,1,2,0:2:0:0:
474,49,162413,6,0,L|377:47,2,95.9999970703126,2|0|0,0:3|0:0|0:0,0:0:0:0:
467,146,162941,2,0,L|468:211,1,47.9999985351563,2|0,0:2|0:0,0:0:0:0:
468,285,163152,6,0,B|406:285|406:285|349:315|349:315|262:315,1,200,8|0,0:0|0:0,0:0:0:0:
307,196,163892,1,0,0:0:0:0:
313,170,164103,6,0,L|314:72,1,80,2|0,0:0|0:0,0:0:0:0:
233,302,164314,2,0,L|233:381,1,80,2|0,0:0|0:0,0:0:0:0:
204,193,164526,5,2,0:0:0:0:
345,270,164631,1,2,0:0:0:0:
365,287,164843,6,0,P|435:275|482:198,1,160,4|0,0:0|3:0,0:0:0:0:
312,148,165159,2,0,P|277:143|208:150,1,80,8|0,0:0|0:0,0:0:0:0:
395,73,165371,2,0,P|434:75|474:69,1,80,0|0,3:0|3:0,0:0:0:0:
311,13,165582,1,8,0:0:0:0:
311,13,165688,1,0,0:0:0:0:
412,168,165793,6,0,L|422:269,2,80,0|0|8,3:0|3:0|0:0,0:0:0:0:
387,63,166110,1,0,0:0:0:0:
273,99,166216,2,0,L|280:19,2,80,0|0|8,3:0|0:0|1:0,0:0:0:0:
242,256,166533,1,8,1:0:0:0:
211,181,166638,6,0,B|259:165|294:194|294:194|336:189|349:129,1,160,4|0,1:0|0:0,0:0:0:0:
141,30,166955,2,0,B|110:86|126:139|126:139|134:114|174:96,1,160,4|0,1:2|0:0,0:0:0:0:
251,237,167272,2,0,B|170:200|180:264|94:237,1,160,4|0,1:2|1:0,0:0:0:0:
207,331,167589,6,0,P|256:339|317:317,1,80,4|0,1:2|0:0,0:0:0:0:
399,249,167800,1,0,0:0:0:0:
251,237,167906,2,0,P|245:197|253:158,1,80,0|0,3:0|3:0,0:0:0:0:
295,17,168117,1,0,3:0:0:0:
195,83,168223,6,0,P|244:125|367:112,1,160,4|0,1:0|3:0,0:0:0:0:
452,89,168540,2,0,P|458:128|450:167,1,80,0|2,3:0|2:2,0:0:0:0:
229,255,168751,2,0,P|288:246|327:263,1,80,0|2,3:0|2:2,0:0:0:0:
119,125,168962,2,0,P|110:66|127:27,1,80,4|2,3:2|2:2,0:0:0:0:
224,176,169174,6,0,L|230:268,1,80,0|2,3:0|2:0,0:0:0:0:
11,158,169385,2,0,L|5:78,1,80,4|2,1:2|2:2,0:0:0:0:
101,278,169596,6,0,B|63:293|63:293|17:285,1,80,2|0,1:2|0:0,0:0:0:0:
126,90,169807,2,0,B|164:75|164:75|210:83,1,80,4|2,1:2|3:2,0:0:0:0:
411,186,170019,6,0,B|354:195|354:195|337:228|337:228|243:242,1,160,6|0,1:2|1:0,0:0:0:0:
412,267,170335,2,0,L|509:251,1,80,0|0,1:0|0:0,0:0:0:0:
279,156,170547,2,0,L|182:172,1,80,0|0,1:0|0:0,0:0:0:0:
361,25,170758,1,0,1:0:0:0:
377,51,170969,6,0,P|388:91|387:143,2,80,0|0|0,1:0|1:0|1:0,0:0:0:0:
243,163,171286,2,0,P|278:181|316:191,1,80,2|2,1:2|1:2,0:0:0:0:
283,14,171497,2,0,P|249:35|222:64,1,80,2|2,1:2|1:2,0:0:0:0:
0,107,171709,6,0,B|96:81|59:144|163:133,1,160,4|0,1:2|1:0,0:0:0:0:
34,189,172026,2,0,P|31:231|43:268,1,80,4|0,1:2|0:0,0:0:0:0:
219,42,172237,2,0,P|177:39|140:51,1,80,4|0,1:2|0:0,0:0:0:0:
251,249,172448,5,4,1:2:0:0:
256,192,172501,12,4,173293,1:0:0:0:
256,192,176674,12,2,178364,2:0:0:0:
326,74,179737,6,0,L|332:174,1,95.9999970703126,2|0,0:0|0:0,0:0:0:0:
332,170,180054,6,0,B|378:167|378:167|408:192|408:192|446:175|488:200,1,160,6|0,1:2|3:0,0:0:0:0:
330,268,180371,2,0,L|239:274,1,80,12|0,0:2|0:0,0:0:0:0:
439,299,180582,2,0,P|441:359|425:394,1,80,0|0,3:0|3:0,0:0:0:0:
311,173,180793,2,0,P|301:134|306:94,1,80,12|0,0:2|0:0,0:0:0:0:
462,4,181005,5,0,3:0:0:0:
387,53,181110,2,0,B|308:67|308:67|220:34,1,160,0|4,3:0|0:2,0:0:0:0:
331,170,181428,1,0,0:0:0:0:
331,170,181533,2,0,L|414:153,1,80,0|8,3:0|0:0,0:0:0:0:
225,193,181744,6,0,P|214:255|286:339,1,160,2|0,3:3|3:0,0:0:0:0:
117,249,182061,2,0,P|58:262|31:290,1,80,8|0,0:0|0:0,0:0:0:0:
203,107,182272,2,0,B|295:95|253:148|357:134,1,160,2|8,3:3|0:0,0:0:0:0:
168,23,182589,6,0,L|170:188,1,160,2|0,3:3|3:0,0:0:0:0:
75,232,182906,2,0,P|61:188|74:146,1,80,8|0,0:0|0:0,0:0:0:0:
268,157,183117,2,0,P|274:196|261:233,1,80
179,338,183328,1,8,0:0:0:0:
331,340,183434,6,0,B|443:327|443:327|404:378,1,160,4|0,1:0|3:0,0:0:0:0:
174,352,183751,2,0,L|94:358,1,80,12|0,0:2|0:0,0:0:0:0:
249,245,183962,2,0,B|255:205|255:205|246:167,1,80,0|0,3:0|0:0,0:0:0:0:
226,32,184174,1,8,0:0:0:0:
172,143,184279,6,0,P|255:153|330:79,1,160,4|0,1:0|3:0,0:0:0:0:
440,142,184596,2,0,P|445:102|432:60,1,80
447,254,184807,1,0,0:0:0:0:
321,260,184913,2,0,L|235:263,1,80,0|0,0:0|2:0,0:0:0:0:
459,358,185124,5,6,1:2:0:0:
472,338,185441,2,0,P|486:289|478:240,1,88.000002685547,2|0,0:0|0:0,0:0:0:0:
427,51,185864,2,0,P|423:77|424:113,1,44.0000013427735
467,167,186075,5,2,0:0:0:0:
467,167,186181,1,2,0:0:0:0:
312,265,186392,2,0,P|355:261|397:275,1,88.000002685547,2|0,0:0|0:0,0:0:0:0:
176,272,186814,6,0,P|134:285|90:282,1,88.000002685547,2|0,0:0|0:0,0:0:0:0:
125,181,187131,1,2,0:0:0:0:
234,359,187343,1,2,0:0:0:0:
234,359,187448,2,0,P|275:372|319:369,1,88.000002685547,2|2,0:0|0:0,0:0:0:0:
320,370,187871,5,0,3:0:0:0:
333,210,187976,2,0,L|328:290,1,80,2|2,3:2|3:2,0:0:0:0:
245,247,188188,1,0,1:0:0:0:
415,260,188293,1,0,1:0:0:0:
438,264,188505,6,0,B|465:187|465:187|448:104,1,160,4|0,0:0|0:0,0:0:0:0:
274,188,188821,2,0,L|353:182,1,80,12|0,0:2|0:0,0:0:0:0:
185,162,189033,2,0,B|177:200|177:200|190:238,1,80
267,320,189244,1,12,0:2:0:0:
140,342,189350,1,0,0:0:0:0:
292,320,189455,6,0,P|365:326|447:366,1,160,0|8,0:0|0:0,0:0:0:0:
327,222,189772,2,0,P|333:173|359:137,1,80,2|0,3:3|0:0,0:0:0:0:
508,201,189983,2,0,P|462:220|418:215,1,80,2|8,0:3|0:0,0:0:0:0:
331,50,190195,6,0,B|424:41|382:97|484:95,1,160,4|0,0:0|3:0,0:0:0:0:
245,87,190512,2,0,P|238:38|253:-3,1,80,8|0,0:0|0:0,0:0:0:0:
331,156,190723,5,8,3:2:0:0:
152,152,190828,1,0,3:0:0:0:
160,134,191040,6,0,P|95:100|7:149,1,160,4|2,0:0|3:3,0:0:0:0:
200,266,191357,2,0,L|291:269,1,80,8|0,3:2|0:0,0:0:0:0:
88,345,191568,5,8,0:0:0:0:
88,199,191674,1,2,0:3:0:0:
88,166,191885,6,0,B|132:152|166:177|166:177|196:153|196:153|230:186|284:169,1,191.999994140625,4|0,0:0|3:0,0:0:0:0:
114,264,192202,2,0,P|48:262|18:235,1,95.9999970703126,12|2,0:2|2:2,0:0:0:0:
68,52,192413,2,0,P|115:47|156:70,1,95.9999970703126,12|2,0:2|2:2,0:0:0:0:
253,15,192624,1,12,0:2:0:0:
150,99,192730,1,2,2:2:0:0:
246,192,192835,6,0,L|375:212,1,95.9999970703126,12|2,0:2|2:2,0:2:0:0:
167,314,193047,2,0,L|38:334,1,95.9999970703126,12|2,0:2|2:2,0:0:0:0:
98,101,193258,2,0,B|79:149|79:149|101:200,1,95.9999970703126,12|2,0:2|2:2,0:0:0:0:
252,283,193469,1,12,0:2:0:0:
211,152,193575,6,0,B|274:141|274:141|331:177|331:177|401:167,1,191.999994140625,4|0,0:0|0:0,0:0:0:0:
483,214,193892,1,12,0:2:0:0:
458,86,193997,1,0,0:0:0:0:
489,246,194103,2,0,L|503:340,1,95.9999970703126,12|0,0:2|0:0,0:0:0:0:
452,63,194314,1,12,0:0:0:0:
369,171,194420,6,0,P|318:162|256:40,1,191.999994140625,4|0,0:0|0:0,0:0:0:0:
454,109,194737,2,0,P|468:154|465:202,1,95.9999970703126,8|0,0:0|0:0,0:0:0:0:
362,331,194948,1,0,3:0:0:0:
461,237,195054,1,2,3:0:0:0:
512,365,195159,1,8,0:0:0:0:
343,345,195265,6,0,B|290:355|255:313|255:313|207:306|141:361,1,191.999994140625,4|0,0:0|3:0,0:0:0:0:
318,164,195582,2,0,P|332:209|324:256,1,95.9999970703126,8|0,0:0|0:0,0:0:0:0:
221,92,195793,2,0,P|207:47|215:0,1,95.9999970703126,0|0,3:0|3:0,0:0:0:0:
196,220,196005,1,8,0:0:0:0:
124,94,196110,6,0,B|237:59|206:144|322:118,1,191.999994140625,4|0,0:0|3:0,0:0:0:0:
409,65,196427,2,0,P|423:110|415:157,1,95.9999970703126,10|2,0:2|3:2,0:0:0:0:
337,324,196638,1,10,0:2:0:0:
485,246,196744,1,2,3:2:0:0:
321,224,196850,1,2,3:2:0:0:
448,337,196955,5,4,0:0:0:0:
466,345,197272,2,0,L|479:219,2,120.000004577637
372,311,197906,1,0,0:0:0:0:
372,311,198012,2,0,L|301:318,1,60.0000022888184,0|0,0:0|0:0,0:0:0:0:
431,199,198223,2,0,L|472:256,1,60.0000022888184,0|0,0:0|0:0,0:0:0:0:
305,202,198434,2,0,L|334:137,1,60.0000022888184,0|0,0:0|0:0,0:0:0:0:
419,60,198645,6,0,P|353:70|298:30,1,120.000004577637,4|0,0:0|2:0,0:0:0:0:
206,16,198962,2,0,P|201:48|212:85,1,60.0000022888184,0|0,0:0|2:0,0:0:0:0:
279,153,199174,2,0,P|284:182|278:211,2,60.0000022888184,0|0|0,0:0|0:0|0:0,0:0:0:0:
184,184,199490,6,0,L|57:188,1,120.000004577637,0|2,0:0|2:0,0:0:0:0:
134,288,199807,2,0,L|193:286,1,60.0000022888184,2|0,2:0|0:0,0:0:0:0:
81,377,200019,2,0,L|22:379,1,60.0000022888184,2|0,1:2|3:0,0:0:0:0:
57,297,200230,1,2,1:2:0:0:
168,373,200335,6,0,P|260:352|280:266,1,160,6|0,1:2|1:0,0:0:0:0:
190,190,200652,2,0,P|124:189|89:181,1,80,10|0,0:2|0:0,0:0:0:0:
344,164,200864,2,0,P|376:221|386:255,1,80,0|0,3:0|3:0,0:0:0:0:
257,67,201075,2,0,P|290:10|315:-16,1,80,8|0,0:0|0:0,0:0:0:0:
462,84,201286,6,0,L|372:88,1,80,0|2,3:0|3:2,0:0:0:0:
202,192,201497,2,0,L|292:196,1,80,8|0,0:0|0:0,0:0:0:0:
433,307,201709,2,0,B|442:271|442:271|434:228,2,80,0|0|8,3:0|3:0|0:0,0:0:0:0:
310,357,202026,6,0,B|232:348|232:348|156:380,1,160,2|0,3:2|0:0,0:0:0:0:
242,237,202343,2,0,L|333:248,1,80,10|0,0:2|0:0,0:0:0:0:
118,271,202554,2,0,L|127:191,1,80,0|2,3:0|3:2,0:0:0:0:
183,122,202712,1,2,2:0:0:0:
183,122,202765,2,0,P|133:106|91:117,1,80,10|2,0:2|0:2,0:0:0:0:
219,240,202976,6,0,P|255:255|294:252,1,80,2|0,3:0|3:0,0:0:0:0:
435,151,203188,2,0,P|385:135|343:146,1,80,10|0,0:2|0:0,0:0:0:0:
460,277,203399,2,0,L|451:357,1,80,2|0,3:0|3:0,0:0:0:0:
350,157,203610,1,8,0:0:0:0:
267,281,203716,6,0,B|209:270|209:270|170:285|170:285|88:272,1,160,6|0,0:2|0:0,0:0:0:0:
158,182,204033,1,10,0:2:0:0:
158,182,204138,1,0,0:0:0:0:
29,218,204244,2,0,B|10:252|10:252|12:293,1,80,0|0,3:0|3:0,0:0:0:0:
184,168,204455,2,0,B|186:127|186:127|167:92,1,80,8|0,0:0|0:0,0:0:0:0:
130,263,204666,6,0,P|167:276|208:271,1,80,2|0,3:2|3:0,0:0:0:0:
356,78,204878,2,0,P|316:73|279:86,1,80,8|0,0:0|0:0,0:0:0:0:
431,165,205089,2,0,L|510:160,1,80,0|0,3:0|3:0,0:0:0:0:
366,260,205300,1,10,0:2:0:0:
488,263,205406,6,0,B|476:378|476:378|455:318,1,160,6|0,0:2|0:0,0:0:0:0:
390,101,205723,2,0,L|399:17,1,80,12|0,1:2|0:0,0:0:0:0:
275,248,205934,2,0,L|266:327,1,80,12|0,1:2|0:0,0:0:0:0:
188,93,206145,2,0,L|196:13,1,80,12|0,1:2|0:0,0:0:0:0:
71,233,206357,5,0,3:0:0:0:
71,233,206462,2,0,B|109:246|109:246|154:237,1,80,0|0,3:0|3:0,0:0:0:0:
388,121,206674,2,0,B|348:113|348:113|310:126,1,80,0|0,3:0|0:0,0:0:0:0:
319,322,206885,1,0,1:0:0:0:
323,344,207096,6,0,P|371:338|444:355,1,103.999995239258,0|0,0:0|3:0,0:0:0:0:
425,347,207360,1,0,3:0:0:0:
425,347,207413,6,0,P|434:304|420:234,1,80,14|0,0:2|0:0,0:0:0:0:
259,129,207624,2,0,P|257:168|266:207,1,80,0|0,3:0|3:0,0:0:0:0:
462,148,207835,2,0,P|422:146|383:155,1,80,8|0,0:0|0:0,0:0:0:0:
240,336,208047,6,0,L|350:316,2,80,2|0|8,3:2|3:0|0:0,0:0:0:0:
109,363,208364,1,0,3:0:0:0:
139,245,208469,2,0,L|60:230,1,80,0|0,3:0|3:0,0:0:0:0:
264,254,208681,1,10,0:2:0:0:
245,157,208786,6,0,B|341:142|297:199|401:192,1,160,0|0,3:0|3:0,0:0:0:0:
471,94,209103,2,0,P|430:98|383:98,1,80,10|0,0:2|3:0,0:0:0:0:
384,14,209262,1,2,3:2:0:0:
384,14,209314,2,0,P|425:10|472:10,1,80,2|0,3:0|3:0,0:0:0:0:
296,103,209526,2,0,P|292:62|292:15,1,80,10|0,3:2|0:0,0:0:0:0:
158,102,209737,5,0,3:0:0:0:
225,163,209843,1,0,3:0:0:0:
126,190,209948,2,0,B|85:199|85:199|36:184,1,80,10|0,0:2|0:0,0:0:0:0:
233,198,210159,2,0,L|237:302,2,80,10|0|10,0:2|0:0|0:2,0:0:0:0:
308,108,210476,6,0,B|334:150|334:150|339:281,1,176.000005371094,6|0,0:2|0:0,0:0:0:0:
419,351,210793,2,0,P|473:358|520:338,1,88.000002685547,12|0,1:2|0:0,0:0:0:0:
233,252,211005,2,0,P|204:285|192:327,1,88.000002685547,12|0,1:2|0:0,0:0:0:0:
426,143,211216,2,0,P|411:101|380:70,1,88.000002685547,12|0,1:2|0:0,0:0:0:0:
193,45,211427,6,0,B|152:52|152:52|107:43,2,88.000002685547,14|0|12,0:2|3:0|0:2,0:0:0:0:
169,153,211744,1,0,3:0:0:0:
279,117,211850,2,0,B|320:110|320:110|365:119,1,88.000002685547,10|8,0:2|0:0,0:0:0:0:
443,314,212061,1,2,0:2:0:0:
457,214,212166,6,0,B|398:219|398:219|368:243|368:243|291:253,1,160,6|0,0:2|3:0,0:0:0:0:
151,180,212483,2,0,P|189:168|228:171,1,80,8|0,0:0|0:0,0:0:0:0:
243,369,212695,2,0,P|204:380|165:377,1,80,0|0,3:0|3:0,0:0:0:0:
4,299,212906,2,0,L|101:287,1,80,2|0,3:2|3:0,0:0:0:0:
271,260,213117,5,8,0:0:0:0:
175,207,213223,1,8,0:0:0:0:
253,137,213328,2,0,L|332:126,1,80,8|8,0:0|0:0,0:0:0:0:
88,47,213540,5,12,1:2:0:0:
