osu file format v14

[General]
AudioFilename: Melt Cillia.mp3
AudioLeadIn: 0
PreviewTime: 172181
Countdown: 0
SampleSet: Soft
StackLeniency: 0.5
Mode: 0
LetterboxInBreaks: 0
WidescreenStoryboard: 1

[Editor]
DistanceSpacing: 2.4
BeatDivisor: 4
GridSize: 8
TimelineZoom: 2.5

[Metadata]
Title:Melt
TitleUnicode:Melt
Artist:Cillia
ArtistUnicode:Cillia
Creator:- Shawn -
Version:A bad difficulty(AR8)
Source:
Tags:Cillia Melt
BeatmapID:1926955
BeatmapSetID:810207

[Difficulty]
HPDrainRate:4
CircleSize:4
OverallDifficulty:8.5
ApproachRate:8
SliderMultiplier:1.2
SliderTickRate:1

[Events]
//Background and Video events
0,0,"52295045_p0.jpg",0,0
//Break Periods
2,90675,101372
//Storyboard Layer 0 (Background)
//Storyboard Layer 1 (Fail)
//Storyboard Layer 2 (Pass)
//Storyboard Layer 3 (Foreground)
//Storyboard Sound Samples

[TimingPoints]
2946,352.941176470588,4,2,0,70,1,0
2946,-100,4,2,0,40,0,0
14240,-100,4,1,0,90,0,0
22710,-100,4,1,0,40,0,0
24122,-100,4,1,0,90,0,0
25534,-100,4,1,0,70,0,0
47769,-100,4,1,0,70,0,0
53416,-100,4,1,0,40,0,0
55181,-100,4,3,0,70,0,0
56240,-100,4,3,0,40,0,0
58004,-100,4,2,0,80,0,0
59416,-100,4,1,0,70,0,0
62240,-100,4,1,0,90,0,0
82004,-100,4,1,0,100,0,0
89416,-100,4,3,0,60,0,0
102122,-100,4,2,0,60,0,0
106004,-66.6666666666667,4,3,0,80,0,0
107416,-100,4,1,0,80,0,0
113063,-100,4,3,0,60,0,0
115534,-100,4,3,0,75,0,0
117298,-100,4,1,0,90,0,0
119240,-100,4,1,0,80,0,0
119945,-100,4,1,0,70,0,0
120651,-100,4,1,0,60,0,0
121357,-100,4,1,0,80,0,0
134240,-100,4,1,0,80,0,0
135651,-100,4,1,0,90,0,0
136887,-100,4,3,0,80,0,0
138475,-100,4,1,0,90,0,0
166004,-100,4,3,0,60,0,0
171387,-66.6666666666667,4,1,0,70,0,0
171828,-100,4,1,0,70,0,0
175181,-100,4,1,0,80,0,0
197681,-66.6666666666667,4,1,0,70,0,0
200593,-100,4,3,0,60,0,0
203416,-100,4,3,0,60,0,0
211887,-100,4,1,0,80,0,0
227328,-400,4,1,0,60,0,0
227681,-100,4,1,0,80,0,0
229534,-400,4,3,0,80,0,0
230063,-100,4,3,0,80,0,0
233857,-133.333333333333,4,3,0,75,0,0
237298,-133.333333333333,4,3,0,90,0,0
239240,-133.333333333333,4,1,0,75,0,0
240122,-133.333333333333,4,3,0,80,0,0
248593,389.61038961039,4,1,0,70,1,0
248593,-400,4,3,0,50,0,0
253463,-66.6666666666667,4,2,0,40,0,0

[Colours]
Combo1 : 185,0,92
Combo2 : 101,186,190
Combo3 : 250,218,88

[HitObjects]
144,40,2946,6,0,P|103:90|92:164,1,120
89,248,3475,1,0,0:0:0:0:
169,310,3651,2,0,P|252:315|301:295,1,120
363,288,4357,1,0,0:0:0:0:
318,193,4710,1,0,0:0:0:0:
179,200,5063,1,0,0:0:0:0:
376,48,5769,6,0,L|422:181,1,120
383,244,6298,1,0,0:0:0:0:
343,289,6475,2,0,P|294:310|280:259,1,120
303,58,7181,1,0,0:0:0:0:
98,55,7534,2,0,L|217:56,2,120
270,96,8593,6,0,P|327:67|434:120,1,180
412,216,9298,1,0,0:0:0:0:
356,277,9651,2,0,L|254:356,1,120
287,237,10357,1,0,0:0:0:0:
377,285,10710,1,0,0:0:0:0:
363,149,11063,5,0,0:0:0:0:
320,111,11240,1,0,0:0:0:0:
93,89,11416,2,0,P|207:58|318:99,1,240
321,340,12828,2,0,L|397:110,1,240
395,252,14240,5,0,0:0:0:0:
367,279,14328,1,0,0:0:0:0:
331,294,14416,1,0,0:0:0:0:
293,305,14504,1,0,0:0:0:0:
253,302,14593,1,0,0:0:0:0:
216,289,14681,1,0,0:0:0:0:
180,272,14769,2,0,L|126:233,1,60
114,144,15122,1,0,0:0:0:0:
246,178,15298,1,0,0:0:0:0:
193,65,15475,1,0,0:0:0:0:
328,102,15651,2,0,L|387:90,1,60
331,200,16004,1,0,0:0:0:0:
403,216,16181,5,0,0:0:0:0:
335,54,16357,1,0,0:0:0:0:
289,155,16534,1,0,0:0:0:0:
361,76,16710,1,0,0:0:0:0:
250,61,16887,1,0,0:0:0:0:
179,191,17063,5,0,0:0:0:0:
213,240,17151,1,0,0:0:0:0:
262,273,17240,1,0,0:0:0:0:
322,273,17328,1,0,0:0:0:0:
372,241,17416,1,0,0:0:0:0:
398,187,17504,1,0,0:0:0:0:
373,132,17593,1,0,0:0:0:0:
320,101,17681,5,0,0:0:0:0:
273,138,17769,1,0,0:0:0:0:
274,197,17857,1,0,0:0:0:0:
329,213,17945,1,0,0:0:0:0:
375,175,18034,1,0,0:0:0:0:
396,119,18122,2,0,L|381:75,3,30
151,94,18475,6,0,L|123:86,3,30
319,94,18828,2,0,L|340:65,3,30
143,214,19181,2,0,L|128:240,6,30
371,322,19887,2,0,P|391:300|398:271,1,60
406,186,20240,1,0,0:0:0:0:
403,150,20328,1,0,0:0:0:0:
391,115,20416,5,0,0:0:0:0:
369,86,20505,1,0,0:0:0:0:
338,66,20593,1,0,0:0:0:0:
219,245,20769,1,0,0:0:0:0:
283,95,20945,1,0,0:0:0:0:
254,28,21122,5,0,0:0:0:0:
185,58,21210,1,0,0:0:0:0:
140,118,21298,1,0,0:0:0:0:
132,192,21387,1,0,0:0:0:0:
164,259,21475,1,0,0:0:0:0:
232,289,21563,1,0,0:0:0:0:
306,300,21651,1,0,0:0:0:0:
249,251,21739,5,0,0:0:0:0:
211,186,21828,1,0,0:0:0:0:
219,110,21916,1,0,0:0:0:0:
284,74,22004,1,0,0:0:0:0:
354,99,22092,1,0,0:0:0:0:
402,155,22181,1,0,0:0:0:0:
385,228,22269,5,0,0:0:0:0:
315,255,22357,1,0,0:0:0:0:
240,245,22445,1,0,0:0:0:0:
171,212,22534,2,0,L|141:188,1,30
110,131,22710,1,0,0:0:0:0:
124,105,22798,1,0,0:0:0:0:
142,81,22887,5,0,0:0:0:0:
171,71,22975,1,0,0:0:0:0:
201,73,23063,1,0,0:0:0:0:
225,56,23151,1,0,0:0:0:0:
254,57,23239,1,0,0:0:0:0:
283,65,23328,1,0,0:0:0:0:
312,64,23416,5,0,0:0:0:0:
333,85,23504,1,0,0:0:0:0:
341,114,23592,1,0,0:0:0:0:
363,142,23681,1,0,0:0:0:0:
395,162,23769,1,0,0:0:0:0:
388,197,23857,1,0,0:0:0:0:
350,205,23945,2,0,L|295:186,1,30
254,169,24122,1,0,0:0:0:0:
199,144,24210,1,0,0:0:0:0:
139,139,24298,1,0,0:0:0:0:
85,166,24386,1,0,0:0:0:0:
63,222,24475,1,0,0:0:0:0:
60,281,24563,5,0,0:0:0:0:
94,329,24651,1,0,0:0:0:0:
152,341,24739,1,0,0:0:0:0:
210,325,24828,1,0,0:0:0:0:
251,269,24916,1,0,0:0:0:0:
268,193,25004,1,0,0:0:0:0:
235,112,25092,5,0,0:0:0:0:
161,53,25181,1,0,0:0:0:0:
66,25,25269,1,0,0:0:0:0:
177,300,25357,2,0,L|114:288,1,60
273,282,25710,1,0,0:0:0:0:
364,259,25887,1,0,0:0:0:0:
410,166,26063,5,0,0:0:0:0:
390,135,26151,1,0,0:0:0:0:
359,116,26239,1,0,0:0:0:0:
324,104,26328,1,0,0:0:0:0:
288,97,26416,1,0,0:0:0:0:
210,82,26592,1,0,0:0:0:0:
96,163,26769,5,0,0:0:0:0:
137,278,26945,2,0,L|222:288,2,60
391,76,27475,1,0,0:1:0:0:
436,232,27651,1,0,0:0:0:0:
291,149,27828,1,0,0:0:0:0:
201,48,28005,1,0,0:0:0:0:
174,61,28093,5,0,0:0:0:0:
154,83,28181,1,0,0:0:0:0:
147,112,28269,2,0,L|162:156,1,30
242,191,28445,1,0,0:0:0:0:
258,165,28534,1,0,0:0:0:0:
267,136,28622,1,0,0:0:0:0:
271,106,28710,5,0,0:0:0:0:
265,76,28798,2,0,L|226:48,1,30
137,65,29063,1,0,0:0:0:0:
64,308,29240,1,0,0:0:0:0:
380,249,29416,1,0,0:0:0:0:
292,109,29593,1,0,0:0:0:0:
107,175,29769,6,0,L|164:139,1,60
221,104,30122,1,0,0:0:0:0:
221,104,30298,1,0,0:0:0:0:
107,176,30475,2,0,L|160:141,1,60
221,104,30828,1,0,0:0:0:0:
337,83,31004,5,0,0:0:0:0:
358,122,31093,1,0,0:0:0:0:
371,164,31181,1,0,0:0:0:0:
362,208,31269,1,0,0:0:0:0:
342,248,31357,1,0,0:0:0:0:
307,276,31445,1,0,0:0:0:0:
264,291,31534,1,0,0:0:0:0:
107,306,31710,5,0,0:0:0:0:
130,164,31887,1,0,0:0:0:0:
139,104,31975,1,0,0:0:0:0:
180,61,32063,1,0,0:0:0:0:
237,46,32151,1,0,0:0:0:0:
297,48,32240,1,0,0:0:0:0:
355,59,32328,5,0,0:0:0:0:
402,95,32416,1,0,0:0:0:0:
427,149,32504,1,0,0:0:0:0:
424,224,32593,1,0,0:0:0:0:
384,288,32681,1,0,0:0:0:0:
320,328,32769,1,0,0:0:0:0:
248,336,32857,5,0,0:0:0:0:
176,312,32945,1,0,0:0:0:0:
120,264,33034,1,0,0:0:0:0:
96,192,33122,1,0,0:0:0:0:
112,120,33210,1,0,0:0:0:0:
168,64,33298,1,0,0:0:0:0:
201,48,33387,5,0,0:0:0:0:
236,46,33475,1,0,0:0:0:0:
270,54,33563,1,0,0:0:0:0:
299,75,33651,1,0,0:0:0:0:
319,105,33740,1,0,0:0:0:0:
324,140,33828,2,0,L|297:190,1,30
337,189,34004,2,0,L|314:236,1,30
256,192,34357,12,0,36652,0:0:0:0:
338,227,37181,6,0,L|301:180,1,60
215,77,37534,2,0,L|259:133,1,60
394,129,37887,2,0,P|385:162|396:201,1,60
377,256,38240,2,0,P|326:264|301:253,1,60
240,140,38593,1,0,0:0:0:0:
155,255,38769,1,0,0:0:0:0:
124,88,38945,5,0,0:0:0:0:
360,115,39122,1,0,0:0:0:0:
452,167,39298,1,0,0:0:0:0:
453,262,39475,2,0,B|411:278|411:278|398:286,2,60
300,323,40004,1,0,0:0:0:0:
159,336,40181,2,0,P|140:289|114:291,1,60
43,222,40534,5,0,0:0:0:0:
85,64,40710,1,0,0:0:0:0:
159,160,40887,1,0,0:0:0:0:
309,210,41063,2,0,P|316:198|309:148,1,60
296,93,41416,1,0,0:0:0:0:
296,93,41593,1,0,0:0:0:0:
309,210,41769,6,0,P|316:198|309:148,1,60
383,67,42122,1,0,0:0:0:0:
487,72,42298,1,0,0:0:0:0:
415,190,42475,2,0,P|412:230|396:262,2,60
383,110,43004,1,0,0:0:0:0:
319,78,43180,5,0,0:0:0:0:
287,62,43269,1,0,0:0:0:0:
247,62,43356,1,0,0:0:0:0:
207,78,43445,1,0,0:0:0:0:
175,102,43534,1,0,0:0:0:0:
159,142,43622,1,0,0:0:0:0:
148,182,43710,2,0,L|146:228,1,30
258,193,43886,5,0,0:0:0:0:
330,177,43974,1,0,0:0:0:0:
386,209,44063,1,0,0:0:0:0:
394,273,44151,1,0,0:0:0:0:
362,321,44239,1,0,0:0:0:0:
314,297,44327,1,0,0:0:0:0:
274,265,44415,5,0,0:0:0:0:
258,209,44504,1,0,0:0:0:0:
266,153,44592,1,0,0:0:0:0:
306,113,44680,1,0,0:0:0:0:
354,73,44768,1,0,0:0:0:0:
298,65,44857,1,0,0:0:0:0:
235,73,44945,5,0,0:0:0:0:
191,104,45034,1,0,0:0:0:0:
170,153,45122,1,0,0:0:0:0:
307,170,45298,1,0,0:0:0:0:
208,291,45475,1,0,0:0:0:0:
271,286,45651,5,0,0:0:0:0:
367,62,45828,1,0,0:0:0:0:
447,286,46004,1,0,0:0:0:0:
95,30,46181,1,0,0:0:0:0:
399,110,46357,1,0,0:0:0:0:
95,174,46534,1,0,0:0:0:0:
399,254,46710,5,0,0:0:0:0:
259,98,46887,1,0,0:0:0:0:
167,281,47063,1,0,0:0:0:0:
367,152,47240,1,0,0:0:0:0:
160,153,47416,1,0,0:0:0:0:
351,289,47593,1,0,0:0:0:0:
191,318,47769,5,0,0:0:0:0:
383,310,47945,1,0,0:0:0:0:
303,254,48122,2,0,L|286:278,4,30
160,264,48651,1,0,0:0:0:0:
175,174,48828,1,0,0:0:0:0:
175,150,48917,1,0,0:0:0:0:
175,126,49005,1,0,0:0:0:0:
231,38,49181,1,0,0:0:0:0:
352,80,49533,5,0,0:0:0:0:
383,110,49622,1,0,0:0:0:0:
404,145,49710,1,0,0:0:0:0:
410,184,49799,1,0,0:0:0:0:
403,223,49887,1,0,0:0:0:0:
374,252,49975,1,0,0:0:0:0:
336,268,50063,1,0,0:0:0:0:
296,258,50152,1,0,0:0:0:0:
269,227,50240,1,0,0:0:0:0:
247,190,50328,1,0,0:0:0:0:
240,152,50416,1,0,0:0:0:0:
248,40,50593,5,0,0:0:0:0:
344,72,50769,1,0,0:0:0:0:
213,82,50946,5,0,0:0:0:0:
174,96,51034,1,0,0:0:0:0:
153,130,51123,1,0,0:0:0:0:
149,170,51211,1,0,0:0:0:0:
161,208,51299,1,0,0:0:0:0:
185,240,51387,1,0,0:0:0:0:
226,274,51476,1,0,0:0:0:0:
278,287,51564,1,0,0:0:0:0:
336,276,51652,1,0,0:0:0:0:
382,233,51740,5,0,0:0:0:0:
400,173,51829,1,0,0:0:0:0:
375,115,51917,1,0,0:0:0:0:
323,78,52005,1,0,0:0:0:0:
261,72,52093,1,0,0:0:0:0:
198,72,52182,1,0,0:0:0:0:
136,91,52270,5,0,0:0:0:0:
96,139,52358,1,0,0:0:0:0:
97,201,52446,1,0,0:0:0:0:
122,257,52534,1,0,0:0:0:0:
176,287,52623,1,0,0:0:0:0:
238,291,52711,1,0,0:0:0:0:
299,284,52798,5,0,0:0:0:0:
338,235,52887,1,0,0:0:0:0:
357,175,52976,1,0,0:0:0:0:
358,112,53064,1,0,0:0:0:0:
324,58,53152,1,0,0:0:0:0:
262,43,53240,1,0,0:0:0:0:
167,94,53416,5,0,0:0:0:0:
353,73,53593,1,0,0:0:0:0:
376,111,53681,1,0,0:0:0:0:
384,154,53769,1,0,0:0:0:0:
373,198,53857,1,0,0:0:0:0:
337,225,53945,1,0,0:0:0:0:
292,231,54034,5,0,0:0:0:0:
246,226,54122,1,0,0:0:0:0:
204,207,54210,1,0,0:0:0:0:
182,167,54298,1,0,0:0:0:0:
169,123,54387,1,0,0:0:0:0:
180,78,54475,1,0,0:0:0:0:
217,53,54563,5,0,0:0:0:0:
261,44,54651,1,0,0:0:0:0:
358,125,54828,1,0,0:0:0:0:
355,259,55004,1,0,0:0:0:0:
293,287,55093,1,0,0:0:0:0:
226,276,55181,1,0,0:0:0:0:
166,244,55269,5,0,0:0:0:0:
134,183,55357,1,0,0:0:0:0:
126,116,55445,1,0,0:0:0:0:
155,55,55534,1,0,0:0:0:0:
217,30,55622,1,0,0:0:0:0:
284,37,55710,1,0,0:0:0:0:
217,53,55798,5,0,0:0:0:0:
198,117,55887,1,0,0:0:0:0:
217,182,55975,1,0,0:0:0:0:
281,200,56063,1,0,0:0:0:0:
391,107,56240,1,0,0:0:0:0:
91,88,56416,1,0,0:0:0:0:
144,272,56593,6,0,P|173:288|221:288,1,60
246,288,56857,1,0,0:0:0:0:
279,256,56945,1,0,0:0:0:0:
306,220,57034,1,0,0:0:0:0:
324,179,57122,1,0,0:0:0:0:
314,134,57210,1,0,0:0:0:0:
275,157,57298,5,0,0:0:0:0:
272,201,57387,1,0,0:0:0:0:
298,236,57475,1,0,0:0:0:0:
341,249,57563,1,0,0:0:0:0:
383,235,57651,1,0,0:0:0:0:
409,199,57740,1,0,0:0:0:0:
411,153,57828,5,0,0:0:0:0:
387,114,57916,1,0,0:0:0:0:
346,91,58004,1,0,0:0:0:0:
124,82,58357,1,0,0:0:0:0:
149,228,58710,1,0,0:0:0:0:
378,307,59063,1,0,0:0:0:0:
415,214,59416,5,0,0:0:0:0:
415,169,59504,1,0,0:0:0:0:
400,126,59593,1,0,0:0:0:0:
376,87,59681,1,0,0:0:0:0:
337,64,59769,1,0,0:0:0:0:
295,46,59857,1,0,0:0:0:0:
250,43,59945,5,0,0:0:0:0:
175,64,60034,1,0,0:0:0:0:
119,116,60122,1,0,0:0:0:0:
121,192,60210,1,0,0:0:0:0:
148,264,60298,1,0,0:0:0:0:
218,298,60387,1,0,0:0:0:0:
283,298,60475,5,0,0:0:0:0:
336,259,60563,1,0,0:0:0:0:
368,194,60651,1,0,0:0:0:0:
354,110,60740,1,0,0:0:0:0:
269,71,60828,1,0,0:0:0:0:
173,95,60916,1,0,0:0:0:0:
137,180,61004,5,0,0:0:0:0:
173,266,61093,1,0,0:0:0:0:
263,288,61181,1,0,0:0:0:0:
352,264,61269,1,0,0:0:0:0:
384,176,61357,1,0,0:0:0:0:
336,96,61445,1,0,0:0:0:0:
326,189,61534,5,0,0:0:0:0:
246,230,61622,1,0,0:0:0:0:
160,202,61710,1,0,0:0:0:0:
128,140,61798,2,0,P|133:118|150:101,1,30
216,48,62063,1,0,0:0:0:0:
399,293,62240,1,0,0:0:0:0:
132,332,62416,5,0,0:0:0:0:
110,62,62593,1,0,0:0:0:0:
280,271,62769,1,0,0:0:0:0:
397,29,62945,1,0,0:0:0:0:
141,117,63122,1,0,0:0:0:0:
252,361,63298,1,0,0:0:0:0:
414,144,63475,5,0,0:0:0:0:
181,279,63651,1,0,0:0:0:0:
451,287,63828,1,0,0:0:0:0:
280,77,64004,1,0,0:0:0:0:
48,213,64181,1,0,0:0:0:0:
297,317,64357,1,0,0:0:0:0:
139,99,64534,5,0,0:0:0:0:
408,127,64710,1,0,0:0:0:0:
178,267,64887,1,0,0:0:0:0:
280,16,65063,1,0,0:0:0:0:
374,269,65240,1,0,0:0:0:0:
178,83,65416,1,0,0:0:0:0:
91,339,65593,5,0,0:0:0:0:
47,73,65769,1,0,0:0:0:0:
228,274,65945,1,0,0:0:0:0:
104,34,66122,1,0,0:0:0:0:
331,180,66298,1,0,0:0:0:0:
430,29,66475,1,0,0:0:0:0:
398,296,66651,5,0,0:0:0:0:
133,236,66828,1,0,0:0:0:0:
306,30,67004,1,0,0:0:0:0:
358,103,67181,1,0,0:0:0:0:
302,173,67357,1,0,0:0:0:0:
386,205,67534,1,0,0:0:0:0:
220,277,67710,5,0,0:0:0:0:
220,277,67799,1,0,0:0:0:0:
220,277,67887,1,0,0:0:0:0:
92,166,68063,1,0,0:0:0:0:
225,52,68240,1,0,0:0:0:0:
393,59,68416,1,0,0:0:0:0:
393,59,68505,5,0,0:0:0:0:
393,59,68593,1,0,0:0:0:0:
451,146,68769,1,0,0:0:0:0:
422,239,68945,1,0,0:0:0:0:
328,200,69122,1,0,0:0:0:0:
328,312,69298,1,0,0:0:0:0:
280,304,69387,5,0,0:0:0:0:
240,280,69475,1,0,0:0:0:0:
208,240,69563,1,0,0:0:0:0:
192,192,69651,1,0,0:0:0:0:
192,144,69740,1,0,0:0:0:0:
224,104,69828,1,0,0:0:0:0:
272,88,69916,5,0,0:0:0:0:
320,96,70004,1,0,0:0:0:0:
360,128,70093,1,0,0:0:0:0:
368,176,70181,1,0,0:0:0:0:
344,216,70269,1,0,0:0:0:0:
144,264,70357,1,0,0:0:0:0:
110,47,70534,5,0,0:0:0:0:
144,264,70710,1,0,0:0:0:0:
276,74,70887,1,0,0:0:0:0:
144,264,71063,1,0,0:0:0:0:
110,47,71240,1,0,0:0:0:0:
144,264,71416,1,0,0:0:0:0:
276,74,71593,5,0,0:0:0:0:
110,47,71769,1,0,0:0:0:0:
176,127,71946,1,0,0:0:0:0:
195,151,72034,1,0,0:0:0:0:
217,173,72122,1,0,0:0:0:0:
243,190,72210,1,0,0:0:0:0:
367,106,72475,5,0,0:0:0:0:
102,112,72828,1,0,0:0:0:0:
322,275,73181,1,0,0:0:0:0:
412,325,73534,1,0,0:0:0:0:
422,304,73623,1,0,0:0:0:0:
426,282,73711,1,0,0:0:0:0:
423,259,73799,5,0,0:0:0:0:
417,237,73887,1,0,0:0:0:0:
319,86,74063,1,0,0:0:0:0:
456,53,74240,1,0,0:0:0:0:
296,195,74416,1,0,0:0:0:0:
480,124,74593,1,0,0:0:0:0:
299,323,74769,5,0,0:0:0:0:
230,82,74945,1,0,0:0:0:0:
196,287,75122,1,0,0:0:0:0:
32,66,75298,1,0,0:0:0:0:
71,265,75475,1,0,0:0:0:0:
351,298,75651,1,0,0:0:0:0:
157,191,75828,5,0,0:0:0:0:
396,251,76004,1,0,0:0:0:0:
395,145,76181,1,0,0:0:0:0:
345,104,76269,1,0,0:0:0:0:
287,77,76357,1,0,0:0:0:0:
224,67,76445,1,0,0:0:0:0:
131,103,76622,5,0,0:0:0:0:
92,202,76798,1,0,0:0:0:0:
144,239,76887,1,0,0:0:0:0:
205,260,76975,1,0,0:0:0:0:
268,262,77063,1,0,0:0:0:0:
329,246,77151,1,0,0:0:0:0:
426,129,77240,6,0,L|392:168,6,30
319,65,78122,1,0,0:0:0:0:
141,63,78475,1,0,0:0:0:0:
65,180,78828,1,0,0:0:0:0:
221,179,79181,1,0,0:0:0:0:
250,158,79269,1,0,0:0:0:0:
277,134,79357,5,0,0:0:0:0:
425,86,79534,1,0,0:0:0:0:
405,174,79710,1,0,0:0:0:0:
383,202,79799,1,0,0:0:0:0:
359,229,79887,1,0,0:0:0:0:
332,253,79975,1,0,0:0:0:0:
311,268,80063,6,0,L|240:288,1,60
61,280,80416,1,0,0:0:0:0:
143,42,80593,1,0,0:0:0:0:
466,132,80769,1,0,0:0:0:0:
402,333,80945,1,0,0:0:0:0:
111,157,81122,1,0,0:0:0:0:
374,87,81298,5,0,0:0:0:0:
116,332,81475,1,0,0:0:0:0:
225,321,81651,1,0,0:0:0:0:
263,309,81739,1,0,0:0:0:0:
300,292,81827,1,0,0:0:0:0:
388,180,82004,1,0,0:0:0:0:
372,139,82093,5,0,0:0:0:0:
346,104,82181,1,0,0:0:0:0:
311,78,82269,1,0,0:0:0:0:
269,69,82357,1,0,0:0:0:0:
225,67,82446,1,0,0:0:0:0:
182,73,82534,1,0,0:0:0:0:
141,87,82622,5,0,0:0:0:0:
97,125,82710,1,0,0:0:0:0:
76,180,82799,1,0,0:0:0:0:
83,237,82887,1,0,0:0:0:0:
135,283,82975,1,0,0:0:0:0:
204,284,83063,1,0,0:0:0:0:
258,238,83152,5,0,0:0:0:0:
277,170,83240,1,0,0:0:0:0:
242,109,83328,1,0,0:0:0:0:
174,89,83416,1,0,0:0:0:0:
112,123,83505,1,0,0:0:0:0:
91,190,83593,1,0,0:0:0:0:
123,251,83681,5,0,0:0:0:0:
207,278,83769,1,0,0:0:0:0:
303,270,83857,1,0,0:0:0:0:
375,214,83945,1,0,0:0:0:0:
423,134,84034,1,0,0:0:0:0:
447,38,84122,1,0,0:0:0:0:
314,63,84475,5,0,0:0:0:0:
180,106,84828,1,0,0:0:0:0:
139,186,84916,1,0,0:0:0:0:
159,273,85004,1,0,0:0:0:0:
234,323,85093,1,0,0:0:0:0:
323,323,85181,1,0,0:0:0:0:
392,265,85269,1,0,0:0:0:0:
396,175,85357,1,0,0:0:0:0:
347,99,85445,1,0,0:0:0:0:
258,77,85534,1,0,0:0:0:0:
149,151,85887,5,0,0:0:0:0:
317,110,86240,1,0,0:0:0:0:
425,71,86769,5,0,0:0:0:0:
440,165,87298,1,0,0:0:0:0:
415,238,87651,1,0,0:0:0:0:
338,284,87740,1,0,0:0:0:0:
247,286,87828,1,0,0:0:0:0:
159,268,87916,1,0,0:0:0:0:
122,185,88004,5,0,0:0:0:0:
162,105,88093,1,0,0:0:0:0:
247,75,88181,1,0,0:0:0:0:
336,82,88269,1,0,0:0:0:0:
402,142,88357,1,0,0:0:0:0:
381,230,88445,1,0,0:0:0:0:
295,278,88534,5,0,0:0:0:0:
199,278,88622,1,0,0:0:0:0:
119,214,88710,1,0,0:0:0:0:
95,110,88798,1,0,0:0:0:0:
175,38,88887,1,0,0:0:0:0:
279,14,88975,1,0,0:0:0:0:
383,54,89063,5,0,0:0:0:0:
447,150,89151,1,0,0:0:0:0:
431,270,89240,1,0,0:0:0:0:
199,49,89593,1,0,0:0:0:0:
82,154,89769,1,0,0:0:0:0:
134,302,89945,1,0,0:0:0:0:
315,294,90121,1,0,0:0:0:0:
168,184,90475,1,0,0:0:0:0:
378,123,102122,5,0,0:0:0:0:
281,86,102475,1,0,0:0:0:0:
150,144,102828,1,0,0:0:0:0:
411,259,103004,1,0,0:0:0:0:
121,316,103181,1,0,0:0:0:0:
314,205,103357,1,0,0:0:0:0:
144,70,103534,5,0,0:0:0:0:
308,74,103887,2,0,P|354:97|392:176,1,120
393,265,104416,1,0,0:0:0:0:
191,262,104593,2,0,P|160:224|184:152,1,120
287,69,105122,1,0,0:0:0:0:
361,232,105298,1,0,0:0:0:0:
132,325,105475,5,0,0:0:0:0:
442,69,105651,1,0,0:0:0:0:
379,137,106004,2,0,P|353:123|247:166,1,135.000005149841
239,166,106357,2,0,P|213:180|107:137,1,135.000005149841
119,166,106710,2,0,P|100:229|131:287,1,135.000005149841
151,278,107063,2,0,P|209:246|272:264,1,135.000005149841
329,280,107416,5,0,0:0:0:0:
348,261,107504,1,0,0:0:0:0:
359,236,107593,1,0,0:0:0:0:
362,209,107681,1,0,0:0:0:0:
355,182,107769,1,0,0:0:0:0:
342,158,107857,1,0,0:0:0:0:
291,113,107945,5,0,0:0:0:0:
224,106,108034,1,0,0:0:0:0:
158,122,108122,1,0,0:0:0:0:
128,182,108210,1,0,0:0:0:0:
148,246,108298,1,0,0:0:0:0:
203,285,108387,1,0,0:0:0:0:
269,276,108475,5,0,0:0:0:0:
322,235,108563,1,0,0:0:0:0:
273,188,108651,1,0,0:0:0:0:
284,163,108740,1,0,0:0:0:0:
302,143,108828,1,0,0:0:0:0:
322,125,108916,1,0,0:0:0:0:
345,112,109004,5,0,0:0:0:0:
371,108,109093,1,0,0:0:0:0:
396,115,109181,1,0,0:0:0:0:
412,136,109269,1,0,0:0:0:0:
419,162,109357,1,0,0:0:0:0:
415,174,109445,1,0,0:0:0:0:
409,186,109534,5,0,0:0:0:0:
400,196,109622,1,0,0:0:0:0:
391,206,109710,1,0,0:0:0:0:
382,216,109798,1,0,0:0:0:0:
373,226,109887,1,0,0:0:0:0:
363,235,109975,1,0,0:0:0:0:
356,240,110063,5,0,0:0:0:0:
349,245,110151,1,0,0:0:0:0:
341,250,110240,1,0,0:0:0:0:
333,255,110328,1,0,0:0:0:0:
324,256,110416,1,0,0:0:0:0:
315,256,110504,1,0,0:0:0:0:
305,255,110593,5,0,0:0:0:0:
296,253,110681,1,0,0:0:0:0:
287,250,110769,1,0,0:0:0:0:
278,246,110857,1,0,0:0:0:0:
269,242,110945,1,0,0:0:0:0:
261,237,111034,1,0,0:0:0:0:
253,231,111122,5,0,0:0:0:0:
246,224,111210,1,0,0:0:0:0:
240,217,111298,1,0,0:0:0:0:
183,158,111475,1,0,0:0:0:0:
138,72,111651,1,0,0:0:0:0:
265,76,111828,1,0,0:0:0:0:
90,218,112004,5,0,0:0:0:0:
196,307,112181,1,0,0:0:0:0:
466,101,112357,1,0,0:0:0:0:
120,102,112534,1,0,0:0:0:0:
418,282,112710,1,0,0:0:0:0:
131,291,112887,1,0,0:0:0:0:
291,144,113063,5,0,0:0:0:0:
192,73,113240,1,0,0:0:0:0:
103,104,113416,2,0,P|96:133|122:166,1,60
200,246,113769,1,0,0:0:0:0:
290,52,113945,1,0,0:0:0:0:
420,151,114122,1,0,0:0:0:0:
313,316,114298,5,0,0:0:0:0:
313,316,114475,1,0,0:0:0:0:
313,316,114651,1,0,0:0:0:0:
237,325,114828,2,0,P|206:323|177:295,1,60
89,183,115181,1,0,0:0:0:0:
366,245,115357,1,0,0:0:0:0:
168,82,115534,5,0,0:0:0:0:
393,126,115710,1,0,0:0:0:0:
276,299,115887,1,0,0:0:0:0:
346,105,116063,1,0,0:0:0:0:
236,286,116240,1,0,0:0:0:0:
128,224,116416,5,0,0:0:0:0:
128,208,116504,1,0,0:0:0:0:
128,192,116593,1,0,0:0:0:0:
128,176,116681,1,0,0:0:0:0:
128,160,116769,1,0,0:0:0:0:
128,144,116857,1,0,0:0:0:0:
128,128,116945,1,0,0:0:0:0:
256,80,117122,5,0,0:0:0:0:
355,84,117298,1,0,0:0:0:0:
376,99,117386,1,0,0:0:0:0:
392,120,117474,1,0,0:0:0:0:
383,270,117651,5,0,0:0:0:0:
367,286,117739,1,0,0:0:0:0:
351,286,117827,1,0,0:0:0:0:
335,270,117916,1,0,0:0:0:0:
287,238,118004,1,0,0:0:0:0:
239,206,118092,1,0,0:0:0:0:
223,190,118180,1,0,0:0:0:0:
207,206,118268,1,0,0:0:0:0:
159,238,118357,5,0,0:0:0:0:
111,270,118445,1,0,0:0:0:0:
54,255,118533,1,0,0:0:0:0:
56,196,118621,1,0,0:0:0:0:
83,144,118710,1,0,0:0:0:0:
128,104,118798,1,0,0:0:0:0:
176,72,118887,6,0,L|264:64,1,60
341,71,119240,1,0,0:0:0:0:
383,86,119328,1,0,0:0:0:0:
415,116,119416,1,0,0:0:0:0:
429,158,119504,1,0,0:0:0:0:
424,200,119593,2,0,P|408:224|384:248,1,60
298,317,119945,5,0,0:0:0:0:
275,322,120034,1,0,0:0:0:0:
251,319,120122,1,0,0:0:0:0:
228,311,120210,1,0,0:0:0:0:
208,304,120298,2,0,L|184:248,1,60
139,132,120651,1,0,0:0:0:0:
148,119,120740,5,0,0:0:0:0:
160,109,120828,1,0,0:0:0:0:
174,102,120916,1,0,0:0:0:0:
192,96,121004,2,0,P|216:88|256:88,1,60
368,93,121357,1,0,0:0:0:0:
374,115,121445,1,0,0:0:0:0:
373,138,121534,5,0,0:0:0:0:
369,172,121622,1,0,0:0:0:0:
360,206,121710,1,0,0:0:0:0:
343,237,121798,1,0,0:0:0:0:
300,271,121887,1,0,0:0:0:0:
233,272,121975,1,0,0:0:0:0:
166,248,122063,5,0,0:0:0:0:
114,189,122151,1,0,0:0:0:0:
117,111,122240,1,0,0:0:0:0:
177,60,122328,1,0,0:0:0:0:
252,42,122416,1,0,0:0:0:0:
325,68,122504,1,0,0:0:0:0:
361,137,122593,5,0,0:0:0:0:
348,205,122681,1,0,0:0:0:0:
298,265,122769,1,0,0:0:0:0:
221,277,122857,1,0,0:0:0:0:
149,244,122945,1,0,0:0:0:0:
111,175,123034,1,0,0:0:0:0:
124,98,123122,5,0,0:0:0:0:
202,92,123210,1,0,0:0:0:0:
168,162,123298,1,0,0:0:0:0:
200,232,123387,1,0,0:0:0:0:
277,242,123475,1,0,0:0:0:0:
350,214,123563,1,0,0:0:0:0:
359,136,123651,5,0,0:0:0:0:
315,44,123828,1,0,0:0:0:0:
264,126,124004,2,0,P|246:106|199:93,1,60
116,75,124357,1,0,0:0:0:0:
331,160,124534,1,0,0:0:0:0:
139,299,124710,1,0,0:0:0:0:
389,286,124887,5,0,0:0:0:0:
228,63,125063,1,0,0:0:0:0:
116,258,125240,1,0,0:0:0:0:
343,111,125416,1,0,0:0:0:0:
372,311,125593,1,0,0:0:0:0:
472,215,125769,1,0,0:0:0:0:
133,174,125945,5,0,0:0:0:0:
342,69,126122,1,0,0:0:0:0:
158,316,126298,1,0,0:0:0:0:
155,99,126475,1,0,0:0:0:0:
436,329,126651,1,0,0:0:0:0:
426,69,126828,1,0,0:0:0:0:
120,161,127004,5,0,0:0:0:0:
183,309,127181,1,0,0:0:0:0:
332,52,127357,1,0,0:0:0:0:
68,280,127534,1,0,0:0:0:0:
136,56,127710,1,0,0:0:0:0:
383,123,127887,1,0,0:0:0:0:
479,250,128063,1,0,0:0:0:0:
381,330,128240,1,0,0:0:0:0:
296,206,128416,1,0,0:0:0:0:
136,193,128593,5,0,0:0:0:0:
145,136,128681,1,0,0:0:0:0:
177,89,128769,1,0,0:0:0:0:
229,66,128857,1,0,0:0:0:0:
285,71,128945,1,0,0:0:0:0:
335,98,129034,1,0,0:0:0:0:
359,149,129122,1,0,0:0:0:0:
349,205,129210,1,0,0:0:0:0:
314,249,129298,1,0,0:0:0:0:
256,250,129387,2,0,B|242:252|242:252|210:236,1,30
127,206,129651,5,0,0:0:0:0:
129,183,129739,1,0,0:0:0:0:
137,154,129827,1,0,0:0:0:0:
149,126,129916,1,0,0:0:0:0:
167,102,130004,1,0,0:0:0:0:
303,46,130181,1,0,0:0:0:0:
223,62,130357,1,0,0:0:0:0:
294,91,130534,5,0,0:0:0:0:
318,108,130622,1,0,0:0:0:0:
335,132,130710,1,0,0:0:0:0:
337,161,130798,1,0,0:0:0:0:
331,190,130887,1,0,0:0:0:0:
176,240,131063,1,0,0:0:0:0:
278,269,131240,1,0,0:0:0:0:
319,226,131328,1,0,0:0:0:0:
336,168,131416,5,0,0:0:0:0:
337,107,131504,1,0,0:0:0:0:
301,58,131593,1,0,0:0:0:0:
243,41,131681,1,0,0:0:0:0:
192,73,131769,2,0,L|172:112,1,30
137,196,131945,1,0,0:0:0:0:
395,294,132122,5,0,0:0:0:0:
146,128,132298,1,0,0:0:0:0:
227,322,132475,1,0,0:0:0:0:
378,117,132651,1,0,0:0:0:0:
247,78,132828,1,0,0:0:0:0:
385,149,134240,5,0,0:0:0:0:
160,264,134593,1,0,0:0:0:0:
167,117,134945,1,0,0:0:0:0:
370,251,135298,1,0,0:0:0:0:
404,111,135651,5,0,0:0:0:0:
353,92,135740,1,0,0:0:0:0:
299,83,135828,1,0,0:0:0:0:
245,83,135916,1,0,0:0:0:0:
191,94,136004,1,0,0:0:0:0:
143,119,136093,1,0,0:0:0:0:
113,164,136181,1,0,0:0:0:0:
101,217,136269,1,0,0:0:0:0:
104,270,136357,1,0,0:0:0:0:
135,313,136445,1,0,0:0:0:0:
184,333,136534,1,0,0:0:0:0:
253,327,136622,1,0,0:0:0:0:
314,296,136710,1,0,0:0:0:0:
332,155,136887,5,0,0:0:0:0:
173,138,137063,1,0,0:0:0:0:
231,125,137416,1,0,0:0:0:0:
290,114,137769,1,0,0:0:0:0:
345,90,138122,1,0,0:0:0:0:
438,201,138475,5,0,0:0:0:0:
374,263,138563,1,0,0:0:0:0:
289,293,138651,1,0,0:0:0:0:
198,286,138740,1,0,0:0:0:0:
127,230,138828,1,0,0:0:0:0:
120,140,138916,1,0,0:0:0:0:
175,69,139004,1,0,0:0:0:0:
262,44,139093,1,0,0:0:0:0:
350,60,139181,1,0,0:0:0:0:
404,131,139269,2,0,L|393:187,1,30
288,264,139534,5,0,0:0:0:0:
120,216,139710,1,0,0:0:0:0:
328,336,139887,1,0,0:0:0:0:
224,96,140063,1,0,0:0:0:0:
376,232,140240,1,0,0:0:0:0:
328,72,140416,5,0,0:0:0:0:
320,296,140593,1,0,0:0:0:0:
416,88,140769,1,0,0:0:0:0:
232,224,140945,1,0,0:0:0:0:
280,56,141122,1,0,0:0:0:0:
288,288,141298,1,0,0:0:0:0:
152,80,141475,5,0,0:0:0:0:
216,256,141651,1,0,0:0:0:0:
216,24,141828,1,0,0:0:0:0:
152,296,142004,1,0,0:0:0:0:
352,72,142181,1,0,0:0:0:0:
144,80,142357,1,0,0:0:0:0:
352,232,142534,5,0,0:0:0:0:
160,264,142710,1,0,0:0:0:0:
224,96,142887,1,0,0:0:0:0:
352,112,143063,1,0,0:0:0:0:
288,272,143240,1,0,0:0:0:0:
192,184,143416,1,0,0:0:0:0:
288,72,143593,5,0,0:0:0:0:
352,240,143769,1,0,0:0:0:0:
216,192,143945,1,0,0:0:0:0:
384,112,144122,1,0,0:0:0:0:
296,280,144298,1,0,0:0:0:0:
176,112,144475,1,0,0:0:0:0:
336,152,144651,5,0,0:0:0:0:
160,256,144828,1,0,0:0:0:0:
208,104,145004,1,0,0:0:0:0:
288,240,145181,1,0,0:0:0:0:
336,104,145357,1,0,0:0:0:0:
200,232,145534,1,0,0:0:0:0:
208,112,145710,5,0,0:0:0:0:
312,216,145887,1,0,0:0:0:0:
312,96,146063,1,0,0:0:0:0:
152,72,146593,1,0,0:0:0:0:
112,176,146945,1,0,0:0:0:0:
160,256,147034,1,0,0:0:0:0:
240,304,147122,5,0,0:0:0:0:
328,312,147210,1,0,0:0:0:0:
416,280,147298,1,0,0:0:0:0:
448,200,147387,1,0,0:0:0:0:
440,112,147475,1,0,0:0:0:0:
360,80,147563,1,0,0:0:0:0:
272,72,147651,5,0,0:0:0:0:
168,96,147740,1,0,0:0:0:0:
112,184,147828,1,0,0:0:0:0:
160,272,147916,1,0,0:0:0:0:
264,280,148004,1,0,0:0:0:0:
360,240,148093,1,0,0:0:0:0:
400,136,148181,5,0,0:0:0:0:
304,72,148269,1,0,0:0:0:0:
184,56,148357,1,0,0:0:0:0:
144,64,148445,1,0,0:0:0:0:
112,88,148534,1,0,0:0:0:0:
288,32,148710,1,0,0:0:0:0:
352,96,148887,5,0,0:0:0:0:
288,160,149063,1,0,0:0:0:0:
352,224,149240,1,0,0:0:0:0:
288,288,149416,1,0,0:0:0:0:
352,352,149593,1,0,0:0:0:0:
352,352,149769,5,0,0:0:0:0:
376,312,149857,1,0,0:0:0:0:
392,272,149945,1,0,0:0:0:0:
400,224,150034,1,0,0:0:0:0:
392,176,150122,1,0,0:0:0:0:
376,136,150210,1,0,0:0:0:0:
344,104,150298,5,0,0:0:0:0:
304,80,150387,1,0,0:0:0:0:
264,64,150475,1,0,0:0:0:0:
168,80,150651,1,0,0:0:0:0:
112,160,150828,1,0,0:0:0:0:
112,192,150916,1,0,0:0:0:0:
120,224,151004,5,0,0:0:0:0:
136,248,151093,1,0,0:0:0:0:
152,272,151181,1,0,0:0:0:0:
176,288,151269,1,0,0:0:0:0:
200,304,151357,1,0,0:0:0:0:
232,312,151445,1,0,0:0:0:0:
264,312,151534,1,0,0:0:0:0:
392,304,151710,5,0,0:0:0:0:
112,232,151887,1,0,0:0:0:0:
408,128,152063,1,0,0:0:0:0:
120,56,152240,1,0,0:0:0:0:
200,328,152416,1,0,0:0:0:0:
376,288,152593,5,0,0:0:0:0:
384,240,152681,1,0,0:0:0:0:
368,192,152769,1,0,0:0:0:0:
336,152,152857,1,0,0:0:0:0:
296,128,152945,1,0,0:0:0:0:
248,120,153034,1,0,0:0:0:0:
192,128,153122,5,0,0:0:0:0:
144,160,153210,1,0,0:0:0:0:
112,208,153298,1,0,0:0:0:0:
120,264,153387,1,0,0:0:0:0:
160,312,153475,1,0,0:0:0:0:
232,336,153563,1,0,0:0:0:0:
304,336,153651,5,0,0:0:0:0:
376,296,153740,1,0,0:0:0:0:
416,216,153828,1,0,0:0:0:0:
424,128,153916,1,0,0:0:0:0:
416,40,154004,1,0,0:0:0:0:
120,72,154181,5,0,0:0:0:0:
136,240,154357,1,0,0:0:0:0:
240,96,154534,1,0,0:0:0:0:
80,240,154710,1,0,0:0:0:0:
176,112,154887,1,0,0:0:0:0:
256,256,155063,1,0,0:0:0:0:
264,120,155240,1,0,0:0:0:0:
176,256,155416,5,0,0:0:0:0:
200,272,155504,1,0,0:0:0:0:
232,272,155593,1,0,0:0:0:0:
352,240,155769,1,0,0:0:0:0:
352,136,155945,1,0,0:0:0:0:
352,104,156034,1,0,0:0:0:0:
352,72,156122,1,0,0:0:0:0:
176,72,156298,5,0,0:0:0:0:
368,120,156475,1,0,0:0:0:0:
56,120,156651,1,0,0:0:0:0:
72,208,156828,1,0,0:0:0:0:
88,232,156917,1,0,0:0:0:0:
104,256,157005,1,0,0:0:0:0:
232,296,157181,1,0,0:0:0:0:
336,248,157358,5,0,0:0:0:0:
360,224,157446,1,0,0:0:0:0:
384,200,157534,1,0,0:0:0:0:
384,88,157710,1,0,0:0:0:0:
238,71,157887,5,0,0:0:0:0:
177,114,157975,1,0,0:0:0:0:
142,180,158063,1,0,0:0:0:0:
143,254,158151,1,0,0:0:0:0:
197,306,158240,1,0,0:0:0:0:
280,306,158328,1,0,0:0:0:0:
353,254,158416,5,0,0:0:0:0:
385,170,158504,1,0,0:0:0:0:
355,84,158593,1,0,0:0:0:0:
265,74,158681,1,0,0:0:0:0:
182,108,158769,1,0,0:0:0:0:
124,176,158857,1,0,0:0:0:0:
154,260,158945,5,0,0:0:0:0:
110,180,159034,1,0,0:0:0:0:
157,103,159122,1,0,0:0:0:0:
238,65,159210,1,0,0:0:0:0:
327,70,159298,1,0,0:0:0:0:
403,119,159387,1,0,0:0:0:0:
406,208,159475,5,0,0:0:0:0:
352,291,159563,1,0,0:0:0:0:
248,303,159651,1,0,0:0:0:0:
147,254,159740,1,0,0:0:0:0:
128,138,159828,1,0,0:0:0:0:
218,64,159916,1,0,0:0:0:0:
334,58,160004,5,0,0:0:0:0:
432,122,160093,1,0,0:0:0:0:
419,237,160181,1,0,0:0:0:0:
302,247,160269,1,0,0:0:0:0:
221,162,160357,1,0,0:0:0:0:
111,223,160534,1,0,0:0:0:0:
333,137,160710,1,0,0:0:0:0:
140,81,160886,5,0,0:0:0:0:
124,123,160974,1,0,0:0:0:0:
115,167,161063,1,0,0:0:0:0:
114,211,161151,1,0,0:0:0:0:
124,254,161239,1,0,0:0:0:0:
258,252,161416,1,0,0:0:0:0:
372,253,161592,5,0,0:0:0:0:
380,208,161680,1,0,0:0:0:0:
385,162,161769,1,0,0:0:0:0:
382,117,161857,1,0,0:0:0:0:
367,74,161945,1,0,0:0:0:0:
139,93,162122,1,0,0:0:0:0:
220,93,162298,1,0,0:0:0:0:
302,93,162475,5,0,0:0:0:0:
351,126,162563,1,0,0:0:0:0:
381,177,162651,1,0,0:0:0:0:
390,236,162740,1,0,0:0:0:0:
370,292,162828,1,0,0:0:0:0:
253,325,163004,5,0,0:0:0:0:
193,316,163093,1,0,0:0:0:0:
137,293,163181,1,0,0:0:0:0:
108,240,163269,1,0,0:0:0:0:
98,180,163357,1,0,0:0:0:0:
249,198,163534,1,0,0:0:0:0:
377,275,163710,5,0,0:0:0:0:
395,202,163798,1,0,0:0:0:0:
377,128,163887,1,0,0:0:0:0:
316,83,163975,1,0,0:0:0:0:
245,59,164063,1,0,0:0:0:0:
170,57,164151,1,0,0:0:0:0:
111,104,164240,5,0,0:0:0:0:
89,175,164328,1,0,0:0:0:0:
97,249,164416,1,0,0:0:0:0:
166,306,164504,1,0,0:0:0:0:
254,326,164593,1,0,0:0:0:0:
343,329,164681,1,0,0:0:0:0:
415,276,164769,5,0,0:0:0:0:
443,190,164857,1,0,0:0:0:0:
422,102,164945,1,0,0:0:0:0:
353,42,165034,1,0,0:0:0:0:
263,36,165122,1,0,0:0:0:0:
173,34,165210,1,0,0:0:0:0:
94,76,165298,5,0,0:0:0:0:
41,150,165387,1,0,0:0:0:0:
46,239,165475,1,0,0:0:0:0:
90,316,165563,1,0,0:0:0:0:
172,350,165651,1,0,0:0:0:0:
261,362,165740,1,0,0:0:0:0:
350,362,165828,1,0,0:0:0:0:
429,262,166004,5,0,0:0:0:0:
133,201,166181,1,0,0:0:0:0:
186,72,166357,1,0,0:0:0:0:
190,278,166534,1,0,0:0:0:0:
304,280,166710,5,0,0:0:0:0:
348,240,166798,1,0,0:0:0:0:
370,183,166887,1,0,0:0:0:0:
375,123,166975,1,0,0:0:0:0:
357,65,167063,1,0,0:0:0:0:
256,24,167240,1,0,0:0:0:0:
152,72,167416,5,0,0:0:0:0:
131,128,167504,1,0,0:0:0:0:
121,187,167593,1,0,0:0:0:0:
127,246,167681,1,0,0:0:0:0:
146,302,167769,1,0,0:0:0:0:
256,336,167945,1,0,0:0:0:0:
371,267,168122,1,0,0:0:0:0:
410,140,168475,5,0,0:0:0:0:
345,34,168828,1,0,0:0:0:0:
168,30,169181,1,0,0:0:0:0:
96,127,169534,2,0,B|98:218|145:298|222:325,1,240
343,327,170593,1,0,0:0:0:0:
411,266,170945,2,0,L|390:147,1,120
376,71,171475,2,0,L|332:79,1,45.0000017166138
283,95,171651,2,0,L|277:175,1,45.0000017166138
120,163,172181,5,0,0:0:0:0:
130,256,172357,2,0,P|220:278|323:253,1,180
376,221,173063,1,0,0:0:0:0:
358,102,173416,1,0,0:0:0:0:
139,103,173769,1,0,0:0:0:0:
240,272,174122,1,0,0:0:0:0:
289,123,174475,1,0,0:0:0:0:
99,179,174828,1,0,0:0:0:0:
351,94,175181,5,0,0:0:0:0:
306,223,175357,1,0,0:0:0:0:
248,114,175534,1,0,0:0:0:0:
416,191,175710,1,0,0:0:0:0:
296,212,175886,1,0,0:0:0:0:
365,78,176063,1,0,0:0:0:0:
244,115,176239,5,0,0:0:0:0:
379,202,176416,1,0,0:0:0:0:
358,120,176592,1,0,0:0:0:0:
238,213,176769,1,0,0:0:0:0:
90,73,176945,1,0,0:0:0:0:
278,67,177122,1,0,0:0:0:0:
125,315,177298,5,0,0:0:0:0:
421,63,177475,1,0,0:0:0:0:
365,325,177651,1,0,0:0:0:0:
269,65,177828,1,0,0:0:0:0:
59,240,178004,1,0,0:0:0:0:
506,173,178181,1,0,0:0:0:0:
106,43,178357,5,0,0:0:0:0:
416,333,178534,1,0,0:0:0:0:
450,24,178710,1,0,0:0:0:0:
124,328,178887,1,0,0:0:0:0:
285,50,179063,1,0,0:0:0:0:
307,342,179240,1,0,0:0:0:0:
61,107,179416,5,0,0:0:0:0:
475,185,179593,1,0,0:0:0:0:
186,31,179769,1,0,0:0:0:0:
123,334,179945,1,0,0:0:0:0:
364,93,180122,1,0,0:0:0:0:
371,337,180298,1,0,0:0:0:0:
89,138,180475,5,0,0:0:0:0:
320,44,180651,1,0,0:0:0:0:
219,326,180828,1,0,0:0:0:0:
164,20,181004,1,0,0:0:0:0:
331,319,181181,1,0,0:0:0:0:
409,105,181357,1,0,0:0:0:0:
73,137,181534,5,0,0:0:0:0:
83,350,181710,1,0,0:0:0:0:
454,281,181887,1,0,0:0:0:0:
306,71,182063,1,0,0:0:0:0:
221,337,182240,1,0,0:0:0:0:
449,81,182416,1,0,0:0:0:0:
362,333,182593,5,0,0:0:0:0:
145,50,182769,1,0,0:0:0:0:
66,329,182945,1,0,0:0:0:0:
76,148,183122,1,0,0:0:0:0:
376,62,183298,1,0,0:0:0:0:
322,329,183475,1,0,0:0:0:0:
232,68,183651,5,0,0:0:0:0:
352,96,183828,1,0,0:0:0:0:
352,128,183916,1,0,0:0:0:0:
352,160,184004,1,0,0:0:0:0:
161,232,184181,1,0,0:0:0:0:
386,256,184357,1,0,0:0:0:0:
136,160,184534,5,0,0:0:0:0:
136,128,184622,1,0,0:0:0:0:
136,96,184710,1,0,0:0:0:0:
216,64,184887,1,0,0:0:0:0:
296,64,185063,1,0,0:0:0:0:
328,88,185151,1,0,0:0:0:0:
352,120,185240,5,0,0:0:0:0:
368,160,185328,1,0,0:0:0:0:
376,200,185416,1,0,0:0:0:0:
368,240,185504,1,0,0:0:0:0:
352,280,185593,1,0,0:0:0:0:
320,304,185681,1,0,0:0:0:0:
280,312,185769,1,0,0:0:0:0:
108,272,185945,5,0,0:0:0:0:
204,50,186122,1,0,0:0:0:0:
320,280,186298,1,0,0:0:0:0:
416,64,186475,1,0,0:0:0:0:
336,240,186651,1,0,0:0:0:0:
399,100,186828,1,0,0:0:0:0:
352,200,187004,5,0,0:0:0:0:
384,136,187181,1,0,0:0:0:0:
368,168,187357,1,0,0:0:0:0:
368,168,187534,1,0,0:0:0:0:
368,168,187710,1,0,0:0:0:0:
368,168,187887,5,0,0:0:0:0:
352,241,187975,1,0,0:0:0:0:
301,296,188063,1,0,0:0:0:0:
228,313,188151,1,0,0:0:0:0:
152,303,188240,1,0,0:0:0:0:
95,254,188328,1,0,0:0:0:0:
83,180,188416,5,0,0:0:0:0:
105,108,188504,1,0,0:0:0:0:
169,68,188593,1,0,0:0:0:0:
241,48,188681,1,0,0:0:0:0:
315,52,188769,1,0,0:0:0:0:
379,86,188857,1,0,0:0:0:0:
412,152,188945,5,0,0:0:0:0:
407,227,189034,1,0,0:0:0:0:
348,273,189122,1,0,0:0:0:0:
274,285,189210,1,0,0:0:0:0:
201,268,189298,1,0,0:0:0:0:
128,93,189475,5,0,0:0:0:0:
372,65,189651,1,0,0:0:0:0:
106,326,189828,1,0,0:0:0:0:
257,52,190004,1,0,0:0:0:0:
426,319,190181,1,0,0:0:0:0:
477,124,190357,1,0,0:0:0:0:
31,141,190534,5,0,0:0:0:0:
170,333,190710,1,0,0:0:0:0:
346,44,190887,1,0,0:0:0:0:
120,40,191063,1,0,0:0:0:0:
360,313,191240,1,0,0:0:0:0:
254,88,191416,1,0,0:0:0:0:
360,313,191592,5,0,0:0:0:0:
254,88,191769,1,0,0:0:0:0:
144,312,191945,1,0,0:0:0:0:
254,88,192122,1,0,0:0:0:0:
144,312,192298,1,0,0:0:0:0:
254,88,192475,1,0,0:0:0:0:
96,128,192651,5,0,0:0:0:0:
152,88,192740,1,0,0:0:0:0:
216,64,192828,1,0,0:0:0:0:
288,64,192916,1,0,0:0:0:0:
352,88,193004,1,0,0:0:0:0:
408,128,193093,1,0,0:0:0:0:
448,184,193181,1,0,0:0:0:0:
413,277,193357,5,0,0:0:0:0:
272,281,193534,1,0,0:0:0:0:
45,190,193710,1,0,0:0:0:0:
178,180,193887,1,0,0:0:0:0:
110,323,194063,1,0,0:0:0:0:
316,156,194240,1,0,0:0:0:0:
128,119,194416,5,0,0:0:0:0:
212,45,194593,1,0,0:0:0:0:
272,259,194769,1,0,0:0:0:0:
322,51,194945,1,0,0:0:0:0:
402,161,195122,1,0,0:0:0:0:
197,83,195298,1,0,0:0:0:0:
433,285,195475,5,0,0:0:0:0:
162,225,195651,1,0,0:0:0:0:
293,135,195828,1,0,0:0:0:0:
259,354,196004,1,0,0:0:0:0:
199,93,196181,1,0,0:0:0:0:
372,239,196357,1,0,0:0:0:0:
401,56,196534,5,0,0:0:0:0:
300,273,196710,1,0,0:0:0:0:
273,39,196887,1,0,0:0:0:0:
95,184,197063,1,0,0:0:0:0:
355,76,197240,1,0,0:0:0:0:
148,313,197416,1,0,0:0:0:0:
329,289,197593,5,0,0:0:0:0:
200,80,197769,2,0,L|212:125,1,45.0000017166138
312,88,198122,1,0,0:0:0:0:
200,80,198298,2,0,L|212:125,1,45.0000017166138
363,62,198651,1,0,0:0:0:0:
200,80,198827,2,0,L|212:125,1,45.0000017166138
428,44,199181,5,0,0:0:0:0:
200,80,199357,2,0,L|212:125,1,45.0000017166138
462,120,199710,1,0,0:0:0:0:
200,80,199886,2,0,L|212:125,1,45.0000017166138
136,98,200593,5,0,0:0:0:0:
107,240,200945,1,0,0:0:0:0:
221,338,201298,1,0,0:0:0:0:
385,289,201651,1,0,0:0:0:0:
395,132,202004,1,0,0:0:0:0:
267,52,202357,1,0,0:0:0:0:
130,57,202710,1,0,0:0:0:0:
80,160,203416,6,4,L|128:226,1,60
211,195,203769,1,0,0:0:0:0:
299,195,203945,2,0,L|347:261,1,60
430,230,204298,1,0,0:0:0:0:
351,95,204475,2,0,L|410:107,1,60
225,94,204828,1,0,0:0:0:0:
96,142,205004,5,0,0:0:0:0:
134,296,205181,1,0,0:0:0:0:
314,334,205357,1,0,0:0:0:0:
420,205,205534,1,0,0:0:0:0:
339,99,205710,2,0,L|274:77,1,60
115,101,206063,1,0,0:0:0:0:
107,239,206240,6,0,L|153:287,1,60
254,213,206593,1,0,0:0:0:0:
324,93,206769,1,0,0:0:0:0:
377,201,206945,1,0,0:0:0:0:
394,311,207122,2,0,P|363:330|318:334,1,60
185,315,207475,1,0,0:0:0:0:
92,216,207651,6,0,L|105:135,1,60
154,58,208004,1,0,0:0:0:0:
253,66,208181,2,0,L|323:102,1,60
397,184,208534,2,0,L|333:222,1,60
234,258,208887,1,0,0:0:0:0:
285,150,209063,1,0,0:0:0:0:
208,64,209240,5,0,0:0:0:0:
125,140,209416,1,0,0:0:0:0:
176,248,209593,1,0,0:0:0:0:
312,288,209769,1,0,0:0:0:0:
264,184,209945,1,0,0:0:0:0:
440,216,210122,1,0,0:0:0:0:
360,96,210298,5,0,0:0:0:0:
344,272,210475,1,0,0:0:0:0:
248,56,210651,1,0,0:0:0:0:
144,176,210828,1,0,0:0:0:0:
328,168,211004,1,0,0:0:0:0:
184,328,211181,1,0,0:0:0:0:
376,320,211357,5,0,0:0:0:0:
232,168,211534,1,0,0:0:0:0:
400,112,211710,1,0,0:0:0:0:
396,244,211887,2,0,L|331:287,1,60
141,256,212240,1,0,0:0:0:0:
309,162,212416,1,0,0:0:0:0:
132,88,212593,5,0,0:0:0:0:
311,46,212769,1,0,0:0:0:0:
178,180,212945,1,0,0:0:0:0:
336,160,213122,1,0,0:0:0:0:
392,256,213298,2,0,L|322:289,1,60
128,280,213651,1,0,0:0:0:0:
160,136,213828,5,0,0:0:0:0:
288,64,214004,1,0,0:0:0:0:
432,88,214181,1,0,0:0:0:0:
416,224,214357,2,0,L|367:288,1,60
264,312,214710,1,0,0:0:0:0:
287,163,214887,1,0,0:0:0:0:
143,206,215063,5,0,0:0:0:0:
290,234,215240,1,0,0:0:0:0:
313,85,215417,1,0,0:0:0:0:
169,128,215593,1,0,0:0:0:0:
211,271,215769,1,0,0:0:0:0:
234,122,215946,1,0,0:0:0:0:
90,165,216122,5,0,0:0:0:0:
236,197,216298,1,0,0:0:0:0:
259,48,216475,2,0,L|304:120,1,60
306,124,216740,1,0,0:0:0:0:
318,150,216828,1,0,0:0:0:0:
317,179,216916,1,0,0:0:0:0:
313,208,217004,1,0,0:0:0:0:
301,236,217093,1,0,0:0:0:0:
279,257,217181,1,0,0:0:0:0:
192,232,217357,5,0,0:0:0:0:
224,144,217534,1,0,0:0:0:0:
136,152,217710,1,0,0:0:0:0:
176,72,217887,1,0,0:0:0:0:
264,64,218063,1,0,0:0:0:0:
304,144,218240,1,0,0:0:0:0:
336,232,218417,5,0,0:0:0:0:
248,224,218593,1,0,0:0:0:0:
288,304,218770,1,0,0:0:0:0:
376,312,218946,1,0,0:0:0:0:
432,208,219122,1,0,0:0:0:0:
384,96,219298,1,0,0:0:0:0:
272,72,219475,5,0,0:0:0:0:
160,96,219651,1,0,0:0:0:0:
104,192,219828,1,0,0:0:0:0:
120,304,220004,2,0,B|163:323|163:323|228:321,1,90
251,320,220357,1,0,0:0:0:0:
295,311,220445,1,0,0:0:0:0:
337,294,220534,5,0,0:0:0:0:
373,267,220622,1,0,0:0:0:0:
396,228,220710,1,0,0:0:0:0:
403,183,220798,1,0,0:0:0:0:
396,138,220887,1,0,0:0:0:0:
368,102,220975,1,0,0:0:0:0:
319,77,221063,5,0,0:0:0:0:
261,60,221151,1,0,0:0:0:0:
195,68,221240,1,0,0:0:0:0:
138,107,221328,1,0,0:0:0:0:
98,167,221416,1,0,0:0:0:0:
90,241,221504,1,0,0:0:0:0:
122,309,221593,5,0,0:0:0:0:
192,332,221681,1,0,0:0:0:0:
266,340,221769,1,0,0:0:0:0:
339,324,221857,1,0,0:0:0:0:
395,279,221945,2,0,L|421:236,1,30
408,143,222122,1,0,0:0:0:0:
275,104,222298,5,0,0:0:0:0:
291,211,222475,1,0,0:0:0:0:
184,66,222651,1,0,0:0:0:0:
124,184,222828,1,0,0:0:0:0:
112,58,223004,1,0,0:0:0:0:
216,128,223181,5,0,0:0:0:0:
263,110,223269,1,0,0:0:0:0:
305,82,223357,1,0,0:0:0:0:
341,46,223445,1,0,0:0:0:0:
337,97,223534,1,0,0:0:0:0:
321,145,223622,1,0,0:0:0:0:
289,184,223710,2,0,L|237:229,1,60
141,223,224063,5,0,0:0:0:0:
174,101,224240,1,0,0:0:0:0:
294,64,224416,1,0,0:0:0:0:
409,115,224593,1,0,0:0:0:0:
437,237,224769,1,0,0:0:0:0:
373,345,224945,1,0,0:0:0:0:
247,356,225122,1,0,0:0:0:0:
132,304,225298,1,0,0:0:0:0:
74,191,225475,1,0,0:0:0:0:
123,75,225651,1,0,0:0:0:0:
241,31,225828,1,0,0:0:0:0:
358,76,226004,5,0,0:0:0:0:
397,121,226093,1,0,0:0:0:0:
417,177,226181,1,0,0:0:0:0:
382,288,226357,1,0,0:0:0:0:
273,330,226534,5,0,0:0:0:0:
203,311,226622,1,0,0:0:0:0:
141,273,226710,1,0,0:0:0:0:
94,218,226798,1,0,0:0:0:0:
89,145,226887,1,0,0:0:0:0:
124,82,226975,1,0,0:0:0:0:
190,54,227063,1,0,0:0:0:0:
261,54,227151,1,0,0:0:0:0:
330,75,227240,1,0,0:0:0:0:
376,129,227328,2,0,L|368:160,1,30
360,174,227769,1,0,0:0:0:0:
176,168,228122,5,0,0:0:0:0:
268,70,228475,1,0,0:0:0:0:
376,136,228828,1,0,0:0:0:0:
384,184,228916,1,0,0:0:0:0:
376,232,229004,1,0,0:0:0:0:
324,296,229181,1,0,0:0:0:0:
236,296,229357,5,0,0:0:0:0:
193,274,229445,1,0,0:0:0:0:
162,240,229534,2,0,L|168:223,1,15
195,35,229887,2,0,L|209:48,1,15
251,96,230240,1,0,0:0:0:0:
299,96,230328,1,0,0:0:0:0:
347,96,230416,1,0,0:0:0:0:
432,96,230593,5,0,0:0:0:0:
440,192,230770,1,0,0:0:0:0:
392,192,230859,1,0,0:0:0:0:
344,192,230947,1,0,0:0:0:0:
296,192,231035,1,0,0:0:0:0:
248,192,231122,1,0,0:0:0:0:
248,96,231299,5,0,0:0:0:0:
152,96,231475,1,0,0:0:0:0:
152,192,231652,1,0,0:0:0:0:
158,224,231740,1,0,0:0:0:0:
177,250,231828,1,0,0:0:0:0:
256,272,232004,1,0,0:0:0:0:
336,256,232181,5,0,0:0:0:0:
357,216,232269,1,0,0:0:0:0:
356,171,232357,1,0,0:0:0:0:
349,126,232445,1,0,0:0:0:0:
317,93,232534,1,0,0:0:0:0:
276,74,232622,1,0,0:0:0:0:
231,74,232710,5,0,0:0:0:0:
190,93,232798,1,0,0:0:0:0:
158,126,232887,1,0,0:0:0:0:
151,171,232975,1,0,0:0:0:0:
150,216,233063,1,0,0:0:0:0:
171,256,233151,1,0,0:0:0:0:
213,272,233240,5,0,0:0:0:0:
257,273,233328,1,0,0:0:0:0:
302,272,233416,1,0,0:0:0:0:
345,261,233504,1,0,0:0:0:0:
379,231,233593,1,0,0:0:0:0:
398,190,233681,1,0,0:0:0:0:
403,145,233769,1,0,0:0:0:0:
384,104,233857,2,0,L|355:87,1,22.5000008583069
234,84,234122,5,0,0:0:0:0:
218,105,234210,1,0,0:0:0:0:
161,165,234475,1,0,0:0:0:0:
172,189,234563,1,0,0:0:0:0:
264,245,234828,5,0,0:0:0:0:
347,203,235004,2,0,P|354:246|337:306,1,90.0000034332277
325,310,235445,1,0,0:0:0:0:
300,320,235534,1,0,0:0:0:0:
212,309,235710,1,0,0:0:0:0:
151,214,235887,5,0,0:0:0:0:
149,182,235975,1,0,0:0:0:0:
154,151,236063,1,0,0:0:0:0:
223,72,236240,1,0,0:0:0:0:
309,111,236416,1,0,0:0:0:0:
318,141,236504,1,0,0:0:0:0:
320,172,236593,2,0,P|316:192|299:228,1,45.0000017166138
228,282,236945,5,0,0:0:0:0:
128,163,237122,1,0,0:0:0:0:
196,71,237298,1,0,0:0:0:0:
246,58,237387,1,0,0:0:0:0:
295,58,237475,1,0,0:0:0:0:
291,162,237651,1,0,0:0:0:0:
401,113,237828,5,0,0:0:0:0:
415,174,237916,1,0,0:0:0:0:
418,236,238004,1,0,0:0:0:0:
380,287,238093,1,0,0:0:0:0:
320,308,238181,1,0,0:0:0:0:
257,305,238269,1,0,0:0:0:0:
197,283,238357,5,0,0:0:0:0:
165,228,238445,1,0,0:0:0:0:
171,164,238534,1,0,0:0:0:0:
199,107,238622,1,0,0:0:0:0:
254,78,238710,1,0,0:0:0:0:
316,81,238798,1,0,0:0:0:0:
374,105,238887,5,0,0:0:0:0:
405,159,238975,1,0,0:0:0:0:
397,221,239063,1,0,0:0:0:0:
277,169,239240,1,0,0:0:0:0:
241,325,239416,1,0,0:0:0:0:
136,170,239593,1,0,0:0:0:0:
400,307,239769,1,0,0:0:0:0:
200,330,240122,5,0,0:0:0:0:
170,309,240210,1,0,0:0:0:0:
151,278,240298,1,0,0:0:0:0:
139,243,240387,1,0,0:0:0:0:
135,207,240475,1,0,0:0:0:0:
140,171,240563,2,0,L|175:125,1,45.0000017166138
196,113,240828,5,0,0:0:0:0:
230,102,240916,1,0,0:0:0:0:
265,100,241004,1,0,0:0:0:0:
301,104,241093,1,0,0:0:0:0:
334,115,241181,1,0,0:0:0:0:
358,141,241269,2,0,L|386:199,1,45.0000017166138
380,217,241534,5,0,0:0:0:0:
366,250,241622,1,0,0:0:0:0:
341,276,241710,1,0,0:0:0:0:
312,297,241798,1,0,0:0:0:0:
276,302,241887,1,0,0:0:0:0:
165,207,242063,1,0,0:0:0:0:
335,130,242240,5,0,0:0:0:0:
292,270,242416,1,0,0:0:0:0:
278,53,242593,1,0,0:0:0:0:
436,63,242769,1,0,0:0:0:0:
355,192,242945,1,0,0:0:0:0:
350,98,243122,1,0,0:0:0:0:
470,198,243298,5,0,0:0:0:0:
341,267,243475,1,0,0:0:0:0:
374,157,243651,1,0,0:0:0:0:
445,272,243828,1,0,0:0:0:0:
277,148,244004,1,0,0:0:0:0:
367,102,244181,1,0,0:0:0:0:
277,253,244357,5,0,0:0:0:0:
219,73,244534,1,0,0:0:0:0:
314,89,244710,1,0,0:0:0:0:
145,200,244887,1,0,0:0:0:0:
108,96,245063,5,0,0:0:0:0:
162,69,245151,1,0,0:0:0:0:
222,62,245240,1,0,0:0:0:0:
282,65,245328,1,0,0:0:0:0:
340,80,245416,1,0,0:0:0:0:
387,117,245504,1,0,0:0:0:0:
412,172,245593,1,0,0:0:0:0:
414,232,245681,1,0,0:0:0:0:
392,288,245769,1,0,0:0:0:0:
326,204,245945,5,0,0:0:0:0:
264,317,246122,1,0,0:0:0:0:
196,180,246298,1,0,0:0:0:0:
306,269,246475,1,0,0:0:0:0:
258,110,246651,1,0,0:0:0:0:
173,264,246828,1,0,0:0:0:0:
358,337,247004,1,0,0:0:0:0:
360,189,247181,5,0,0:0:0:0:
351,128,247270,1,0,0:0:0:0:
307,86,247357,2,0,L|269:82,1,22.5000008583069
187,60,247534,1,0,0:0:0:0:
128,75,247622,1,0,0:0:0:0:
77,114,247710,2,0,L|74:157,1,22.5000008583069
88,196,247887,1,0,0:0:0:0:
120,247,247975,1,0,0:0:0:0:
171,278,248063,1,0,0:0:0:0:
230,288,248151,2,0,L|265:282,1,22.5000008583069
285,278,248328,1,0,0:0:0:0:
312,258,248416,1,0,0:0:0:0:
184,72,248593,6,0,L|184:168,1,90
328,72,250151,2,0,L|328:168,1,90
56,216,253463,2,0,P|242:294|476:198,1,450.000017166138
0,384,256482,5,0,0:0:0:0:
