osu file format v14

[General]
AudioFilename: audio.mp3
AudioLeadIn: 0
PreviewTime: 48601
Countdown: 0
SampleSet: Drum
StackLeniency: 0.7
Mode: 2
LetterboxInBreaks: 0
WidescreenStoryboard: 0

[Editor]
DistanceSpacing: 0.4
BeatDivisor: 4
GridSize: 4
TimelineZoom: 2.2

[Metadata]
Title:Fantasy Tale
TitleUnicode:Fantasy Tale
Artist:Cilla Kung
ArtistUnicode:樂瞳
Creator:autofanboy
Version:Nostalgia
Source:跑Online
Tags:alienflybot AFB 4 Digit Catch World Cup 2023 4CWC2023 4CWC23 Round of 16 RO16 DoubleTime1 DT1 Lok Tung 甄健強 Kin Yan Juho Lee 吳國恩 Yan Ung Season 2 theme song 主題曲 BGM Background Music FantasyTale 鄧麗欣 Stephy Tang StephyTang LaLa 拉拉公主 Tales Runner TalesRunner 테일즈런너 翻滾小子 Hiyo衝天跑 新衝天跑 超级跑跑 female vocal vocals vocalist Hong Kong HongKong 香港 Cantonese 廣東話 Pop Cantopop Video Game videogame Chinese 中文
BeatmapID:4256401
BeatmapSetID:2040393

[Difficulty]
HPDrainRate:5
CircleSize:4
OverallDifficulty:8
ApproachRate:8
SliderMultiplier:2.24
SliderTickRate:2

[Events]
//Background and Video events
0,0,"TalesRunnerBG.jpg",0,0
//Break Periods
2,150457,162619
//Storyboard Layer 0 (Background)
//Storyboard Layer 1 (Fail)
//Storyboard Layer 2 (Pass)
//Storyboard Layer 3 (Foreground)
//Storyboard Layer 4 (Overlay)
//Storyboard Sound Samples

[TimingPoints]
1913,441.501103752759,4,3,1,60,1,0
2133,-100,4,3,4,60,0,0
2354,-100,4,3,1,60,0,0
3016,-100,4,3,4,60,0,0
3237,-100,4,3,1,60,0,0
3899,-100,4,3,4,60,0,0
4341,-100,4,3,1,60,0,0
5445,-100,4,3,1,64,0,0
5665,-100,4,3,4,64,0,0
5886,-100,4,3,1,64,0,0
6328,-100,4,3,4,64,0,0
6548,-100,4,3,1,64,0,0
6769,-100,4,3,4,64,0,0
6990,-100,4,3,1,64,0,0
7431,-100,4,3,4,64,0,0
7873,-100,4,3,1,64,0,0
8977,-100,4,3,1,68,0,0
9197,-100,4,3,4,68,0,0
9418,-100,4,3,1,68,0,0
10301,-100,4,3,4,68,0,0
10522,-100,4,3,1,68,0,0
11846,-100,4,3,4,68,0,0
11957,-100,4,3,1,68,0,0
12067,-100,4,3,2,68,0,0
12288,-100,4,3,1,68,0,0
12509,-100,4,3,1,76,0,0
17807,-100,4,3,1,60,0,0
19573,-100,4,3,1,68,0,0
24429,-100,4,3,3,68,0,0
24650,-100,4,3,1,68,0,0
33701,-100,4,3,1,76,0,0
47829,-100,4,3,1,68,0,0
48712,-100,4,3,1,76,0,0
49595,-100,4,3,1,84,0,1
63502,-100,4,3,1,84,0,0
63723,-100,4,3,1,84,0,1
72111,-100,4,3,3,84,0,1
72332,-100,4,3,1,84,0,1
74098,-100,4,3,1,84,0,0
74319,-100,4,3,1,76,0,1
74539,-100,4,3,1,76,0,0
79837,-100,4,3,1,60,0,0
81383,-100,4,3,1,68,0,0
86239,-100,4,3,3,68,0,0
86460,-100,4,3,1,68,0,0
95511,-100,4,3,1,76,0,0
109639,-100,4,3,1,68,0,0
110522,-100,4,3,1,76,0,0
111405,-100,4,3,1,84,0,1
133921,-100,4,3,3,84,0,1
134142,-100,4,3,1,84,0,1
135908,-100,4,3,1,84,0,0
136129,-100,4,3,1,76,0,1
136350,-100,4,3,1,76,0,0
140985,-100,4,3,3,76,0,0
141206,-100,4,3,1,76,0,0
142751,-100,4,3,3,76,0,0
142972,-100,4,3,1,76,0,0
148712,-100,4,3,1,60,0,0
150257,-100,4,3,1,60,0,0
163502,-100,4,3,1,68,0,0
164385,-100,4,3,1,84,0,1
181824,-100,4,3,1,84,0,0
182045,-100,4,3,1,76,0,1
182266,-100,4,3,1,76,0,0
185577,-100,4,3,1,80,0,0
189109,-100,4,3,1,84,0,0
192641,-100,4,3,1,88,0,1
192862,-100,4,3,1,64,0,0
193082,-100,4,3,1,56,0,0
193303,-100,4,3,1,48,0,0
193524,-100,4,3,1,40,0,0
193745,-100,4,3,1,32,0,0
193965,-100,4,3,1,24,0,0
194186,-100,4,3,1,16,0,0
194407,-100,4,3,1,8,0,0

[Colours]
Combo1 : 239,98,106
Combo2 : 100,117,195
Combo3 : 232,193,209
Combo4 : 160,112,185

[HitObjects]
256,192,257,12,0,1471,2:3:0:0:
76,140,1913,6,0,P|4:84|76:4,1,224,2|0,2:3|3:3,0:0:0:0:
188,0,2575,1,0,2:3:0:0:
380,224,2796,2,0,L|156:216,1,224,0|0,2:3|3:3,0:0:0:0:
152,104,3458,1,0,2:3:0:0:
344,328,3679,6,0,P|444:256|344:112,1,336,0|0,2:3|3:3,0:0:0:0:
152,224,4562,2,0,L|148:112,1,112,0|0,2:3|3:3,0:0:0:0:
260,336,5003,2,0,L|264:224,1,112,0|0,2:3|3:3,0:0:0:0:
72,336,5445,6,0,P|84:212|164:172,1,224,2|0,2:3|2:3,0:0:0:0:
356,60,6107,2,0,L|132:52,2,224,0|0|0,2:3|2:3|2:3,0:0:0:0:
468,284,7211,6,0,P|508:152|368:44,1,336,0|0,2:3|3:3,0:0:0:0:
176,156,8094,2,0,L|172:44,1,112,0|0,2:3|3:3,0:0:0:0:
284,268,8535,2,0,L|288:156,1,112,0|0,2:3|3:3,0:0:0:0:
96,268,8977,6,0,P|16:228|4:104,1,224,2|0,2:3|2:3,0:0:0:0:
192,328,9639,2,0,L|304:324,1,112,0|0,2:3|3:3,0:0:0:0:
192,212,10080,2,0,P|120:156|192:76,1,224,0|0,2:3|2:3,0:0:0:0:
384,188,10743,6,0,L|388:76,1,112,2|0,3:3|3:3,0:0:0:0:
276,300,11184,2,0,L|272:188,1,112,2|0,3:3|3:3,0:0:0:0:
464,300,11626,2,0,L|296:306,2,168,2|0|0,2:3|2:3|2:3,0:0:0:0:
184,188,12509,6,0,L|180:76,1,112,6|0,2:3|3:3,0:0:0:0:
236,132,12840,2,0,L|238:76,1,56,0|8,0:0|3:3,0:0:0:0:
124,72,13171,1,0,3:3:0:0:
316,184,13392,2,0,L|428:180,1,112,2|0,3:3|3:3,0:0:0:0:
372,178,13723,1,0,0:0:0:0:
316,176,13833,2,0,L|204:172,1,112,8|0,3:3|3:3,0:0:0:0:
396,284,14275,6,0,L|400:172,1,112,2|0,3:3|3:3,0:0:0:0:
344,228,14606,2,0,L|342:172,1,56,0|8,0:0|3:3,0:0:0:0:
456,168,14937,1,0,3:3:0:0:
264,280,15158,2,0,L|152:276,1,112,2|0,2:3|3:3,0:0:0:0:
96,220,15489,2,0,L|152:218,1,56,0|8,2:3|3:3,0:0:0:0:
344,104,15820,1,0,2:3:0:0:
152,328,16041,6,0,P|119:288|152:248,1,112,2|0,2:3|3:3,0:0:0:0:
208,246,16372,2,0,L|264:244,1,56,0|8,0:0|3:3,0:0:0:0:
152,132,16703,1,0,3:3:0:0:
344,356,16924,2,0,P|377:316|344:276,1,112,2|0,3:3|3:3,0:0:0:0:
288,220,17255,2,0,L|286:164,1,56,0|8,0:0|3:3,0:0:0:0:
476,52,17586,5,0,3:3:0:0:
256,192,17807,12,0,18690,3:3:0:0:
128,80,19352,5,0,2:3:0:0:
408,304,19573,6,0,P|396:180|316:140,1,224,6|8,2:3|3:3,0:0:0:0:
204,136,20235,1,0,2:3:0:0:
396,24,20456,2,0,L|508:20,2,112,2|0|8,2:3|2:3|2:3,0:0:0:0:
204,136,21118,5,0,2:3:0:0:
92,248,21339,2,0,P|32:220|20:180,1,112,2|0,3:3|3:3,0:0:0:0:
76,178,21670,2,0,L|132:176,1,56,0|8,0:0|3:3,0:0:0:0:
324,288,22001,2,0,L|328:176,1,112,0|2,3:3|3:3,0:0:0:0:
272,120,22332,2,0,L|270:64,1,56,0|0,0:0|3:3,0:0:0:0:
460,176,22663,2,0,P|448:136|388:108,1,112,8|0,3:3|3:3,0:0:0:0:
196,332,23105,6,0,P|120:312|52:192,1,224,2|8,2:3|3:3,0:0:0:0:
48,80,23767,1,0,3:3:0:0:
240,192,23988,2,0,L|408:186,2,168,2|0|0,2:3|2:3|2:3,0:0:0:0:
432,304,24871,6,0,P|492:276|504:236,1,112,2|0,2:3|3:3,0:0:0:0:
448,234,25202,2,0,L|392:232,1,56,0|8,0:0|3:3,0:0:0:0:
200,120,25533,2,0,L|312:116,1,112,0|2,3:3|3:3,0:0:0:0:
368,60,25864,2,0,L|312:58,1,56,0|0,0:0|3:3,0:0:0:0:
120,280,26195,2,0,L|116:168,1,112,8|0,3:3|3:3,0:0:0:0:
308,280,26637,6,0,P|384:260|452:140,1,224,2|8,2:3|3:3,0:0:0:0:
456,28,27299,1,0,3:3:0:0:
264,252,27520,2,0,L|260:140,1,112,2|0,2:3|2:3,0:0:0:0:
372,136,27961,1,8,2:3:0:0:
180,360,28182,5,0,2:3:0:0:
68,356,28403,2,0,P|80:232|160:192,1,224,2|8,3:3|3:3,0:0:0:0:
272,188,29065,1,0,2:3:0:0:
464,300,29286,1,2,2:3:0:0:
420,200,29506,1,0,2:3:0:0:
320,160,29727,1,8,2:3:0:0:
128,272,29948,5,0,2:3:0:0:
124,160,30169,2,0,L|348:152,1,224,2|8,3:3|3:3,0:0:0:0:
352,40,30831,1,0,3:3:0:0:
160,264,31052,2,0,L|48:260,2,112,2|0|8,2:3|2:3|2:3,0:0:0:0:
352,376,31714,5,0,2:3:0:0:
464,372,31935,2,0,P|497:332|464:292,1,112,2|0,3:3|3:3,0:0:0:0:
408,290,32266,2,0,L|352:288,1,56,0|8,0:0|3:3,0:0:0:0:
160,176,32597,2,0,P|127:136|160:96,1,112,0|2,3:3|3:3,0:0:0:0:
216,152,32928,2,0,L|218:96,1,56,0|0,0:0|3:3,0:0:0:0:
28,320,33259,2,0,L|24:208,1,112,8|0,3:3|3:3,0:0:0:0:
304,96,33701,6,0,P|380:116|448:236,1,224,6|8,3:3|2:3,0:0:0:0:
336,240,34363,1,0,2:3:0:0:
144,352,34584,1,2,2:3:0:0:
188,252,34804,1,0,2:3:0:0:
288,212,35025,1,8,2:3:0:0:
96,100,35246,6,0,P|36:72|24:32,1,112,0|2,2:3|3:3,0:0:0:0:
4,88,35577,1,0,0:0:0:0:
24,144,35687,1,0,2:3:0:0:
4,200,35798,1,0,0:0:0:0:
24,256,35908,1,8,3:3:0:0:
216,368,36129,6,0,P|276:340|288:300,1,112,0|2,3:3|3:3,0:0:0:0:
232,298,36460,2,0,L|176:296,1,56,0|0,0:0|3:3,0:0:0:0:
368,184,36791,1,8,3:3:0:0:
424,182,36901,1,0,0:0:0:0:
480,180,37012,1,0,3:3:0:0:
288,68,37233,6,0,P|216:124|288:204,1,224,2|8,3:3|2:3,0:0:0:0:
292,92,37895,1,0,3:3:0:0:
100,316,38116,2,0,L|96:204,1,112,2|0,2:3|2:3,0:0:0:0:
208,200,38557,1,8,2:3:0:0:
400,312,38778,6,0,P|460:284|472:244,1,112,0|2,2:3|3:3,0:0:0:0:
492,188,39109,1,0,0:0:0:0:
472,132,39219,1,0,2:3:0:0:
492,76,39330,1,0,0:0:0:0:
472,20,39440,1,8,3:3:0:0:
280,244,39661,6,0,P|247:204|280:164,1,112,0|2,3:3|3:3,0:0:0:0:
332,108,39992,2,0,L|276:106,1,56,0|0,0:0|3:3,0:0:0:0:
84,328,40323,2,0,L|196:324,1,112,8|0,3:3|3:3,0:0:0:0:
388,212,40765,6,0,P|320:92|244:72,1,224,2|8,3:3|2:3,0:0:0:0:
132,68,41427,1,0,3:3:0:0:
324,180,41648,1,2,2:3:0:0:
424,140,41868,1,0,2:3:0:0:
468,40,42089,1,8,2:3:0:0:
276,152,42310,6,0,L|164:148,1,112,0|2,2:3|3:3,0:0:0:0:
276,260,42751,2,0,L|296:208,2,56,0|0|8,2:3|0:0|3:3,0:0:0:0:
84,372,43193,2,0,L|80:260,1,112,0|2,2:3|3:3,0:0:0:0:
272,148,43634,2,0,L|384:144,2,112,0|8|0,2:3|3:3|2:3,0:0:0:0:
80,36,44297,6,0,P|148:156|224:176,1,224,2|8,2:3|3:3,0:0:0:0:
336,180,44959,1,0,2:3:0:0:
144,292,45180,2,0,L|32:296,2,112,2|0|8,2:3|2:3|2:3,0:0:0:0:
336,180,45842,6,0,P|396:152|408:112,1,112,0|2,2:3|2:3,0:0:0:0:
288,108,46283,1,0,3:3:0:0:
408,112,46504,1,8,3:3:0:0:
216,224,46725,2,0,L|196:172,2,56,0|0|2,3:3|0:0|3:3,0:0:0:0:
272,280,47056,2,0,L|328:278,1,56,0|0,0:0|2:3,0:0:0:0:
136,164,47387,2,0,L|24:160,1,112,8|0,3:3|2:3,0:0:0:0:
216,48,47829,6,0,P|356:156|316:288,1,336,2|0,2:3|3:3,0:0:0:0:
124,176,48712,2,0,L|120:64,1,112,4|0,2:3|3:3,0:0:0:0:
400,176,49153,2,0,L|404:64,1,112,4|0,2:3|3:3,0:0:0:0:
124,288,49595,6,0,P|136:164|216:124,1,224,6|8,2:3|3:3,0:0:0:0:
328,128,50257,1,0,2:3:0:0:
136,240,50478,2,0,P|56:200|44:76,1,224,2|8,2:3|3:3,0:0:0:0:
156,72,51140,1,0,2:3:0:0:
348,184,51361,6,0,L|124:176,1,224,2|8,2:3|3:3,0:0:0:0:
120,64,52023,1,0,3:3:0:0:
312,288,52244,2,0,L|424:284,1,112,2|0,2:3|3:3,0:0:0:0:
312,172,52685,2,0,L|200:168,1,112,8|0,2:3|3:3,0:0:0:0:
392,56,53127,6,0,P|472:96|484:220,1,224,2|8,2:3|2:3,0:0:0:0:
292,332,53789,2,0,L|180:328,1,112,0|2,2:3|3:3,0:0:0:0:
292,216,54230,2,0,L|296:104,1,112,0|8,2:3|3:3,0:0:0:0:
104,328,54672,5,0,2:3:0:0:
100,216,54893,2,0,L|324:208,1,224,2|8,3:3|3:3,0:0:0:0:
328,96,55555,1,0,3:3:0:0:
136,208,55776,2,0,L|116:156,2,56,2|0|0,2:3|0:0|3:3,0:0:0:0:
248,96,56217,2,0,L|136:92,1,112,8|0,2:3|3:3,0:0:0:0:
416,316,56659,6,0,P|488:260|416:180,1,224,2|8,2:3|3:3,0:0:0:0:
304,176,57321,1,0,2:3:0:0:
112,288,57542,2,0,P|180:168|256:148,1,224,2|8,2:3|3:3,0:0:0:0:
368,144,58204,1,0,2:3:0:0:
176,32,58425,6,0,P|104:88|176:168,1,224,2|8,2:3|3:3,0:0:0:0:
288,172,59087,1,0,3:3:0:0:
96,284,59308,2,0,L|208:288,1,112,2|0,2:3|3:3,0:0:0:0:
320,64,59749,2,0,L|208:68,1,112,8|0,2:3|3:3,0:0:0:0:
16,180,60191,6,0,P|84:300|160:320,1,224,2|8,2:3|2:3,0:0:0:0:
352,208,60853,2,0,L|356:96,1,112,0|2,2:3|3:3,0:0:0:0:
244,208,61294,2,0,L|132:204,2,112,0|8|0,2:3|3:3|2:3,0:0:0:0:
436,320,61957,6,0,L|440:208,1,112,2|0,3:3|3:3,0:0:0:0:
328,96,62398,2,0,L|440:92,1,112,8|0,3:3|3:3,0:0:0:0:
248,204,62840,1,2,2:3:0:0:
228,156,62950,1,0,0:0:0:0:
248,108,63060,1,0,3:3:0:0:
300,88,63171,1,0,0:0:0:0:
248,68,63281,2,0,L|136:64,1,112,8|0,2:3|3:3,0:0:0:0:
416,288,63723,6,0,P|488:232|416:152,1,224,6|8,2:3|2:3,0:0:0:0:
224,264,64385,2,0,L|220:152,1,112,0|2,2:3|3:3,0:0:0:0:
332,40,64826,2,0,L|444:36,2,112,0|8|0,3:3|3:3|2:3,0:0:0:0:
140,152,65489,6,0,L|364:160,1,224,2|8,2:3|2:3,0:0:0:0:
172,272,66151,1,0,2:3:0:0:
60,268,66372,1,2,3:3:0:0:
80,220,66482,1,0,0:0:0:0:
132,200,66592,1,0,2:3:0:0:
324,312,66813,1,8,3:3:0:0:
376,292,66924,1,0,0:0:0:0:
396,244,67034,1,0,3:3:0:0:
116,20,67255,6,0,P|44:76|116:156,1,224,2|8,2:3|2:3,0:0:0:0:
308,268,67917,2,0,L|312:156,1,112,0|2,2:3|3:3,0:0:0:0:
200,44,68358,2,0,L|88:40,2,112,0|8|0,2:3|3:3|2:3,0:0:0:0:
392,156,69021,6,0,L|168:164,1,224,2|8,2:3|3:3,0:0:0:0:
280,168,69683,1,0,3:3:0:0:
472,280,69904,2,0,L|492:228,2,56,2|0|0,2:3|0:0|3:3,0:0:0:0:
280,168,70345,1,8,2:3:0:0:
300,120,70456,1,0,0:0:0:0:
352,100,70566,1,0,3:3:0:0:
72,324,70787,6,0,P|0:268|72:188,1,224,2|8,2:3|2:3,0:0:0:0:
264,300,71449,2,0,L|376:296,1,112,0|2,2:3|3:3,0:0:0:0:
264,184,71890,2,0,L|488:176,1,224,0|0,2:3|2:3,0:0:0:0:
296,64,72553,6,0,L|184:68,1,112,2|0,3:3|3:3,0:0:0:0:
296,180,72994,2,0,L|300:296,1,112,8|0,3:3|3:3,0:0:0:0:
108,180,73436,1,2,2:3:0:0:
56,196,73546,1,0,0:0:0:0:
16,236,73656,1,0,3:3:0:0:
0,288,73767,1,0,2:3:0:0:
16,340,73877,2,0,L|128:344,1,112,8|0,3:3|2:3,0:0:0:0:
408,232,74319,6,0,P|441:192|408:152,1,112,6|0,2:3|3:3,0:0:0:0:
352,150,74650,2,0,L|296:148,1,56,0|8,0:0|3:3,0:0:0:0:
408,36,74981,1,0,3:3:0:0:
216,260,75202,2,0,L|104:256,1,112,2|0,3:3|3:3,0:0:0:0:
160,254,75533,1,0,0:0:0:0:
216,252,75643,2,0,L|328:248,1,112,8|0,3:3|3:3,0:0:0:0:
136,360,76085,6,0,P|103:320|136:280,1,112,2|0,3:3|3:3,0:0:0:0:
192,224,76416,2,0,L|194:168,1,56,0|8,0:0|3:3,0:0:0:0:
80,56,76747,1,0,3:3:0:0:
272,280,76968,2,0,L|384:276,1,112,2|0,2:3|3:3,0:0:0:0:
440,220,77299,2,0,L|384:218,1,56,0|8,2:3|3:3,0:0:0:0:
192,104,77630,1,0,2:3:0:0:
384,328,77851,6,0,P|444:300|456:260,1,112,2|0,2:3|3:3,0:0:0:0:
400,258,78182,2,0,L|344:256,1,56,0|8,0:0|3:3,0:0:0:0:
456,144,78513,1,0,3:3:0:0:
264,256,78734,2,0,P|204:228|192:188,1,112,2|0,3:3|3:3,0:0:0:0:
248,186,79065,2,0,L|304:184,1,56,0|8,0:0|3:3,0:0:0:0:
416,180,79396,1,0,3:3:0:0:
224,68,79617,5,2,3:3:0:0:
256,192,79837,12,2,80720,3:3:0:0:
400,72,81162,5,2,2:3:0:0:
120,296,81383,6,0,P|132:172|212:132,1,224,6|8,2:3|3:3,0:0:0:0:
324,128,82045,1,0,2:3:0:0:
132,16,82266,2,0,L|20:12,2,112,2|0|8,2:3|2:3|2:3,0:0:0:0:
324,128,82928,5,0,2:3:0:0:
436,240,83149,2,0,P|469:280|436:320,1,112,2|0,3:3|3:3,0:0:0:0:
380,322,83480,2,0,L|324:324,1,56,0|8,0:0|3:3,0:0:0:0:
132,212,83811,2,0,L|244:208,1,112,0|2,3:3|3:3,0:0:0:0:
300,152,84142,2,0,L|302:96,1,56,0|0,0:0|3:3,0:0:0:0:
112,320,84473,2,0,L|0:316,1,112,8|0,3:3|2:3,0:0:0:0:
192,204,84915,6,0,P|268:184|336:64,1,224,2|8,2:3|3:3,0:0:0:0:
340,176,85577,1,0,2:3:0:0:
148,288,85798,2,0,L|316:294,2,168,2|0|0,2:3|2:3|2:3,0:0:0:0:
340,176,86681,6,0,L|452:172,1,112,2|0,2:3|3:3,0:0:0:0:
472,116,87012,1,0,0:0:0:0:
452,60,87122,1,8,3:3:0:0:
260,284,87343,2,0,P|227:244|260:204,1,112,0|2,3:3|3:3,0:0:0:0:
316,148,87674,2,0,L|260:146,1,56,0|0,0:0|3:3,0:0:0:0:
68,368,88005,2,0,L|180:364,1,112,8|0,3:3|3:3,0:0:0:0:
372,252,88447,6,0,P|304:132|228:112,1,224,2|8,2:3|3:3,0:0:0:0:
116,108,89109,1,0,2:3:0:0:
308,332,89330,2,0,L|312:220,1,112,2|0,2:3|2:3,0:0:0:0:
200,216,89771,1,8,2:3:0:0:
392,328,89992,5,0,2:3:0:0:
504,324,90213,2,0,P|492:200|412:160,1,224,2|8,3:3|3:3,0:0:0:0:
300,156,90875,1,0,3:3:0:0:
108,268,91096,1,2,2:3:0:0:
152,168,91316,1,0,2:3:0:0:
252,128,91537,1,8,2:3:0:0:
60,16,91758,5,0,2:3:0:0:
56,128,91979,2,0,P|124:248|200:268,1,224,2|8,3:3|3:3,0:0:0:0:
312,264,92641,1,0,3:3:0:0:
120,152,92862,2,0,L|8:148,2,112,2|0|8,2:3|2:3|2:3,0:0:0:0:
312,40,93524,5,0,2:3:0:0:
424,152,93745,2,0,P|412:192|352:220,1,112,2|0,3:3|3:3,0:0:0:0:
296,222,94076,2,0,L|240:224,1,56,0|8,0:0|3:3,0:0:0:0:
432,336,94407,2,0,P|465:296|432:256,1,112,0|2,3:3|3:3,0:0:0:0:
376,254,94738,2,0,L|320:252,1,56,0|0,0:0|3:3,0:0:0:0:
128,140,95069,2,0,L|124:28,1,112,8|0,3:3|3:3,0:0:0:0:
404,252,95511,6,0,P|476:196|404:116,1,224,6|8,3:3|2:3,0:0:0:0:
292,112,96173,1,0,2:3:0:0:
100,224,96394,2,0,L|212:220,2,112,2|0|8,2:3|2:3|2:3,0:0:0:0:
292,336,97056,6,0,P|325:296|292:256,1,112,0|2,2:3|3:3,0:0:0:0:
240,236,97387,1,0,0:0:0:0:
220,188,97497,1,0,2:3:0:0:
240,140,97608,1,0,0:0:0:0:
292,120,97718,1,8,3:3:0:0:
484,232,97939,6,0,L|488:120,1,112,0|2,3:3|3:3,0:0:0:0:
468,72,98270,1,0,0:0:0:0:
416,52,98380,1,0,3:3:0:0:
224,276,98601,1,8,3:3:0:0:
222,220,98712,1,0,0:0:0:0:
220,164,98822,1,0,3:3:0:0:
28,276,99043,6,0,P|96:156|172:136,1,224,2|8,3:3|2:3,0:0:0:0:
284,132,99705,1,0,3:3:0:0:
476,356,99926,1,2,2:3:0:0:
432,256,100146,1,0,2:3:0:0:
332,216,100367,1,8,2:3:0:0:
140,328,100588,6,0,P|107:288|140:248,1,112,0|2,2:3|3:3,0:0:0:0:
196,246,100919,1,0,0:0:0:0:
252,244,101029,1,0,2:3:0:0:
308,242,101140,1,0,0:0:0:0:
364,240,101250,1,8,3:3:0:0:
172,128,101471,6,0,L|60:124,1,112,0|2,3:3|3:3,0:0:0:0:
40,68,101802,1,0,0:0:0:0:
60,12,101912,1,0,3:3:0:0:
252,236,102133,1,8,3:3:0:0:
254,180,102244,1,0,0:0:0:0:
256,124,102354,1,0,3:3:0:0:
448,348,102575,6,0,P|380:228|304:208,1,224,2|8,3:3|2:3,0:0:0:0:
192,204,103237,1,0,3:3:0:0:
384,92,103458,2,0,L|272:88,2,112,2|0|8,2:3|2:3|2:3,0:0:0:0:
192,204,104120,6,0,L|188:92,1,112,0|2,2:3|3:3,0:0:0:0:
300,316,104562,1,0,2:3:0:0:
302,260,104672,1,0,0:0:0:0:
304,204,104782,1,8,3:3:0:0:
112,316,105003,2,0,L|0:312,1,112,0|2,2:3|3:3,0:0:0:0:
192,200,105445,2,0,L|304:196,2,112,0|8|0,2:3|2:3|2:3,0:0:0:0:
384,88,106107,6,0,P|464:128|476:252,1,224,2|8,2:3|3:3,0:0:0:0:
364,256,106769,1,0,2:3:0:0:
172,368,106990,2,0,L|168:256,1,112,2|0,2:3|2:3,0:0:0:0:
280,252,107431,1,8,2:3:0:0:
88,140,107652,6,0,P|28:112|16:72,1,112,0|2,2:3|3:3,0:0:0:0:
136,68,108094,1,0,3:3:0:0:
16,72,108314,1,8,3:3:0:0:
208,296,108535,2,0,L|264:294,1,56,0|0,3:3|0:0,0:0:0:0:
208,236,108756,2,0,L|152:234,2,56,2|0|0,3:3|0:0|2:3,0:0:0:0:
400,124,109197,2,0,L|512:120,1,112,8|0,3:3|2:3,0:0:0:0:
220,32,109639,6,0,P|120:104|220:248,1,336,6|0,2:3|3:3,0:0:0:0:
412,360,110522,2,0,L|416:248,1,112,4|0,2:3|3:3,0:0:0:0:
136,136,110963,2,0,L|132:24,1,112,4|0,2:3|3:3,0:0:0:0:
412,136,111405,6,0,P|484:192|412:272,1,224,6|8,2:3|3:3,0:0:0:0:
300,268,112067,1,0,2:3:0:0:
108,156,112288,2,0,L|332:148,1,224,2|8,2:3|3:3,0:0:0:0:
336,36,112950,1,0,2:3:0:0:
144,260,113171,6,0,P|72:204|144:124,1,224,2|8,2:3|3:3,0:0:0:0:
256,120,113833,1,0,3:3:0:0:
448,344,114054,2,0,L|452:232,1,112,2|0,2:3|3:3,0:0:0:0:
340,120,114495,2,0,L|228:116,1,112,8|0,2:3|3:3,0:0:0:0:
420,4,114937,6,0,P|492:60|420:140,1,224,2|8,2:3|2:3,0:0:0:0:
228,252,115599,2,0,L|224:140,1,112,0|2,2:3|3:3,0:0:0:0:
336,364,116041,2,0,L|224:360,1,112,0|8,2:3|3:3,0:0:0:0:
32,248,116482,5,0,2:3:0:0:
28,136,116703,2,0,P|96:256|172:276,1,224,2|8,3:3|3:3,0:0:0:0:
60,272,117365,1,0,3:3:0:0:
252,160,117586,2,0,L|272:108,2,56,2|0|0,2:3|0:0|3:3,0:0:0:0:
140,272,118027,2,0,L|136:160,1,112,8|0,2:3|3:3,0:0:0:0:
416,48,118469,6,0,P|404:172|324:212,1,224,2|8,2:3|3:3,0:0:0:0:
212,208,119131,1,0,2:3:0:0:
404,96,119352,2,0,P|484:136|496:260,1,224,2|8,2:3|3:3,0:0:0:0:
384,264,120014,1,0,2:3:0:0:
192,376,120235,6,0,P|112:336|100:212,1,224,2|8,2:3|3:3,0:0:0:0:
212,208,120897,1,0,3:3:0:0:
404,320,121118,2,0,L|292:316,1,112,2|0,2:3|3:3,0:0:0:0:
180,92,121559,2,0,L|292:88,1,112,8|0,2:3|3:3,0:0:0:0:
484,200,122001,6,0,P|416:320|340:340,1,224,2|8,2:3|2:3,0:0:0:0:
148,228,122663,2,0,L|144:116,1,112,0|2,2:3|3:3,0:0:0:0:
256,112,123105,1,0,2:3:0:0:
368,336,123325,2,0,L|372:224,1,112,8|0,3:3|2:3,0:0:0:0:
180,0,123767,6,0,L|68:4,1,112,2|0,3:3|3:3,0:0:0:0:
180,116,124208,2,0,L|292:120,1,112,8|0,3:3|3:3,0:0:0:0:
100,344,124650,2,0,L|44:342,1,56,2|0,2:3|0:0,0:0:0:0:
100,284,124871,2,0,L|156:282,1,56,0|0,3:3|0:0,0:0:0:0:
100,224,125091,2,0,P|67:184|100:144,1,112,8|0,2:3|3:3,0:0:0:0:
380,368,125533,6,0,P|460:328|472:204,1,224,6|8,2:3|2:3,0:0:0:0:
280,316,126195,2,0,L|168:312,2,112,0|2|0,2:3|3:3|3:3,0:0:0:0:
180,276,126857,1,8,3:3:0:0:
136,176,127078,1,0,2:3:0:0:
328,64,127299,6,0,P|404:84|472:204,1,224,2|8,2:3|2:3,0:0:0:0:
280,316,127961,1,0,2:3:0:0:
168,312,128182,2,0,L|148:260,2,56,2|0|0,3:3|0:0|2:3,0:0:0:0:
360,200,128623,2,0,L|380:148,2,56,8|0|0,3:3|0:0|3:3,0:0:0:0:
80,88,129065,6,0,P|92:212|172:252,1,224,2|8,2:3|2:3,0:0:0:0:
364,364,129727,2,0,L|476:360,2,112,0|2|0,2:3|3:3|2:3,0:0:0:0:
464,324,130389,1,8,3:3:0:0:
508,224,130610,1,0,2:3:0:0:
316,112,130831,6,0,P|240:132|172:252,1,224,2|8,2:3|3:3,0:0:0:0:
168,140,131493,1,0,3:3:0:0:
360,364,131714,1,2,2:3:0:0:
340,316,131824,1,0,0:0:0:0:
288,296,131935,1,0,3:3:0:0:
96,184,132155,1,8,2:3:0:0:
44,164,132266,1,0,0:0:0:0:
24,116,132376,1,0,3:3:0:0:
304,4,132597,6,0,P|376:60|304:140,1,224,2|8,2:3|2:3,0:0:0:0:
112,248,133259,2,0,L|224:252,1,112,0|2,2:3|3:3,0:0:0:0:
336,360,133701,2,0,L|344:136,1,224,0|0,2:3|2:3,0:0:0:0:
152,88,134363,6,0,L|40:92,1,112,2|0,3:3|3:3,0:0:0:0:
152,204,134804,2,0,L|264:208,1,112,8|0,3:3|3:3,0:0:0:0:
456,320,135246,2,0,L|512:318,1,56,2|0,2:3|0:0,0:0:0:0:
456,260,135467,2,0,L|400:258,1,56,0|0,3:3|2:3,0:0:0:0:
456,200,135687,2,0,P|489:160|456:120,1,112,8|0,3:3|2:3,0:0:0:0:
164,344,136129,5,6,2:3:0:0:
64,304,136350,1,0,3:3:0:0:
32,260,136460,1,0,0:0:0:0:
20,204,136570,1,8,3:3:0:0:
64,104,136791,1,0,3:3:0:0:
164,64,137012,2,0,L|276:68,2,112,2|0|8,3:3|3:3|3:3,0:0:0:0:
276,176,137674,1,0,2:3:0:0:
468,288,137895,6,0,P|456:164|376:124,1,224,2|8,2:3|3:3,0:0:0:0:
488,120,138557,1,0,2:3:0:0:
296,232,138778,2,0,P|224:176|296:96,1,224,2|8,2:3|3:3,0:0:0:0:
300,208,139440,1,0,2:3:0:0:
108,320,139661,6,0,P|28:280|16:156,1,224,2|8,2:3|2:3,0:0:0:0:
208,268,140323,2,0,L|320:264,1,112,0|2,2:3|3:3,0:0:0:0:
208,152,140765,2,0,P|136:96|208:16,1,224,0|0,2:3|3:3,0:0:0:0:
400,128,141427,6,0,P|472:184|400:264,1,224,2|8,2:3|2:3,0:0:0:0:
208,376,142089,2,0,L|96:372,1,112,0|2,2:3|3:3,0:0:0:0:
208,260,142531,2,0,L|432:252,1,224,0|0,2:3|2:3,0:0:0:0:
152,28,143193,6,0,P|72:68|60:192,1,224,2|8,2:3|3:3,0:0:0:0:
172,188,143855,1,0,2:3:0:0:
364,300,144076,2,0,L|140:292,1,224,2|8,2:3|2:3,0:0:0:0:
252,288,144738,1,0,2:3:0:0:
444,176,144959,6,0,P|432:52|352:12,1,224,2|8,2:3|2:3,0:0:0:0:
160,124,145621,2,0,L|272:128,1,112,0|2,2:3|3:3,0:0:0:0:
384,240,146063,2,0,L|272:244,2,112,0|8|0,2:3|3:3|2:3,0:0:0:0:
104,352,146725,6,0,P|32:296|104:216,1,224,2|8,2:3|3:3,0:0:0:0:
216,212,147387,1,0,3:3:0:0:
408,324,147608,1,2,3:3:0:0:
424,272,147718,1,0,0:0:0:0:
408,220,147829,1,0,3:3:0:0:
368,180,147939,1,0,0:0:0:0:
316,164,148049,1,8,2:3:0:0:
204,160,148270,1,0,2:3:0:0:
484,48,148491,5,6,3:3:0:0:
256,192,148712,12,0,150257,2:3:0:0:
184,360,163502,6,0,L|296:356,1,112,0|0,2:3|3:3,0:0:0:0:
408,244,163943,2,0,L|296:240,1,112,0|0,2:3|3:3,0:0:0:0:
16,128,164385,6,0,P|84:248|160:268,1,224,6|8,2:3|2:3,0:0:0:0:
352,380,165047,2,0,L|356:268,1,112,0|2,2:3|3:3,0:0:0:0:
244,156,165489,2,0,L|356:152,2,112,0|8|0,3:3|3:3|2:3,0:0:0:0:
436,268,166151,6,0,P|508:212|436:132,1,224,2|8,2:3|2:3,0:0:0:0:
244,244,166813,1,0,2:3:0:0:
132,132,167034,1,2,3:3:0:0:
188,130,167144,1,0,0:0:0:0:
244,128,167255,1,0,2:3:0:0:
52,352,167475,2,0,L|32:300,2,56,8|0|0,3:3|0:0|3:3,0:0:0:0:
332,244,167917,6,0,L|108:236,1,224,2|8,2:3|2:3,0:0:0:0:
300,348,168579,2,0,L|412:344,1,112,0|2,2:3|3:3,0:0:0:0:
300,120,169021,2,0,L|188:116,2,112,0|8|0,2:3|3:3|2:3,0:0:0:0:
108,8,169683,6,0,P|36:64|108:144,1,224,2|8,2:3|3:3,0:0:0:0:
220,140,170345,1,0,3:3:0:0:
412,252,170566,2,0,L|432:200,2,56,2|0|0,2:3|0:0|3:3,0:0:0:0:
224,364,171007,1,8,2:3:0:0:
168,362,171118,1,0,0:0:0:0:
112,360,171228,1,0,3:3:0:0:
392,248,171449,6,0,P|472:208|484:84,1,224,2|8,2:3|2:3,0:0:0:0:
292,196,172111,2,0,L|180:192,1,112,0|2,2:3|3:3,0:0:0:0:
292,80,172553,2,0,L|404:76,2,112,0|8|0,2:3|3:3|2:3,0:0:0:0:
100,304,173215,6,0,P|112:180|192:140,1,224,2|8,3:3|3:3,0:0:0:0:
304,144,173877,1,0,3:3:0:0:
112,368,174098,2,0,L|88:316,2,56,2|0|0,2:3|0:0|3:3,0:0:0:0:
224,256,174539,2,0,L|112:252,1,112,8|0,2:3|3:3,0:0:0:0:
392,140,174981,6,0,L|168:132,1,224,2|8,2:3|2:3,0:0:0:0:
360,356,175643,2,0,L|472:352,1,112,0|2,2:3|3:3,0:0:0:0:
360,240,176085,1,0,2:3:0:0:
248,236,176305,2,0,L|244:124,1,112,8|0,3:3|2:3,0:0:0:0:
436,12,176747,6,0,P|424:136|344:176,1,224,2|8,3:3|3:3,0:0:0:0:
232,180,177409,1,0,3:3:0:0:
40,68,177630,1,2,2:3:0:0:
96,66,177740,1,0,0:0:0:0:
152,64,177851,1,0,3:3:0:0:
340,288,178071,2,0,L|344:176,1,112,8|0,2:3|3:3,0:0:0:0:
64,288,178513,6,0,P|132:168|208:148,1,224,2|8,2:3|2:3,0:0:0:0:
400,260,179175,2,0,L|396:148,1,112,0|2,2:3|3:3,0:0:0:0:
284,372,179617,2,0,L|280:260,1,112,0|8,2:3|3:3,0:0:0:0:
168,256,180058,1,0,2:3:0:0:
360,144,180279,6,0,L|472:140,1,112,2|0,3:3|3:3,0:0:0:0:
360,364,180720,2,0,L|356:252,1,112,8|0,3:3|3:3,0:0:0:0:
164,364,181162,1,2,2:3:0:0:
176,308,181272,1,0,0:0:0:0:
208,264,181383,1,0,3:3:0:0:
252,236,181493,1,0,2:3:0:0:
308,224,181603,2,0,L|420:220,1,112,8|0,3:3|2:3,0:0:0:0:
140,108,182045,6,0,L|28:104,1,112,6|0,2:3|3:3,0:0:0:0:
8,48,182376,1,0,0:0:0:0:
28,104,182486,1,8,3:3:0:0:
140,216,182707,1,0,3:3:0:0:
332,328,182928,2,0,P|365:288|332:248,1,112,2|0,3:3|3:3,0:0:0:0:
276,246,183259,1,0,0:0:0:0:
220,244,183369,2,0,P|187:204|220:164,1,112,8|0,3:3|3:3,0:0:0:0:
412,276,183811,6,0,P|445:236|412:196,1,112,2|0,3:3|3:3,0:0:0:0:
356,194,184142,2,0,L|300:192,1,56,0|8,0:0|3:3,0:0:0:0:
412,80,184473,1,0,3:3:0:0:
220,304,184694,2,0,L|108:300,1,112,2|0,2:3|3:3,0:0:0:0:
164,244,185025,2,0,L|166:188,1,56,0|8,2:3|3:3,0:0:0:0:
52,76,185356,1,0,2:3:0:0:
332,300,185577,6,0,L|444:296,1,112,6|0,2:3|3:3,0:0:0:0:
464,240,185908,1,0,0:0:0:0:
444,296,186018,1,8,3:3:0:0:
332,184,186239,1,0,3:3:0:0:
140,72,186460,2,0,P|80:100|68:140,1,112,2|0,3:3|3:3,0:0:0:0:
124,142,186791,1,0,0:0:0:0:
180,144,186901,2,0,P|240:172|252:212,1,112,8|0,3:3|3:3,0:0:0:0:
60,324,187343,6,0,P|27:284|60:244,1,112,2|0,3:3|3:3,0:0:0:0:
116,242,187674,2,0,L|172:240,1,56,0|8,0:0|3:3,0:0:0:0:
60,128,188005,1,0,3:3:0:0:
252,352,188226,2,0,L|364:348,1,112,2|0,2:3|3:3,0:0:0:0:
308,292,188557,2,0,L|306:236,1,56,0|8,2:3|3:3,0:0:0:0:
420,124,188888,1,0,2:3:0:0:
140,12,189109,6,0,P|107:52|140:92,1,112,6|0,2:3|3:3,0:0:0:0:
196,148,189440,2,0,L|140:150,1,56,0|8,0:0|3:3,0:0:0:0:
28,264,189771,1,0,3:3:0:0:
220,376,189992,2,0,P|280:348|292:308,1,112,2|0,3:3|3:3,0:0:0:0:
236,306,190323,1,0,0:0:0:0:
180,304,190433,2,0,P|120:276|108:236,1,112,8|0,3:3|3:3,0:0:0:0:
300,124,190875,6,0,P|360:96|372:56,1,112,2|0,3:3|3:3,0:0:0:0:
316,54,191206,2,0,L|260:52,1,56,0|8,0:0|3:3,0:0:0:0:
148,164,191537,1,0,3:3:0:0:
340,276,191758,2,0,P|373:236|340:196,1,112,2|0,2:3|3:3,0:0:0:0:
284,140,192089,2,0,L|340:138,1,56,0|8,2:3|3:3,0:0:0:0:
452,24,192420,1,0,2:3:0:0:
172,248,192641,5,6,2:3:0:0:
256,192,192862,12,0,194407,0:0:0:0:
