osu file format v14

[General]
AudioFilename: audio.mp3
AudioLeadIn: 0
PreviewTime: -1
Countdown: 1
SampleSet: Normal
StackLeniency: 0.7
Mode: 0
LetterboxInBreaks: 0
WidescreenStoryboard: 1

[Editor]
Bookmarks: 44165,49498,54831,65498
DistanceSpacing: 1
BeatDivisor: 4
GridSize: 8
TimelineZoom: 1.4

[Metadata]
Title:Aiseki no Diphylleia
TitleUnicode:哀惜のデフレイア
Artist:Cierra Runis
ArtistUnicode:シエラ・ルーニス
Creator:-Nanako-
Version:Diphylleia
Source:
Tags:
BeatmapID:2020748
BeatmapSetID:965340

[Difficulty]
HPDrainRate:6
CircleSize:4.2
OverallDifficulty:8
ApproachRate:9.5
SliderMultiplier:1.8
SliderTickRate:1

[Events]
//Background and Video events
//Break Periods
//Storyboard Layer 0 (Background)
//Storyboard Layer 1 (Fail)
//Storyboard Layer 2 (Pass)
//Storyboard Layer 3 (Foreground)
//Storyboard Sound Samples

[TimingPoints]
832,333.333333333333,4,1,0,100,1,0
44165,333.333333333333,4,1,0,100,1,0
44165,-250,4,1,0,100,0,0
45498,-133.333333333333,4,1,0,100,0,0
46831,-250,4,1,0,100,0,0
49498,-100,4,1,0,100,0,0
53498,-333.333333333333,4,1,0,100,0,0
54164,-125,4,1,0,100,0,0
54831,-100,4,1,0,100,0,0
153301,333.333333333333,4,1,0,100,1,0

[HitObjects]
102,101,44165,6,0,P|155:27|69:43,1,216
51,180,45331,1,0,0:0:0:0:
51,180,45415,1,0,0:0:0:0:
51,180,45498,6,0,P|91:196|137:193,1,67.5000025749208
204,157,45831,1,0,0:0:0:0:
127,283,45998,6,0,P|165:269|196:224,1,67.5000025749208
199,143,46331,1,0,0:0:0:0:
261,307,46498,1,0,0:0:0:0:
251,299,46831,6,0,B|384:260|331:368|466:328,1,216
414,253,47998,1,0,0:0:0:0:
414,253,48081,1,0,0:0:0:0:
414,253,48164,5,0,0:0:0:0:
299,373,48331,1,0,0:0:0:0:
327,207,48498,1,0,0:0:0:0:
453,331,48664,5,0,0:0:0:0:
251,299,48831,1,0,0:0:0:0:
409,158,48998,1,0,0:0:0:0:
235,34,49164,5,0,0:0:0:0:
236,66,49247,1,0,0:0:0:0:
239,100,49330,1,0,0:0:0:0:
241,134,49414,1,0,0:0:0:0:
245,168,49498,6,0,L|143:158,1,90
31,67,49831,2,0,P|79:68|118:93,1,90
74,242,50164,1,0,0:0:0:0:
52,156,50331,1,0,0:0:0:0:
13,308,50498,1,0,0:0:0:0:
183,287,50664,2,0,P|142:240|56:254,1,135
107,314,50998,5,0,0:0:0:0:
250,344,51164,1,0,0:0:0:0:
95,313,51331,1,0,0:0:0:0:
270,256,51498,1,0,0:0:0:0:
167,373,51664,1,0,0:0:0:0:
203,193,51831,1,0,0:0:0:0:
338,323,51998,1,0,0:0:0:0:
338,323,52081,1,0,0:0:0:0:
338,323,52164,5,0,0:0:0:0:
183,287,52331,1,0,0:0:0:0:
397,237,52498,5,0,0:0:0:0:
171,290,52664,1,0,0:0:0:0:
441,331,52831,5,0,0:0:0:0:
159,293,52998,1,0,0:0:0:0:
500,245,53164,5,0,0:0:0:0:
147,296,53331,1,0,0:0:0:0:
255,82,53498,6,0,L|250:166,1,80.9999975280763
82,232,54164,6,0,B|128:191|186:215|186:215|228:260|289:239,1,216
147,296,54831,5,0,0:0:0:0:
333,178,54998,1,0,0:0:0:0:
87,137,55164,1,0,0:0:0:0:
269,271,55331,1,0,0:0:0:0:
68,313,55498,1,0,0:0:0:0:
250,162,55664,1,0,0:0:0:0:
169,372,55831,1,0,0:0:0:0:
33,180,55998,2,0,P|88:136|167:154,1,135
147,296,56331,5,0,0:0:0:0:
219,71,56498,1,0,0:0:0:0:
110,218,56664,1,0,0:0:0:0:
333,178,56831,1,0,0:0:0:0:
152,7,56998,1,0,0:0:0:0:
194,224,57164,1,0,0:0:0:0:
361,80,57331,1,0,0:0:0:0:
361,80,57414,1,0,0:0:0:0:
361,80,57498,5,0,0:0:0:0:
305,276,57664,1,0,0:0:0:0:
219,71,57831,1,0,0:0:0:0:
431,153,57998,1,0,0:0:0:0:
194,224,58164,1,0,0:0:0:0:
444,154,58331,1,0,0:0:0:0:
208,61,58498,1,0,0:0:0:0:
305,276,58664,2,0,B|328:232|328:232|310:141,1,135
224,306,58998,5,0,0:0:0:0:
403,243,59164,1,0,0:0:0:0:
194,224,59331,1,0,0:0:0:0:
376,347,59498,1,0,0:0:0:0:
138,289,59664,1,0,0:0:0:0:
311,148,59831,1,0,0:0:0:0:
281,376,59998,1,0,0:0:0:0:
281,376,60081,1,0,0:0:0:0:
281,376,60164,5,0,0:0:0:0:
109,208,60331,1,0,0:0:0:0:
305,276,60498,1,0,0:0:0:0:
82,354,60664,1,0,0:0:0:0:
165,143,60831,1,0,0:0:0:0:
184,369,60998,1,0,0:0:0:0:
24,192,61164,1,0,0:0:0:0:
242,88,61331,2,0,P|258:152|226:213,1,135
80,127,61664,5,0,0:0:0:0:
224,306,61831,1,0,0:0:0:0:
165,143,61998,1,0,0:0:0:0:
82,354,62164,1,0,0:0:0:0:
305,276,62331,1,0,0:0:0:0:
109,208,62498,1,0,0:0:0:0:
281,376,62664,1,0,0:0:0:0:
281,376,62748,1,0,0:0:0:0:
281,376,62831,5,0,0:0:0:0:
329,176,62998,1,0,0:0:0:0:
376,345,63164,1,0,0:0:0:0:
326,161,63331,1,0,0:0:0:0:
277,384,63498,1,0,0:0:0:0:
323,145,63664,1,0,0:0:0:0:
380,359,63831,1,0,0:0:0:0:
225,175,63998,2,0,P|228:97|289:47,1,135
