osu file format v14

[General]
AudioFilename: audio.mp3
AudioLeadIn: 0
PreviewTime: 51730
Countdown: 0
SampleSet: Normal
StackLeniency: 0.7
Mode: 1
LetterboxInBreaks: 0
WidescreenStoryboard: 1

[Editor]
Bookmarks: 615,7999,15384,22768,35691,37538,44922,48615,52307,81845,88538
DistanceSpacing: 0.7
BeatDivisor: 4
GridSize: 32
TimelineZoom: 2.09

[Metadata]
Title:Cinderella (TV Size)
TitleUnicode:シンデレラ (TV Size)
Artist:CIDER GIRL
ArtistUnicode:サイダーガール
Creator:KyeX
Version:Oni
Source:古見さんは、コミュ症です。
Tags:japanese anime pop jpop j-pop op opening komi-san wa Komyushō komyushou desu can't communicate komisan cant Komi Shoko 古見硝子 只野仁人 Tadano Hitohito 古賀葵 Aoi Koga 梶原岳人 Gakuto Kajiwara yurin
BeatmapID:3258019
BeatmapSetID:1595117

[Difficulty]
HPDrainRate:5.5
CircleSize:5
OverallDifficulty:5
ApproachRate:10
SliderMultiplier:1.4
SliderTickRate:1

[Events]
//Background and Video events
Video,350,"output.mp4"
0,0,"BG.jpg",0,-50
//Break Periods
//Storyboard Layer 0 (Background)
//Storyboard Layer 1 (Fail)
//Storyboard Layer 2 (Pass)
//Storyboard Layer 3 (Foreground)
//Storyboard Layer 4 (Overlay)
//Storyboard Sound Samples

[TimingPoints]
615,461.538461538462,4,1,0,85,1,0
6268,-99.3808882907133,4,1,0,85,0,0
6384,-98.7641110694987,4,1,0,85,0,0
6615,-97.5583976323856,4,1,0,85,0,0
6730,-96.96906025109,4,1,0,85,0,0
6845,-96.3868003341688,4,1,0,85,0,0
7076,-95.2380952380952,4,1,0,85,0,0
7191,-94.6763770643143,4,1,0,85,0,0
7307,-94.1164474355053,4,1,0,85,0,0
7422,-93.5678442901313,4,1,0,85,0,0
7538,-93.0209120685311,4,1,0,85,0,0
7768,-91.9551681195517,4,1,0,85,0,0
7999,-90.9090909090909,4,1,0,90,0,0
20922,-76.9230769230769,4,1,0,90,0,0
22191,-95.2380952380952,4,1,0,90,0,0
22711,-100,4,1,0,70,0,0
35691,-86.9565217391304,4,1,0,70,0,0
36845,-105.263157894737,4,1,0,70,0,0
37480,-95.2380952380952,4,1,0,85,0,0
48845,-94.9376637270096,4,1,0,85,0,0
49076,-94.6378277870444,4,1,0,85,0,0
49307,-94.3398797922942,4,1,0,85,0,0
49538,-94.0438019672844,4,1,0,85,0,0
49768,-93.7508464934854,4,1,0,85,0,0
49999,-93.4584486599608,4,1,0,85,0,0
50461,-78.7401574803149,4,1,0,85,0,0
51615,-90.9090909090909,4,1,0,85,0,0
52307,-86.9565217391304,4,1,0,90,0,1
65345,-86.7216310807319,4,1,0,90,0,1
65461,-86.4859799948464,4,1,0,90,0,1
65576,-86.2536211569012,4,1,0,90,0,1
65691,-86.0225075141546,4,1,0,90,0,1
65922,-85.5619930475087,4,1,0,90,0,1
66153,-85.1063829787234,4,1,0,90,0,1
66268,-84.8813684016921,4,1,0,90,0,1
66384,-84.6555993763184,4,1,0,90,0,1
66499,-84.4329590413246,4,1,0,90,0,1
66615,-84.2095659512351,4,1,0,90,0,1
66845,-83.7701086833209,4,1,0,90,0,1
67076,-83.3333333333333,4,1,0,90,0,1
67422,-86.9565217391304,4,1,0,90,0,1
80115,-87.1947475320013,4,1,0,90,0,1
80230,-87.432211618159,4,1,0,90,0,1
80461,-87.9131345842461,4,1,0,90,0,1
80576,-88.1545330818271,4,1,0,90,0,1
80691,-88.397260929943,4,1,0,90,0,1
80922,-88.8888888888889,4,1,0,90,0,1
81038,-89.1378352929815,4,1,0,90,0,1
81153,-89.386015882239,4,1,0,90,0,1
81268,-89.6355823156668,4,1,0,90,0,1
81384,-89.8887346918901,4,1,0,90,0,1
81615,-90.3971401988149,4,1,0,90,0,1
81845,-90.9090909090909,4,1,0,90,0,0
87384,-76.9230769230769,4,1,0,90,0,0

[HitObjects]
256,192,615,5,0,0:0:0:0:
256,192,961,1,0,0:0:0:0:
256,192,1307,1,0,0:0:0:0:
256,192,1538,1,8,0:0:0:0:
256,192,1884,1,8,0:0:0:0:
256,192,2230,1,0,0:0:0:0:
256,192,2461,1,8,0:0:0:0:
256,192,2691,1,0,0:0:0:0:
256,192,2807,1,0,0:0:0:0:
256,192,2922,1,0,0:0:0:0:
256,192,3153,1,0,0:0:0:0:
256,192,3384,1,8,0:0:0:0:
256,192,3730,1,8,0:0:0:0:
256,192,3845,1,0,0:0:0:0:
256,192,4076,1,8,0:0:0:0:
256,192,4307,1,0,0:0:0:0:
256,192,4653,1,0,0:0:0:0:
256,192,4999,1,0,0:0:0:0:
256,192,5230,1,8,0:0:0:0:
256,192,5461,1,0,0:0:0:0:
256,192,5691,1,8,0:0:0:0:
256,192,5922,1,8,0:0:0:0:
256,192,6153,1,0,0:0:0:0:
256,192,6268,1,0,0:0:0:0:
256,192,6384,1,8,0:0:0:0:
256,192,6615,1,8,0:0:0:0:
256,192,6730,1,8,0:0:0:0:
256,192,6845,1,0,0:0:0:0:
256,192,7076,1,8,0:0:0:0:
256,192,7191,1,0,0:0:0:0:
256,192,7307,1,8,0:0:0:0:
256,192,7422,1,0,0:0:0:0:
256,192,7538,1,8,0:0:0:0:
256,192,7768,1,8,0:0:0:0:
256,192,7999,1,4,0:0:0:0:
256,192,8461,1,8,0:0:0:0:
256,192,8691,1,8,0:0:0:0:
256,192,8807,1,8,0:0:0:0:
256,192,8922,1,0,0:0:0:0:
256,192,9153,1,8,0:0:0:0:
256,192,9384,1,0,0:0:0:0:
256,192,9499,1,0,0:0:0:0:
256,192,9615,1,8,0:0:0:0:
256,192,9730,1,8,0:0:0:0:
256,192,9845,1,0,0:0:0:0:
256,192,10076,1,0,0:0:0:0:
256,192,10307,1,8,0:0:0:0:
256,192,10422,1,0,0:0:0:0:
256,192,10538,1,8,0:0:0:0:
256,192,10768,1,8,0:0:0:0:
256,192,10884,1,0,0:0:0:0:
256,192,10999,1,0,0:0:0:0:
256,192,11230,1,8,0:0:0:0:
256,192,11461,1,0,0:0:0:0:
256,192,11691,1,8,0:0:0:0:
256,192,12153,1,8,0:0:0:0:
256,192,12268,1,0,0:0:0:0:
256,192,12384,1,8,0:0:0:0:
256,192,12499,1,8,0:0:0:0:
256,192,12615,1,0,0:0:0:0:
256,192,12845,1,0,0:0:0:0:
256,192,13076,1,8,0:0:0:0:
256,192,13307,1,0,0:0:0:0:
256,192,13538,1,8,0:0:0:0:
256,192,13999,1,8,0:0:0:0:
256,192,14230,1,0,0:0:0:0:
256,192,14461,1,8,0:0:0:0:
256,192,14576,1,8,0:0:0:0:
256,192,14691,1,0,0:0:0:0:
256,192,14807,1,0,0:0:0:0:
256,192,14922,1,8,0:0:0:0:
256,192,15153,1,8,0:0:0:0:
256,192,15384,1,4,0:0:0:0:
256,192,15845,1,8,0:0:0:0:
256,192,16076,1,8,0:0:0:0:
256,192,16191,1,8,0:0:0:0:
256,192,16307,1,0,0:0:0:0:
256,192,16538,1,8,0:0:0:0:
256,192,16768,1,0,0:0:0:0:
256,192,16884,1,0,0:0:0:0:
256,192,16999,1,8,0:0:0:0:
256,192,17115,1,8,0:0:0:0:
256,192,17230,1,0,0:0:0:0:
256,192,17461,1,0,0:0:0:0:
256,192,17691,1,8,0:0:0:0:
256,192,17807,1,0,0:0:0:0:
256,192,17922,1,8,0:0:0:0:
256,192,18153,1,8,0:0:0:0:
256,192,18268,1,0,0:0:0:0:
256,192,18384,1,0,0:0:0:0:
256,192,18615,1,8,0:0:0:0:
256,192,18845,1,0,0:0:0:0:
256,192,19076,1,8,0:0:0:0:
256,192,19538,1,8,0:0:0:0:
256,192,19653,1,0,0:0:0:0:
256,192,19768,1,8,0:0:0:0:
256,192,19884,1,8,0:0:0:0:
256,192,19999,1,0,0:0:0:0:
256,192,20230,1,0,0:0:0:0:
256,192,20461,1,8,0:0:0:0:
256,192,20691,1,0,0:0:0:0:
256,192,20922,1,12,0:0:0:0:
256,192,21153,1,4,0:0:0:0:
256,192,21384,1,4,0:0:0:0:
256,192,21615,1,4,0:0:0:0:
256,192,21845,1,12,0:0:0:0:
256,192,22191,1,0,0:0:0:0:
256,192,22307,1,8,0:0:0:0:
256,192,22768,1,4,0:0:0:0:
256,192,23230,1,8,0:0:0:0:
256,192,23691,1,0,0:0:0:0:
256,192,24153,1,0,0:0:0:0:
256,192,24615,1,0,0:0:0:0:
256,192,24845,1,8,0:0:0:0:
256,192,25076,1,8,0:0:0:0:
256,192,25307,1,0,0:0:0:0:
256,192,25538,1,8,0:0:0:0:
256,192,25999,1,0,0:0:0:0:
256,192,26461,1,0,0:0:0:0:
256,192,26691,1,8,0:0:0:0:
256,192,26922,1,8,0:0:0:0:
256,192,27384,1,0,0:0:0:0:
256,192,27845,1,0,0:0:0:0:
256,192,28307,1,8,0:0:0:0:
256,192,28768,1,0,0:0:0:0:
256,192,28999,1,0,0:0:0:0:
256,192,29230,1,8,0:0:0:0:
256,192,29691,1,0,0:0:0:0:
256,192,30153,1,0,0:0:0:0:
256,192,30384,1,8,0:0:0:0:
256,192,30615,1,0,0:0:0:0:
256,192,30845,1,0,0:0:0:0:
256,192,31076,1,8,0:0:0:0:
256,192,31538,1,0,0:0:0:0:
256,192,31999,1,8,0:0:0:0:
256,192,32461,1,0,0:0:0:0:
256,192,32691,1,8,0:0:0:0:
256,192,32922,1,0,0:0:0:0:
256,192,33384,1,0,0:0:0:0:
256,192,33845,1,8,0:0:0:0:
256,192,34307,1,0,0:0:0:0:
256,192,34538,1,8,0:0:0:0:
256,192,34768,1,0,0:0:0:0:
256,192,35230,1,0,0:0:0:0:
256,192,35691,1,4,0:0:0:0:
256,192,35922,1,4,0:0:0:0:
256,192,36845,1,0,0:0:0:0:
256,192,37076,1,8,0:0:0:0:
256,192,37191,1,0,0:0:0:0:
256,192,37538,1,4,0:0:0:0:
256,192,37999,1,8,0:0:0:0:
256,192,38345,1,0,0:0:0:0:
256,192,38461,1,8,0:0:0:0:
256,192,38691,1,0,0:0:0:0:
256,192,38922,1,8,0:0:0:0:
256,192,39038,1,0,0:0:0:0:
256,192,39384,1,0,0:0:0:0:
256,192,39615,1,0,0:0:0:0:
256,192,39730,1,0,0:0:0:0:
256,192,39845,1,8,0:0:0:0:
256,192,40076,1,0,0:0:0:0:
256,192,40307,1,8,0:0:0:0:
256,192,40538,1,0,0:0:0:0:
256,192,40768,1,8,0:0:0:0:
256,192,40884,1,0,0:0:0:0:
256,192,40999,1,0,0:0:0:0:
256,192,41230,1,8,0:0:0:0:
256,192,41691,1,8,0:0:0:0:
256,192,42038,1,0,0:0:0:0:
256,192,42153,1,8,0:0:0:0:
256,192,42384,1,0,0:0:0:0:
256,192,42615,1,8,0:0:0:0:
256,192,42730,1,0,0:0:0:0:
256,192,43076,1,0,0:0:0:0:
256,192,43307,1,0,0:0:0:0:
256,192,43422,1,0,0:0:0:0:
256,192,43538,1,8,0:0:0:0:
256,192,43768,1,0,0:0:0:0:
256,192,43999,1,8,0:0:0:0:
256,192,44115,1,0,0:0:0:0:
256,192,44345,1,8,0:0:0:0:
256,192,44461,1,8,0:0:0:0:
256,192,44576,1,0,0:0:0:0:
256,192,44691,1,8,0:0:0:0:
256,192,44922,1,4,0:0:0:0:
256,192,45384,1,8,0:0:0:0:
256,192,45615,1,0,0:0:0:0:
256,192,45730,1,0,0:0:0:0:
256,192,45845,1,8,0:0:0:0:
256,192,46076,1,0,0:0:0:0:
256,192,46307,1,8,0:0:0:0:
256,192,46538,1,8,0:0:0:0:
256,192,46653,1,8,0:0:0:0:
256,192,46768,1,0,0:0:0:0:
256,192,46999,1,0,0:0:0:0:
256,192,47230,1,8,0:0:0:0:
256,192,47461,1,8,0:0:0:0:
256,192,47576,1,0,0:0:0:0:
256,192,47691,1,8,0:0:0:0:
256,192,47922,1,0,0:0:0:0:
256,192,48153,1,8,0:0:0:0:
256,192,48615,1,0,0:0:0:0:
256,192,48845,1,0,0:0:0:0:
256,192,49076,1,0,0:0:0:0:
256,192,49307,1,0,0:0:0:0:
256,192,49538,1,0,0:0:0:0:
256,192,49768,1,0,0:0:0:0:
256,192,49999,1,0,0:0:0:0:
256,192,50461,1,12,0:0:0:0:
256,192,50691,1,12,0:0:0:0:
256,192,50922,1,4,0:0:0:0:
256,192,51153,1,4,0:0:0:0:
256,192,51384,1,12,0:0:0:0:
256,192,51615,1,0,0:0:0:0:
256,192,51730,1,0,0:0:0:0:
256,192,51845,1,8,0:0:0:0:
256,192,52076,1,0,0:0:0:0:
256,192,52307,1,12,0:0:0:0:
256,192,52653,1,0,0:0:0:0:
256,192,52768,1,8,0:0:0:0:
256,192,52999,1,0,0:0:0:0:
256,192,53115,1,0,0:0:0:0:
256,192,53230,1,8,0:0:0:0:
256,192,53461,1,0,0:0:0:0:
256,192,53691,1,8,0:0:0:0:
256,192,53922,1,8,0:0:0:0:
256,192,54038,1,8,0:0:0:0:
256,192,54153,1,0,0:0:0:0:
256,192,54384,1,0,0:0:0:0:
256,192,54615,1,8,0:0:0:0:
256,192,54730,1,8,0:0:0:0:
256,192,54845,1,0,0:0:0:0:
256,192,54961,1,0,0:0:0:0:
256,192,55076,1,8,0:0:0:0:
256,192,55538,1,8,0:0:0:0:
256,192,55768,1,8,0:0:0:0:
256,192,55884,1,8,0:0:0:0:
256,192,55999,1,0,0:0:0:0:
256,192,56345,1,0,0:0:0:0:
256,192,56461,1,8,0:0:0:0:
256,192,56691,1,8,0:0:0:0:
256,192,56922,1,0,0:0:0:0:
256,192,57153,1,0,0:0:0:0:
256,192,57268,1,0,0:0:0:0:
256,192,57384,1,8,0:0:0:0:
256,192,57615,1,0,0:0:0:0:
256,192,57845,1,8,0:0:0:0:
256,192,57961,1,8,0:0:0:0:
256,192,58076,1,0,0:0:0:0:
256,192,58307,1,8,0:0:0:0:
256,192,58538,1,0,0:0:0:0:
256,192,58768,1,8,0:0:0:0:
256,192,58999,1,8,0:0:0:0:
256,192,59115,1,0,0:0:0:0:
256,192,59230,1,8,0:0:0:0:
256,192,59691,1,12,0:0:0:0:
256,192,60038,1,0,0:0:0:0:
256,192,60153,1,8,0:0:0:0:
256,192,60384,1,0,0:0:0:0:
256,192,60499,1,8,0:0:0:0:
256,192,60615,1,0,0:0:0:0:
256,192,60845,1,0,0:0:0:0:
256,192,61076,1,8,0:0:0:0:
256,192,61307,1,8,0:0:0:0:
256,192,61422,1,8,0:0:0:0:
256,192,61538,1,0,0:0:0:0:
256,192,61768,1,0,0:0:0:0:
256,192,61999,1,8,0:0:0:0:
256,192,62115,1,8,0:0:0:0:
256,192,62230,1,0,0:0:0:0:
256,192,62345,1,0,0:0:0:0:
256,192,62461,1,8,0:0:0:0:
256,192,62922,1,8,0:0:0:0:
256,192,63153,1,8,0:0:0:0:
256,192,63268,1,0,0:0:0:0:
256,192,63384,1,8,0:0:0:0:
256,192,63615,1,0,0:0:0:0:
256,192,63730,1,0,0:0:0:0:
256,192,63845,1,8,0:0:0:0:
256,192,64076,1,8,0:0:0:0:
256,192,64307,1,8,0:0:0:0:
256,192,64422,1,8,0:0:0:0:
256,192,64538,1,0,0:0:0:0:
256,192,64768,1,8,0:0:0:0:
256,192,64999,1,0,0:0:0:0:
256,192,65230,1,8,0:0:0:0:
256,192,65345,1,8,0:0:0:0:
256,192,65461,1,0,0:0:0:0:
256,192,65576,1,0,0:0:0:0:
256,192,65691,1,8,0:0:0:0:
256,192,65922,1,8,0:0:0:0:
256,192,66153,1,0,0:0:0:0:
256,192,66268,1,0,0:0:0:0:
256,192,66384,1,8,0:0:0:0:
256,192,66499,1,0,0:0:0:0:
256,192,66615,1,8,0:0:0:0:
256,192,66845,1,8,0:0:0:0:
256,192,67076,1,4,0:0:0:0:
256,192,67422,1,0,0:0:0:0:
256,192,67538,1,8,0:0:0:0:
256,192,67768,1,8,0:0:0:0:
256,192,67884,1,0,0:0:0:0:
256,192,67999,1,8,0:0:0:0:
256,192,68230,1,0,0:0:0:0:
256,192,68461,1,8,0:0:0:0:
256,192,68691,1,0,0:0:0:0:
256,192,68807,1,0,0:0:0:0:
256,192,68922,1,8,0:0:0:0:
256,192,69153,1,0,0:0:0:0:
256,192,69384,1,8,0:0:0:0:
256,192,69499,1,8,0:0:0:0:
256,192,69615,1,0,0:0:0:0:
256,192,69730,1,0,0:0:0:0:
256,192,69845,1,8,0:0:0:0:
256,192,70307,1,8,0:0:0:0:
256,192,70538,1,8,0:0:0:0:
256,192,70653,1,8,0:0:0:0:
256,192,70768,1,0,0:0:0:0:
256,192,71115,1,0,0:0:0:0:
256,192,71230,1,8,0:0:0:0:
256,192,71461,1,0,0:0:0:0:
256,192,71691,1,8,0:0:0:0:
256,192,71922,1,0,0:0:0:0:
256,192,72038,1,0,0:0:0:0:
256,192,72153,1,8,0:0:0:0:
256,192,72384,1,0,0:0:0:0:
256,192,72615,1,8,0:0:0:0:
256,192,72730,1,8,0:0:0:0:
256,192,72845,1,0,0:0:0:0:
256,192,73076,1,8,0:0:0:0:
256,192,73307,1,0,0:0:0:0:
256,192,73538,1,8,0:0:0:0:
256,192,73768,1,0,0:0:0:0:
256,192,73884,1,0,0:0:0:0:
256,192,73999,1,8,0:0:0:0:
256,192,74461,1,12,0:0:0:0:
256,192,74807,1,0,0:0:0:0:
256,192,74922,1,8,0:0:0:0:
256,192,75153,1,0,0:0:0:0:
256,192,75268,1,8,0:0:0:0:
256,192,75384,1,0,0:0:0:0:
256,192,75615,1,8,0:0:0:0:
256,192,75845,1,0,0:0:0:0:
256,192,76076,1,8,0:0:0:0:
256,192,76191,1,8,0:0:0:0:
256,192,76307,1,0,0:0:0:0:
256,192,76538,1,0,0:0:0:0:
256,192,76768,1,8,0:0:0:0:
256,192,76884,1,8,0:0:0:0:
256,192,76999,1,0,0:0:0:0:
256,192,77115,1,0,0:0:0:0:
256,192,77230,1,8,0:0:0:0:
256,192,77691,1,8,0:0:0:0:
256,192,77922,1,8,0:0:0:0:
256,192,78038,1,8,0:0:0:0:
256,192,78153,1,0,0:0:0:0:
256,192,78384,1,0,0:0:0:0:
256,192,78499,1,0,0:0:0:0:
256,192,78615,1,8,0:0:0:0:
256,192,78845,1,0,0:0:0:0:
256,192,79076,1,8,0:0:0:0:
256,192,79307,1,0,0:0:0:0:
256,192,79422,1,0,0:0:0:0:
256,192,79538,1,8,0:0:0:0:
256,192,79768,1,0,0:0:0:0:
256,192,79999,1,8,0:0:0:0:
256,192,80115,1,8,0:0:0:0:
256,192,80230,1,0,0:0:0:0:
256,192,80461,1,8,0:0:0:0:
256,192,80576,1,0,0:0:0:0:
256,192,80691,1,0,0:0:0:0:
256,192,80922,1,8,0:0:0:0:
256,192,81038,1,8,0:0:0:0:
256,192,81153,1,0,0:0:0:0:
256,192,81268,1,0,0:0:0:0:
256,192,81384,1,8,0:0:0:0:
256,192,81615,1,8,0:0:0:0:
256,192,81845,1,4,0:0:0:0:
256,192,82307,1,8,0:0:0:0:
256,192,82538,1,8,0:0:0:0:
256,192,82653,1,8,0:0:0:0:
256,192,82768,1,0,0:0:0:0:
256,192,82999,1,8,0:0:0:0:
256,192,83230,1,0,0:0:0:0:
256,192,83345,1,0,0:0:0:0:
256,192,83461,1,8,0:0:0:0:
256,192,83576,1,8,0:0:0:0:
256,192,83691,1,0,0:0:0:0:
256,192,83922,1,0,0:0:0:0:
256,192,84153,1,8,0:0:0:0:
256,192,84268,1,0,0:0:0:0:
256,192,84384,1,8,0:0:0:0:
256,192,84615,1,8,0:0:0:0:
256,192,84730,1,0,0:0:0:0:
256,192,84845,1,0,0:0:0:0:
256,192,85076,1,8,0:0:0:0:
256,192,85307,1,0,0:0:0:0:
256,192,85538,1,8,0:0:0:0:
256,192,85999,1,8,0:0:0:0:
256,192,86115,1,0,0:0:0:0:
256,192,86230,1,8,0:0:0:0:
256,192,86345,1,8,0:0:0:0:
256,192,86461,1,0,0:0:0:0:
256,192,86691,1,0,0:0:0:0:
256,192,86922,1,8,0:0:0:0:
256,192,87153,1,0,0:0:0:0:
256,192,87384,1,12,0:0:0:0:
256,192,87615,1,4,0:0:0:0:
256,192,87845,1,4,0:0:0:0:
256,192,88076,1,4,0:0:0:0:
256,192,88307,1,12,0:0:0:0:
256,192,88538,1,12,0:0:0:0:
