osu file format v14

[General]
AudioFilename: audio.mp3
AudioLeadIn: 0
PreviewTime: 51730
Countdown: 0
SampleSet: Normal
StackLeniency: 0.7
Mode: 1
LetterboxInBreaks: 0
WidescreenStoryboard: 1

[Editor]
Bookmarks: 615,7999,15384,22768,35691,37538,44922,48615,52307,81845,88538
DistanceSpacing: 0.7
BeatDivisor: 4
GridSize: 32
TimelineZoom: 2

[Metadata]
Title:Cinderella (TV Size)
TitleUnicode:シンデレラ (TV Size)
Artist:CIDER GIRL
ArtistUnicode:サイダーガール
Creator:KyeX
Version:Kantan
Source:古見さんは、コミュ症です。
Tags:japanese anime pop jpop j-pop op opening komi-san wa Komyushō komyushou desu can't communicate komisan cant Komi Shoko 古見硝子 只野仁人 Tadano Hitohito 古賀葵 Aoi Koga 梶原岳人 Gakuto Kajiwara yurin
BeatmapID:3258017
BeatmapSetID:1595117

[Difficulty]
HPDrainRate:8
CircleSize:5
OverallDifficulty:2
ApproachRate:10
SliderMultiplier:1.4
SliderTickRate:1

[Events]
//Background and Video events
Video,350,"output.mp4"
0,0,"BG.jpg",0,-50
//Break Periods
//Storyboard Layer 0 (Background)
//Storyboard Layer 1 (Fail)
//Storyboard Layer 2 (Pass)
//Storyboard Layer 3 (Foreground)
//Storyboard Layer 4 (Overlay)
//Storyboard Sound Samples

[TimingPoints]
615,461.538461538462,4,1,0,85,1,0
7999,-95.2380952380952,4,1,0,90,0,0
22711,-100,4,1,0,70,0,0
37480,-100,4,1,0,85,0,0
52307,-90.9090909090909,4,1,0,90,0,1
81845,-95.2380952380952,4,1,0,90,0,0

[HitObjects]
256,192,615,5,0,0:0:0:0:
256,192,1538,1,8,0:0:0:0:
256,192,2461,1,0,0:0:0:0:
256,192,3384,1,8,0:0:0:0:
256,192,4307,1,0,0:0:0:0:
256,192,5230,1,8,0:0:0:0:
256,192,5691,1,8,0:0:0:0:
256,192,6153,1,0,0:0:0:0:
256,192,7999,1,4,0:0:0:0:
256,192,8922,1,8,0:0:0:0:
256,192,9845,1,0,0:0:0:0:
256,192,10307,1,8,0:0:0:0:
256,192,10768,1,0,0:0:0:0:
256,192,11691,1,0,0:0:0:0:
256,192,12153,1,0,0:0:0:0:
256,192,12615,1,8,0:0:0:0:
256,192,13538,1,0,0:0:0:0:
256,192,15384,1,4,0:0:0:0:
256,192,16307,1,8,0:0:0:0:
256,192,17230,1,0,0:0:0:0:
256,192,17691,1,8,0:0:0:0:
256,192,18153,1,0,0:0:0:0:
256,192,19076,1,0,0:0:0:0:
256,192,19538,1,0,0:0:0:0:
256,192,19999,1,8,0:0:0:0:
256,192,20922,1,12,0:0:0:0:
256,192,21384,1,4,0:0:0:0:
256,192,21845,1,12,0:0:0:0:
256,192,22768,1,4,0:0:0:0:
256,192,24615,1,8,0:0:0:0:
256,192,25538,1,0,0:0:0:0:
256,192,26461,1,8,0:0:0:0:
256,192,28307,1,0,0:0:0:0:
256,192,29230,1,8,0:0:0:0:
256,192,30153,1,0,0:0:0:0:
256,192,31999,1,8,0:0:0:0:
256,192,33845,1,8,0:0:0:0:
256,192,34768,1,8,0:0:0:0:
256,192,35691,1,0,0:0:0:0:
256,192,37538,1,4,0:0:0:0:
256,192,38461,1,0,0:0:0:0:
256,192,38922,1,8,0:0:0:0:
256,192,39384,1,0,0:0:0:0:
256,192,40307,1,8,0:0:0:0:
256,192,41230,1,0,0:0:0:0:
256,192,42153,1,8,0:0:0:0:
256,192,43076,1,8,0:0:0:0:
256,192,43538,1,8,0:0:0:0:
256,192,43999,1,0,0:0:0:0:
256,192,44922,1,4,0:0:0:0:
256,192,46768,1,8,0:0:0:0:
256,192,47691,1,0,0:0:0:0:
256,192,48153,1,8,0:0:0:0:
256,192,48615,1,0,0:0:0:0:
256,192,49538,1,0,0:0:0:0:
256,192,50461,1,12,0:0:0:0:
256,192,50922,1,4,0:0:0:0:
256,192,51384,1,12,0:0:0:0:
256,192,52307,1,12,0:0:0:0:
256,192,53230,1,8,0:0:0:0:
256,192,54153,1,0,0:0:0:0:
256,192,54615,1,8,0:0:0:0:
256,192,55076,1,8,0:0:0:0:
256,192,55999,1,0,0:0:0:0:
256,192,56922,1,8,0:0:0:0:
256,192,57845,1,8,0:0:0:0:
256,192,58307,1,8,0:0:0:0:
256,192,58768,1,0,0:0:0:0:
256,192,59691,1,12,0:0:0:0:
256,192,60615,1,8,0:0:0:0:
256,192,61538,1,0,0:0:0:0:
256,192,61999,1,8,0:0:0:0:
256,192,62461,1,8,0:0:0:0:
256,192,63384,1,0,0:0:0:0:
256,192,64307,1,0,0:0:0:0:
256,192,64768,1,8,0:0:0:0:
256,192,65230,1,0,0:0:0:0:
256,192,67076,1,4,0:0:0:0:
256,192,67999,1,8,0:0:0:0:
256,192,68922,1,0,0:0:0:0:
256,192,69384,1,8,0:0:0:0:
256,192,69845,1,0,0:0:0:0:
256,192,70768,1,0,0:0:0:0:
256,192,71691,1,8,0:0:0:0:
256,192,72615,1,8,0:0:0:0:
256,192,73076,1,0,0:0:0:0:
256,192,73538,1,8,0:0:0:0:
256,192,74461,1,12,0:0:0:0:
256,192,75384,1,0,0:0:0:0:
256,192,76307,1,8,0:0:0:0:
256,192,76768,1,8,0:0:0:0:
256,192,77230,1,0,0:0:0:0:
256,192,78153,1,8,0:0:0:0:
256,192,79076,1,8,0:0:0:0:
256,192,79538,1,8,0:0:0:0:
256,192,79999,1,0,0:0:0:0:
256,192,80461,1,0,0:0:0:0:
256,192,80922,1,8,0:0:0:0:
256,192,81845,1,4,0:0:0:0:
256,192,82768,1,8,0:0:0:0:
256,192,83691,1,0,0:0:0:0:
256,192,84153,1,8,0:0:0:0:
256,192,84615,1,0,0:0:0:0:
256,192,85538,1,0,0:0:0:0:
256,192,85999,1,0,0:0:0:0:
256,192,86461,1,8,0:0:0:0:
256,192,87384,1,12,0:0:0:0:
256,192,87845,1,4,0:0:0:0:
256,192,88307,1,12,0:0:0:0:
