osu file format v14

[General]
AudioFilename: audio.mp3
AudioLeadIn: 0
PreviewTime: 148100
Countdown: 0
SampleSet: Soft
StackLeniency: 0.7
Mode: 3
LetterboxInBreaks: 0
SpecialStyle: 0
WidescreenStoryboard: 0

[Editor]
DistanceSpacing: 0.6
BeatDivisor: 12
GridSize: 4
TimelineZoom: 3.4

[Metadata]
Title:Level Up
TitleUnicode:Level Up
Artist:Ciara
ArtistUnicode:Ciara
Creator:Monoseul
Version:Final Level
Source:
Tags:English R&B Rythm and Blues Soul Pop Reggae Electronica Beauty Marks J.R. Rotem Theron Thomas Parris Goebel 2018 vocal dump
BeatmapID:3819181
BeatmapSetID:1858185

[Difficulty]
HPDrainRate:7
CircleSize:4
OverallDifficulty:7
ApproachRate:5
SliderMultiplier:1.4
SliderTickRate:1

[Events]
//Background and Video events
0,0,"FX4hSylXwAEfkn1.jpg",0,0
//Break Periods
//Storyboard Layer 0 (Background)
//Storyboard Layer 1 (Fail)
//Storyboard Layer 2 (Pass)
//Storyboard Layer 3 (Foreground)
//Storyboard Layer 4 (Overlay)
//Storyboard Sound Samples
Sample,27307,0,"LR_NBell_D#6S.wav",70
Sample,146523,0,"LR_NBell_D#6L.wav",70

[TimingPoints]
664,392.156862745098,4,2,1,50,1,0
10061,392.156862745098,4,2,1,50,1,0
16335,-100,4,2,1,60,0,0
28884,-100,4,2,1,50,0,0
69668,-100,4,2,1,60,0,1
94766,-100,4,2,1,50,0,0
123002,-100,4,2,1,60,0,1
148100,-100,4,2,1,35,0,0
173198,-100,4,2,1,50,0,0
185747,-100,4,2,1,60,0,1
198296,-100,4,2,1,20,0,0

[HitObjects]
64,192,664,128,2,1056:0:0:0:0:
192,192,664,128,8,1056:0:0:0:0:
320,192,664,128,0,1056:0:0:0:0:
448,192,664,128,0,1056:0:0:0:0:
64,192,1448,1,2,0:0:0:0:
192,192,1448,1,8,0:0:0:0:
320,192,1448,1,0,0:0:0:0:
448,192,1448,1,0,0:0:0:0:
192,192,2232,1,2,0:0:0:0:
320,192,2232,1,8,0:0:0:0:
448,192,2232,1,0,0:0:0:0:
320,192,2624,1,2,0:0:0:0:
448,192,2624,1,8,0:0:0:0:
448,192,3016,1,10,0:0:0:0:
192,192,3180,128,0,3311:0:0:0:0:
64,192,3213,128,0,3278:0:0:0:0:
320,192,3409,1,2,0:0:0:0:
448,192,3409,1,8,0:0:0:0:
192,192,3465,1,0,0:0:0:0:
320,192,3521,1,0,0:0:0:0:
64,192,3577,1,0,0:0:0:0:
192,192,3633,1,0,0:0:0:0:
448,192,3689,1,0,0:0:0:0:
320,192,3745,1,0,0:0:0:0:
64,192,3801,128,6,3997:0:0:0:0:
192,192,3801,1,8,0:0:0:0:
448,192,3899,128,0,4095:0:0:0:0:
64,192,4193,1,4,0:0:0:0:
192,192,4193,1,0,0:0:0:0:
448,192,4291,1,0,0:0:0:0:
448,192,4389,128,0,4585:0:0:0:0:
64,192,4585,1,4,0:0:0:0:
192,192,4585,1,0,0:0:0:0:
320,192,4641,1,0,0:0:0:0:
448,192,4697,1,0,0:0:0:0:
192,192,4753,1,0,0:0:0:0:
320,192,4879,1,4,0:0:0:0:
448,192,4879,1,0,0:0:0:0:
192,192,4977,1,0,0:0:0:0:
64,192,5075,1,0,0:0:0:0:
64,192,5173,128,4,5369:0:0:0:0:
448,192,5173,1,0,0:0:0:0:
320,192,5369,1,4,0:0:0:0:
448,192,5369,128,2,5425:0:0:0:0:
192,192,5425,1,0,0:0:0:0:
64,192,5481,1,0,0:0:0:0:
320,192,5537,1,0,0:0:0:0:
64,192,5762,1,4,0:0:0:0:
192,192,5762,1,0,0:0:0:0:
320,192,5860,1,0,0:0:0:0:
320,192,5958,1,0,0:0:0:0:
192,192,5990,1,0,0:0:0:0:
320,192,6154,1,4,0:0:0:0:
448,192,6154,1,0,0:0:0:0:
192,192,6252,1,0,0:0:0:0:
192,192,6350,1,0,0:0:0:0:
320,192,6382,1,0,0:0:0:0:
64,192,6448,1,4,0:0:0:0:
448,192,6448,1,0,0:0:0:0:
320,192,6546,1,0,0:0:0:0:
320,192,6644,1,0,0:0:0:0:
64,192,6742,1,4,0:0:0:0:
192,192,6742,1,0,0:0:0:0:
448,192,6775,1,0,0:0:0:0:
320,192,6840,1,0,0:0:0:0:
64,192,6938,128,4,6994:0:0:0:0:
192,192,6938,1,2,0:0:0:0:
448,192,6994,1,0,0:0:0:0:
320,192,7050,1,0,0:0:0:0:
192,192,7106,1,0,0:0:0:0:
320,192,7330,1,4,0:0:0:0:
448,192,7330,1,0,0:0:0:0:
192,192,7428,1,0,0:0:0:0:
192,192,7526,128,0,7722:0:0:0:0:
320,192,7722,128,4,7778:0:0:0:0:
448,192,7722,1,2,0:0:0:0:
64,192,7778,1,0,0:0:0:0:
192,192,7834,1,0,0:0:0:0:
320,192,7890,1,0,0:0:0:0:
320,192,8016,1,4,0:0:0:0:
448,192,8016,1,0,0:0:0:0:
192,192,8114,1,0,0:0:0:0:
64,192,8213,1,0,0:0:0:0:
320,192,8311,128,4,8507:0:0:0:0:
448,192,8311,1,0,0:0:0:0:
64,192,8507,128,4,8563:0:0:0:0:
192,192,8507,1,2,0:0:0:0:
448,192,8563,1,0,0:0:0:0:
320,192,8619,1,0,0:0:0:0:
192,192,8675,1,0,0:0:0:0:
320,192,8899,1,4,0:0:0:0:
448,192,8899,1,0,0:0:0:0:
192,192,8997,1,0,0:0:0:0:
192,192,9095,1,0,0:0:0:0:
448,192,9128,1,0,0:0:0:0:
64,192,9291,1,4,0:0:0:0:
192,192,9291,1,0,0:0:0:0:
320,192,9389,1,0,0:0:0:0:
320,192,9487,1,0,0:0:0:0:
64,192,9520,1,0,0:0:0:0:
192,192,9585,1,4,0:0:0:0:
448,192,9585,1,0,0:0:0:0:
64,192,9683,1,0,0:0:0:0:
64,192,9781,1,0,0:0:0:0:
320,192,9879,1,4,0:0:0:0:
448,192,9879,1,0,0:0:0:0:
192,192,9912,1,0,0:0:0:0:
320,192,9977,1,0,0:0:0:0:
64,192,10061,128,6,10257:0:0:0:0:
192,192,10061,128,8,10159:0:0:0:0:
448,192,10159,128,0,10355:0:0:0:0:
320,192,10229,1,0,0:0:0:0:
192,192,10285,1,0,0:0:0:0:
64,192,10341,1,0,0:0:0:0:
64,192,10453,1,4,0:0:0:0:
192,192,10453,1,0,0:0:0:0:
448,192,10583,1,0,0:0:0:0:
192,192,10616,1,0,0:0:0:0:
64,192,10779,1,0,0:0:0:0:
320,192,10845,1,4,0:0:0:0:
448,192,10845,1,0,0:0:0:0:
64,192,10910,1,0,0:0:0:0:
320,192,10943,1,0,0:0:0:0:
448,192,11080,1,0,0:0:0:0:
64,192,11139,1,4,0:0:0:0:
192,192,11139,1,0,0:0:0:0:
320,192,11270,1,0,0:0:0:0:
192,192,11302,1,0,0:0:0:0:
320,192,11433,1,4,0:0:0:0:
448,192,11433,1,0,0:0:0:0:
64,192,11466,1,0,0:0:0:0:
64,192,11629,128,4,11727:0:0:0:0:
448,192,11629,128,2,11825:0:0:0:0:
64,192,11825,1,0,0:0:0:0:
320,192,12021,1,4,0:0:0:0:
448,192,12021,1,0,0:0:0:0:
192,192,12087,1,0,0:0:0:0:
64,192,12152,1,0,0:0:0:0:
320,192,12185,1,0,0:0:0:0:
448,192,12335,1,0,0:0:0:0:
64,192,12413,1,4,0:0:0:0:
192,192,12413,1,0,0:0:0:0:
448,192,12479,1,0,0:0:0:0:
192,192,12511,1,0,0:0:0:0:
64,192,12610,1,0,0:0:0:0:
320,192,12708,1,4,0:0:0:0:
448,192,12708,1,0,0:0:0:0:
192,192,12838,1,0,0:0:0:0:
320,192,12871,1,0,0:0:0:0:
64,192,13002,1,4,0:0:0:0:
192,192,13002,1,0,0:0:0:0:
448,192,13034,1,0,0:0:0:0:
64,192,13198,128,4,13394:0:0:0:0:
448,192,13198,128,2,13296:0:0:0:0:
448,192,13394,1,0,0:0:0:0:
64,192,13590,1,4,0:0:0:0:
192,192,13590,1,0,0:0:0:0:
64,192,13688,1,0,0:0:0:0:
448,192,13737,1,0,0:0:0:0:
320,192,13786,1,0,0:0:0:0:
192,192,13884,1,0,0:0:0:0:
448,192,13982,128,2,14080:0:0:0:0:
320,192,13982,128,4,14038:0:0:0:0:
192,192,14145,1,0,0:0:0:0:
448,192,14211,1,0,0:0:0:0:
64,192,14276,1,4,0:0:0:0:
192,192,14276,1,0,0:0:0:0:
320,192,14407,1,0,0:0:0:0:
192,192,14440,1,0,0:0:0:0:
64,192,14570,1,4,0:0:0:0:
448,192,14570,1,0,0:0:0:0:
320,192,14603,1,0,0:0:0:0:
192,192,14636,1,0,0:0:0:0:
64,192,14766,128,4,14962:0:0:0:0:
320,192,14766,128,2,14864:0:0:0:0:
448,192,14864,128,0,15061:0:0:0:0:
192,192,14962,1,0,0:0:0:0:
320,192,15159,1,4,0:0:0:0:
448,192,15159,1,0,0:0:0:0:
64,192,15257,128,0,15355:0:0:0:0:
448,192,15306,1,0,0:0:0:0:
192,192,15355,1,0,0:0:0:0:
320,192,15439,1,0,0:0:0:0:
448,192,15495,1,0,0:0:0:0:
64,192,15551,1,4,0:0:0:0:
192,192,15551,1,0,0:0:0:0:
448,192,15649,128,0,15747:0:0:0:0:
64,192,15719,1,0,0:0:0:0:
320,192,15747,1,0,0:0:0:0:
192,192,15845,1,4,0:0:0:0:
448,192,15845,1,0,0:0:0:0:
448,192,15943,1,0,0:0:0:0:
192,192,15992,1,0,0:0:0:0:
320,192,16008,1,0,0:0:0:0:
64,192,16041,128,0,16335:0:0:0:0:
320,192,16139,1,4,0:0:0:0:
448,192,16139,1,0,0:0:0:0:
192,192,16172,1,0,0:0:0:0:
320,192,16335,1,14,0:0:0:0:
448,192,16335,128,0,16531:0:0:0:70:LR_NBell_B5S.wav
64,192,16433,128,0,16629:0:0:0:0:
448,192,16629,1,0,0:0:0:0:
192,192,16727,1,4,0:0:0:0:
320,192,16727,1,0,0:0:0:0:
64,192,16825,1,0,0:0:0:0:
64,192,16923,128,0,17119:0:0:0:0:
320,192,17119,1,4,0:0:0:0:
448,192,17119,1,0,0:0:0:0:
192,192,17175,1,0,0:0:0:0:
64,192,17231,1,0,0:0:0:0:
448,192,17287,1,0,0:0:0:0:
64,192,17413,1,4,0:0:0:0:
192,192,17413,1,0,0:0:0:0:
320,192,17511,1,0,0:0:0:0:
448,192,17610,1,0,0:0:0:0:
64,192,17708,1,4,0:0:0:0:
448,192,17708,128,0,17904:0:0:0:0:
64,192,17904,128,6,17960:0:0:0:0:
192,192,17904,1,0,0:0:0:70:LR_NBell_A#5S.wav
320,192,17960,1,0,0:0:0:0:
448,192,18016,1,0,0:0:0:0:
64,192,18072,1,0,0:0:0:0:
192,192,18198,1,0,0:0:0:0:
320,192,18296,1,4,0:0:0:0:
448,192,18296,1,0,0:0:0:0:
192,192,18394,1,0,0:0:0:0:
192,192,18492,1,0,0:0:0:0:
320,192,18525,1,0,0:0:0:0:
64,192,18688,1,4,0:0:0:0:
192,192,18688,1,0,0:0:0:0:
320,192,18786,1,0,0:0:0:0:
320,192,18884,1,0,0:0:0:0:
192,192,18917,1,0,0:0:0:0:
64,192,18982,1,4,0:0:0:0:
448,192,18982,1,0,0:0:0:0:
192,192,19080,1,0,0:0:0:0:
192,192,19178,1,0,0:0:0:0:
320,192,19276,1,4,0:0:0:0:
448,192,19276,1,0,0:0:0:0:
64,192,19309,1,0,0:0:0:0:
192,192,19374,1,0,0:0:0:0:
320,192,19472,1,6,0:0:0:0:
448,192,19472,128,0,19521:0:0:0:70:LR_NBell_G#6S.wav
192,192,19528,1,0,0:0:0:0:
64,192,19584,1,0,0:0:0:0:
448,192,19640,1,0,0:0:0:0:
320,192,19766,1,0,0:0:0:70:LR_NBell_F#6S.wav
64,192,19864,1,4,0:0:0:0:
448,192,19864,1,0,0:0:0:0:
192,192,19962,1,0,0:0:0:0:
192,192,20061,128,0,20257:0:0:0:70:LR_NBell_E6S.wav
64,192,20257,128,6,20313:0:0:0:0:
448,192,20257,1,0,0:0:0:70:LR_NBell_D#6S.wav
320,192,20313,1,0,0:0:0:0:
192,192,20369,1,0,0:0:0:0:
448,192,20425,1,0,0:0:0:0:
64,192,20551,1,4,0:0:0:0:
192,192,20551,1,0,0:0:0:70:LR_NBell_C#6S.wav
448,192,20649,1,0,0:0:0:0:
320,192,20747,1,0,0:0:0:0:
64,192,20845,1,4,0:0:0:0:
320,192,20845,128,0,21041:0:0:0:70:LR_NBell_B5S.wav
64,192,21041,1,6,0:0:0:0:
448,192,21041,128,0,21090:0:0:0:70:LR_NBell_D#6S.wav
192,192,21097,1,0,0:0:0:0:
320,192,21153,1,0,0:0:0:0:
64,192,21209,1,0,0:0:0:0:
448,192,21335,1,0,0:0:0:0:
64,192,21433,1,4,0:0:0:0:
192,192,21433,1,0,0:0:0:0:
448,192,21531,1,0,0:0:0:0:
448,192,21629,1,0,0:0:0:0:
192,192,21662,1,0,0:0:0:0:
320,192,21825,1,4,0:0:0:0:
448,192,21825,1,0,0:0:0:0:
64,192,21923,1,0,0:0:0:0:
64,192,22021,1,0,0:0:0:0:
320,192,22054,1,0,0:0:0:0:
192,192,22119,1,4,0:0:0:0:
448,192,22119,1,0,0:0:0:0:
320,192,22217,1,0,0:0:0:0:
320,192,22315,1,0,0:0:0:0:
64,192,22413,1,4,0:0:0:0:
192,192,22413,1,0,0:0:0:0:
448,192,22446,1,0,0:0:0:0:
320,192,22479,1,0,0:0:0:0:
64,192,22610,128,14,22806:0:0:0:0:
192,192,22610,128,0,22708:0:0:0:70:LR_NBell_B5S.wav
448,192,22708,128,0,22904:0:0:0:0:
320,192,22778,1,0,0:0:0:0:
192,192,22834,1,0,0:0:0:0:
64,192,22890,1,0,0:0:0:0:
64,192,23002,1,4,0:0:0:0:
192,192,23002,1,0,0:0:0:0:
448,192,23132,1,0,0:0:0:0:
192,192,23165,1,0,0:0:0:0:
64,192,23328,1,0,0:0:0:0:
320,192,23394,1,4,0:0:0:0:
448,192,23394,1,0,0:0:0:0:
64,192,23459,1,0,0:0:0:0:
320,192,23492,1,0,0:0:0:0:
448,192,23623,1,0,0:0:0:0:
64,192,23688,1,4,0:0:0:0:
192,192,23688,1,0,0:0:0:0:
320,192,23819,1,0,0:0:0:0:
192,192,23851,1,0,0:0:0:0:
320,192,23982,1,4,0:0:0:0:
448,192,23982,1,0,0:0:0:0:
64,192,24015,1,0,0:0:0:0:
64,192,24178,128,6,24276:0:0:0:0:
448,192,24178,128,0,24374:0:0:0:70:LR_NBell_A#5S.wav
320,192,24276,1,0,0:0:0:0:
192,192,24346,1,0,0:0:0:0:
320,192,24402,1,0,0:0:0:0:
64,192,24458,1,0,0:0:0:0:
320,192,24570,1,4,0:0:0:0:
448,192,24570,1,0,0:0:0:0:
192,192,24636,1,0,0:0:0:0:
64,192,24701,1,0,0:0:0:0:
320,192,24734,1,0,0:0:0:0:
448,192,24897,1,0,0:0:0:0:
64,192,24962,1,4,0:0:0:0:
192,192,24962,1,0,0:0:0:0:
448,192,25028,1,0,0:0:0:0:
192,192,25061,1,0,0:0:0:0:
64,192,25159,1,0,0:0:0:0:
320,192,25257,1,4,0:0:0:0:
448,192,25257,1,0,0:0:0:0:
192,192,25387,1,0,0:0:0:0:
320,192,25420,1,0,0:0:0:0:
64,192,25551,1,4,0:0:0:0:
192,192,25551,1,0,0:0:0:0:
448,192,25583,1,0,0:0:0:0:
64,192,25747,128,6,25943:0:0:0:0:
448,192,25747,128,0,25845:0:0:0:70:LR_NBell_G#6S.wav
192,192,25845,1,0,0:0:0:0:
320,192,25915,1,0,0:0:0:0:
192,192,25971,1,0,0:0:0:0:
448,192,26041,1,0,0:0:0:70:LR_NBell_F#6S.wav
64,192,26139,1,4,0:0:0:0:
192,192,26139,1,0,0:0:0:0:
64,192,26237,1,0,0:0:0:0:
448,192,26286,1,0,0:0:0:0:
320,192,26335,1,0,0:0:0:70:LR_NBell_E6S.wav
192,192,26433,1,0,0:0:0:0:
320,192,26531,128,6,26587:0:0:0:0:
448,192,26531,128,0,26629:0:0:0:70:LR_NBell_D#6S.wav
192,192,26694,1,0,0:0:0:0:
448,192,26760,1,0,0:0:0:0:
64,192,26825,1,4,0:0:0:0:
192,192,26825,1,0,0:0:0:70:LR_NBell_C#6S.wav
320,192,26956,1,0,0:0:0:0:
192,192,26989,1,0,0:0:0:0:
64,192,27119,1,4,0:0:0:0:
448,192,27119,1,0,0:0:0:70:LR_NBell_B5S.wav
320,192,27152,1,0,0:0:0:0:
192,192,27185,1,0,0:0:0:0:
64,192,27315,128,2,27511:0:0:0:0:
448,192,27413,128,0,27610:0:0:0:0:
320,192,27483,1,0,0:0:0:0:
192,192,27539,1,0,0:0:0:0:
64,192,27596,1,0,0:0:0:0:
320,192,27708,1,0,0:0:0:0:
64,192,27806,128,0,27904:0:0:0:0:
448,192,27855,1,0,0:0:0:0:
192,192,27904,1,0,0:0:0:0:
320,192,27988,1,0,0:0:0:0:
192,192,28044,1,0,0:0:0:0:
320,192,28100,1,0,0:0:0:0:
448,192,28198,128,0,28296:0:0:0:0:
64,192,28263,1,0,0:0:0:0:
192,192,28296,1,0,0:0:0:0:
448,192,28492,1,0,0:0:0:0:
192,192,28541,1,0,0:0:0:0:
320,192,28557,1,0,0:0:0:0:
64,192,28590,128,0,28884:0:0:0:0:
320,192,28721,1,0,0:0:0:0:
192,192,28753,1,0,0:0:0:0:
320,192,28884,128,12,28940:0:0:0:0:
448,192,28884,128,2,28982:0:0:0:0:
192,192,29080,128,0,29374:0:0:0:0:
320,192,29276,128,4,29374:0:0:0:0:
448,192,29276,1,0,0:0:0:0:
320,192,29472,128,0,29668:0:0:0:0:
64,192,29668,128,4,29766:0:0:0:0:
192,192,29668,1,0,0:0:0:0:
320,192,29864,128,0,30159:0:0:0:0:
64,192,29962,1,4,0:0:0:0:
448,192,29962,1,0,0:0:0:0:
192,192,30061,128,0,30257:0:0:0:0:
320,192,30257,1,4,0:0:0:0:
448,192,30257,1,0,0:0:0:0:
64,192,30453,128,4,30551:0:0:0:0:
192,192,30453,128,2,30509:0:0:0:0:
320,192,30649,128,0,30943:0:0:0:0:
64,192,30845,1,4,0:0:0:0:
192,192,30845,128,0,30943:0:0:0:0:
192,192,31041,128,0,31237:0:0:0:0:
320,192,31237,1,4,0:0:0:0:
448,192,31237,128,0,31433:0:0:0:0:
192,192,31433,128,0,31727:0:0:0:0:
64,192,31531,1,4,0:0:0:0:
448,192,31531,1,0,0:0:0:0:
320,192,31629,128,0,31825:0:0:0:0:
64,192,31825,1,4,0:0:0:0:
192,192,31825,1,0,0:0:0:0:
320,192,32021,128,4,32077:0:0:0:0:
448,192,32021,128,2,32119:0:0:0:0:
64,192,32217,128,0,32413:0:0:0:0:
192,192,32315,128,0,32413:0:0:0:0:
320,192,32413,1,4,0:0:0:0:
448,192,32413,128,0,32511:0:0:0:0:
448,192,32610,128,0,32708:0:0:0:0:
320,192,32708,1,0,0:0:0:0:
64,192,32806,128,4,32904:0:0:0:0:
192,192,32806,128,2,32862:0:0:0:0:
448,192,33002,128,0,33198:0:0:0:0:
192,192,33100,1,4,0:0:0:0:
320,192,33100,128,0,33198:0:0:0:0:
64,192,33198,128,0,33296:0:0:0:0:
64,192,33394,128,4,33492:0:0:0:0:
448,192,33394,1,0,0:0:0:0:
192,192,33492,1,0,0:0:0:0:
320,192,33590,128,4,33646:0:0:0:0:
448,192,33590,128,2,33688:0:0:0:0:
192,192,33786,128,0,33884:0:0:0:0:
192,192,33982,128,4,34276:0:0:0:0:
448,192,33982,1,0,0:0:0:0:
320,192,34178,128,0,34276:0:0:0:0:
64,192,34374,1,4,0:0:0:0:
320,192,34374,128,0,34668:0:0:0:0:
192,192,34570,128,0,34668:0:0:0:0:
64,192,34668,1,4,0:0:0:0:
448,192,34668,1,0,0:0:0:0:
192,192,34766,1,0,0:0:0:0:
320,192,34799,1,0,0:0:0:0:
64,192,34962,1,4,0:0:0:0:
192,192,34962,1,0,0:0:0:0:
320,192,35159,128,4,35215:0:0:0:0:
448,192,35159,128,2,35257:0:0:0:0:
192,192,35355,128,0,35453:0:0:0:0:
192,192,35551,128,4,35845:0:0:0:0:
448,192,35551,1,0,0:0:0:0:
64,192,35747,128,0,35845:0:0:0:0:
64,192,35943,1,4,0:0:0:0:
320,192,35943,128,0,36139:0:0:0:0:
448,192,36139,128,0,36335:0:0:0:0:
64,192,36237,1,4,0:0:0:0:
320,192,36237,128,0,36335:0:0:0:0:
192,192,36335,128,0,36531:0:0:0:0:
64,192,36531,1,4,0:0:0:0:
448,192,36531,1,0,0:0:0:0:
320,192,36605,128,0,36727:0:0:0:0:
64,192,36727,128,4,36825:0:0:0:0:
192,192,36727,128,2,36783:0:0:0:0:
320,192,36923,128,0,37021:0:0:0:0:
64,192,37119,1,4,0:0:0:0:
320,192,37119,128,0,37413:0:0:0:0:
448,192,37315,128,0,37413:0:0:0:0:
192,192,37511,128,4,37708:0:0:0:0:
448,192,37511,1,0,0:0:0:0:
64,192,37708,128,0,37904:0:0:0:0:
192,192,37806,128,4,37904:0:0:0:0:
448,192,37806,1,0,0:0:0:0:
320,192,37904,128,0,38100:0:0:0:0:
64,192,38100,1,4,0:0:0:0:
448,192,38100,1,0,0:0:0:0:
192,192,38198,128,0,38296:0:0:0:0:
320,192,38296,128,4,38352:0:0:0:0:
448,192,38296,128,2,38394:0:0:0:0:
64,192,38492,128,0,38688:0:0:0:0:
192,192,38590,128,0,38688:0:0:0:0:
320,192,38688,1,4,0:0:0:0:
448,192,38688,128,0,38884:0:0:0:0:
448,192,38982,1,0,0:0:0:0:
64,192,39080,128,4,39178:0:0:0:0:
192,192,39080,128,2,39136:0:0:0:0:
448,192,39276,128,0,39374:0:0:0:0:
64,192,39374,1,4,0:0:0:0:
192,192,39374,1,0,0:0:0:0:
320,192,39472,128,0,39668:0:0:0:0:
192,192,39603,1,0,0:0:0:0:
64,192,39668,1,4,0:0:0:0:
448,192,39668,1,0,0:0:0:0:
192,192,39799,1,0,0:0:0:0:
320,192,39864,128,4,39920:0:0:0:0:
448,192,39864,128,2,39962:0:0:0:0:
192,192,40061,128,0,40159:0:0:0:0:
320,192,40257,128,4,40453:0:0:0:0:
448,192,40257,1,0,0:0:0:0:
64,192,40355,128,0,40453:0:0:0:0:
192,192,40453,128,0,40649:0:0:0:0:
448,192,40551,128,0,40649:0:0:0:0:
64,192,40649,1,4,0:0:0:0:
320,192,40649,128,0,40845:0:0:0:0:
192,192,40747,128,0,40845:0:0:0:0:
448,192,40845,128,0,40943:0:0:0:0:
64,192,40943,1,4,0:0:0:0:
192,192,40943,1,0,0:0:0:0:
320,192,41041,128,0,41237:0:0:0:0:
64,192,41237,1,4,0:0:0:0:
448,192,41237,1,0,0:0:0:0:
192,192,41302,128,0,41433:0:0:0:0:
320,192,41433,128,6,41489:0:0:0:0:
448,192,41433,128,8,41629:0:0:0:0:
64,192,41531,128,0,41727:0:0:0:0:
192,192,41629,128,0,41923:0:0:0:0:
320,192,41825,128,4,41923:0:0:0:0:
448,192,41825,128,0,42119:0:0:0:0:
64,192,42021,128,0,42119:0:0:0:0:
64,192,42217,1,4,0:0:0:0:
448,192,42217,128,0,42413:0:0:0:0:
192,192,42413,128,0,42610:0:0:0:0:
320,192,42511,1,4,0:0:0:0:
448,192,42511,1,0,0:0:0:0:
64,192,42610,128,0,42904:0:0:0:0:
320,192,42806,1,4,0:0:0:0:
448,192,42806,128,0,42904:0:0:0:0:
64,192,43002,128,4,43100:0:0:0:0:
192,192,43002,128,2,43058:0:0:0:0:
320,192,43198,128,0,43590:0:0:0:0:
64,192,43394,128,4,43688:0:0:0:0:
192,192,43394,1,0,0:0:0:0:
448,192,43590,128,0,43786:0:0:0:0:
64,192,43786,1,4,0:0:0:0:
192,192,43786,128,0,43884:0:0:0:0:
64,192,43982,1,0,0:0:0:0:
192,192,44080,1,4,0:0:0:0:
320,192,44080,1,0,0:0:0:0:
448,192,44178,128,0,44472:0:0:0:0:
64,192,44374,128,4,44472:0:0:0:0:
192,192,44374,1,0,0:0:0:0:
320,192,44570,128,4,44626:0:0:0:0:
448,192,44570,128,2,44668:0:0:0:0:
64,192,44766,128,0,44962:0:0:0:0:
192,192,44864,128,0,44962:0:0:0:0:
320,192,44962,1,4,0:0:0:0:
448,192,44962,128,0,45159:0:0:0:0:
192,192,45159,128,0,45257:0:0:0:0:
64,192,45355,128,4,45453:0:0:0:0:
192,192,45355,128,2,45411:0:0:0:0:
448,192,45551,128,0,45649:0:0:0:0:
64,192,45649,1,4,0:0:0:0:
192,192,45649,1,0,0:0:0:0:
320,192,45747,128,0,45943:0:0:0:0:
64,192,45845,128,0,45943:0:0:0:0:
192,192,45943,1,4,0:0:0:0:
448,192,45943,1,0,0:0:0:0:
320,192,46008,128,0,46139:0:0:0:0:
64,192,46139,128,4,46237:0:0:0:0:
192,192,46139,128,2,46195:0:0:0:0:
448,192,46335,128,0,46433:0:0:0:0:
320,192,46531,128,0,46923:0:0:0:0:
64,192,46727,128,0,46923:0:0:0:0:
192,192,46923,128,0,47021:0:0:0:0:
192,192,47119,128,0,47413:0:0:0:0:
448,192,47315,128,2,47511:0:0:0:0:
320,192,47413,128,0,47511:0:0:0:0:
64,192,47511,128,0,47708:0:0:0:0:
192,192,47610,128,0,47708:0:0:0:0:
320,192,47708,128,6,47806:0:0:0:0:
448,192,47708,128,8,47904:0:0:0:0:
192,192,47806,128,0,48002:0:0:0:0:
64,192,47904,128,0,48002:0:0:0:0:
320,192,48100,128,4,48394:0:0:0:0:
448,192,48100,128,0,48394:0:0:0:0:
64,192,48296,128,0,48394:0:0:0:0:
64,192,48492,1,4,0:0:0:0:
192,192,48492,128,0,48688:0:0:0:0:
320,192,48688,128,0,48884:0:0:0:0:
192,192,48786,128,4,48884:0:0:0:0:
448,192,48786,1,0,0:0:0:0:
64,192,48884,128,0,49178:0:0:0:0:
192,192,49080,1,4,0:0:0:0:
320,192,49080,1,0,0:0:0:0:
448,192,49178,128,0,49276:0:0:0:0:
64,192,49276,128,4,49374:0:0:0:0:
192,192,49276,128,2,49332:0:0:0:0:
320,192,49472,128,0,49570:0:0:0:0:
320,192,49668,1,4,0:0:0:0:
448,192,49668,1,0,0:0:0:0:
64,192,49864,128,0,50061:0:0:0:0:
192,192,49962,128,0,50061:0:0:0:0:
320,192,50061,1,4,0:0:0:0:
448,192,50061,128,0,50355:0:0:0:0:
320,192,50257,128,0,50355:0:0:0:0:
64,192,50355,1,4,0:0:0:0:
192,192,50355,1,0,0:0:0:0:
320,192,50453,128,0,50747:0:0:0:0:
64,192,50649,1,4,0:0:0:0:
448,192,50649,1,0,0:0:0:0:
192,192,50747,128,0,50845:0:0:0:0:
320,192,50845,128,4,50901:0:0:0:0:
448,192,50845,128,2,50943:0:0:0:0:
64,192,51041,128,0,51139:0:0:0:0:
320,192,51237,1,4,0:0:0:0:
448,192,51237,128,0,51433:0:0:0:0:
64,192,51433,1,0,0:0:0:0:
192,192,51466,1,0,0:0:0:0:
64,192,51629,128,4,51727:0:0:0:0:
192,192,51629,128,2,51685:0:0:0:0:
448,192,51825,128,0,52021:0:0:0:0:
192,192,51923,1,4,0:0:0:0:
320,192,51923,128,0,52021:0:0:0:0:
64,192,52021,128,0,52217:0:0:0:0:
192,192,52217,1,4,0:0:0:0:
448,192,52217,1,0,0:0:0:0:
320,192,52250,1,0,0:0:0:0:
320,192,52413,128,4,52469:0:0:0:0:
448,192,52413,128,2,52511:0:0:0:0:
192,192,52610,128,0,52708:0:0:0:0:
192,192,52806,128,0,53492:0:0:0:0:
64,192,53002,128,0,53688:0:0:0:0:
448,192,53198,128,0,53296:0:0:0:0:
448,192,53394,128,0,53786:0:0:0:0:
192,192,53590,128,0,53884:0:0:0:0:
64,192,53786,128,0,53884:0:0:0:0:
64,192,53982,1,8,0:0:0:0:
192,192,53982,128,2,54276:0:0:0:0:
448,192,54080,128,0,55355:0:0:0:0:
320,192,54105,128,0,54276:0:0:0:0:
64,192,54276,1,0,0:0:0:0:
192,192,54374,1,8,0:0:0:0:
320,192,54374,1,0,0:0:0:0:
192,192,54570,1,0,0:0:0:0:
64,192,54766,1,8,0:0:0:0:
320,192,54766,1,0,0:0:0:0:
320,192,55061,1,0,0:0:0:0:
64,192,55159,1,8,0:0:0:0:
192,192,55159,1,0,0:0:0:0:
192,192,55355,128,0,55453:0:0:0:0:
320,192,55551,1,8,0:0:0:0:
448,192,55551,128,2,55616:0:0:0:0:
192,192,55649,128,0,55845:0:0:0:0:
64,192,55698,128,0,55845:0:0:0:0:
320,192,55747,128,0,55845:0:0:0:0:
448,192,55845,1,0,0:0:0:0:
64,192,55943,1,8,0:0:0:0:
192,192,55943,1,0,0:0:0:0:
448,192,56139,1,0,0:0:0:0:
192,192,56335,1,8,0:0:0:0:
320,192,56335,128,0,56433:0:0:0:0:
64,192,56531,128,0,56923:0:0:0:0:
192,192,56727,128,8,57021:0:0:0:0:
448,192,56727,1,0,0:0:0:0:
448,192,56923,128,0,57119:0:0:0:0:
320,192,57021,128,0,57119:0:0:0:0:
64,192,57119,128,8,57413:0:0:0:0:
192,192,57119,1,2,0:0:0:0:
448,192,57217,128,0,58492:0:0:0:0:
320,192,57242,128,0,57413:0:0:0:0:
192,192,57413,1,0,0:0:0:0:
64,192,57511,1,8,0:0:0:0:
320,192,57511,1,0,0:0:0:0:
64,192,57708,1,0,0:0:0:0:
192,192,57904,1,8,0:0:0:0:
320,192,57904,1,0,0:0:0:0:
320,192,58198,1,0,0:0:0:0:
64,192,58296,1,8,0:0:0:0:
192,192,58296,1,0,0:0:0:0:
192,192,58492,128,0,58590:0:0:0:0:
320,192,58688,1,8,0:0:0:0:
448,192,58688,128,2,58753:0:0:0:0:
192,192,58786,128,0,58982:0:0:0:0:
64,192,58835,128,0,58982:0:0:0:0:
320,192,58884,128,0,58982:0:0:0:0:
448,192,58982,1,0,0:0:0:0:
192,192,59080,1,8,0:0:0:0:
320,192,59080,1,0,0:0:0:0:
64,192,59178,128,0,59374:0:0:0:0:
448,192,59276,128,0,59472:0:0:0:0:
64,192,59472,128,8,59668:0:0:0:0:
192,192,59472,1,0,0:0:0:0:
320,192,59570,128,0,59766:0:0:0:0:
448,192,59668,128,0,59766:0:0:0:0:
192,192,59766,1,0,0:0:0:0:
64,192,59864,128,8,59962:0:0:0:0:
320,192,59864,1,0,0:0:0:0:
448,192,59962,128,0,60159:0:0:0:0:
64,192,60126,128,0,60257:0:0:0:0:
192,192,60159,128,0,60518:0:0:0:0:
320,192,60257,1,8,0:0:0:0:
448,192,60257,128,2,60453:0:0:0:0:
64,192,60355,128,0,60551:0:0:0:0:
448,192,60518,1,0,0:0:0:0:
320,192,60551,1,0,0:0:0:0:
64,192,60649,1,8,0:0:0:0:
448,192,60649,1,0,0:0:0:0:
320,192,60845,128,0,60943:0:0:0:0:
192,192,61041,128,8,61335:0:0:0:0:
448,192,61041,1,0,0:0:0:0:
64,192,61237,128,0,61335:0:0:0:0:
320,192,61335,1,0,0:0:0:0:
64,192,61433,1,8,0:0:0:0:
192,192,61433,1,0,0:0:0:0:
448,192,61629,128,0,61825:0:0:0:0:
320,192,61727,128,0,62087:0:0:0:0:
64,192,61825,128,8,62021:0:0:0:0:
192,192,61825,1,2,0:0:0:0:
448,192,61923,128,0,62119:0:0:0:0:
192,192,62087,1,0,0:0:0:0:
64,192,62119,1,0,0:0:0:0:
320,192,62217,1,8,0:0:0:0:
448,192,62217,1,0,0:0:0:0:
448,192,62413,128,0,62708:0:0:0:0:
192,192,62610,128,8,62708:0:0:0:0:
320,192,62610,1,0,0:0:0:0:
64,192,62806,128,0,63198:0:0:0:0:
192,192,62904,1,0,0:0:0:0:
320,192,63002,128,8,63394:0:0:0:0:
448,192,63002,1,0,0:0:0:0:
192,192,63198,128,0,63394:0:0:0:0:
64,192,63394,1,8,0:0:0:0:
448,192,63394,128,2,63688:0:0:0:0:
320,192,63492,128,0,63786:0:0:0:0:
192,192,63516,128,0,63688:0:0:0:0:
64,192,63688,1,0,0:0:0:0:
192,192,63786,1,8,0:0:0:0:
448,192,63786,128,0,63982:0:0:0:0:
64,192,63982,128,0,66139:0:0:0:0:
320,192,64178,1,8,0:0:0:0:
448,192,64178,1,0,0:0:0:0:
320,192,64472,1,0,0:0:0:0:
192,192,64570,1,8,0:0:0:0:
448,192,64570,1,0,0:0:0:0:
192,192,64962,128,2,65028:0:0:0:0:
320,192,64962,128,0,65093:0:0:0:0:
448,192,65028,128,0,65289:0:0:0:0:
192,192,65093,1,0,0:0:0:0:
320,192,65191,1,0,0:0:0:0:
320,192,65289,1,0,0:0:0:0:
192,192,65387,1,0,0:0:0:0:
192,192,65485,1,0,0:0:0:0:
448,192,65583,1,0,0:0:0:0:
448,192,65681,1,0,0:0:0:0:
192,192,65779,1,0,0:0:0:0:
192,192,65877,1,0,0:0:0:0:
448,192,65976,1,0,0:0:0:0:
448,192,66074,1,0,0:0:0:0:
320,192,66172,1,0,0:0:0:0:
320,192,66270,1,0,0:0:0:0:
64,192,66368,1,0,0:0:0:0:
64,192,66466,128,0,66923:0:0:0:0:
192,192,66531,128,8,66923:0:0:0:0:
320,192,66531,128,2,66923:0:0:0:0:
448,192,66531,128,0,66923:0:0:0:0:
64,192,67315,1,8,0:0:0:0:
192,192,67315,1,2,0:0:0:0:
320,192,67315,1,0,0:0:0:0:
448,192,67315,1,0,0:0:0:0:
192,192,68100,1,8,0:0:0:0:
320,192,68100,1,2,0:0:0:0:
448,192,68100,1,0,0:0:0:0:
320,192,68492,1,8,0:0:0:0:
448,192,68492,1,2,0:0:0:0:
448,192,68884,1,10,0:0:0:0:
64,192,69047,128,0,69178:0:0:0:0:
192,192,69080,128,0,69145:0:0:0:0:
64,192,69276,1,8,0:0:0:0:
448,192,69276,1,2,0:0:0:0:
192,192,69332,1,0,0:0:0:0:
320,192,69388,1,0,0:0:0:0:
192,192,69444,1,0,0:0:0:0:
448,192,69500,1,0,0:0:0:0:
320,192,69556,1,0,0:0:0:0:
192,192,69612,1,0,0:0:0:0:
64,192,69668,128,14,69864:0:0:0:0:
448,192,69668,1,0,0:0:0:70:LR_NBell_B5S.wav
320,192,69766,128,0,69962:0:0:0:0:
448,192,69962,1,0,0:0:0:0:
64,192,70061,1,4,0:0:0:0:
192,192,70061,1,0,0:0:0:0:
448,192,70159,1,0,0:0:0:0:
448,192,70257,128,0,70453:0:0:0:0:
64,192,70453,1,4,0:0:0:0:
192,192,70453,1,0,0:0:0:0:
320,192,70509,1,0,0:0:0:0:
448,192,70565,1,0,0:0:0:0:
64,192,70621,1,0,0:0:0:0:
320,192,70747,1,4,0:0:0:0:
448,192,70747,1,0,0:0:0:0:
192,192,70845,1,0,0:0:0:0:
192,192,70943,1,0,0:0:0:0:
64,192,71041,128,4,71237:0:0:0:0:
448,192,71041,1,0,0:0:0:0:
320,192,71237,1,6,0:0:0:0:
448,192,71237,128,0,71293:0:0:0:70:LR_NBell_A#5S.wav
192,192,71293,1,0,0:0:0:0:
64,192,71349,1,0,0:0:0:0:
448,192,71405,1,0,0:0:0:0:
320,192,71531,1,0,0:0:0:0:
64,192,71629,1,4,0:0:0:0:
192,192,71629,1,0,0:0:0:0:
320,192,71727,1,0,0:0:0:0:
320,192,71825,1,0,0:0:0:0:
192,192,71858,1,0,0:0:0:0:
320,192,72021,1,4,0:0:0:0:
448,192,72021,1,0,0:0:0:0:
192,192,72119,1,0,0:0:0:0:
192,192,72217,1,0,0:0:0:0:
320,192,72250,1,0,0:0:0:0:
64,192,72315,1,4,0:0:0:0:
448,192,72315,1,0,0:0:0:0:
320,192,72413,1,0,0:0:0:0:
320,192,72511,1,0,0:0:0:0:
64,192,72610,1,4,0:0:0:0:
192,192,72610,1,0,0:0:0:0:
448,192,72642,1,0,0:0:0:0:
320,192,72708,1,0,0:0:0:0:
64,192,72806,128,6,72862:0:0:0:0:
192,192,72806,1,0,0:0:0:70:LR_NBell_G#6S.wav
320,192,72862,1,0,0:0:0:0:
448,192,72918,1,0,0:0:0:0:
64,192,72974,1,0,0:0:0:0:
320,192,73100,1,0,0:0:0:70:LR_NBell_F#6S.wav
64,192,73198,1,4,0:0:0:0:
448,192,73198,1,0,0:0:0:0:
192,192,73296,1,0,0:0:0:0:
192,192,73394,128,0,73590:0:0:0:70:LR_NBell_E6S.wav
320,192,73590,128,6,73646:0:0:0:0:
448,192,73590,1,0,0:0:0:70:LR_NBell_D#6S.wav
192,192,73646,1,0,0:0:0:0:
64,192,73702,1,0,0:0:0:0:
448,192,73758,1,0,0:0:0:0:
64,192,73884,1,4,0:0:0:0:
192,192,73884,1,0,0:0:0:70:LR_NBell_C#6S.wav
448,192,73982,1,0,0:0:0:0:
448,192,74080,1,0,0:0:0:0:
64,192,74178,1,4,0:0:0:0:
320,192,74178,128,0,74374:0:0:0:70:LR_NBell_B5S.wav
64,192,74374,128,6,74430:0:0:0:0:
192,192,74374,1,0,0:0:0:70:LR_NBell_D#6S.wav
320,192,74430,1,0,0:0:0:0:
448,192,74486,1,0,0:0:0:0:
64,192,74542,1,0,0:0:0:0:
320,192,74668,1,0,0:0:0:0:
64,192,74766,1,4,0:0:0:0:
192,192,74766,1,0,0:0:0:0:
320,192,74864,1,0,0:0:0:0:
320,192,74962,1,0,0:0:0:0:
64,192,74995,1,0,0:0:0:0:
320,192,75159,1,4,0:0:0:0:
448,192,75159,1,0,0:0:0:0:
192,192,75257,1,0,0:0:0:0:
192,192,75355,1,0,0:0:0:0:
448,192,75387,1,0,0:0:0:0:
64,192,75453,1,4,0:0:0:0:
320,192,75453,1,0,0:0:0:0:
448,192,75551,1,0,0:0:0:0:
448,192,75649,1,0,0:0:0:0:
64,192,75747,1,4,0:0:0:0:
320,192,75747,1,0,0:0:0:0:
192,192,75779,1,0,0:0:0:0:
320,192,75845,1,0,0:0:0:0:
64,192,75943,128,14,76139:0:0:0:0:
192,192,75943,128,0,76041:0:0:0:70:LR_NBell_B5S.wav
448,192,76041,128,0,76237:0:0:0:0:
320,192,76111,1,0,0:0:0:0:
192,192,76167,1,0,0:0:0:0:
64,192,76223,1,0,0:0:0:0:
64,192,76335,1,4,0:0:0:0:
192,192,76335,1,0,0:0:0:0:
320,192,76466,1,0,0:0:0:0:
192,192,76498,1,0,0:0:0:0:
64,192,76662,1,0,0:0:0:0:
320,192,76727,1,4,0:0:0:0:
448,192,76727,1,0,0:0:0:0:
192,192,76793,1,0,0:0:0:0:
320,192,76825,1,0,0:0:0:0:
448,192,76956,1,0,0:0:0:0:
64,192,77021,1,4,0:0:0:0:
192,192,77021,1,0,0:0:0:0:
320,192,77152,1,0,0:0:0:0:
192,192,77185,1,0,0:0:0:0:
320,192,77315,1,4,0:0:0:0:
448,192,77315,1,0,0:0:0:0:
64,192,77348,1,0,0:0:0:0:
192,192,77511,128,6,77610:0:0:0:0:
448,192,77511,128,0,77708:0:0:0:70:LR_NBell_A#5S.wav
64,192,77610,1,0,0:0:0:0:
320,192,77680,1,0,0:0:0:0:
192,192,77736,1,0,0:0:0:0:
64,192,77792,1,0,0:0:0:0:
320,192,77904,1,4,0:0:0:0:
448,192,77904,1,0,0:0:0:0:
64,192,77969,1,0,0:0:0:0:
192,192,78034,1,0,0:0:0:0:
320,192,78067,1,0,0:0:0:0:
448,192,78217,1,0,0:0:0:0:
64,192,78296,1,4,0:0:0:0:
192,192,78296,1,0,0:0:0:0:
320,192,78361,1,0,0:0:0:0:
192,192,78394,1,0,0:0:0:0:
64,192,78492,1,0,0:0:0:0:
320,192,78590,1,4,0:0:0:0:
448,192,78590,1,0,0:0:0:0:
192,192,78721,1,0,0:0:0:0:
320,192,78753,1,0,0:0:0:0:
64,192,78884,1,4,0:0:0:0:
192,192,78884,1,0,0:0:0:0:
448,192,78917,1,0,0:0:0:0:
64,192,79080,128,6,79178:0:0:0:0:
448,192,79080,128,0,79276:0:0:0:70:LR_NBell_G#6S.wav
192,192,79178,1,0,0:0:0:0:
320,192,79248,1,0,0:0:0:0:
192,192,79304,1,0,0:0:0:0:
448,192,79374,1,0,0:0:0:70:LR_NBell_F#6S.wav
64,192,79472,1,4,0:0:0:0:
192,192,79472,1,0,0:0:0:0:
64,192,79570,1,0,0:0:0:0:
448,192,79619,1,0,0:0:0:0:
320,192,79668,1,0,0:0:0:70:LR_NBell_E6S.wav
192,192,79766,1,0,0:0:0:0:
320,192,79864,128,6,79920:0:0:0:0:
448,192,79864,128,0,79962:0:0:0:70:LR_NBell_D#6S.wav
192,192,80028,1,0,0:0:0:0:
448,192,80093,1,0,0:0:0:0:
64,192,80159,1,4,0:0:0:0:
192,192,80159,1,0,0:0:0:70:LR_NBell_C#6S.wav
320,192,80289,1,0,0:0:0:0:
192,192,80322,1,0,0:0:0:0:
64,192,80453,1,4,0:0:0:0:
448,192,80453,1,0,0:0:0:70:LR_NBell_B5S.wav
320,192,80485,1,0,0:0:0:0:
192,192,80518,1,0,0:0:0:0:
64,192,80649,128,6,80845:0:0:0:0:
320,192,80649,128,0,80747:0:0:0:70:LR_NBell_D#6S.wav
448,192,80747,128,0,80943:0:0:0:0:
320,192,80817,1,0,0:0:0:0:
192,192,80873,1,0,0:0:0:0:
64,192,80929,1,0,0:0:0:0:
320,192,81041,1,4,0:0:0:0:
448,192,81041,1,0,0:0:0:0:
64,192,81139,128,0,81237:0:0:0:0:
448,192,81188,1,0,0:0:0:0:
192,192,81237,1,0,0:0:0:0:
320,192,81321,1,0,0:0:0:0:
448,192,81377,1,0,0:0:0:0:
64,192,81433,1,4,0:0:0:0:
192,192,81433,1,0,0:0:0:0:
448,192,81531,128,0,81629:0:0:0:0:
64,192,81596,1,0,0:0:0:0:
192,192,81629,1,0,0:0:0:0:
64,192,81727,1,4,0:0:0:0:
448,192,81727,1,0,0:0:0:0:
448,192,81825,1,0,0:0:0:0:
192,192,81874,1,0,0:0:0:0:
320,192,81891,1,0,0:0:0:0:
64,192,81923,128,0,82217:0:0:0:0:
320,192,82021,1,4,0:0:0:0:
448,192,82021,1,0,0:0:0:0:
192,192,82054,1,0,0:0:0:0:
320,192,82217,1,14,0:0:0:0:
448,192,82217,1,0,0:0:0:70:LR_NBell_B5L.wav
64,192,82315,1,0,0:0:0:0:
192,192,82381,1,0,0:0:0:0:
320,192,82413,1,0,0:0:0:0:
448,192,82511,1,0,0:0:0:0:
320,192,82577,1,0,0:0:0:0:
64,192,82610,1,4,0:0:0:0:
192,192,82610,1,0,0:0:0:0:
448,192,82675,1,0,0:0:0:0:
192,192,82708,1,0,0:0:0:0:
320,192,82773,1,0,0:0:0:0:
64,192,82806,128,0,83002:0:0:0:0:
320,192,83002,1,4,0:0:0:0:
448,192,83002,1,0,0:0:0:0:
192,192,83058,1,0,0:0:0:0:
64,192,83114,1,0,0:0:0:0:
448,192,83170,1,0,0:0:0:0:
64,192,83296,1,4,0:0:0:0:
192,192,83296,1,0,0:0:0:0:
320,192,83394,1,0,0:0:0:0:
320,192,83492,1,0,0:0:0:0:
64,192,83590,1,4,0:0:0:0:
448,192,83590,128,0,83786:0:0:0:0:
64,192,83786,1,6,0:0:0:0:
192,192,83786,1,0,0:0:0:70:LR_NBell_A#5L.wav
320,192,83851,1,0,0:0:0:0:
448,192,83884,1,0,0:0:0:0:
192,192,83982,1,0,0:0:0:0:
320,192,84015,1,0,0:0:0:0:
64,192,84080,1,0,0:0:0:0:
192,192,84145,1,0,0:0:0:0:
320,192,84178,1,4,0:0:0:0:
448,192,84178,1,0,0:0:0:0:
192,192,84276,1,0,0:0:0:0:
64,192,84309,1,0,0:0:0:0:
320,192,84374,1,0,0:0:0:0:
192,192,84440,1,0,0:0:0:0:
448,192,84472,1,0,0:0:0:0:
64,192,84570,1,4,0:0:0:0:
192,192,84570,1,0,0:0:0:0:
320,192,84668,1,0,0:0:0:0:
320,192,84766,1,0,0:0:0:0:
192,192,84799,1,0,0:0:0:0:
64,192,84864,1,4,0:0:0:0:
448,192,84864,1,0,0:0:0:0:
192,192,84962,1,0,0:0:0:0:
192,192,85061,1,0,0:0:0:0:
320,192,85159,1,4,0:0:0:0:
448,192,85159,1,0,0:0:0:0:
64,192,85191,1,0,0:0:0:0:
320,192,85355,1,6,0:0:0:0:
448,192,85355,128,0,85411:0:0:0:70:LR_NBell_G#6L.wav
192,192,85411,1,0,0:0:0:0:
64,192,85467,1,0,0:0:0:0:
448,192,85523,1,0,0:0:0:0:
320,192,85649,1,0,0:0:0:70:LR_NBell_F#6L.wav
64,192,85747,1,4,0:0:0:0:
448,192,85747,1,0,0:0:0:0:
192,192,85845,1,0,0:0:0:0:
320,192,85910,1,0,0:0:0:70:LR_NBell_E6L.wav
192,192,85943,128,0,86139:0:0:0:0:
64,192,86139,128,6,86195:0:0:0:0:
448,192,86139,1,0,0:0:0:70:LR_NBell_D#6L.wav
320,192,86195,1,0,0:0:0:0:
192,192,86251,1,0,0:0:0:0:
448,192,86307,1,0,0:0:0:0:
64,192,86433,1,4,0:0:0:0:
192,192,86433,1,0,0:0:0:70:LR_NBell_C#6L.wav
448,192,86531,1,0,0:0:0:0:
448,192,86629,1,0,0:0:0:0:
192,192,86678,1,0,0:0:0:70:LR_NBell_B5L.wav
64,192,86727,1,4,0:0:0:0:
320,192,86727,128,0,86923:0:0:0:0:
64,192,86923,1,6,0:0:0:0:
448,192,86923,128,0,86979:0:0:0:70:LR_NBell_D#6L.wav
192,192,86979,1,0,0:0:0:0:
320,192,87035,1,0,0:0:0:0:
64,192,87091,1,0,0:0:0:0:
448,192,87217,1,0,0:0:0:0:
64,192,87315,1,4,0:0:0:0:
192,192,87315,1,0,0:0:0:0:
448,192,87413,1,0,0:0:0:0:
448,192,87511,1,0,0:0:0:0:
192,192,87544,1,0,0:0:0:0:
320,192,87708,1,4,0:0:0:0:
448,192,87708,1,0,0:0:0:0:
64,192,87806,1,0,0:0:0:0:
64,192,87904,1,0,0:0:0:0:
320,192,87936,1,0,0:0:0:0:
192,192,88002,1,4,0:0:0:0:
448,192,88002,1,0,0:0:0:0:
320,192,88100,1,0,0:0:0:0:
320,192,88198,1,0,0:0:0:0:
64,192,88296,1,4,0:0:0:0:
192,192,88296,1,0,0:0:0:0:
448,192,88328,1,0,0:0:0:0:
320,192,88361,1,0,0:0:0:0:
64,192,88492,1,14,0:0:0:0:
448,192,88492,1,0,0:0:0:70:LR_NBell_B5L.wav
192,192,88590,1,0,0:0:0:0:
320,192,88688,1,0,0:0:0:0:
192,192,88721,1,0,0:0:0:0:
448,192,88786,1,0,0:0:0:0:
320,192,88851,1,0,0:0:0:0:
64,192,88884,1,4,0:0:0:0:
192,192,88884,1,0,0:0:0:0:
448,192,88982,1,0,0:0:0:0:
320,192,89015,1,0,0:0:0:0:
64,192,89047,1,0,0:0:0:0:
192,192,89080,1,0,0:0:0:0:
64,192,89211,1,0,0:0:0:0:
320,192,89276,1,4,0:0:0:0:
448,192,89276,1,0,0:0:0:0:
192,192,89342,1,0,0:0:0:0:
320,192,89374,1,0,0:0:0:0:
448,192,89505,1,0,0:0:0:0:
64,192,89570,1,4,0:0:0:0:
192,192,89570,1,0,0:0:0:0:
320,192,89701,1,0,0:0:0:0:
192,192,89734,1,0,0:0:0:0:
320,192,89864,1,4,0:0:0:0:
448,192,89864,1,0,0:0:0:0:
64,192,89897,1,0,0:0:0:0:
64,192,90061,1,6,0:0:0:0:
192,192,90061,1,0,0:0:0:70:LR_NBell_A#5L.wav
448,192,90093,1,0,0:0:0:0:
320,192,90126,1,0,0:0:0:0:
192,192,90191,1,0,0:0:0:0:
64,192,90224,1,0,0:0:0:0:
320,192,90289,1,0,0:0:0:0:
448,192,90322,1,0,0:0:0:0:
192,192,90355,1,0,0:0:0:0:
64,192,90420,1,0,0:0:0:0:
320,192,90453,1,4,0:0:0:0:
448,192,90453,1,0,0:0:0:0:
192,192,90551,1,0,0:0:0:0:
320,192,90583,1,0,0:0:0:0:
448,192,90616,1,0,0:0:0:0:
448,192,90779,1,0,0:0:0:0:
64,192,90845,1,4,0:0:0:0:
192,192,90845,1,0,0:0:0:0:
320,192,90910,1,0,0:0:0:0:
192,192,90943,1,0,0:0:0:0:
64,192,91041,1,0,0:0:0:0:
320,192,91139,1,4,0:0:0:0:
448,192,91139,1,0,0:0:0:0:
192,192,91270,1,0,0:0:0:0:
320,192,91302,1,0,0:0:0:0:
64,192,91433,1,4,0:0:0:0:
192,192,91433,1,0,0:0:0:0:
448,192,91466,1,0,0:0:0:0:
320,192,91629,128,6,91727:0:0:0:0:
448,192,91629,128,0,91825:0:0:0:70:LR_NBell_G#6L.wav
192,192,91727,1,0,0:0:0:0:
64,192,91797,1,0,0:0:0:0:
320,192,91853,1,0,0:0:0:0:
448,192,91923,1,0,0:0:0:70:LR_NBell_F#6L.wav
64,192,92021,1,4,0:0:0:0:
192,192,92021,1,0,0:0:0:0:
64,192,92119,1,0,0:0:0:0:
448,192,92185,1,0,0:0:0:70:LR_NBell_E6L.wav
320,192,92217,1,0,0:0:0:0:
192,192,92315,1,0,0:0:0:0:
320,192,92413,128,6,92462:0:0:0:0:
448,192,92413,128,0,92511:0:0:0:70:LR_NBell_D#6L.wav
64,192,92479,1,0,0:0:0:0:
320,192,92577,1,0,0:0:0:0:
448,192,92642,1,0,0:0:0:0:
64,192,92708,1,4,0:0:0:0:
192,192,92708,1,0,0:0:0:70:LR_NBell_C#6L.wav
320,192,92838,1,0,0:0:0:0:
192,192,92871,1,0,0:0:0:0:
192,192,92969,1,0,0:0:0:70:LR_NBell_B5L.wav
320,192,93002,1,4,0:0:0:0:
448,192,93002,1,0,0:0:0:0:
64,192,93034,1,0,0:0:0:0:
64,192,93198,128,2,93394:0:0:0:0:
192,192,93198,1,0,0:0:0:70:LR_NBell_D#6L.wav
448,192,93296,128,0,93492:0:0:0:0:
320,192,93366,1,0,0:0:0:0:
192,192,93422,1,0,0:0:0:0:
64,192,93478,1,0,0:0:0:0:
320,192,93590,1,0,0:0:0:0:
64,192,93688,128,0,93786:0:0:0:0:
448,192,93737,1,0,0:0:0:0:
192,192,93786,1,0,0:0:0:0:
320,192,93870,1,0,0:0:0:0:
192,192,93926,1,0,0:0:0:0:
320,192,93982,1,0,0:0:0:0:
448,192,94080,128,0,94178:0:0:0:0:
64,192,94145,1,0,0:0:0:0:
192,192,94178,1,0,0:0:0:0:
448,192,94374,1,0,0:0:0:0:
192,192,94423,1,0,0:0:0:0:
320,192,94440,1,0,0:0:0:0:
64,192,94472,128,0,94766:0:0:0:0:
320,192,94603,1,0,0:0:0:0:
192,192,94636,1,0,0:0:0:0:
320,192,94766,128,2,94822:0:0:0:0:
448,192,94766,128,0,94864:0:0:0:0:
64,192,94864,128,0,95061:0:0:0:0:
320,192,94962,128,0,95061:0:0:0:0:
320,192,95159,128,0,95257:0:0:0:0:
64,192,95355,128,0,95453:0:0:0:0:
448,192,95551,128,0,95649:0:0:0:0:
448,192,95747,128,0,95845:0:0:0:0:
64,192,95992,128,0,96237:0:0:0:0:
448,192,96172,128,0,96335:0:0:0:0:
64,192,96335,128,2,96433:0:0:0:0:
192,192,96335,128,0,96391:0:0:0:0:
320,192,96531,128,0,96629:0:0:0:0:
320,192,96727,128,0,97119:0:0:0:0:
64,192,96923,128,0,97413:0:0:0:0:
448,192,97119,128,0,97217:0:0:0:0:
448,192,97315,128,0,97577:0:0:0:0:
192,192,97511,128,0,97642:0:0:0:0:
64,192,97577,128,0,97708:0:0:0:0:
320,192,97708,1,0,0:0:0:0:
448,192,97740,1,0,0:0:0:0:
320,192,97904,128,4,97960:0:0:0:0:
448,192,97904,128,2,98002:0:0:0:0:
64,192,98100,128,0,98296:0:0:0:0:
192,192,98198,128,0,98296:0:0:0:0:
320,192,98296,1,4,0:0:0:0:
448,192,98296,128,0,98525:0:0:0:0:
192,192,98525,1,0,0:0:0:0:
64,192,98688,128,4,98786:0:0:0:0:
192,192,98688,128,2,98744:0:0:0:0:
448,192,98884,128,0,98982:0:0:0:0:
64,192,98982,1,4,0:0:0:0:
192,192,98982,1,0,0:0:0:0:
448,192,99080,128,0,99276:0:0:0:0:
64,192,99276,1,4,0:0:0:0:
320,192,99276,1,0,0:0:0:0:
192,192,99309,1,0,0:0:0:0:
64,192,99472,128,4,99570:0:0:0:0:
192,192,99472,128,2,99528:0:0:0:0:
448,192,99668,1,0,0:0:0:0:
192,192,99864,1,4,0:0:0:0:
448,192,99864,1,0,0:0:0:0:
192,192,100061,1,0,0:0:0:0:
64,192,100257,128,4,100355:0:0:0:0:
320,192,100257,1,0,0:0:0:0:
64,192,100453,128,0,100747:0:0:0:0:
192,192,100551,1,4,0:0:0:0:
320,192,100551,1,0,0:0:0:0:
448,192,100649,128,0,100845:0:0:0:0:
64,192,100845,1,4,0:0:0:0:
192,192,100845,1,0,0:0:0:0:
320,192,100877,1,0,0:0:0:0:
320,192,101041,128,6,101139:0:0:0:0:
448,192,101041,128,8,101237:0:0:0:0:
192,192,101139,128,0,101335:0:0:0:0:
64,192,101237,128,0,101335:0:0:0:0:
320,192,101433,128,4,101727:0:0:0:0:
448,192,101433,128,0,101727:0:0:0:0:
64,192,101629,128,0,101727:0:0:0:0:
64,192,101825,1,4,0:0:0:0:
192,192,101825,128,0,102021:0:0:0:0:
320,192,102021,128,0,102217:0:0:0:0:
192,192,102119,128,4,102217:0:0:0:0:
448,192,102119,1,0,0:0:0:0:
64,192,102217,128,0,102413:0:0:0:0:
192,192,102413,1,4,0:0:0:0:
448,192,102413,1,0,0:0:0:0:
320,192,102446,1,0,0:0:0:0:
64,192,102610,128,4,102708:0:0:0:0:
192,192,102610,128,2,102666:0:0:0:0:
320,192,102806,128,0,102904:0:0:0:0:
320,192,103002,1,4,0:0:0:0:
448,192,103002,1,0,0:0:0:0:
64,192,103198,128,0,103394:0:0:0:0:
192,192,103296,128,0,103394:0:0:0:0:
320,192,103394,1,4,0:0:0:0:
448,192,103394,128,0,103688:0:0:0:0:
320,192,103590,128,0,103688:0:0:0:0:
64,192,103688,1,4,0:0:0:0:
192,192,103688,1,0,0:0:0:0:
320,192,103786,128,0,104080:0:0:0:0:
64,192,103982,128,4,104080:0:0:0:0:
448,192,103982,1,0,0:0:0:0:
192,192,104080,128,0,104178:0:0:0:0:
320,192,104178,128,4,104234:0:0:0:0:
448,192,104178,128,2,104276:0:0:0:0:
64,192,104374,128,0,104472:0:0:0:0:
64,192,104570,1,4,0:0:0:0:
448,192,104570,128,0,104766:0:0:0:0:
192,192,104766,1,0,0:0:0:0:
320,192,104799,1,0,0:0:0:0:
64,192,104962,128,4,105061:0:0:0:0:
192,192,104962,128,2,105018:0:0:0:0:
448,192,105159,128,0,105355:0:0:0:0:
192,192,105257,1,4,0:0:0:0:
320,192,105257,128,0,105355:0:0:0:0:
64,192,105355,128,0,105551:0:0:0:0:
192,192,105551,1,4,0:0:0:0:
448,192,105551,1,0,0:0:0:0:
320,192,105583,1,0,0:0:0:0:
320,192,105747,128,4,105803:0:0:0:0:
448,192,105747,128,2,105845:0:0:0:0:
192,192,105943,128,0,106041:0:0:0:0:
192,192,106139,128,0,106629:0:0:0:0:
64,192,106335,128,0,106727:0:0:0:0:
320,192,106335,128,0,106433:0:0:0:0:
320,192,106531,128,0,107119:0:0:0:0:
192,192,106727,128,0,106923:0:0:0:0:
448,192,106727,128,0,106825:0:0:0:0:
448,192,106923,128,0,107315:0:0:0:0:
64,192,107119,128,0,107217:0:0:0:0:
192,192,107119,128,0,107217:0:0:0:0:
64,192,107315,1,8,0:0:0:0:
192,192,107315,128,2,107610:0:0:0:0:
448,192,107413,128,0,108688:0:0:0:0:
320,192,107438,128,0,107610:0:0:0:0:
64,192,107610,1,0,0:0:0:0:
192,192,107708,1,8,0:0:0:0:
320,192,107708,1,0,0:0:0:0:
192,192,107904,1,0,0:0:0:0:
64,192,108100,1,8,0:0:0:0:
320,192,108100,1,0,0:0:0:0:
320,192,108394,1,0,0:0:0:0:
64,192,108492,1,8,0:0:0:0:
192,192,108492,1,0,0:0:0:0:
192,192,108688,128,0,108786:0:0:0:0:
320,192,108884,1,8,0:0:0:0:
448,192,108884,128,2,108949:0:0:0:0:
192,192,108982,128,0,109178:0:0:0:0:
64,192,109031,128,0,109178:0:0:0:0:
320,192,109080,128,0,109178:0:0:0:0:
448,192,109178,1,0,0:0:0:0:
64,192,109276,1,8,0:0:0:0:
192,192,109276,1,0,0:0:0:0:
448,192,109472,1,0,0:0:0:0:
192,192,109668,1,8,0:0:0:0:
320,192,109668,128,0,109766:0:0:0:0:
64,192,109864,128,0,110257:0:0:0:0:
192,192,110060,128,8,110355:0:0:0:0:
448,192,110060,1,0,0:0:0:0:
448,192,110257,128,0,110453:0:0:0:0:
320,192,110355,128,0,110453:0:0:0:0:
64,192,110453,128,8,110747:0:0:0:0:
192,192,110453,1,2,0:0:0:0:
448,192,110551,128,0,111825:0:0:0:0:
320,192,110575,128,0,110747:0:0:0:0:
192,192,110747,1,0,0:0:0:0:
64,192,110845,1,8,0:0:0:0:
320,192,110845,1,0,0:0:0:0:
64,192,111041,1,0,0:0:0:0:
192,192,111237,1,8,0:0:0:0:
320,192,111237,1,0,0:0:0:0:
320,192,111531,1,0,0:0:0:0:
64,192,111629,1,8,0:0:0:0:
192,192,111629,1,0,0:0:0:0:
192,192,111825,128,0,111923:0:0:0:0:
320,192,112021,1,8,0:0:0:0:
448,192,112021,128,2,112087:0:0:0:0:
192,192,112119,128,0,112315:0:0:0:0:
64,192,112168,128,0,112315:0:0:0:0:
320,192,112217,128,0,112315:0:0:0:0:
448,192,112315,1,0,0:0:0:0:
192,192,112413,1,8,0:0:0:0:
320,192,112413,1,0,0:0:0:0:
64,192,112511,128,0,112708:0:0:0:0:
448,192,112610,128,0,112806:0:0:0:0:
64,192,112806,128,8,113002:0:0:0:0:
192,192,112806,1,0,0:0:0:0:
320,192,112904,128,0,113100:0:0:0:0:
448,192,113002,128,0,113100:0:0:0:0:
192,192,113100,1,0,0:0:0:0:
64,192,113198,128,8,113296:0:0:0:0:
320,192,113198,1,0,0:0:0:0:
448,192,113296,128,0,113492:0:0:0:0:
64,192,113459,128,0,113590:0:0:0:0:
192,192,113492,128,0,113851:0:0:0:0:
320,192,113590,1,8,0:0:0:0:
448,192,113590,128,2,113786:0:0:0:0:
64,192,113688,128,0,113884:0:0:0:0:
448,192,113851,1,0,0:0:0:0:
320,192,113884,1,0,0:0:0:0:
64,192,113982,1,8,0:0:0:0:
448,192,113982,1,0,0:0:0:0:
320,192,114178,128,0,114276:0:0:0:0:
192,192,114374,128,8,114668:0:0:0:0:
448,192,114374,1,0,0:0:0:0:
64,192,114570,128,0,114668:0:0:0:0:
320,192,114668,1,0,0:0:0:0:
64,192,114766,1,8,0:0:0:0:
192,192,114766,1,0,0:0:0:0:
448,192,114962,128,0,115159:0:0:0:0:
320,192,115060,128,0,115420:0:0:0:0:
64,192,115159,128,8,115355:0:0:0:0:
192,192,115159,1,2,0:0:0:0:
448,192,115257,128,0,115453:0:0:0:0:
192,192,115420,1,0,0:0:0:0:
64,192,115453,1,0,0:0:0:0:
320,192,115551,1,8,0:0:0:0:
448,192,115551,1,0,0:0:0:0:
448,192,115747,128,0,116041:0:0:0:0:
192,192,115943,128,8,116041:0:0:0:0:
320,192,115943,1,0,0:0:0:0:
64,192,116139,128,0,116531:0:0:0:0:
192,192,116237,1,0,0:0:0:0:
320,192,116335,128,8,116727:0:0:0:0:
448,192,116335,1,0,0:0:0:0:
192,192,116531,128,0,116727:0:0:0:0:
64,192,116727,1,8,0:0:0:0:
448,192,116727,128,2,117021:0:0:0:0:
320,192,116825,128,0,117119:0:0:0:0:
192,192,116850,128,0,117021:0:0:0:0:
64,192,117021,1,0,0:0:0:0:
192,192,117119,1,8,0:0:0:0:
448,192,117119,128,0,117315:0:0:0:0:
64,192,117315,128,0,119472:0:0:0:0:
320,192,117511,1,8,0:0:0:0:
448,192,117511,1,0,0:0:0:0:
320,192,117806,1,0,0:0:0:0:
192,192,117904,1,8,0:0:0:0:
448,192,117904,1,0,0:0:0:0:
192,192,118296,128,2,118361:0:0:0:0:
320,192,118296,128,0,118427:0:0:0:0:
448,192,118361,128,0,118623:0:0:0:0:
192,192,118427,1,0,0:0:0:0:
320,192,118525,1,0,0:0:0:0:
320,192,118623,1,0,0:0:0:0:
448,192,118721,1,0,0:0:0:0:
448,192,118819,1,0,0:0:0:0:
320,192,118917,1,0,0:0:0:0:
320,192,119015,1,0,0:0:0:0:
192,192,119113,1,0,0:0:0:0:
192,192,119211,1,0,0:0:0:0:
448,192,119309,1,0,0:0:0:0:
448,192,119407,1,0,0:0:0:0:
320,192,119505,1,0,0:0:0:0:
320,192,119603,1,0,0:0:0:0:
64,192,119701,1,0,0:0:0:0:
64,192,119799,128,0,120257:0:0:0:0:
192,192,119864,128,8,120257:0:0:0:0:
320,192,119864,128,2,120257:0:0:0:0:
448,192,119864,128,0,120257:0:0:0:0:
64,192,120649,1,8,0:0:0:0:
192,192,120649,1,2,0:0:0:0:
320,192,120649,1,0,0:0:0:0:
448,192,120649,1,0,0:0:0:0:
192,192,121433,1,8,0:0:0:0:
320,192,121433,1,2,0:0:0:0:
448,192,121433,1,0,0:0:0:0:
320,192,121825,1,8,0:0:0:0:
448,192,121825,1,2,0:0:0:0:
448,192,122217,1,10,0:0:0:0:
192,192,122381,128,0,122511:0:0:0:0:
64,192,122413,128,0,122479:0:0:0:0:
320,192,122610,1,8,0:0:0:0:
448,192,122610,1,2,0:0:0:0:
192,192,122666,1,0,0:0:0:0:
64,192,122722,1,0,0:0:0:0:
448,192,122778,1,0,0:0:0:0:
192,192,122834,1,0,0:0:0:0:
320,192,122890,1,0,0:0:0:0:
64,192,122946,1,0,0:0:0:0:
320,192,123002,1,14,0:0:0:0:
448,192,123002,128,0,123198:0:0:0:70:LR_NBell_B5S.wav
64,192,123100,128,0,123296:0:0:0:0:
192,192,123296,1,0,0:0:0:0:
320,192,123394,1,4,0:0:0:0:
448,192,123394,1,0,0:0:0:0:
64,192,123492,1,0,0:0:0:0:
64,192,123590,128,0,123786:0:0:0:0:
320,192,123786,1,4,0:0:0:0:
448,192,123786,1,0,0:0:0:0:
192,192,123842,1,0,0:0:0:0:
64,192,123898,1,0,0:0:0:0:
320,192,123954,1,0,0:0:0:0:
64,192,124080,1,4,0:0:0:0:
192,192,124080,1,0,0:0:0:0:
320,192,124178,1,0,0:0:0:0:
320,192,124276,1,0,0:0:0:0:
64,192,124374,1,4,0:0:0:0:
448,192,124374,128,0,124570:0:0:0:0:
64,192,124570,128,6,124626:0:0:0:0:
192,192,124570,1,0,0:0:0:70:LR_NBell_A#5S.wav
320,192,124626,1,0,0:0:0:0:
448,192,124682,1,0,0:0:0:0:
192,192,124738,1,0,0:0:0:0:
64,192,124864,1,0,0:0:0:0:
320,192,124962,1,4,0:0:0:0:
448,192,124962,1,0,0:0:0:0:
192,192,125060,1,0,0:0:0:0:
192,192,125159,1,0,0:0:0:0:
320,192,125191,1,0,0:0:0:0:
64,192,125355,1,4,0:0:0:0:
192,192,125355,1,0,0:0:0:0:
320,192,125453,1,0,0:0:0:0:
320,192,125551,1,0,0:0:0:0:
192,192,125583,1,0,0:0:0:0:
64,192,125649,1,4,0:0:0:0:
448,192,125649,1,0,0:0:0:0:
192,192,125747,1,0,0:0:0:0:
192,192,125845,1,0,0:0:0:0:
320,192,125943,1,4,0:0:0:0:
448,192,125943,1,0,0:0:0:0:
64,192,125976,1,0,0:0:0:0:
320,192,126139,1,6,0:0:0:0:
448,192,126139,128,0,126195:0:0:0:70:LR_NBell_G#6S.wav
192,192,126195,1,0,0:0:0:0:
64,192,126251,1,0,0:0:0:0:
448,192,126307,1,0,0:0:0:0:
320,192,126433,1,0,0:0:0:70:LR_NBell_F#6S.wav
64,192,126531,1,4,0:0:0:0:
192,192,126531,1,0,0:0:0:0:
320,192,126629,1,0,0:0:0:0:
320,192,126727,128,0,126923:0:0:0:70:LR_NBell_E6S.wav
64,192,126923,1,6,0:0:0:0:
192,192,126923,128,0,126979:0:0:0:70:LR_NBell_D#6S.wav
320,192,126979,1,0,0:0:0:0:
448,192,127035,1,0,0:0:0:0:
64,192,127091,1,0,0:0:0:0:
192,192,127217,1,4,0:0:0:0:
448,192,127217,1,0,0:0:0:70:LR_NBell_C#6S.wav
320,192,127315,1,0,0:0:0:0:
320,192,127413,1,0,0:0:0:0:
64,192,127511,1,4,0:0:0:0:
192,192,127511,128,0,127708:0:0:0:70:LR_NBell_B5S.wav
320,192,127708,1,6,0:0:0:0:
448,192,127708,128,0,127764:0:0:0:70:LR_NBell_D#6S.wav
192,192,127764,1,0,0:0:0:0:
64,192,127820,1,0,0:0:0:0:
448,192,127876,1,0,0:0:0:0:
320,192,128002,1,0,0:0:0:0:
64,192,128100,1,4,0:0:0:0:
192,192,128100,1,0,0:0:0:0:
320,192,128198,1,0,0:0:0:0:
320,192,128296,1,0,0:0:0:0:
64,192,128328,1,0,0:0:0:0:
320,192,128492,1,4,0:0:0:0:
448,192,128492,1,0,0:0:0:0:
192,192,128590,1,0,0:0:0:0:
192,192,128688,1,0,0:0:0:0:
448,192,128721,1,0,0:0:0:0:
64,192,128786,1,4,0:0:0:0:
320,192,128786,1,0,0:0:0:0:
448,192,128884,1,0,0:0:0:0:
448,192,128982,1,0,0:0:0:0:
64,192,129080,1,4,0:0:0:0:
320,192,129080,1,0,0:0:0:0:
192,192,129113,1,0,0:0:0:0:
64,192,129178,1,0,0:0:0:0:
320,192,129276,128,14,129374:0:0:0:0:
448,192,129276,128,0,129472:0:0:0:70:LR_NBell_B5S.wav
64,192,129374,128,0,129570:0:0:0:0:
192,192,129444,1,0,0:0:0:0:
320,192,129500,1,0,0:0:0:0:
448,192,129556,1,0,0:0:0:0:
320,192,129668,1,4,0:0:0:0:
448,192,129668,1,0,0:0:0:0:
64,192,129799,1,0,0:0:0:0:
320,192,129832,1,0,0:0:0:0:
448,192,129995,1,0,0:0:0:0:
64,192,130060,1,4,0:0:0:0:
192,192,130060,1,0,0:0:0:0:
448,192,130126,1,0,0:0:0:0:
192,192,130159,1,0,0:0:0:0:
64,192,130289,1,0,0:0:0:0:
320,192,130355,1,4,0:0:0:0:
448,192,130355,1,0,0:0:0:0:
192,192,130485,1,0,0:0:0:0:
320,192,130518,1,0,0:0:0:0:
64,192,130649,1,4,0:0:0:0:
192,192,130649,1,0,0:0:0:0:
448,192,130677,1,0,0:0:0:0:
320,192,130733,1,0,0:0:0:0:
192,192,130789,1,0,0:0:0:0:
64,192,130845,128,6,131041:0:0:0:0:
448,192,130845,128,0,130943:0:0:0:70:LR_NBell_A#5S.wav
448,192,131041,1,0,0:0:0:0:
320,192,131139,1,0,0:0:0:0:
64,192,131237,1,4,0:0:0:0:
192,192,131237,1,0,0:0:0:0:
320,192,131302,1,0,0:0:0:0:
448,192,131368,1,0,0:0:0:0:
192,192,131400,1,0,0:0:0:0:
64,192,131551,1,0,0:0:0:0:
320,192,131629,1,4,0:0:0:0:
448,192,131629,1,0,0:0:0:0:
64,192,131694,1,0,0:0:0:0:
320,192,131727,1,0,0:0:0:0:
448,192,131825,1,0,0:0:0:0:
64,192,131923,1,4,0:0:0:0:
192,192,131923,1,0,0:0:0:0:
320,192,132054,1,0,0:0:0:0:
192,192,132087,1,0,0:0:0:0:
320,192,132217,1,4,0:0:0:0:
448,192,132217,1,0,0:0:0:0:
64,192,132245,1,0,0:0:0:0:
192,192,132301,1,0,0:0:0:0:
320,192,132357,1,0,0:0:0:0:
64,192,132413,128,6,132511:0:0:0:0:
448,192,132413,128,0,132610:0:0:0:70:LR_NBell_G#6S.wav
64,192,132610,1,0,0:0:0:0:
192,192,132708,1,0,0:0:0:70:LR_NBell_F#6S.wav
320,192,132806,1,4,0:0:0:0:
448,192,132806,1,0,0:0:0:0:
448,192,132904,1,0,0:0:0:0:
64,192,132953,1,0,0:0:0:0:
192,192,133002,1,0,0:0:0:70:LR_NBell_E6S.wav
320,192,133100,1,0,0:0:0:0:
64,192,133198,128,6,133296:0:0:0:0:
192,192,133198,128,0,133254:0:0:0:70:LR_NBell_D#6S.wav
320,192,133361,1,0,0:0:0:0:
64,192,133427,1,0,0:0:0:0:
320,192,133492,1,4,0:0:0:0:
448,192,133492,1,0,0:0:0:70:LR_NBell_C#6S.wav
192,192,133623,1,0,0:0:0:0:
320,192,133655,1,0,0:0:0:0:
64,192,133786,1,4,0:0:0:0:
448,192,133786,1,0,0:0:0:70:LR_NBell_B5S.wav
192,192,133819,1,0,0:0:0:0:
320,192,133851,1,0,0:0:0:0:
192,192,133982,128,6,134080:0:0:0:0:
448,192,133982,128,0,134178:0:0:0:70:LR_NBell_D#6S.wav
64,192,134080,128,0,134276:0:0:0:0:
320,192,134178,1,0,0:0:0:0:
448,192,134276,1,0,0:0:0:0:
64,192,134374,1,4,0:0:0:0:
192,192,134374,1,0,0:0:0:0:
448,192,134472,128,0,134570:0:0:0:0:
320,192,134505,1,0,0:0:0:0:
192,192,134570,1,0,0:0:0:0:
64,192,134636,1,0,0:0:0:0:
320,192,134668,1,0,0:0:0:0:
192,192,134766,1,4,0:0:0:0:
448,192,134766,1,0,0:0:0:0:
64,192,134864,128,0,134962:0:0:0:0:
448,192,134930,1,0,0:0:0:0:
320,192,134962,1,0,0:0:0:0:
64,192,135061,1,4,0:0:0:0:
448,192,135061,1,0,0:0:0:0:
64,192,135159,1,0,0:0:0:0:
320,192,135208,1,0,0:0:0:0:
192,192,135224,1,0,0:0:0:0:
448,192,135257,128,0,135551:0:0:0:0:
64,192,135355,1,4,0:0:0:0:
192,192,135355,1,0,0:0:0:0:
320,192,135387,1,0,0:0:0:0:
64,192,135551,1,14,0:0:0:0:
192,192,135551,1,0,0:0:0:70:LR_NBell_B5L.wav
448,192,135649,1,0,0:0:0:0:
320,192,135714,1,0,0:0:0:0:
192,192,135747,1,0,0:0:0:0:
64,192,135845,1,0,0:0:0:0:
320,192,135910,1,0,0:0:0:0:
192,192,135943,1,4,0:0:0:0:
448,192,135943,1,0,0:0:0:0:
64,192,136008,1,0,0:0:0:0:
320,192,136041,1,0,0:0:0:0:
192,192,136106,1,0,0:0:0:0:
448,192,136139,128,0,136335:0:0:0:0:
64,192,136335,1,4,0:0:0:0:
192,192,136335,1,0,0:0:0:0:
320,192,136391,1,0,0:0:0:0:
448,192,136447,1,0,0:0:0:0:
64,192,136503,1,0,0:0:0:0:
320,192,136629,1,4,0:0:0:0:
448,192,136629,1,0,0:0:0:0:
192,192,136727,1,0,0:0:0:0:
192,192,136825,1,0,0:0:0:0:
64,192,136923,128,4,137119:0:0:0:0:
448,192,136923,1,0,0:0:0:0:
320,192,137119,1,6,0:0:0:0:
448,192,137119,1,0,0:0:0:70:LR_NBell_A#5L.wav
192,192,137185,1,0,0:0:0:0:
64,192,137217,1,0,0:0:0:0:
320,192,137315,1,0,0:0:0:0:
192,192,137348,1,0,0:0:0:0:
448,192,137413,1,0,0:0:0:0:
192,192,137479,1,0,0:0:0:0:
64,192,137511,1,4,0:0:0:0:
320,192,137511,1,0,0:0:0:0:
448,192,137610,1,0,0:0:0:0:
192,192,137642,1,0,0:0:0:0:
320,192,137708,1,0,0:0:0:0:
64,192,137773,1,0,0:0:0:0:
192,192,137806,1,0,0:0:0:0:
320,192,137904,1,4,0:0:0:0:
448,192,137904,1,0,0:0:0:0:
192,192,138002,1,0,0:0:0:0:
192,192,138100,1,0,0:0:0:0:
320,192,138132,1,0,0:0:0:0:
64,192,138198,1,4,0:0:0:0:
448,192,138198,1,0,0:0:0:0:
320,192,138296,1,0,0:0:0:0:
320,192,138394,1,0,0:0:0:0:
64,192,138492,1,4,0:0:0:0:
192,192,138492,1,0,0:0:0:0:
448,192,138525,1,0,0:0:0:0:
320,192,138590,1,0,0:0:0:0:
64,192,138688,128,6,138744:0:0:0:0:
192,192,138688,1,0,0:0:0:70:LR_NBell_G#6L.wav
320,192,138744,1,0,0:0:0:0:
448,192,138800,1,0,0:0:0:0:
64,192,138856,1,0,0:0:0:0:
192,192,138982,1,0,0:0:0:70:LR_NBell_F#6L.wav
64,192,139080,1,4,0:0:0:0:
448,192,139080,1,0,0:0:0:0:
448,192,139178,1,0,0:0:0:0:
192,192,139244,1,0,0:0:0:70:LR_NBell_E6L.wav
320,192,139276,128,0,139472:0:0:0:0:
64,192,139472,1,6,0:0:0:0:
448,192,139472,128,0,139528:0:0:0:70:LR_NBell_D#6L.wav
192,192,139528,1,0,0:0:0:0:
320,192,139584,1,0,0:0:0:0:
64,192,139640,1,0,0:0:0:0:
320,192,139766,1,4,0:0:0:0:
448,192,139766,1,0,0:0:0:70:LR_NBell_C#6L.wav
64,192,139864,1,0,0:0:0:0:
192,192,139962,1,0,0:0:0:0:
320,192,140011,1,0,0:0:0:70:LR_NBell_B5L.wav
192,192,140061,128,4,140257:0:0:0:0:
448,192,140061,1,0,0:0:0:0:
64,192,140257,128,6,140313:0:0:0:0:
448,192,140257,1,0,0:0:0:70:LR_NBell_D#6L.wav
320,192,140313,1,0,0:0:0:0:
192,192,140369,1,0,0:0:0:0:
448,192,140425,1,0,0:0:0:0:
64,192,140551,1,0,0:0:0:0:
320,192,140649,1,4,0:0:0:0:
448,192,140649,1,0,0:0:0:0:
64,192,140747,1,0,0:0:0:0:
64,192,140845,1,0,0:0:0:0:
320,192,140877,1,0,0:0:0:0:
64,192,141041,1,4,0:0:0:0:
192,192,141041,1,0,0:0:0:0:
448,192,141139,1,0,0:0:0:0:
448,192,141237,1,0,0:0:0:0:
192,192,141270,1,0,0:0:0:0:
64,192,141335,1,4,0:0:0:0:
320,192,141335,1,0,0:0:0:0:
192,192,141433,1,0,0:0:0:0:
192,192,141531,1,0,0:0:0:0:
320,192,141629,1,4,0:0:0:0:
448,192,141629,1,0,0:0:0:0:
64,192,141662,1,0,0:0:0:0:
192,192,141694,1,0,0:0:0:0:
64,192,141825,1,14,0:0:0:0:
448,192,141825,1,0,0:0:0:70:LR_NBell_B5L.wav
192,192,141923,1,0,0:0:0:0:
448,192,142021,1,0,0:0:0:0:
320,192,142054,1,0,0:0:0:0:
64,192,142119,1,0,0:0:0:0:
192,192,142185,1,0,0:0:0:0:
320,192,142217,1,4,0:0:0:0:
448,192,142217,1,0,0:0:0:0:
64,192,142315,1,0,0:0:0:0:
320,192,142348,1,0,0:0:0:0:
192,192,142381,1,0,0:0:0:0:
448,192,142413,1,0,0:0:0:0:
448,192,142544,1,0,0:0:0:0:
64,192,142610,1,4,0:0:0:0:
192,192,142610,1,0,0:0:0:0:
448,192,142675,1,0,0:0:0:0:
192,192,142708,1,0,0:0:0:0:
64,192,142838,1,0,0:0:0:0:
320,192,142904,1,4,0:0:0:0:
448,192,142904,1,0,0:0:0:0:
192,192,143034,1,0,0:0:0:0:
320,192,143067,1,0,0:0:0:0:
64,192,143198,1,4,0:0:0:0:
192,192,143198,1,0,0:0:0:0:
448,192,143230,1,0,0:0:0:0:
320,192,143394,1,6,0:0:0:0:
448,192,143394,1,0,0:0:0:70:LR_NBell_A#5L.wav
64,192,143427,1,0,0:0:0:0:
192,192,143459,1,0,0:0:0:0:
320,192,143525,1,0,0:0:0:0:
448,192,143557,1,0,0:0:0:0:
64,192,143623,1,0,0:0:0:0:
320,192,143655,1,0,0:0:0:0:
192,192,143688,1,0,0:0:0:0:
448,192,143753,1,0,0:0:0:0:
64,192,143786,1,4,0:0:0:0:
320,192,143786,1,0,0:0:0:0:
192,192,143884,1,0,0:0:0:0:
320,192,143917,1,0,0:0:0:0:
448,192,143949,1,0,0:0:0:0:
64,192,144100,1,0,0:0:0:0:
320,192,144178,1,4,0:0:0:0:
448,192,144178,1,0,0:0:0:0:
64,192,144244,1,0,0:0:0:0:
320,192,144276,1,0,0:0:0:0:
448,192,144374,1,0,0:0:0:0:
64,192,144472,1,4,0:0:0:0:
192,192,144472,1,0,0:0:0:0:
320,192,144603,1,0,0:0:0:0:
192,192,144636,1,0,0:0:0:0:
320,192,144766,1,4,0:0:0:0:
448,192,144766,1,0,0:0:0:0:
64,192,144799,1,0,0:0:0:0:
64,192,144962,128,6,145061:0:0:0:0:
448,192,144962,128,0,145159:0:0:0:70:LR_NBell_G#6L.wav
320,192,145061,1,0,0:0:0:0:
192,192,145131,1,0,0:0:0:0:
320,192,145187,1,0,0:0:0:0:
64,192,145257,1,0,0:0:0:70:LR_NBell_F#6L.wav
320,192,145355,1,4,0:0:0:0:
448,192,145355,1,0,0:0:0:0:
448,192,145453,1,0,0:0:0:0:
64,192,145518,1,0,0:0:0:70:LR_NBell_E6L.wav
192,192,145551,1,0,0:0:0:0:
320,192,145649,1,0,0:0:0:0:
64,192,145747,128,6,145845:0:0:0:0:
192,192,145747,128,0,145803:0:0:0:70:LR_NBell_D#6L.wav
448,192,145812,1,0,0:0:0:0:
320,192,145910,1,0,0:0:0:0:
64,192,145976,1,0,0:0:0:0:
320,192,146041,1,4,0:0:0:0:
448,192,146041,1,0,0:0:0:70:LR_NBell_C#6L.wav
192,192,146172,1,0,0:0:0:0:
320,192,146204,1,0,0:0:0:0:
320,192,146302,1,0,0:0:0:70:LR_NBell_B5L.wav
64,192,146335,1,4,0:0:0:0:
192,192,146335,1,0,0:0:0:0:
448,192,146368,1,0,0:0:0:0:
448,192,146531,128,2,146727:0:0:0:0:
64,192,146629,128,0,146825:0:0:0:0:
192,192,146699,1,0,0:0:0:0:
320,192,146755,1,0,0:0:0:0:
448,192,146811,1,0,0:0:0:0:
192,192,146923,1,0,0:0:0:0:
448,192,147021,128,0,147119:0:0:0:0:
64,192,147070,1,0,0:0:0:0:
320,192,147119,1,0,0:0:0:0:
192,192,147203,1,0,0:0:0:0:
320,192,147259,1,0,0:0:0:0:
192,192,147315,1,0,0:0:0:0:
64,192,147413,128,0,147511:0:0:0:0:
448,192,147479,1,0,0:0:0:0:
320,192,147511,1,0,0:0:0:0:
64,192,147708,1,0,0:0:0:0:
320,192,147757,1,0,0:0:0:0:
192,192,147773,1,0,0:0:0:0:
448,192,147806,128,0,148100:0:0:0:0:
192,192,147936,1,0,0:0:0:0:
320,192,147969,1,0,0:0:0:0:
64,192,148100,128,0,148492:0:0:0:0:
192,192,148132,128,0,148394:0:0:0:0:
448,192,148198,128,0,149570:0:0:0:0:
320,192,148492,128,0,148590:0:0:0:0:
320,192,148655,1,0,0:0:0:0:
320,192,148819,128,0,149080:0:0:0:0:
320,192,149178,128,0,149374:0:0:0:0:
192,192,149374,128,0,149668:0:0:0:0:
448,192,149668,128,0,150093:0:0:0:0:
320,192,149701,128,0,149962:0:0:0:0:
64,192,149766,128,0,151139:0:0:0:0:
192,192,150093,1,0,0:0:0:0:
448,192,150191,128,0,150322:0:0:0:0:
448,192,150387,128,0,150649:0:0:0:0:
448,192,150714,128,0,150910:0:0:0:0:
320,192,150910,128,0,151204:0:0:0:0:
192,192,151204,1,0,0:0:0:0:
64,192,151237,128,0,151662:0:0:0:0:
448,192,151270,128,0,151531:0:0:0:0:
320,192,151335,128,0,152708:0:0:0:0:
192,192,151662,128,0,151793:0:0:0:0:
448,192,151793,1,0,0:0:0:0:
448,192,151923,128,0,152185:0:0:0:0:
448,192,152283,128,0,152511:0:0:0:0:
192,192,152511,128,0,152806:0:0:0:0:
448,192,152806,128,0,153198:0:0:0:0:
64,192,152838,128,0,153100:0:0:0:0:
320,192,152904,128,0,154276:0:0:0:0:
192,192,153230,128,0,153492:0:0:0:0:
192,192,153557,128,0,153753:0:0:0:0:
192,192,153819,128,0,154015:0:0:0:0:
64,192,154080,128,0,154276:0:0:0:0:
448,192,154178,128,0,154342:0:0:0:0:
320,192,154342,1,0,0:0:0:0:
64,192,154374,128,0,154766:0:0:0:0:
192,192,154407,128,0,154668:0:0:0:0:
448,192,154472,128,0,155845:0:0:0:0:
320,192,154766,128,0,154930:0:0:0:0:
320,192,154995,1,0,0:0:0:0:
320,192,155093,128,0,155322:0:0:0:0:
64,192,155159,1,0,0:0:0:0:
320,192,155420,128,0,155616:0:0:0:0:
192,192,155616,128,0,155910:0:0:0:0:
64,192,155910,1,0,0:0:0:0:
448,192,155943,128,0,156335:0:0:0:0:
320,192,155976,128,0,156237:0:0:0:0:
64,192,156041,128,0,157413:0:0:0:0:
192,192,156172,1,0,0:0:0:0:
320,192,156368,1,0,0:0:0:0:
320,192,156466,128,0,156596:0:0:0:0:
320,192,156662,128,0,156923:0:0:0:0:
448,192,156727,1,0,0:0:0:0:
448,192,156989,128,0,157185:0:0:0:0:
192,192,157185,128,0,157283:0:0:0:0:
64,192,157511,128,0,157936:0:0:0:0:
448,192,157544,128,0,157806:0:0:0:0:
320,192,157610,128,0,158982:0:0:0:0:
192,192,157675,128,0,158067:0:0:0:0:
192,192,158132,128,0,158394:0:0:0:0:
448,192,158230,128,0,158492:0:0:0:0:
64,192,158296,1,0,0:0:0:0:
192,192,158492,128,0,158851:0:0:0:0:
448,192,158688,128,0,158982:0:0:0:0:
64,192,158851,128,0,159505:0:0:0:0:
448,192,159080,128,0,159472:0:0:0:0:
192,192,159113,128,0,159374:0:0:0:0:
320,192,159178,128,0,160551:0:0:0:0:
192,192,159505,128,0,159668:0:0:0:0:
192,192,159897,128,0,159995:0:0:0:0:
64,192,160257,128,0,160453:0:0:0:0:
448,192,160322,128,0,160453:0:0:0:0:
64,192,160649,128,4,161041:0:0:0:0:
320,192,160649,1,0,0:0:0:0:
192,192,160681,128,0,160943:0:0:0:0:
448,192,160747,128,0,161923:0:0:0:0:
320,192,160845,128,0,160943:0:0:0:0:
192,192,161041,128,0,161139:0:0:0:0:
192,192,161204,1,0,0:0:0:0:
192,192,161368,128,0,161564:0:0:0:0:
64,192,161433,1,0,0:0:0:0:
192,192,161727,128,0,161923:0:0:0:0:
64,192,161923,1,0,0:0:0:0:
320,192,161956,1,0,0:0:0:0:
192,192,161999,1,0,0:0:0:0:
448,192,162043,1,0,0:0:0:0:
192,192,162087,1,0,0:0:0:0:
320,192,162130,1,0,0:0:0:0:
64,192,162174,1,0,0:0:0:0:
448,192,162217,128,0,162610:0:0:0:0:
320,192,162250,128,0,162511:0:0:0:0:
64,192,162315,128,0,163688:0:0:0:0:
192,192,162413,1,0,0:0:0:0:
320,192,162610,1,4,0:0:0:0:
192,192,162642,1,0,0:0:0:0:
448,192,162740,128,0,162871:0:0:0:0:
448,192,162936,128,0,163198:0:0:0:0:
320,192,163002,1,0,0:0:0:0:
448,192,163263,128,0,163459:0:0:0:0:
320,192,163459,128,0,163753:0:0:0:0:
192,192,163753,1,0,0:0:0:0:
64,192,163786,128,0,164211:0:0:0:0:
448,192,163819,128,0,164080:0:0:0:0:
320,192,163884,128,0,165257:0:0:0:0:
448,192,164178,1,4,0:0:0:0:
192,192,164211,128,0,164342:0:0:0:0:
448,192,164342,1,0,0:0:0:0:
448,192,164472,128,0,164734:0:0:0:0:
64,192,164570,1,0,0:0:0:0:
448,192,164832,128,0,165061:0:0:0:0:
192,192,165061,128,0,165355:0:0:0:0:
448,192,165355,128,0,165747:0:0:0:0:
64,192,165387,128,0,165649:0:0:0:0:
320,192,165453,128,0,166825:0:0:0:0:
192,192,165551,1,0,0:0:0:0:
64,192,165747,1,4,0:0:0:0:
192,192,165779,128,0,166041:0:0:0:0:
192,192,166106,128,0,166302:0:0:0:0:
448,192,166139,1,0,0:0:0:0:
192,192,166368,128,0,166531:0:0:0:0:
64,192,166531,128,0,166825:0:0:0:0:
192,192,166629,128,0,166727:0:0:0:0:
448,192,166727,128,0,166923:0:0:0:0:
64,192,166923,128,4,167315:0:0:0:0:
320,192,166923,1,0,0:0:0:0:
192,192,166956,128,0,167217:0:0:0:0:
448,192,167021,128,0,168165:0:0:0:0:
320,192,167315,128,4,167479:0:0:0:0:
320,192,167544,1,0,0:0:0:0:
320,192,167642,128,0,167871:0:0:0:0:
64,192,167708,1,0,0:0:0:0:
320,192,167969,128,0,168165:0:0:0:0:
192,192,168165,1,0,0:0:0:0:
64,192,168198,1,0,0:0:0:0:
448,192,168230,1,0,0:0:0:0:
320,192,168274,1,0,0:0:0:0:
192,192,168318,1,0,0:0:0:0:
448,192,168361,1,0,0:0:0:0:
64,192,168405,1,0,0:0:0:0:
192,192,168448,1,0,0:0:0:0:
448,192,168492,128,0,168884:0:0:0:0:
320,192,168525,128,0,168786:0:0:0:0:
64,192,168590,128,0,169962:0:0:0:0:
192,192,168721,1,0,0:0:0:0:
192,192,168884,1,4,0:0:0:0:
320,192,168917,1,0,0:0:0:0:
320,192,169015,128,0,169145:0:0:0:0:
320,192,169211,128,0,169472:0:0:0:0:
448,192,169276,1,0,0:0:0:0:
448,192,169538,128,0,169734:0:0:0:0:
192,192,169734,128,0,169832:0:0:0:0:
64,192,170061,128,0,170485:0:0:0:0:
448,192,170093,128,0,170355:0:0:0:0:
320,192,170159,128,0,171531:0:0:0:0:
192,192,170224,128,0,170616:0:0:0:0:
448,192,170453,1,4,0:0:0:0:
192,192,170681,128,0,170943:0:0:0:0:
448,192,170779,128,0,171041:0:0:0:0:
64,192,170845,1,0,0:0:0:0:
192,192,171041,128,0,171400:0:0:0:0:
448,192,171237,128,0,171531:0:0:0:0:
64,192,171400,128,0,172054:0:0:0:0:
448,192,171629,128,0,172021:0:0:0:0:
192,192,171662,128,0,171923:0:0:0:0:
320,192,171727,128,0,172544:0:0:0:0:
192,192,172054,128,0,172250:0:0:0:0:
192,192,172413,128,0,172806:0:0:0:0:
64,192,172806,128,0,173002:0:0:0:0:
448,192,172871,128,0,173002:0:0:0:0:
64,192,173198,128,4,173394:0:0:0:0:
192,192,173198,1,8,0:0:0:0:
448,192,173296,128,0,173492:0:0:0:0:
320,192,173492,1,0,0:0:0:0:
64,192,173590,1,4,0:0:0:0:
192,192,173590,1,0,0:0:0:0:
448,192,173688,1,0,0:0:0:0:
448,192,173786,1,0,0:0:0:0:
320,192,173819,1,0,0:0:0:0:
64,192,173982,1,4,0:0:0:0:
192,192,173982,1,0,0:0:0:0:
320,192,174038,1,0,0:0:0:0:
448,192,174094,1,0,0:0:0:0:
192,192,174150,1,0,0:0:0:0:
320,192,174276,1,4,0:0:0:0:
448,192,174276,1,0,0:0:0:0:
192,192,174374,1,0,0:0:0:0:
192,192,174472,1,0,0:0:0:0:
64,192,174570,1,4,0:0:0:0:
448,192,174570,1,0,0:0:0:0:
192,192,174603,1,0,0:0:0:0:
320,192,174766,1,4,0:0:0:0:
448,192,174766,1,0,0:0:0:0:
192,192,174822,1,0,0:0:0:0:
64,192,174878,1,0,0:0:0:0:
320,192,174934,1,0,0:0:0:0:
448,192,175061,1,0,0:0:0:0:
64,192,175159,1,4,0:0:0:0:
192,192,175159,1,0,0:0:0:0:
320,192,175257,1,0,0:0:0:0:
320,192,175355,1,0,0:0:0:0:
192,192,175387,1,0,0:0:0:0:
320,192,175551,1,4,0:0:0:0:
448,192,175551,1,0,0:0:0:0:
192,192,175649,1,0,0:0:0:0:
192,192,175747,1,0,0:0:0:0:
320,192,175779,1,0,0:0:0:0:
64,192,175845,1,4,0:0:0:0:
448,192,175845,1,0,0:0:0:0:
320,192,175943,1,0,0:0:0:0:
320,192,176041,1,0,0:0:0:0:
64,192,176139,1,4,0:0:0:0:
192,192,176139,1,0,0:0:0:0:
320,192,176172,1,0,0:0:0:0:
448,192,176204,1,0,0:0:0:0:
64,192,176335,1,4,0:0:0:0:
192,192,176335,1,0,0:0:0:0:
448,192,176391,1,0,0:0:0:0:
320,192,176447,1,0,0:0:0:0:
64,192,176503,1,0,0:0:0:0:
192,192,176629,1,0,0:0:0:0:
320,192,176727,1,4,0:0:0:0:
448,192,176727,1,0,0:0:0:0:
192,192,176825,1,0,0:0:0:0:
192,192,176923,1,0,0:0:0:0:
64,192,176956,1,0,0:0:0:0:
64,192,177119,1,4,0:0:0:0:
192,192,177119,1,0,0:0:0:0:
448,192,177175,1,0,0:0:0:0:
320,192,177231,1,0,0:0:0:0:
64,192,177287,1,0,0:0:0:0:
192,192,177413,1,4,0:0:0:0:
448,192,177413,1,0,0:0:0:0:
320,192,177511,1,0,0:0:0:0:
320,192,177610,1,0,0:0:0:0:
64,192,177708,1,4,0:0:0:0:
192,192,177708,1,0,0:0:0:0:
320,192,177740,1,0,0:0:0:0:
448,192,177773,1,0,0:0:0:0:
64,192,177904,1,4,0:0:0:0:
192,192,177904,1,0,0:0:0:0:
448,192,177960,1,0,0:0:0:0:
320,192,178016,1,0,0:0:0:0:
64,192,178072,1,0,0:0:0:0:
192,192,178198,1,0,0:0:0:0:
320,192,178296,1,4,0:0:0:0:
448,192,178296,1,0,0:0:0:0:
192,192,178394,1,0,0:0:0:0:
192,192,178492,1,0,0:0:0:0:
448,192,178525,1,0,0:0:0:0:
64,192,178688,1,4,0:0:0:0:
192,192,178688,1,0,0:0:0:0:
320,192,178786,1,0,0:0:0:0:
320,192,178884,1,0,0:0:0:0:
64,192,178917,1,0,0:0:0:0:
192,192,178982,1,4,0:0:0:0:
448,192,178982,1,0,0:0:0:0:
320,192,179080,1,0,0:0:0:0:
320,192,179178,1,0,0:0:0:0:
64,192,179276,1,4,0:0:0:0:
192,192,179276,1,0,0:0:0:0:
448,192,179309,1,0,0:0:0:0:
320,192,179342,1,0,0:0:0:0:
64,192,179472,128,4,179668:0:0:0:0:
192,192,179472,128,0,179570:0:0:0:0:
448,192,179570,128,0,179766:0:0:0:0:
320,192,179640,1,0,0:0:0:0:
192,192,179696,1,0,0:0:0:0:
64,192,179752,1,0,0:0:0:0:
64,192,179864,1,4,0:0:0:0:
192,192,179864,1,0,0:0:0:0:
448,192,179995,1,0,0:0:0:0:
192,192,180028,1,0,0:0:0:0:
64,192,180191,1,0,0:0:0:0:
320,192,180257,1,4,0:0:0:0:
448,192,180257,1,0,0:0:0:0:
64,192,180322,1,0,0:0:0:0:
320,192,180355,1,0,0:0:0:0:
448,192,180485,1,0,0:0:0:0:
64,192,180551,1,4,0:0:0:0:
192,192,180551,1,0,0:0:0:0:
320,192,180681,1,0,0:0:0:0:
192,192,180714,1,0,0:0:0:0:
320,192,180845,1,4,0:0:0:0:
448,192,180845,1,0,0:0:0:0:
64,192,180877,1,0,0:0:0:0:
192,192,180910,1,0,0:0:0:0:
64,192,181041,128,4,181139:0:0:0:0:
448,192,181041,128,0,181237:0:0:0:0:
320,192,181139,128,0,181237:0:0:0:0:
64,192,181335,1,0,0:0:0:0:
320,192,181433,1,4,0:0:0:0:
448,192,181433,1,0,0:0:0:0:
192,192,181498,1,0,0:0:0:0:
64,192,181564,1,0,0:0:0:0:
320,192,181596,1,0,0:0:0:0:
448,192,181747,1,0,0:0:0:0:
64,192,181825,1,4,0:0:0:0:
192,192,181825,1,0,0:0:0:0:
448,192,181891,1,0,0:0:0:0:
192,192,181923,1,0,0:0:0:0:
64,192,182021,1,0,0:0:0:0:
320,192,182119,1,4,0:0:0:0:
448,192,182119,1,0,0:0:0:0:
192,192,182250,1,0,0:0:0:0:
320,192,182283,1,0,0:0:0:0:
64,192,182413,1,4,0:0:0:0:
192,192,182413,1,0,0:0:0:0:
448,192,182441,1,0,0:0:0:0:
320,192,182497,1,0,0:0:0:0:
192,192,182553,1,0,0:0:0:0:
64,192,182610,128,4,182806:0:0:0:0:
448,192,182610,128,0,182708:0:0:0:0:
192,192,182708,128,0,182806:0:0:0:0:
448,192,182904,1,0,0:0:0:0:
64,192,183002,1,4,0:0:0:0:
192,192,183002,1,0,0:0:0:0:
64,192,183100,1,0,0:0:0:0:
448,192,183149,1,0,0:0:0:0:
320,192,183198,1,0,0:0:0:0:
192,192,183296,1,0,0:0:0:0:
64,192,183394,1,4,0:0:0:0:
448,192,183394,1,0,0:0:0:0:
192,192,183557,1,0,0:0:0:0:
448,192,183623,1,0,0:0:0:0:
64,192,183688,1,4,0:0:0:0:
192,192,183688,1,0,0:0:0:0:
320,192,183819,1,0,0:0:0:0:
192,192,183851,1,0,0:0:0:0:
64,192,183982,1,4,0:0:0:0:
448,192,183982,1,0,0:0:0:0:
192,192,184010,1,0,0:0:0:0:
320,192,184066,1,0,0:0:0:0:
192,192,184122,1,0,0:0:0:0:
64,192,184178,128,4,184374:0:0:0:0:
448,192,184178,128,0,184472:0:0:0:0:
320,192,184276,128,0,184440:0:0:0:0:
320,192,184570,1,0,0:0:0:0:
192,192,184701,1,0,0:0:0:0:
64,192,184734,1,0,0:0:0:0:
192,192,184850,1,0,0:0:0:0:
320,192,184906,1,0,0:0:0:0:
448,192,184962,1,0,0:0:0:0:
192,192,185028,1,0,0:0:0:0:
448,192,185061,1,0,0:0:0:0:
320,192,185159,1,0,0:0:0:0:
64,192,185191,1,0,0:0:0:0:
448,192,185355,1,0,0:0:0:0:
192,192,185404,1,0,0:0:0:0:
320,192,185420,1,0,0:0:0:0:
64,192,185453,128,0,185747:0:0:0:0:
448,192,185551,1,0,0:0:0:0:
192,192,185583,1,0,0:0:0:0:
448,192,185747,1,0,0:0:0:70:LR_NBell_B5L.wav
320,192,185747,1,14,0:0:0:0:
64,192,185845,1,0,0:0:0:0:
320,192,185910,1,0,0:0:0:0:
192,192,185943,1,0,0:0:0:0:
320,192,186041,1,0,0:0:0:0:
448,192,186106,1,0,0:0:0:0:
64,192,186139,1,4,0:0:0:0:
192,192,186139,1,0,0:0:0:0:
320,192,186204,1,0,0:0:0:0:
192,192,186237,1,0,0:0:0:0:
64,192,186302,1,0,0:0:0:0:
320,192,186335,1,0,0:0:0:0:
448,192,186368,1,0,0:0:0:0:
320,192,186531,1,4,0:0:0:0:
448,192,186531,1,0,0:0:0:0:
192,192,186587,1,0,0:0:0:0:
64,192,186643,1,0,0:0:0:0:
448,192,186699,1,0,0:0:0:0:
64,192,186825,1,4,0:0:0:0:
192,192,186825,1,0,0:0:0:0:
320,192,186923,1,0,0:0:0:0:
320,192,187021,1,0,0:0:0:0:
64,192,187119,1,4,0:0:0:0:
448,192,187119,1,0,0:0:0:0:
320,192,187152,1,0,0:0:0:0:
64,192,187315,1,6,0:0:0:0:
192,192,187315,1,0,0:0:0:70:LR_NBell_A#5L.wav
448,192,187381,1,0,0:0:0:0:
320,192,187413,1,0,0:0:0:0:
192,192,187511,1,0,0:0:0:0:
320,192,187544,1,0,0:0:0:0:
192,192,187610,1,0,0:0:0:0:
64,192,187675,1,0,0:0:0:0:
320,192,187708,1,4,0:0:0:0:
448,192,187708,1,0,0:0:0:0:
64,192,187806,1,0,0:0:0:0:
320,192,187838,1,0,0:0:0:0:
448,192,187904,1,0,0:0:0:0:
192,192,187969,1,0,0:0:0:0:
320,192,188002,1,0,0:0:0:0:
64,192,188100,1,4,0:0:0:0:
192,192,188100,1,0,0:0:0:0:
320,192,188198,1,0,0:0:0:0:
320,192,188296,1,0,0:0:0:0:
192,192,188328,1,0,0:0:0:0:
64,192,188394,1,4,0:0:0:0:
448,192,188394,1,0,0:0:0:0:
192,192,188492,1,0,0:0:0:0:
192,192,188590,1,0,0:0:0:0:
320,192,188688,1,4,0:0:0:0:
448,192,188688,1,0,0:0:0:0:
64,192,188721,1,0,0:0:0:0:
192,192,188753,1,0,0:0:0:0:
320,192,188884,1,6,0:0:0:0:
448,192,188884,128,0,188940:0:0:0:70:LR_NBell_G#6L.wav
192,192,188940,1,0,0:0:0:0:
64,192,188996,1,0,0:0:0:0:
448,192,189052,1,0,0:0:0:0:
320,192,189178,1,0,0:0:0:70:LR_NBell_F#6L.wav
64,192,189276,1,4,0:0:0:0:
448,192,189276,1,0,0:0:0:0:
192,192,189374,1,0,0:0:0:0:
448,192,189440,1,0,0:0:0:70:LR_NBell_E6L.wav
192,192,189472,1,0,0:0:0:0:
320,192,189505,1,0,0:0:0:0:
64,192,189668,128,6,189724:0:0:0:0:
192,192,189668,1,0,0:0:0:70:LR_NBell_D#6L.wav
320,192,189724,1,0,0:0:0:0:
448,192,189780,1,0,0:0:0:0:
64,192,189836,1,0,0:0:0:0:
64,192,189962,1,4,0:0:0:0:
192,192,189962,1,0,0:0:0:70:LR_NBell_C#6L.wav
448,192,190061,1,0,0:0:0:0:
448,192,190159,1,0,0:0:0:0:
192,192,190208,1,0,0:0:0:70:LR_NBell_B5L.wav
64,192,190257,1,4,0:0:0:0:
320,192,190257,1,0,0:0:0:0:
448,192,190289,1,0,0:0:0:0:
192,192,190355,1,0,0:0:0:0:
320,192,190453,1,6,0:0:0:0:
448,192,190453,128,0,190509:0:0:0:70:LR_NBell_D#6L.wav
192,192,190509,1,0,0:0:0:0:
64,192,190565,1,0,0:0:0:0:
448,192,190621,1,0,0:0:0:0:
320,192,190747,1,0,0:0:0:0:
64,192,190845,1,4,0:0:0:0:
192,192,190845,1,0,0:0:0:0:
448,192,190943,1,0,0:0:0:0:
448,192,191041,1,0,0:0:0:0:
192,192,191074,1,0,0:0:0:0:
320,192,191237,1,4,0:0:0:0:
448,192,191237,1,0,0:0:0:0:
320,192,191335,1,0,0:0:0:0:
64,192,191433,1,0,0:0:0:0:
192,192,191466,1,0,0:0:0:0:
320,192,191531,1,4,0:0:0:0:
448,192,191531,1,0,0:0:0:0:
64,192,191629,1,0,0:0:0:0:
192,192,191662,1,0,0:0:0:0:
320,192,191727,1,0,0:0:0:0:
64,192,191825,1,4,0:0:0:0:
192,192,191825,1,0,0:0:0:0:
448,192,191858,1,0,0:0:0:0:
320,192,191891,1,0,0:0:0:0:
64,192,192021,1,14,0:0:0:0:
448,192,192021,1,0,0:0:0:70:LR_NBell_B5L.wav
192,192,192119,1,0,0:0:0:0:
320,192,192217,1,0,0:0:0:0:
192,192,192250,1,0,0:0:0:0:
448,192,192315,1,0,0:0:0:0:
320,192,192381,1,0,0:0:0:0:
64,192,192413,1,4,0:0:0:0:
192,192,192413,1,0,0:0:0:0:
448,192,192511,1,0,0:0:0:0:
192,192,192544,1,0,0:0:0:0:
320,192,192577,1,0,0:0:0:0:
64,192,192610,1,0,0:0:0:0:
192,192,192740,1,0,0:0:0:0:
320,192,192806,1,4,0:0:0:0:
448,192,192806,1,0,0:0:0:0:
192,192,192871,1,0,0:0:0:0:
320,192,192904,1,0,0:0:0:0:
448,192,193034,1,0,0:0:0:0:
64,192,193100,1,4,0:0:0:0:
192,192,193100,1,0,0:0:0:0:
320,192,193230,1,0,0:0:0:0:
192,192,193263,1,0,0:0:0:0:
320,192,193394,1,4,0:0:0:0:
448,192,193394,1,0,0:0:0:0:
64,192,193427,1,0,0:0:0:0:
64,192,193590,1,6,0:0:0:0:
192,192,193590,1,0,0:0:0:70:LR_NBell_A#5L.wav
320,192,193623,1,0,0:0:0:0:
448,192,193655,1,0,0:0:0:0:
192,192,193721,1,0,0:0:0:0:
320,192,193753,1,0,0:0:0:0:
64,192,193819,1,0,0:0:0:0:
448,192,193851,1,0,0:0:0:0:
192,192,193884,1,0,0:0:0:0:
64,192,193949,1,0,0:0:0:0:
320,192,193982,1,4,0:0:0:0:
448,192,193982,1,0,0:0:0:0:
192,192,194080,1,0,0:0:0:0:
320,192,194113,1,0,0:0:0:0:
448,192,194296,1,0,0:0:0:0:
64,192,194374,1,4,0:0:0:0:
192,192,194374,1,0,0:0:0:0:
320,192,194440,1,0,0:0:0:0:
192,192,194472,1,0,0:0:0:0:
64,192,194570,1,0,0:0:0:0:
320,192,194668,1,4,0:0:0:0:
448,192,194668,1,0,0:0:0:0:
192,192,194799,1,0,0:0:0:0:
320,192,194832,1,0,0:0:0:0:
64,192,194962,1,4,0:0:0:0:
192,192,194962,1,0,0:0:0:0:
448,192,194995,1,0,0:0:0:0:
320,192,195159,128,6,195215:0:0:0:0:
448,192,195159,128,0,195257:0:0:0:70:LR_NBell_G#6L.wav
320,192,195453,1,0,0:0:0:70:LR_NBell_F#6L.wav
64,192,195551,1,4,0:0:0:0:
192,192,195551,1,0,0:0:0:0:
64,192,195649,1,0,0:0:0:0:
448,192,195714,1,0,0:0:0:70:LR_NBell_E6L.wav
320,192,195747,1,0,0:0:0:0:
192,192,195845,1,0,0:0:0:0:
64,192,195877,1,0,0:0:0:0:
320,192,195943,128,6,196008:0:0:0:0:
448,192,195943,128,0,196041:0:0:0:70:LR_NBell_D#6L.wav
64,192,196008,1,0,0:0:0:0:
320,192,196106,1,0,0:0:0:0:
448,192,196172,1,0,0:0:0:0:
64,192,196237,1,4,0:0:0:0:
192,192,196237,1,0,0:0:0:70:LR_NBell_C#6L.wav
320,192,196368,1,0,0:0:0:0:
192,192,196400,1,0,0:0:0:0:
192,192,196498,1,0,0:0:0:70:LR_NBell_B5L.wav
320,192,196531,1,4,0:0:0:0:
448,192,196531,1,0,0:0:0:0:
64,192,196564,1,0,0:0:0:0:
64,192,196727,128,6,196923:0:0:0:0:
192,192,196727,128,0,196825:0:0:0:70:LR_NBell_D#6L.wav
448,192,196825,128,0,197021:0:0:0:0:
320,192,197119,1,0,0:0:0:0:
64,192,197217,128,0,197315:0:0:0:0:
448,192,197266,1,0,0:0:0:0:
192,192,197315,1,0,0:0:0:0:
320,192,197399,1,0,0:0:0:0:
448,192,197455,1,0,0:0:0:0:
64,192,197511,1,0,0:0:0:0:
192,192,197577,1,0,0:0:0:0:
448,192,197610,128,0,197708:0:0:0:0:
64,192,197675,1,0,0:0:0:0:
320,192,197708,1,0,0:0:0:0:
448,192,197904,1,0,0:0:0:0:
192,192,197953,1,0,0:0:0:0:
320,192,197969,1,0,0:0:0:0:
64,192,198002,128,0,198296:0:0:0:0:
320,192,198132,128,0,198296:0:0:0:0:
192,192,198165,128,0,198296:0:0:0:0:
448,192,198296,128,2,198492:0:0:0:0:
64,192,198394,128,0,198590:0:0:0:0:
320,192,198492,128,0,198590:0:0:0:0:
