osu file format v14

[General]
AudioFilename: audio.mp3
AudioLeadIn: 0
PreviewTime: -1
Countdown: 1
SampleSet: None
StackLeniency: 0.7
Mode: 2
LetterboxInBreaks: 0
WidescreenStoryboard: 0

[Editor]
Bookmarks: 12897,14327,15756,39697,62567,68641,74359,85079,91511
DistanceSpacing: 1.4
BeatDivisor: 4
GridSize: 16
TimelineZoom: 2

[Metadata]
Title:Wu Xuan Lan
TitleUnicode:舞·絢爛
Artist:Ci Mei Gui
ArtistUnicode:刺玫瑰
Creator:Leherketa
Version:Plaisir
Source:
Tags:
BeatmapID:2057726
BeatmapSetID:983343

[Difficulty]
HPDrainRate:5
CircleSize:4
OverallDifficulty:9.3
ApproachRate:9.3
SliderMultiplier:2.2
SliderTickRate:2

[Events]
//Background and Video events
0,0,"Wu Xuan Lan.jpg",0,0
//Break Periods
//Storyboard Layer 0 (Background)
//Storyboard Layer 1 (Fail)
//Storyboard Layer 2 (Pass)
//Storyboard Layer 3 (Foreground)
//Storyboard Sound Samples

[TimingPoints]
1463,357.334286224763,4,2,0,100,1,0

[HitObjects]
272,208,1463,5,0,0:0:0:0:
368,208,1641,1,0,0:0:0:0:
464,208,1820,1,0,0:0:0:0:
368,144,1999,1,0,0:0:0:0:
272,144,2177,1,0,0:0:0:0:
128,240,2535,6,0,P|64:224|32:160,1,110
320,64,2892,1,8,0:0:0:0:
464,160,3071,2,0,L|320:160,1,110
208,160,3428,1,0,0:0:0:0:
384,208,3607,1,0,0:0:0:0:
256,240,3785,1,0,0:0:0:0:
432,272,3964,1,0,0:0:0:0:
304,320,4143,1,0,0:0:0:0:
480,336,4321,1,0,0:0:0:0:
144,224,4679,5,8,0:0:0:0:
368,224,5036,1,8,0:0:0:0:
96,144,5393,2,0,L|208:144,1,110
32,80,5751,1,8,0:0:0:0:
128,304,5929,2,0,L|256:304,1,110
416,256,6287,2,0,L|304:256,1,110,8|0,0:0|0:0,0:0:0:0:
64,224,6644,2,0,L|176:224,1,110
464,160,7001,2,0,L|336:160,1,110
256,112,7359,6,0,L|336:32,1,110
64,96,7716,2,0,L|176:96,1,110
320,192,8252,2,0,P|272:240|192:224,1,110
48,160,8609,1,0,0:0:0:0:
128,96,8788,6,8,L|256:96,1,110
32,192,9145,2,0,L|144:192,1,110
384,192,9503,2,0,L|512:192,1,110
320,96,9860,2,0,L|192:96,1,110
96,96,10217,2,0,L|176:192,2,110
400,96,10753,1,0,0:0:0:0:
288,96,10932,6,0,L|160:96,1,110
496,96,11289,1,0,0:0:0:0:
336,160,11468,1,0,0:0:0:0:
144,160,11647,2,0,L|16:112,1,110
416,304,12004,2,0,L|528:240,1,110
64,288,12361,2,0,L|-48:224,1,110
160,240,12719,1,0,0:0:0:0:
336,192,12897,6,8,L|416:192,1,55
224,160,13076,2,2,L|144:160,1,55
368,96,13255,2,8,L|432:96,1,55
144,64,13433,2,2,L|64:64,1,55
400,304,13612,2,8,L|496:304,1,55
112,288,13791,2,2,L|48:288,1,55
288,192,13969,2,8,L|368:192,1,55
64,144,14148,2,2,L|0:144,1,55
384,112,14327,1,4,0:0:0:0:
256,192,14505,12,0,16203,0:0:0:0:
64,288,16471,5,0,0:0:0:0:
119,288,16560,1,0,0:0:0:0:
174,288,16649,1,0,0:0:0:0:
229,288,16739,1,0,0:0:0:0:
320,144,16828,1,8,0:0:0:0:
480,144,16917,1,8,0:0:0:0:
320,144,17007,1,8,0:0:0:0:
160,144,17096,1,8,0:0:0:0:
80,224,17185,6,0,L|190:224,1,110
384,224,17543,1,0,0:0:0:0:
192,288,17721,2,0,L|64:288,1,110
288,288,18079,2,0,L|400:288,1,110
192,192,18436,2,0,L|320:192,1,110
208,128,18793,1,0,0:0:0:0:
320,128,18972,5,0,0:0:0:0:
416,128,19061,1,0,0:0:0:0:
320,128,19151,1,0,0:0:0:0:
416,128,19240,1,0,0:0:0:0:
80,128,19329,1,0,0:0:0:0:
16,256,19508,6,0,L|144:256,1,110
272,176,19865,2,0,L|160:176,1,110
320,112,20223,1,0,0:0:0:0:
160,112,20401,1,0,0:0:0:0:
48,224,20580,2,0,L|160:256,1,110
320,256,20937,2,0,L|208:256,1,110
128,176,21295,1,0,0:0:0:0:
304,176,21473,1,0,0:0:0:0:
96,128,21652,1,0,0:0:0:0:
400,128,21831,1,0,0:0:0:0:
32,128,22009,1,0,0:0:0:0:
464,128,22188,1,0,0:0:0:0:
432,224,22367,6,0,L|512:224,2,55
320,224,22724,2,0,L|208:224,1,110
96,176,23081,1,0,0:0:0:0:
176,176,23260,1,0,0:0:0:0:
336,160,23439,6,0,L|448:160,1,110
256,96,23796,2,0,L|368:96,1,110
176,32,24153,2,0,L|304:32,1,110
160,96,24511,1,0,0:0:0:0:
80,160,24689,2,0,L|0:160,1,55
320,160,24868,2,0,L|400:160,1,55
128,224,25047,1,0,0:0:0:0:
272,224,25225,5,0,0:0:0:0:
192,288,25404,1,0,0:0:0:0:
352,288,25583,1,0,0:0:0:0:
192,224,25761,2,0,P|80:224|32:128,1,220
288,96,26476,1,0,0:0:0:0:
368,96,26655,6,0,L|480:96,1,110
224,160,27012,2,0,L|96:160,1,110
208,96,27369,1,0,0:0:0:0:
400,96,27548,1,0,0:0:0:0:
288,96,27727,1,0,0:0:0:0:
480,96,27905,1,0,0:0:0:0:
352,176,28084,6,0,L|208:176,1,110
80,176,28441,2,0,L|224:176,1,110
288,112,28799,1,0,0:0:0:0:
400,112,28977,1,0,0:0:0:0:
288,48,29156,1,0,0:0:0:0:
112,48,29335,2,0,L|16:128,1,110
208,144,29692,1,0,0:0:0:0:
336,144,29871,1,0,0:0:0:0:
208,208,30049,1,0,0:0:0:0:
416,208,30228,1,0,0:0:0:0:
320,288,30407,6,0,L|240:288,1,55
480,288,30585,1,0,0:0:0:0:
416,192,30675,2,0,L|471:192,1,55
320,112,30943,5,0,0:0:0:0:
128,112,31121,1,0,0:0:0:0:
320,112,31300,1,0,0:0:0:0:
128,112,31479,1,0,0:0:0:0:
224,192,31657,6,0,L|112:192,1,110
320,256,32015,1,0,0:0:0:0:
144,256,32193,1,0,0:0:0:0:
240,304,32372,1,0,0:0:0:0:
64,304,32551,1,0,0:0:0:0:
192,304,32729,1,0,0:0:0:0:
336,304,32908,1,0,0:0:0:0:
96,192,33087,1,0,0:0:0:0:
400,192,33265,1,0,0:0:0:0:
48,192,33444,1,0,0:0:0:0:
448,192,33623,1,0,0:0:0:0:
352,128,33801,5,0,0:0:0:0:
256,128,33980,2,0,L|112:128,2,110
368,208,34516,2,0,L|240:208,1,110
144,208,34873,1,0,0:0:0:0:
256,272,35052,1,0,0:0:0:0:
144,272,35231,1,0,0:0:0:0:
32,272,35409,1,0,0:0:0:0:
160,320,35588,2,0,L|48:320,1,110
224,192,35945,5,0,0:0:0:0:
400,80,36124,2,0,L|512:80,2,110
208,80,36660,2,0,L|96:80,1,110
352,80,37017,1,0,0:0:0:0:
240,176,37196,2,0,P|272:208|336:192,1,110
384,112,37553,1,0,0:0:0:0:
320,208,37731,1,0,0:0:0:0:
499,299,37910,1,0,0:0:0:0:
368,304,38089,5,0,0:0:0:0:
256,304,38179,1,0,0:0:0:0:
368,304,38268,1,0,0:0:0:0:
464,192,38447,1,0,0:0:0:0:
128,176,38625,2,0,L|16:160,1,110
80,160,38893,2,0,L|16:160,1,55
192,80,39161,1,0,0:0:0:0:
48,80,39340,1,0,0:0:0:0:
176,224,39519,5,0,0:0:0:0:
304,224,39697,2,0,L|432:192,1,110
224,112,40055,1,0,0:0:0:0:
384,112,40233,1,0,0:0:0:0:
48,176,40412,1,8,0:0:0:0:
288,48,40591,2,0,L|448:48,1,110
176,96,40948,2,0,L|64:96,1,110
400,96,41305,1,0,0:0:0:0:
112,176,41484,1,0,0:0:0:0:
224,256,41663,6,0,P|304:224|320:176,1,110,0|8,0:0|0:0,0:0:0:0:
432,192,42020,2,0,L|432:304,1,110
320,96,42377,2,0,P|256:64|176:80,1,110,8|0,0:0|0:0,0:0:0:0:
96,96,42735,1,0,0:0:0:0:
400,128,42913,2,0,P|464:160|496:240,1,110
64,208,43271,1,8,0:0:0:0:
192,208,43449,6,0,L|224:96,1,110
80,96,43807,1,0,0:0:0:0:
0,96,43985,1,8,0:0:0:0:
368,80,44164,2,0,P|448:112|496:144,1,110
368,208,44521,2,0,L|224:208,1,110,0|8,0:0|0:0,0:0:0:0:
144,272,44879,2,0,L|272:272,1,110
368,320,45236,2,0,L|256:320,1,110,8|0,0:0|0:0,0:0:0:0:
128,320,45593,1,0,0:0:0:0:
480,320,45772,1,0,0:0:0:0:
336,192,45951,6,0,L|448:192,1,110,0|8,0:0|0:0,0:0:0:0:
288,112,46308,2,0,L|160:112,1,110
48,192,46665,2,0,P|128:224|160:208,1,110,8|0,0:0|0:0,0:0:0:0:
304,192,47023,2,0,L|160:192,1,110
64,304,47380,1,0,0:0:0:0:
208,304,47559,1,0,0:0:0:0:
128,256,47737,5,0,0:0:0:0:
272,256,47916,1,0,0:0:0:0:
160,208,48095,1,0,0:0:0:0:
48,208,48273,1,0,0:0:0:0:
160,112,48452,5,0,0:0:0:0:
272,112,48631,1,0,0:0:0:0:
384,112,48809,1,0,0:0:0:0:
272,176,48988,1,0,0:0:0:0:
464,176,49167,1,0,0:0:0:0:
112,208,49345,6,0,L|0:160,1,110
160,112,49703,1,0,0:0:0:0:
64,112,49881,1,0,0:0:0:0:
384,64,50060,2,0,L|496:64,1,110
304,128,50417,2,0,L|416:128,1,110
96,128,50775,1,8,0:0:0:0:
208,192,50953,1,0,0:0:0:0:
320,192,51132,1,0,0:0:0:0:
432,192,51311,1,0,0:0:0:0:
144,288,51489,6,2,P|64:272|64:224,1,110
240,288,51847,1,0,0:0:0:0:
400,288,52025,6,2,P|480:272|480:224,1,110
144,128,52383,2,0,L|16:112,1,110
384,144,52740,2,0,L|512:112,1,110
336,240,53097,2,0,L|224:240,1,110
128,160,53455,1,0,0:0:0:0:
32,160,53633,1,0,0:0:0:0:
208,64,53812,2,0,L|320:64,1,110
400,64,54169,1,0,0:0:0:0:
112,128,54348,6,0,L|-16:176,2,110
272,112,54884,1,0,0:0:0:0:
416,176,55063,2,0,L|304:176,1,110
64,240,55420,1,0,0:0:0:0:
256,240,55599,1,0,0:0:0:0:
176,240,55777,1,0,0:0:0:0:
96,240,55956,1,0,0:0:0:0:
336,240,56135,6,0,L|448:240,1,110
176,160,56492,1,0,0:0:0:0:
416,160,56671,2,0,L|528:112,1,110
320,96,57028,1,0,0:0:0:0:
160,96,57207,1,0,0:0:0:0:
16,192,57385,2,0,L|144:240,1,110
304,240,57743,5,0,0:0:0:0:
224,240,57921,1,0,0:0:0:0:
64,304,58100,2,0,L|192:304,1,110
304,176,58457,1,0,0:0:0:0:
224,176,58636,1,0,0:0:0:0:
32,112,58815,2,0,L|144:112,1,110
416,96,59172,5,0,0:0:0:0:
304,96,59351,1,0,0:0:0:0:
480,176,59529,2,0,L|370:176,1,110
240,176,59887,1,0,0:0:0:0:
352,240,60065,1,0,0:0:0:0:
176,256,60244,1,0,0:0:0:0:
304,304,60423,1,0,0:0:0:0:
128,336,60601,1,0,0:0:0:0:
304,336,60780,1,0,0:0:0:0:
224,320,60959,6,0,L|80:272,1,110
224,176,61316,1,0,0:0:0:0:
336,176,61405,1,0,0:0:0:0:
224,176,61495,1,0,0:0:0:0:
112,176,61673,6,0,L|27:105,1,110
224,64,62031,2,0,L|352:64,1,110
448,64,62388,1,0,0:0:0:0:
352,128,62567,5,0,0:0:0:0:
224,128,62745,1,0,0:0:0:0:
96,128,62924,1,0,0:0:0:0:
16,176,63103,1,2,0:0:0:0:
96,192,63281,1,8,0:0:0:0:
240,192,63460,5,0,0:0:0:0:
400,192,63639,1,0,0:0:0:0:
160,256,63817,1,0,0:0:0:0:
320,256,63996,1,0,0:0:0:0:
80,320,64175,1,0,0:0:0:0:
240,320,64353,1,0,0:0:0:0:
400,320,64532,1,0,0:0:0:0:
256,176,64711,6,0,L|192:176,1,55
384,176,64889,2,0,L|448:176,1,55
96,176,65068,1,0,0:0:0:0:
240,80,65247,6,0,L|368:80,1,110
160,80,65604,2,0,L|48:80,1,110
224,144,65961,2,0,L|96:144,1,110
288,192,66319,2,0,L|160:192,1,110
352,240,66676,2,0,L|224:240,1,110
64,240,67033,2,0,L|174:240,1,110
416,192,67391,5,0,0:0:0:0:
496,192,67569,1,0,0:0:0:0:
96,176,67748,1,0,0:0:0:0:
16,176,67927,1,0,0:0:0:0:
224,112,68105,2,0,L|336:112,1,110
464,192,68463,2,0,L|320:192,1,110
256,240,68820,5,0,0:0:0:0:
128,240,68999,1,0,0:0:0:0:
0,240,69177,5,0,0:0:0:0:
128,240,69356,5,0,0:0:0:0:
256,240,69535,1,0,0:0:0:0:
384,240,69713,1,0,0:0:0:0:
256,240,69892,1,0,0:0:0:0:
128,240,70071,1,0,0:0:0:0:
256,240,70249,1,0,0:0:0:0:
384,240,70428,6,0,L|448:240,1,55
128,240,70607,2,0,L|48:240,1,55
256,240,70785,1,0,0:0:0:0:
384,240,70964,1,0,0:0:0:0:
512,240,71143,1,0,0:0:0:0:
384,240,71321,1,0,0:0:0:0:
256,240,71500,1,0,0:0:0:0:
192,240,71589,5,0,0:0:0:0:
144,240,71678,1,0,0:0:0:0:
176,192,71767,1,0,0:0:0:0:
128,192,71857,1,0,0:0:0:0:
80,192,71946,1,0,0:0:0:0:
112,144,72035,1,0,0:0:0:0:
288,48,72125,5,0,0:0:0:0:
352,48,72214,1,0,0:0:0:0:
304,96,72303,1,0,0:0:0:0:
368,96,72393,1,0,0:0:0:0:
432,96,72482,1,0,0:0:0:0:
416,144,72571,1,0,0:0:0:0:
480,144,72661,1,0,0:0:0:0:
192,304,72751,5,0,0:0:0:0:
112,304,72840,1,0,0:0:0:0:
160,256,72929,1,0,0:0:0:0:
80,256,73019,1,0,0:0:0:0:
128,208,73108,1,0,0:0:0:0:
208,208,73197,1,0,0:0:0:0:
272,208,73286,1,0,0:0:0:0:
240,160,73375,1,0,0:0:0:0:
304,160,73465,1,0,0:0:0:0:
272,112,73554,1,0,0:0:0:0:
208,112,73643,1,0,0:0:0:0:
368,160,73733,5,0,0:0:0:0:
396,160,73777,1,0,0:0:0:0:
423,155,73822,1,0,0:0:0:0:
448,144,73867,1,0,0:0:0:0:
470,128,73911,1,0,0:0:0:0:
489,107,73956,1,0,0:0:0:0:
128,80,74001,1,0,0:0:0:0:
256,208,74359,5,0,0:0:0:0:
448,208,74537,1,0,0:0:0:0:
256,208,74716,1,0,0:0:0:0:
96,256,74895,2,0,L|208:256,1,110
384,112,75252,5,0,0:0:0:0:
240,112,75431,1,0,0:0:0:0:
320,176,75609,1,0,0:0:0:0:
176,176,75788,1,0,0:0:0:0:
448,176,75967,1,0,0:0:0:0:
368,256,76145,5,0,0:0:0:0:
256,256,76235,1,0,0:0:0:0:
368,256,76324,1,0,0:0:0:0:
256,256,76413,1,0,0:0:0:0:
368,256,76503,1,0,0:0:0:0:
480,256,76681,5,0,0:0:0:0:
96,256,76860,1,0,0:0:0:0:
240,160,77039,2,0,L|128:160,1,110
208,96,77396,2,0,L|320:96,1,110
432,96,77753,1,0,0:0:0:0:
272,160,77932,1,0,0:0:0:0:
432,192,78111,1,0,0:0:0:0:
240,240,78289,1,0,0:0:0:0:
384,256,78468,1,0,0:0:0:0:
144,304,78647,1,0,0:0:0:0:
384,304,78825,1,0,0:0:0:0:
144,304,79004,1,0,0:0:0:0:
384,304,79183,1,0,0:0:0:0:
144,304,79361,1,0,0:0:0:0:
80,224,79540,6,0,L|0:224,2,55
192,224,79897,2,0,L|304:224,1,110
416,224,80255,1,0,0:0:0:0:
336,144,80433,1,0,0:0:0:0:
208,144,80612,1,0,0:0:0:0:
336,80,80791,1,0,0:0:0:0:
176,64,80969,1,0,0:0:0:0:
304,32,81148,1,0,0:0:0:0:
128,32,81327,1,0,0:0:0:0:
256,112,81505,5,0,0:0:0:0:
64,128,81684,1,0,0:0:0:0:
208,160,81863,1,0,0:0:0:0:
352,176,82041,1,0,0:0:0:0:
256,240,82220,1,0,0:0:0:0:
432,240,82399,1,0,0:0:0:0:
304,288,82577,1,0,0:0:0:0:
480,304,82756,1,0,0:0:0:0:
112,288,82935,2,0,P|32:272|0:224,1,110
160,128,83292,5,0,0:0:0:0:
256,128,83471,2,0,P|336:112|336:64,1,110
176,208,83828,2,0,L|112:208,2,55
304,208,84185,1,0,0:0:0:0:
64,208,84364,1,0,0:0:0:0:
192,144,84543,1,0,0:0:0:0:
272,144,84632,1,0,0:0:0:0:
352,144,84721,1,0,0:0:0:0:
80,144,84900,1,0,0:0:0:0:
464,144,85079,1,0,0:0:0:0:
144,256,85257,6,0,L|0:256,1,110
352,256,85615,2,0,L|480:256,1,110
368,176,85972,5,0,0:0:0:0:
261,149,86150,1,0,0:0:0:0:
144,80,86329,1,0,0:0:0:0:
208,80,86418,1,0,0:0:0:0:
272,80,86507,1,0,0:0:0:0:
416,128,86687,5,0,0:0:0:0:
304,128,86865,1,0,0:0:0:0:
160,192,87223,5,0,0:0:0:0:
32,192,87401,1,0,0:0:0:0:
192,192,87580,1,0,0:0:0:0:
80,256,87759,1,0,0:0:0:0:
240,256,87937,1,0,0:0:0:0:
144,320,88116,1,0,0:0:0:0:
304,320,88295,1,0,0:0:0:0:
448,320,88473,1,0,0:0:0:0:
224,320,88652,1,0,0:0:0:0:
112,240,88831,1,0,0:0:0:0:
224,176,89009,5,0,0:0:0:0:
336,240,89188,1,0,0:0:0:0:
224,176,89367,1,0,0:0:0:0:
96,240,89545,1,0,0:0:0:0:
352,240,89724,1,0,0:0:0:0:
96,240,89903,1,0,0:0:0:0:
352,240,90081,1,0,0:0:0:0:
256,240,90260,1,0,0:0:0:0:
160,240,90439,1,0,0:0:0:0:
304,160,90617,5,0,0:0:0:0:
128,160,90796,1,0,0:0:0:0:
240,112,90975,1,0,0:0:0:0:
64,96,91153,1,0,0:0:0:0:
176,48,91332,1,0,0:0:0:0:
272,48,91511,5,0,0:0:0:0:
352,48,91600,1,0,0:0:0:0:
272,48,91689,1,0,0:0:0:0:
192,48,91779,1,0,0:0:0:0:
112,48,91868,1,0,0:0:0:0:
32,48,91957,1,0,0:0:0:0:
112,48,92047,1,0,0:0:0:0:
160,112,92136,1,0,0:0:0:0:
80,112,92225,1,0,0:0:0:0:
160,112,92315,1,0,0:0:0:0:
240,112,92404,1,0,0:0:0:0:
160,112,92493,1,0,0:0:0:0:
208,176,92583,1,0,0:0:0:0:
128,176,92672,1,0,0:0:0:0:
208,176,92761,1,0,0:0:0:0:
288,176,92851,1,0,0:0:0:0:
368,176,92940,1,0,0:0:0:0:
256,192,93029,12,0,95799,0:0:0:0:
