osu file format v14

[General]
AudioFilename: audio.mp3
AudioLeadIn: 0
PreviewTime: 74312
Countdown: 0
SampleSet: Soft
StackLeniency: 0.7
Mode: 3
LetterboxInBreaks: 0
SpecialStyle: 0
WidescreenStoryboard: 1

[Editor]
DistanceSpacing: 1.5
BeatDivisor: 4
GridSize: 4
TimelineZoom: 1.5

[Metadata]
Title:Wakaranai
TitleUnicode:分からない
Artist:Chroma x Lon
ArtistUnicode:黒魔×ろん
Creator:MocaLoca
Version:Lin's Insane
Source:言ノ葉プロジェクト
Tags:kotonoha project japanese electronic maimai murasaki hydria jawbraiker linlime らくちー rakuchii rakti yama_ko Kotaro Yamazaki Kurokawa Masakichi じたばたP JitabataP Masaki Sekikawa 関川聖城 言ノ葉プロジェクト ~詠唱集~ Kotonoha Project ~Eishoushuu~ FFCG-0115 Retorno Frontier Works Inc. digital rock trills jumpstream handstream js hs quaver maimai FiNALE maimai でらっくす maimai DX maimai でらっくす PLUS maimai DX+ utaite 歌い手 神木円 Kamiki Madoka LON.ch ?_?_? ??? CHUNITHM AIR PLUS
BeatmapID:3528081
BeatmapSetID:1568720

[Difficulty]
HPDrainRate:8.3
CircleSize:4
OverallDifficulty:8.3
ApproachRate:5
SliderMultiplier:1.4
SliderTickRate:1

[Events]
//Background and Video events
0,0,"Wakaranai.jpg",0,0
//Break Periods
//Storyboard Layer 0 (Background)
//Storyboard Layer 1 (Fail)
//Storyboard Layer 2 (Pass)
//Storyboard Layer 3 (Foreground)
//Storyboard Layer 4 (Overlay)
//Storyboard Sound Samples

[TimingPoints]
1187,300,4,2,1,40,1,0
76637,-100,4,2,1,40,0,1
91187,-100,4,2,1,40,0,0
93437,-100,4,2,1,40,0,1
95387,-100,4,2,1,40,0,0
143987,-100,4,2,1,40,0,1
152387,-100,4,2,1,40,0,0
154637,-100,4,2,1,40,0,1
156587,-100,4,2,1,40,0,0
159437,-100,4,2,1,40,0,1
169187,-100,4,2,1,40,0,0

[HitObjects]
192,192,1187,5,0,0:0:0:0:
192,192,1487,1,0,0:0:0:0:
192,192,1787,1,0,0:0:0:0:
192,192,2087,1,0,0:0:0:0:
448,192,2237,1,0,0:0:0:0:
320,192,2312,1,0,0:0:0:0:
64,192,2387,1,0,0:0:0:0:
192,192,2387,128,0,4187:0:0:0:0:
448,192,2387,1,0,0:0:0:0:
448,192,4187,128,0,4637:0:0:0:0:
64,192,4187,1,0,0:0:0:0:
320,192,4412,1,0,0:0:0:0:
192,192,4412,1,0,0:0:0:0:
64,192,4637,1,0,0:0:0:0:
192,192,4712,1,0,0:0:0:0:
320,192,4787,128,0,6587:0:0:0:0:
448,192,4787,1,0,0:0:0:0:
64,192,4787,1,0,0:0:0:0:
448,192,6437,1,0,0:0:0:0:
192,192,6512,1,0,0:0:0:0:
64,192,6587,128,0,6887:0:0:0:0:
448,192,6587,1,0,0:0:0:0:
320,192,6737,1,0,0:0:0:0:
448,192,6737,1,0,0:0:0:0:
192,192,6887,128,0,7187:0:0:0:0:
320,192,6887,1,0,0:0:0:0:
320,192,7187,128,0,8987:0:0:0:0:
448,192,7187,1,0,0:0:0:0:
64,192,7187,1,0,0:0:0:0:
192,192,7487,1,0,0:0:0:0:
192,192,7787,1,0,0:0:0:0:
192,192,8087,1,0,0:0:0:0:
192,192,8387,1,0,0:0:0:0:
192,192,8687,1,0,0:0:0:0:
64,192,8987,128,0,9137:0:0:0:0:
192,192,9137,128,0,9287:0:0:0:0:
320,192,9137,1,0,0:0:0:0:
448,192,9287,128,0,9587:0:0:0:0:
64,192,9287,1,0,0:0:0:0:
192,192,9437,1,0,0:0:0:0:
320,192,9437,1,0,0:0:0:0:
192,192,9587,1,0,0:0:0:0:
64,192,9587,128,0,11687:0:0:0:0:
320,192,9587,1,0,0:0:0:0:
448,192,9887,1,0,0:0:0:0:
320,192,9962,1,0,0:0:0:0:
192,192,10037,1,0,0:0:0:0:
448,192,10037,1,0,0:0:0:0:
192,192,10337,1,0,0:0:0:0:
320,192,10412,1,0,0:0:0:0:
192,192,10487,1,0,0:0:0:0:
448,192,10487,1,0,0:0:0:0:
448,192,10787,1,0,0:0:0:0:
320,192,10862,1,0,0:0:0:0:
192,192,10937,1,0,0:0:0:0:
448,192,10937,1,0,0:0:0:0:
192,192,11237,1,0,0:0:0:0:
320,192,11312,1,0,0:0:0:0:
192,192,11387,1,0,0:0:0:0:
448,192,11387,1,0,0:0:0:0:
192,192,11537,1,0,0:0:0:0:
320,192,11537,1,0,0:0:0:0:
448,192,11987,1,0,0:0:0:0:
320,192,11987,128,0,12137:0:0:0:0:
64,192,12137,128,0,12212:0:0:0:0:
192,192,12212,128,0,12287:0:0:0:0:
448,192,12287,128,0,12437:0:0:0:0:
64,192,12287,1,0,0:0:0:0:
320,192,12287,1,0,0:0:0:0:
320,192,12437,128,0,12512:0:0:0:0:
64,192,12512,128,0,12587:0:0:0:0:
192,192,12587,128,0,12737:0:0:0:0:
320,192,12587,1,0,0:0:0:0:
448,192,12737,128,0,12812:0:0:0:0:
192,192,12812,128,0,12887:0:0:0:0:
320,192,12887,128,0,13037:0:0:0:0:
64,192,12887,1,0,0:0:0:0:
448,192,12887,1,0,0:0:0:0:
64,192,13037,128,0,13112:0:0:0:0:
320,192,13112,128,0,13187:0:0:0:0:
192,192,13187,128,0,13337:0:0:0:0:
64,192,13187,1,0,0:0:0:0:
448,192,13337,128,0,13487:0:0:0:0:
320,192,13337,1,0,0:0:0:0:
320,192,13487,128,0,13637:0:0:0:0:
64,192,13487,1,0,0:0:0:0:
192,192,13487,1,0,0:0:0:0:
192,192,13637,128,0,13787:0:0:0:0:
448,192,13637,1,0,0:0:0:0:
64,192,13787,128,0,14237:0:0:0:0:
448,192,13787,1,0,0:0:0:0:
192,192,13937,1,0,0:0:0:0:
320,192,13937,1,0,0:0:0:0:
320,192,14087,1,0,0:0:0:0:
448,192,14087,1,0,0:0:0:0:
192,192,14087,1,0,0:0:0:0:
192,192,14237,128,0,14312:0:0:0:0:
320,192,14312,128,0,14387:0:0:0:0:
448,192,14387,128,0,14537:0:0:0:0:
192,192,14387,1,0,0:0:0:0:
64,192,14537,128,0,14612:0:0:0:0:
192,192,14612,128,0,14687:0:0:0:0:
320,192,14687,128,0,14837:0:0:0:0:
448,192,14687,1,0,0:0:0:0:
64,192,14687,1,0,0:0:0:0:
64,192,14837,128,0,14912:0:0:0:0:
192,192,14912,128,0,14987:0:0:0:0:
320,192,14987,128,0,15137:0:0:0:0:
64,192,14987,1,0,0:0:0:0:
448,192,15137,128,0,15287:0:0:0:0:
192,192,15137,1,0,0:0:0:0:
192,192,15287,128,0,15437:0:0:0:0:
64,192,15287,1,0,0:0:0:0:
320,192,15287,1,0,0:0:0:0:
320,192,15437,128,0,15587:0:0:0:0:
64,192,15437,1,0,0:0:0:0:
448,192,15587,128,0,15662:0:0:0:0:
64,192,15662,128,0,15737:0:0:0:0:
448,192,15737,128,0,15812:0:0:0:0:
64,192,15812,128,0,15887:0:0:0:0:
448,192,15887,128,0,15962:0:0:0:0:
64,192,15962,128,0,16037:0:0:0:0:
448,192,16037,128,0,16112:0:0:0:0:
64,192,16112,128,0,16187:0:0:0:0:
448,192,16187,128,0,16487:0:0:0:0:
192,192,16337,1,0,0:0:0:0:
64,192,16487,1,0,0:0:0:0:
192,192,16487,1,0,0:0:0:0:
320,192,16562,1,0,0:0:0:0:
448,192,16562,1,0,0:0:0:0:
192,192,16637,1,0,0:0:0:0:
64,192,16637,1,0,0:0:0:0:
320,192,16712,1,0,0:0:0:0:
448,192,16712,1,0,0:0:0:0:
192,192,16787,1,0,0:0:0:0:
64,192,16787,128,0,17387:0:0:0:0:
192,192,16937,1,0,0:0:0:0:
320,192,16937,1,0,0:0:0:0:
192,192,17087,1,0,0:0:0:0:
448,192,17087,1,0,0:0:0:0:
448,192,17237,1,0,0:0:0:0:
320,192,17237,1,0,0:0:0:0:
448,192,17387,128,0,17987:0:0:0:0:
192,192,17387,1,0,0:0:0:0:
64,192,17537,1,0,0:0:0:0:
192,192,17537,1,0,0:0:0:0:
192,192,17687,1,0,0:0:0:0:
320,192,17687,1,0,0:0:0:0:
320,192,17837,1,0,0:0:0:0:
64,192,17837,1,0,0:0:0:0:
192,192,17987,128,0,18587:0:0:0:0:
64,192,17987,1,0,0:0:0:0:
448,192,18137,1,0,0:0:0:0:
320,192,18137,1,0,0:0:0:0:
448,192,18287,1,0,0:0:0:0:
64,192,18287,1,0,0:0:0:0:
64,192,18437,1,0,0:0:0:0:
320,192,18437,1,0,0:0:0:0:
320,192,18587,128,0,19187:0:0:0:0:
448,192,18587,1,0,0:0:0:0:
192,192,18737,1,0,0:0:0:0:
64,192,18737,1,0,0:0:0:0:
64,192,18887,1,0,0:0:0:0:
448,192,18887,1,0,0:0:0:0:
192,192,18962,1,0,0:0:0:0:
448,192,19037,1,0,0:0:0:0:
64,192,19187,128,0,20987:0:0:0:0:
192,192,19187,1,0,0:0:0:0:
448,192,19262,1,0,0:0:0:0:
320,192,19337,1,0,0:0:0:0:
192,192,19412,1,0,0:0:0:0:
448,192,19487,1,0,0:0:0:0:
192,192,19562,1,0,0:0:0:0:
320,192,19637,1,0,0:0:0:0:
448,192,19712,1,0,0:0:0:0:
192,192,19787,1,0,0:0:0:0:
448,192,19862,1,0,0:0:0:0:
320,192,19937,1,0,0:0:0:0:
192,192,20012,1,0,0:0:0:0:
448,192,20087,1,0,0:0:0:0:
192,192,20162,1,0,0:0:0:0:
320,192,20237,1,0,0:0:0:0:
448,192,20312,1,0,0:0:0:0:
192,192,20387,1,0,0:0:0:0:
448,192,20462,1,0,0:0:0:0:
320,192,20537,1,0,0:0:0:0:
192,192,20612,1,0,0:0:0:0:
448,192,20687,1,0,0:0:0:0:
192,192,20762,1,0,0:0:0:0:
320,192,20837,1,0,0:0:0:0:
448,192,20912,1,0,0:0:0:0:
192,192,20987,128,0,21437:0:0:0:0:
64,192,21587,1,0,0:0:0:0:
320,192,21587,1,0,0:0:0:0:
192,192,21587,1,0,0:0:0:0:
64,192,21737,1,0,0:0:0:0:
192,192,21812,1,0,0:0:0:0:
448,192,21887,1,0,0:0:0:0:
320,192,21887,1,0,0:0:0:0:
64,192,21887,1,0,0:0:0:0:
448,192,22037,1,0,0:0:0:0:
320,192,22112,1,0,0:0:0:0:
192,192,22187,1,0,0:0:0:0:
64,192,22187,1,0,0:0:0:0:
448,192,22337,1,0,0:0:0:0:
320,192,22412,1,0,0:0:0:0:
192,192,22487,1,0,0:0:0:0:
64,192,22487,1,0,0:0:0:0:
448,192,22487,1,0,0:0:0:0:
64,192,22637,1,0,0:0:0:0:
192,192,22712,1,0,0:0:0:0:
320,192,22787,1,0,0:0:0:0:
448,192,22787,1,0,0:0:0:0:
64,192,22937,1,0,0:0:0:0:
192,192,23012,1,0,0:0:0:0:
320,192,23087,1,0,0:0:0:0:
448,192,23087,1,0,0:0:0:0:
64,192,23087,1,0,0:0:0:0:
448,192,23237,1,0,0:0:0:0:
320,192,23312,1,0,0:0:0:0:
192,192,23387,1,0,0:0:0:0:
64,192,23387,1,0,0:0:0:0:
448,192,23537,1,0,0:0:0:0:
320,192,23612,1,0,0:0:0:0:
192,192,23687,1,0,0:0:0:0:
64,192,23687,1,0,0:0:0:0:
448,192,23687,1,0,0:0:0:0:
64,192,23837,1,0,0:0:0:0:
192,192,23912,1,0,0:0:0:0:
320,192,23987,1,0,0:0:0:0:
448,192,23987,1,0,0:0:0:0:
64,192,24137,1,0,0:0:0:0:
192,192,24212,1,0,0:0:0:0:
320,192,24287,1,0,0:0:0:0:
448,192,24287,1,0,0:0:0:0:
64,192,24287,1,0,0:0:0:0:
448,192,24437,1,0,0:0:0:0:
320,192,24512,1,0,0:0:0:0:
192,192,24587,1,0,0:0:0:0:
64,192,24587,1,0,0:0:0:0:
448,192,24737,1,0,0:0:0:0:
320,192,24812,1,0,0:0:0:0:
192,192,24887,1,0,0:0:0:0:
64,192,24887,1,0,0:0:0:0:
448,192,24887,1,0,0:0:0:0:
64,192,25037,1,0,0:0:0:0:
192,192,25112,1,0,0:0:0:0:
320,192,25187,1,0,0:0:0:0:
448,192,25187,1,0,0:0:0:0:
64,192,25337,1,0,0:0:0:0:
192,192,25412,1,0,0:0:0:0:
320,192,25487,1,0,0:0:0:0:
448,192,25487,1,0,0:0:0:0:
64,192,25487,1,0,0:0:0:0:
448,192,25637,1,0,0:0:0:0:
320,192,25712,1,0,0:0:0:0:
192,192,25787,1,0,0:0:0:0:
64,192,25787,1,0,0:0:0:0:
448,192,25937,1,0,0:0:0:0:
320,192,26012,1,0,0:0:0:0:
192,192,26087,1,0,0:0:0:0:
64,192,26087,1,0,0:0:0:0:
448,192,26087,1,0,0:0:0:0:
192,192,26237,1,0,0:0:0:0:
320,192,26312,1,0,0:0:0:0:
448,192,26387,1,0,0:0:0:0:
192,192,26387,1,0,0:0:0:0:
64,192,26537,1,0,0:0:0:0:
192,192,26612,1,0,0:0:0:0:
320,192,26687,1,0,0:0:0:0:
448,192,26687,1,0,0:0:0:0:
64,192,26687,1,0,0:0:0:0:
320,192,26837,1,0,0:0:0:0:
192,192,26912,1,0,0:0:0:0:
64,192,26987,1,0,0:0:0:0:
320,192,26987,1,0,0:0:0:0:
448,192,27137,1,0,0:0:0:0:
320,192,27212,1,0,0:0:0:0:
192,192,27287,1,0,0:0:0:0:
64,192,27287,1,0,0:0:0:0:
448,192,27287,1,0,0:0:0:0:
192,192,27437,1,0,0:0:0:0:
320,192,27512,1,0,0:0:0:0:
448,192,27587,1,0,0:0:0:0:
192,192,27587,1,0,0:0:0:0:
64,192,27737,1,0,0:0:0:0:
192,192,27812,1,0,0:0:0:0:
320,192,27887,1,0,0:0:0:0:
448,192,27887,1,0,0:0:0:0:
64,192,27887,1,0,0:0:0:0:
320,192,28037,1,0,0:0:0:0:
192,192,28112,1,0,0:0:0:0:
64,192,28187,1,0,0:0:0:0:
320,192,28187,1,0,0:0:0:0:
448,192,28337,1,0,0:0:0:0:
320,192,28412,1,0,0:0:0:0:
192,192,28487,1,0,0:0:0:0:
64,192,28487,1,0,0:0:0:0:
448,192,28487,1,0,0:0:0:0:
192,192,28637,1,0,0:0:0:0:
320,192,28712,1,0,0:0:0:0:
448,192,28787,1,0,0:0:0:0:
192,192,28787,1,0,0:0:0:0:
64,192,28937,1,0,0:0:0:0:
192,192,29012,1,0,0:0:0:0:
320,192,29087,1,0,0:0:0:0:
448,192,29087,1,0,0:0:0:0:
64,192,29087,1,0,0:0:0:0:
320,192,29237,1,0,0:0:0:0:
192,192,29312,1,0,0:0:0:0:
64,192,29387,1,0,0:0:0:0:
320,192,29387,1,0,0:0:0:0:
448,192,29537,1,0,0:0:0:0:
320,192,29612,1,0,0:0:0:0:
192,192,29687,1,0,0:0:0:0:
64,192,29687,1,0,0:0:0:0:
448,192,29687,1,0,0:0:0:0:
192,192,29837,1,0,0:0:0:0:
320,192,29912,1,0,0:0:0:0:
448,192,29987,1,0,0:0:0:0:
192,192,29987,1,0,0:0:0:0:
64,192,30137,1,0,0:0:0:0:
192,192,30212,1,0,0:0:0:0:
320,192,30287,1,0,0:0:0:0:
448,192,30287,1,0,0:0:0:0:
64,192,30287,1,0,0:0:0:0:
448,192,30437,1,0,0:0:0:0:
320,192,30512,1,0,0:0:0:0:
192,192,30587,1,0,0:0:0:0:
64,192,30587,1,0,0:0:0:0:
448,192,30587,1,0,0:0:0:0:
320,192,30737,1,0,0:0:0:0:
448,192,30737,1,0,0:0:0:0:
192,192,31037,1,0,0:0:0:0:
320,192,31112,1,0,0:0:0:0:
448,192,31187,1,0,0:0:0:0:
192,192,31187,1,0,0:0:0:0:
64,192,31187,128,0,31487:0:0:0:0:
192,192,31487,1,0,0:0:0:0:
320,192,31562,1,0,0:0:0:0:
64,192,31637,1,0,0:0:0:0:
448,192,31637,128,0,31937:0:0:0:0:
192,192,31637,1,0,0:0:0:0:
320,192,31937,1,0,0:0:0:0:
192,192,32012,1,0,0:0:0:0:
64,192,32087,1,0,0:0:0:0:
320,192,32087,1,0,0:0:0:0:
448,192,32087,1,0,0:0:0:0:
64,192,32387,1,0,0:0:0:0:
192,192,32462,1,0,0:0:0:0:
320,192,32537,1,0,0:0:0:0:
448,192,32537,1,0,0:0:0:0:
64,192,32537,1,0,0:0:0:0:
448,192,32837,1,0,0:0:0:0:
320,192,32912,1,0,0:0:0:0:
64,192,32987,1,0,0:0:0:0:
192,192,32987,1,0,0:0:0:0:
448,192,32987,1,0,0:0:0:0:
192,192,33137,1,0,0:0:0:0:
320,192,33137,1,0,0:0:0:0:
448,192,33287,1,0,0:0:0:0:
320,192,33287,1,0,0:0:0:0:
64,192,33287,128,0,33437:0:0:0:0:
192,192,33437,128,0,33587:0:0:0:0:
320,192,33587,1,0,0:0:0:0:
448,192,33587,1,0,0:0:0:0:
64,192,33587,1,0,0:0:0:0:
192,192,33737,1,0,0:0:0:0:
320,192,33812,1,0,0:0:0:0:
448,192,33812,1,0,0:0:0:0:
192,192,33887,1,0,0:0:0:0:
64,192,33887,1,0,0:0:0:0:
320,192,34037,1,0,0:0:0:0:
192,192,34112,1,0,0:0:0:0:
64,192,34112,1,0,0:0:0:0:
320,192,34187,1,0,0:0:0:0:
448,192,34187,1,0,0:0:0:0:
192,192,34337,1,0,0:0:0:0:
320,192,34412,1,0,0:0:0:0:
448,192,34412,1,0,0:0:0:0:
192,192,34487,1,0,0:0:0:0:
64,192,34487,1,0,0:0:0:0:
320,192,34637,1,0,0:0:0:0:
192,192,34712,1,0,0:0:0:0:
64,192,34712,1,0,0:0:0:0:
320,192,34787,1,0,0:0:0:0:
448,192,34787,1,0,0:0:0:0:
192,192,34937,1,0,0:0:0:0:
320,192,35012,1,0,0:0:0:0:
448,192,35012,1,0,0:0:0:0:
192,192,35087,1,0,0:0:0:0:
64,192,35087,1,0,0:0:0:0:
320,192,35237,1,0,0:0:0:0:
192,192,35312,1,0,0:0:0:0:
64,192,35312,1,0,0:0:0:0:
320,192,35387,128,0,35837:0:0:0:0:
448,192,35687,128,0,35987:0:0:0:0:
192,192,35987,1,0,0:0:0:0:
64,192,35987,1,0,0:0:0:0:
320,192,35987,1,0,0:0:0:0:
448,192,36137,1,0,0:0:0:0:
320,192,36212,1,0,0:0:0:0:
192,192,36287,1,0,0:0:0:0:
64,192,36287,1,0,0:0:0:0:
448,192,36287,1,0,0:0:0:0:
64,192,36437,1,0,0:0:0:0:
192,192,36512,1,0,0:0:0:0:
448,192,36587,1,0,0:0:0:0:
320,192,36587,1,0,0:0:0:0:
320,192,36737,1,0,0:0:0:0:
192,192,36812,1,0,0:0:0:0:
64,192,36887,1,0,0:0:0:0:
320,192,36887,1,0,0:0:0:0:
448,192,36887,1,0,0:0:0:0:
64,192,37037,1,0,0:0:0:0:
192,192,37112,1,0,0:0:0:0:
448,192,37187,1,0,0:0:0:0:
320,192,37187,1,0,0:0:0:0:
320,192,37337,1,0,0:0:0:0:
192,192,37412,1,0,0:0:0:0:
64,192,37487,1,0,0:0:0:0:
448,192,37487,1,0,0:0:0:0:
320,192,37487,1,0,0:0:0:0:
448,192,37637,1,0,0:0:0:0:
320,192,37712,1,0,0:0:0:0:
192,192,37787,1,0,0:0:0:0:
64,192,37787,1,0,0:0:0:0:
192,192,37937,1,0,0:0:0:0:
320,192,38012,1,0,0:0:0:0:
192,192,38087,1,0,0:0:0:0:
64,192,38087,1,0,0:0:0:0:
448,192,38087,1,0,0:0:0:0:
64,192,38237,1,0,0:0:0:0:
192,192,38312,1,0,0:0:0:0:
320,192,38387,1,0,0:0:0:0:
448,192,38387,1,0,0:0:0:0:
320,192,38537,1,0,0:0:0:0:
192,192,38612,1,0,0:0:0:0:
64,192,38687,1,0,0:0:0:0:
320,192,38687,1,0,0:0:0:0:
448,192,38687,1,0,0:0:0:0:
448,192,38837,1,0,0:0:0:0:
320,192,38912,1,0,0:0:0:0:
192,192,38987,1,0,0:0:0:0:
64,192,38987,1,0,0:0:0:0:
192,192,39137,1,0,0:0:0:0:
320,192,39212,1,0,0:0:0:0:
192,192,39287,1,0,0:0:0:0:
64,192,39287,1,0,0:0:0:0:
448,192,39287,1,0,0:0:0:0:
64,192,39437,1,0,0:0:0:0:
192,192,39512,1,0,0:0:0:0:
320,192,39587,1,0,0:0:0:0:
448,192,39587,1,0,0:0:0:0:
320,192,39737,1,0,0:0:0:0:
192,192,39812,1,0,0:0:0:0:
64,192,39887,1,0,0:0:0:0:
320,192,39887,1,0,0:0:0:0:
448,192,39887,1,0,0:0:0:0:
320,192,40037,1,0,0:0:0:0:
192,192,40112,1,0,0:0:0:0:
64,192,40187,1,0,0:0:0:0:
448,192,40187,1,0,0:0:0:0:
320,192,40337,128,0,40787:0:0:0:0:
192,192,40337,128,0,40787:0:0:0:0:
64,192,40787,1,0,0:0:0:0:
448,192,40787,1,0,0:0:0:0:
64,192,40937,1,0,0:0:0:0:
192,192,41012,1,0,0:0:0:0:
320,192,41087,1,0,0:0:0:0:
448,192,41087,1,0,0:0:0:0:
64,192,41087,1,0,0:0:0:0:
320,192,41237,1,0,0:0:0:0:
192,192,41312,1,0,0:0:0:0:
64,192,41387,1,0,0:0:0:0:
320,192,41387,1,0,0:0:0:0:
64,192,41537,1,0,0:0:0:0:
192,192,41612,1,0,0:0:0:0:
320,192,41687,1,0,0:0:0:0:
448,192,41687,1,0,0:0:0:0:
64,192,41687,1,0,0:0:0:0:
448,192,41837,1,0,0:0:0:0:
320,192,41912,1,0,0:0:0:0:
192,192,41987,1,0,0:0:0:0:
64,192,41987,1,0,0:0:0:0:
192,192,42137,1,0,0:0:0:0:
320,192,42212,1,0,0:0:0:0:
192,192,42287,1,0,0:0:0:0:
64,192,42287,1,0,0:0:0:0:
448,192,42287,1,0,0:0:0:0:
192,192,42437,1,0,0:0:0:0:
320,192,42512,1,0,0:0:0:0:
192,192,42587,1,0,0:0:0:0:
448,192,42587,1,0,0:0:0:0:
448,192,42737,1,0,0:0:0:0:
320,192,42812,1,0,0:0:0:0:
192,192,42887,1,0,0:0:0:0:
64,192,42887,1,0,0:0:0:0:
448,192,42887,1,0,0:0:0:0:
64,192,43037,1,0,0:0:0:0:
192,192,43112,1,0,0:0:0:0:
320,192,43187,1,0,0:0:0:0:
448,192,43187,1,0,0:0:0:0:
320,192,43337,1,0,0:0:0:0:
192,192,43412,1,0,0:0:0:0:
64,192,43487,1,0,0:0:0:0:
320,192,43487,1,0,0:0:0:0:
448,192,43487,1,0,0:0:0:0:
448,192,43637,1,0,0:0:0:0:
320,192,43712,1,0,0:0:0:0:
192,192,43787,1,0,0:0:0:0:
64,192,43787,1,0,0:0:0:0:
192,192,43937,1,0,0:0:0:0:
320,192,44012,1,0,0:0:0:0:
192,192,44087,1,0,0:0:0:0:
448,192,44087,1,0,0:0:0:0:
64,192,44087,1,0,0:0:0:0:
192,192,44237,1,0,0:0:0:0:
320,192,44312,1,0,0:0:0:0:
192,192,44387,1,0,0:0:0:0:
448,192,44387,1,0,0:0:0:0:
448,192,44537,5,0,0:0:0:0:
320,192,44612,1,0,0:0:0:0:
192,192,44687,1,0,0:0:0:0:
64,192,44687,1,0,0:0:0:0:
448,192,44687,1,0,0:0:0:0:
192,192,44837,1,0,0:0:0:0:
320,192,44912,1,0,0:0:0:0:
448,192,44987,1,0,0:0:0:0:
192,192,44987,1,0,0:0:0:0:
64,192,44987,1,0,0:0:0:0:
192,192,45137,1,0,0:0:0:0:
320,192,45137,1,0,0:0:0:0:
64,192,45587,5,0,0:0:0:0:
192,192,45587,1,0,0:0:0:0:
448,192,45587,1,0,0:0:0:0:
320,192,45737,1,0,0:0:0:0:
320,192,45887,1,0,0:0:0:0:
448,192,45887,1,0,0:0:0:0:
192,192,45887,1,0,0:0:0:0:
192,192,46037,1,0,0:0:0:0:
64,192,46037,1,0,0:0:0:0:
64,192,46187,1,0,0:0:0:0:
320,192,46187,1,0,0:0:0:0:
448,192,46187,1,0,0:0:0:0:
192,192,46337,1,0,0:0:0:0:
448,192,46337,1,0,0:0:0:0:
64,192,46487,1,0,0:0:0:0:
192,192,46487,1,0,0:0:0:0:
320,192,46487,1,0,0:0:0:0:
64,192,46637,1,0,0:0:0:0:
448,192,46637,1,0,0:0:0:0:
192,192,46787,1,0,0:0:0:0:
320,192,46787,1,0,0:0:0:0:
448,192,46787,1,0,0:0:0:0:
192,192,46937,1,0,0:0:0:0:
64,192,46937,1,0,0:0:0:0:
64,192,47087,1,0,0:0:0:0:
320,192,47087,1,0,0:0:0:0:
448,192,47087,1,0,0:0:0:0:
192,192,47237,1,0,0:0:0:0:
320,192,47237,1,0,0:0:0:0:
64,192,47387,1,0,0:0:0:0:
192,192,47387,1,0,0:0:0:0:
448,192,47387,1,0,0:0:0:0:
448,192,47537,1,0,0:0:0:0:
320,192,47537,1,0,0:0:0:0:
320,192,47687,1,0,0:0:0:0:
192,192,47687,1,0,0:0:0:0:
64,192,47687,1,0,0:0:0:0:
64,192,47837,1,0,0:0:0:0:
448,192,47837,1,0,0:0:0:0:
320,192,47912,1,0,0:0:0:0:
192,192,47987,1,0,0:0:0:0:
64,192,47987,1,0,0:0:0:0:
448,192,47987,1,0,0:0:0:0:
320,192,48137,1,0,0:0:0:0:
192,192,48287,1,0,0:0:0:0:
320,192,48287,1,0,0:0:0:0:
448,192,48287,1,0,0:0:0:0:
192,192,48437,1,0,0:0:0:0:
64,192,48437,1,0,0:0:0:0:
64,192,48587,1,0,0:0:0:0:
320,192,48587,1,0,0:0:0:0:
448,192,48587,1,0,0:0:0:0:
192,192,48737,1,0,0:0:0:0:
320,192,48737,1,0,0:0:0:0:
192,192,48887,1,0,0:0:0:0:
64,192,48887,1,0,0:0:0:0:
448,192,48887,1,0,0:0:0:0:
64,192,49037,1,0,0:0:0:0:
320,192,49037,1,0,0:0:0:0:
192,192,49187,1,0,0:0:0:0:
320,192,49187,1,0,0:0:0:0:
448,192,49187,1,0,0:0:0:0:
192,192,49337,1,0,0:0:0:0:
64,192,49337,1,0,0:0:0:0:
64,192,49487,1,0,0:0:0:0:
320,192,49487,1,0,0:0:0:0:
448,192,49487,1,0,0:0:0:0:
448,192,49637,1,0,0:0:0:0:
192,192,49637,1,0,0:0:0:0:
320,192,49787,1,0,0:0:0:0:
192,192,49787,1,0,0:0:0:0:
64,192,49787,1,0,0:0:0:0:
64,192,49937,1,0,0:0:0:0:
448,192,49937,1,0,0:0:0:0:
448,192,50087,1,0,0:0:0:0:
320,192,50087,1,0,0:0:0:0:
192,192,50087,1,0,0:0:0:0:
320,192,50237,1,0,0:0:0:0:
64,192,50237,1,0,0:0:0:0:
192,192,50312,1,0,0:0:0:0:
448,192,50387,1,0,0:0:0:0:
320,192,50387,1,0,0:0:0:0:
64,192,50387,1,0,0:0:0:0:
192,192,50537,1,0,0:0:0:0:
192,192,50687,1,0,0:0:0:0:
320,192,50687,1,0,0:0:0:0:
448,192,50687,1,0,0:0:0:0:
320,192,50837,1,0,0:0:0:0:
64,192,50837,1,0,0:0:0:0:
192,192,50987,1,0,0:0:0:0:
64,192,50987,1,0,0:0:0:0:
448,192,50987,1,0,0:0:0:0:
448,192,51137,1,0,0:0:0:0:
320,192,51137,1,0,0:0:0:0:
320,192,51287,1,0,0:0:0:0:
192,192,51287,1,0,0:0:0:0:
64,192,51287,1,0,0:0:0:0:
64,192,51437,1,0,0:0:0:0:
448,192,51437,1,0,0:0:0:0:
192,192,51587,1,0,0:0:0:0:
320,192,51587,1,0,0:0:0:0:
448,192,51587,1,0,0:0:0:0:
320,192,51737,1,0,0:0:0:0:
64,192,51737,1,0,0:0:0:0:
64,192,51887,1,0,0:0:0:0:
192,192,51887,1,0,0:0:0:0:
448,192,51887,1,0,0:0:0:0:
320,192,52037,1,0,0:0:0:0:
192,192,52037,1,0,0:0:0:0:
320,192,52187,1,0,0:0:0:0:
448,192,52187,1,0,0:0:0:0:
64,192,52187,1,0,0:0:0:0:
448,192,52337,1,0,0:0:0:0:
192,192,52337,1,0,0:0:0:0:
192,192,52487,1,0,0:0:0:0:
64,192,52487,1,0,0:0:0:0:
320,192,52487,1,0,0:0:0:0:
448,192,52637,1,0,0:0:0:0:
64,192,52637,1,0,0:0:0:0:
320,192,52712,1,0,0:0:0:0:
64,192,52787,1,0,0:0:0:0:
448,192,52787,1,0,0:0:0:0:
192,192,52787,1,0,0:0:0:0:
320,192,52937,1,0,0:0:0:0:
192,192,53087,1,0,0:0:0:0:
64,192,53087,1,0,0:0:0:0:
320,192,53087,1,0,0:0:0:0:
64,192,53237,1,0,0:0:0:0:
448,192,53237,1,0,0:0:0:0:
192,192,53387,1,0,0:0:0:0:
320,192,53387,1,0,0:0:0:0:
448,192,53387,1,0,0:0:0:0:
320,192,53537,1,0,0:0:0:0:
64,192,53537,1,0,0:0:0:0:
64,192,53687,1,0,0:0:0:0:
192,192,53687,1,0,0:0:0:0:
448,192,53687,1,0,0:0:0:0:
448,192,53837,1,0,0:0:0:0:
320,192,53837,1,0,0:0:0:0:
320,192,53987,1,0,0:0:0:0:
192,192,53987,1,0,0:0:0:0:
64,192,53987,1,0,0:0:0:0:
192,192,54137,1,0,0:0:0:0:
448,192,54137,1,0,0:0:0:0:
448,192,54287,1,0,0:0:0:0:
320,192,54287,1,0,0:0:0:0:
64,192,54287,1,0,0:0:0:0:
64,192,54437,1,0,0:0:0:0:
192,192,54437,1,0,0:0:0:0:
192,192,54587,1,0,0:0:0:0:
320,192,54587,1,0,0:0:0:0:
448,192,54587,1,0,0:0:0:0:
320,192,54737,1,0,0:0:0:0:
64,192,54737,1,0,0:0:0:0:
64,192,54887,1,0,0:0:0:0:
192,192,54887,1,0,0:0:0:0:
448,192,54887,1,0,0:0:0:0:
448,192,55037,1,0,0:0:0:0:
64,192,55037,1,0,0:0:0:0:
192,192,55112,1,0,0:0:0:0:
64,192,55187,1,0,0:0:0:0:
448,192,55187,1,0,0:0:0:0:
320,192,55187,1,0,0:0:0:0:
192,192,55262,1,0,0:0:0:0:
320,192,55337,1,0,0:0:0:0:
448,192,55412,1,0,0:0:0:0:
320,192,55487,1,0,0:0:0:0:
192,192,55487,1,0,0:0:0:0:
64,192,55562,1,0,0:0:0:0:
320,192,55637,1,0,0:0:0:0:
192,192,55712,1,0,0:0:0:0:
64,192,55787,1,0,0:0:0:0:
320,192,55787,1,0,0:0:0:0:
448,192,55862,1,0,0:0:0:0:
192,192,55937,1,0,0:0:0:0:
320,192,56012,1,0,0:0:0:0:
192,192,56087,1,0,0:0:0:0:
64,192,56087,1,0,0:0:0:0:
448,192,56162,1,0,0:0:0:0:
320,192,56237,1,0,0:0:0:0:
192,192,56312,1,0,0:0:0:0:
320,192,56387,1,0,0:0:0:0:
448,192,56387,1,0,0:0:0:0:
64,192,56462,1,0,0:0:0:0:
192,192,56537,1,0,0:0:0:0:
448,192,56612,1,0,0:0:0:0:
320,192,56687,1,0,0:0:0:0:
192,192,56687,1,0,0:0:0:0:
64,192,56762,1,0,0:0:0:0:
448,192,56837,1,0,0:0:0:0:
320,192,56912,1,0,0:0:0:0:
192,192,56987,1,0,0:0:0:0:
64,192,56987,1,0,0:0:0:0:
448,192,57137,1,0,0:0:0:0:
192,192,57137,1,0,0:0:0:0:
320,192,57287,1,0,0:0:0:0:
448,192,57287,1,0,0:0:0:0:
64,192,57287,1,0,0:0:0:0:
64,192,57587,1,0,0:0:0:0:
320,192,57587,1,0,0:0:0:0:
192,192,57587,128,0,58187:0:0:0:0:
448,192,58187,128,0,58787:0:0:0:0:
320,192,58787,128,0,59987:0:0:0:0:
64,192,59987,128,0,60587:0:0:0:0:
320,192,60587,128,0,61187:0:0:0:0:
192,192,61187,128,0,62387:0:0:0:0:
64,192,62237,1,0,0:0:0:0:
320,192,62387,128,0,62987:0:0:0:0:
192,192,62687,1,0,0:0:0:0:
448,192,62987,128,0,63587:0:0:0:0:
64,192,63287,1,0,0:0:0:0:
192,192,63587,128,0,64787:0:0:0:0:
320,192,63887,1,0,0:0:0:0:
448,192,64187,1,0,0:0:0:0:
320,192,64487,1,0,0:0:0:0:
64,192,64787,128,0,65387:0:0:0:0:
192,192,65087,1,0,0:0:0:0:
320,192,65387,128,0,65987:0:0:0:0:
448,192,65687,5,0,0:0:0:0:
192,192,65987,128,0,66737:0:0:0:0:
64,192,66287,1,0,0:0:0:0:
320,192,66587,1,0,0:0:0:0:
64,192,66737,5,0,0:0:0:0:
448,192,66737,1,0,0:0:0:0:
192,192,66812,1,0,0:0:0:0:
320,192,66812,1,0,0:0:0:0:
448,192,66887,1,0,0:0:0:0:
192,192,66962,1,0,0:0:0:0:
64,192,66962,1,0,0:0:0:0:
448,192,67037,1,0,0:0:0:0:
320,192,67037,1,0,0:0:0:0:
192,192,67112,1,0,0:0:0:0:
320,192,67187,1,0,0:0:0:0:
448,192,67187,1,0,0:0:0:0:
64,192,67187,128,0,67787:0:0:0:0:
192,192,67487,1,0,0:0:0:0:
320,192,67487,1,0,0:0:0:0:
448,192,67787,128,0,68387:0:0:0:0:
320,192,67787,1,0,0:0:0:0:
192,192,68087,1,0,0:0:0:0:
64,192,68087,1,0,0:0:0:0:
320,192,68387,128,0,69587:0:0:0:0:
64,192,68387,1,0,0:0:0:0:
192,192,68687,1,0,0:0:0:0:
448,192,68687,1,0,0:0:0:0:
64,192,68987,1,0,0:0:0:0:
192,192,68987,1,0,0:0:0:0:
64,192,69287,1,0,0:0:0:0:
448,192,69287,1,0,0:0:0:0:
64,192,69587,128,0,70187:0:0:0:0:
192,192,69587,1,0,0:0:0:0:
320,192,69887,1,0,0:0:0:0:
448,192,69887,1,0,0:0:0:0:
320,192,70187,128,0,70787:0:0:0:0:
192,192,70187,1,0,0:0:0:0:
448,192,70487,1,0,0:0:0:0:
64,192,70487,1,0,0:0:0:0:
192,192,70787,128,0,71987:0:0:0:0:
64,192,70787,1,0,0:0:0:0:
320,192,71087,1,0,0:0:0:0:
448,192,71087,1,0,0:0:0:0:
64,192,71387,1,0,0:0:0:0:
320,192,71387,1,0,0:0:0:0:
64,192,71687,1,0,0:0:0:0:
448,192,71687,1,0,0:0:0:0:
64,192,71987,128,0,72587:0:0:0:0:
320,192,71987,1,0,0:0:0:0:
192,192,72137,1,0,0:0:0:0:
448,192,72137,1,0,0:0:0:0:
192,192,72287,1,0,0:0:0:0:
320,192,72287,1,0,0:0:0:0:
320,192,72437,1,0,0:0:0:0:
448,192,72437,1,0,0:0:0:0:
448,192,72587,128,0,73187:0:0:0:0:
192,192,72587,1,0,0:0:0:0:
320,192,72737,1,0,0:0:0:0:
192,192,72737,1,0,0:0:0:0:
192,192,72887,1,0,0:0:0:0:
64,192,72887,1,0,0:0:0:0:
64,192,73037,1,0,0:0:0:0:
320,192,73037,1,0,0:0:0:0:
320,192,73187,128,0,74387:0:0:0:0:
192,192,73187,1,0,0:0:0:0:
64,192,73337,5,0,0:0:0:0:
192,192,73337,1,0,0:0:0:0:
64,192,73487,1,0,0:0:0:0:
448,192,73487,1,0,0:0:0:0:
192,192,73637,1,0,0:0:0:0:
448,192,73637,1,0,0:0:0:0:
192,192,73787,1,0,0:0:0:0:
64,192,73787,1,0,0:0:0:0:
64,192,73937,1,0,0:0:0:0:
448,192,73937,1,0,0:0:0:0:
192,192,74087,1,0,0:0:0:0:
448,192,74087,1,0,0:0:0:0:
64,192,74237,1,0,0:0:0:0:
192,192,74237,1,0,0:0:0:0:
448,192,74387,128,0,74487:0:0:0:0:
64,192,74387,1,0,0:0:0:0:
320,192,74487,128,0,74587:0:0:0:0:
192,192,74587,128,0,74687:0:0:0:0:
64,192,74687,128,0,74787:0:0:0:0:
448,192,74787,128,0,74887:0:0:0:0:
320,192,74887,128,0,74987:0:0:0:0:
192,192,74987,128,0,75087:0:0:0:0:
64,192,75087,128,0,75187:0:0:0:0:
448,192,75187,128,0,75287:0:0:0:0:
320,192,75287,128,0,75387:0:0:0:0:
64,192,75387,128,0,75512:0:0:0:0:
192,192,75512,128,0,75587:0:0:0:0:
320,192,75587,128,0,75662:0:0:0:0:
192,192,75662,128,0,75737:0:0:0:0:
320,192,75737,128,0,75812:0:0:0:0:
192,192,75812,128,0,75887:0:0:0:0:
320,192,75887,128,0,75962:0:0:0:0:
192,192,75962,128,0,76037:0:0:0:0:
320,192,76037,128,0,76112:0:0:0:0:
448,192,76037,1,0,0:0:0:0:
192,192,76112,128,0,76187:0:0:0:0:
64,192,76112,1,0,0:0:0:0:
448,192,76187,1,0,0:0:0:0:
320,192,76187,1,0,0:0:0:0:
64,192,76337,1,0,0:0:0:0:
320,192,76337,1,0,0:0:0:0:
64,192,76487,1,0,0:0:0:0:
192,192,76487,1,0,0:0:0:0:
320,192,76637,1,0,0:0:0:0:
448,192,76637,1,0,0:0:0:0:
64,192,76637,1,0,0:0:0:0:
192,192,76712,1,0,0:0:0:0:
320,192,76787,1,0,0:0:0:0:
448,192,76862,1,0,0:0:0:0:
64,192,76937,1,0,0:0:0:0:
192,192,77012,1,0,0:0:0:0:
320,192,77087,1,0,0:0:0:0:
448,192,77087,1,0,0:0:0:0:
192,192,77162,1,0,0:0:0:0:
64,192,77237,1,0,0:0:0:0:
448,192,77312,1,0,0:0:0:0:
320,192,77387,1,0,0:0:0:0:
192,192,77462,1,0,0:0:0:0:
64,192,77537,1,0,0:0:0:0:
320,192,77612,1,0,0:0:0:0:
192,192,77687,1,0,0:0:0:0:
64,192,77687,1,0,0:0:0:0:
320,192,77762,1,0,0:0:0:0:
448,192,77837,1,0,0:0:0:0:
64,192,77912,1,0,0:0:0:0:
192,192,77987,1,0,0:0:0:0:
320,192,78062,1,0,0:0:0:0:
448,192,78137,1,0,0:0:0:0:
64,192,78212,1,0,0:0:0:0:
192,192,78287,1,0,0:0:0:0:
448,192,78287,1,0,0:0:0:0:
320,192,78437,1,0,0:0:0:0:
448,192,78437,1,0,0:0:0:0:
192,192,78512,1,0,0:0:0:0:
64,192,78512,1,0,0:0:0:0:
320,192,78587,1,0,0:0:0:0:
448,192,78587,1,0,0:0:0:0:
320,192,78737,1,0,0:0:0:0:
192,192,78737,1,0,0:0:0:0:
64,192,78887,1,0,0:0:0:0:
192,192,78887,1,0,0:0:0:0:
448,192,79037,1,0,0:0:0:0:
320,192,79037,1,0,0:0:0:0:
64,192,79037,1,0,0:0:0:0:
192,192,79112,1,0,0:0:0:0:
64,192,79187,1,0,0:0:0:0:
448,192,79262,1,0,0:0:0:0:
320,192,79337,1,0,0:0:0:0:
192,192,79412,1,0,0:0:0:0:
320,192,79487,1,0,0:0:0:0:
448,192,79487,1,0,0:0:0:0:
64,192,79562,1,0,0:0:0:0:
192,192,79637,1,0,0:0:0:0:
320,192,79712,1,0,0:0:0:0:
448,192,79787,1,0,0:0:0:0:
64,192,79862,1,0,0:0:0:0:
192,192,79937,1,0,0:0:0:0:
320,192,80012,1,0,0:0:0:0:
192,192,80087,1,0,0:0:0:0:
64,192,80087,1,0,0:0:0:0:
448,192,80162,1,0,0:0:0:0:
320,192,80237,1,0,0:0:0:0:
192,192,80312,1,0,0:0:0:0:
64,192,80387,1,0,0:0:0:0:
448,192,80462,1,0,0:0:0:0:
320,192,80537,1,0,0:0:0:0:
192,192,80612,1,0,0:0:0:0:
64,192,80687,1,0,0:0:0:0:
448,192,80687,1,0,0:0:0:0:
64,192,80837,1,0,0:0:0:0:
192,192,80837,1,0,0:0:0:0:
320,192,80912,1,0,0:0:0:0:
448,192,80912,1,0,0:0:0:0:
192,192,80987,1,0,0:0:0:0:
64,192,80987,1,0,0:0:0:0:
192,192,81137,1,0,0:0:0:0:
320,192,81137,1,0,0:0:0:0:
448,192,81287,1,0,0:0:0:0:
64,192,81287,1,0,0:0:0:0:
320,192,81287,1,0,0:0:0:0:
64,192,81437,1,0,0:0:0:0:
192,192,81437,1,0,0:0:0:0:
448,192,81587,1,0,0:0:0:0:
320,192,81587,1,0,0:0:0:0:
192,192,81662,1,0,0:0:0:0:
64,192,81737,1,0,0:0:0:0:
448,192,81737,1,0,0:0:0:0:
320,192,81812,1,0,0:0:0:0:
192,192,81887,1,0,0:0:0:0:
64,192,81887,1,0,0:0:0:0:
320,192,81962,1,0,0:0:0:0:
64,192,82037,1,0,0:0:0:0:
448,192,82037,1,0,0:0:0:0:
192,192,82112,1,0,0:0:0:0:
320,192,82187,1,0,0:0:0:0:
448,192,82187,1,0,0:0:0:0:
192,192,82262,1,0,0:0:0:0:
64,192,82337,1,0,0:0:0:0:
448,192,82337,1,0,0:0:0:0:
320,192,82412,1,0,0:0:0:0:
192,192,82487,1,0,0:0:0:0:
64,192,82487,1,0,0:0:0:0:
320,192,82562,1,0,0:0:0:0:
448,192,82637,1,0,0:0:0:0:
64,192,82637,1,0,0:0:0:0:
192,192,82712,1,0,0:0:0:0:
448,192,82787,1,0,0:0:0:0:
64,192,82787,1,0,0:0:0:0:
320,192,82787,128,0,82937:0:0:0:0:
64,192,83087,1,0,0:0:0:0:
192,192,83087,1,0,0:0:0:0:
320,192,83087,1,0,0:0:0:0:
192,192,83237,1,0,0:0:0:0:
448,192,83237,1,0,0:0:0:0:
448,192,83387,1,0,0:0:0:0:
320,192,83387,1,0,0:0:0:0:
64,192,83387,1,0,0:0:0:0:
64,192,83537,1,0,0:0:0:0:
192,192,83537,1,0,0:0:0:0:
192,192,83687,1,0,0:0:0:0:
320,192,83687,1,0,0:0:0:0:
448,192,83687,1,0,0:0:0:0:
320,192,83837,1,0,0:0:0:0:
64,192,83837,1,0,0:0:0:0:
64,192,83987,1,0,0:0:0:0:
192,192,83987,1,0,0:0:0:0:
448,192,83987,1,0,0:0:0:0:
448,192,84137,1,0,0:0:0:0:
320,192,84137,1,0,0:0:0:0:
320,192,84287,1,0,0:0:0:0:
192,192,84287,1,0,0:0:0:0:
64,192,84287,1,0,0:0:0:0:
64,192,84437,1,0,0:0:0:0:
448,192,84437,1,0,0:0:0:0:
192,192,84587,1,0,0:0:0:0:
320,192,84587,1,0,0:0:0:0:
448,192,84587,1,0,0:0:0:0:
320,192,84737,1,0,0:0:0:0:
64,192,84737,1,0,0:0:0:0:
64,192,84887,1,0,0:0:0:0:
192,192,84887,1,0,0:0:0:0:
448,192,84887,1,0,0:0:0:0:
448,192,85037,1,0,0:0:0:0:
320,192,85037,1,0,0:0:0:0:
64,192,85187,1,0,0:0:0:0:
192,192,85187,1,0,0:0:0:0:
320,192,85187,1,0,0:0:0:0:
448,192,85337,1,0,0:0:0:0:
320,192,85337,1,0,0:0:0:0:
192,192,85412,1,0,0:0:0:0:
448,192,85487,1,0,0:0:0:0:
64,192,85487,1,0,0:0:0:0:
192,192,85637,1,0,0:0:0:0:
64,192,85637,1,0,0:0:0:0:
320,192,85637,1,0,0:0:0:0:
448,192,85787,1,0,0:0:0:0:
320,192,85787,1,0,0:0:0:0:
192,192,85862,1,0,0:0:0:0:
64,192,85937,1,0,0:0:0:0:
448,192,85937,1,0,0:0:0:0:
64,192,86087,1,0,0:0:0:0:
192,192,86087,1,0,0:0:0:0:
320,192,86087,1,0,0:0:0:0:
320,192,86237,1,0,0:0:0:0:
448,192,86237,1,0,0:0:0:0:
64,192,86237,1,0,0:0:0:0:
192,192,86312,1,0,0:0:0:0:
320,192,86387,1,0,0:0:0:0:
448,192,86462,1,0,0:0:0:0:
64,192,86537,1,0,0:0:0:0:
192,192,86612,1,0,0:0:0:0:
320,192,86687,1,0,0:0:0:0:
448,192,86687,1,0,0:0:0:0:
192,192,86762,1,0,0:0:0:0:
64,192,86837,1,0,0:0:0:0:
448,192,86912,1,0,0:0:0:0:
320,192,86987,1,0,0:0:0:0:
192,192,87062,1,0,0:0:0:0:
64,192,87137,1,0,0:0:0:0:
320,192,87212,1,0,0:0:0:0:
192,192,87287,1,0,0:0:0:0:
64,192,87287,1,0,0:0:0:0:
320,192,87362,1,0,0:0:0:0:
448,192,87437,1,0,0:0:0:0:
64,192,87512,1,0,0:0:0:0:
192,192,87587,1,0,0:0:0:0:
320,192,87662,1,0,0:0:0:0:
448,192,87737,1,0,0:0:0:0:
192,192,87812,1,0,0:0:0:0:
320,192,87887,1,0,0:0:0:0:
448,192,87887,1,0,0:0:0:0:
64,192,88037,1,0,0:0:0:0:
192,192,88037,1,0,0:0:0:0:
320,192,88112,1,0,0:0:0:0:
448,192,88112,1,0,0:0:0:0:
192,192,88187,1,0,0:0:0:0:
64,192,88187,1,0,0:0:0:0:
192,192,88337,1,0,0:0:0:0:
320,192,88337,1,0,0:0:0:0:
192,192,88487,1,0,0:0:0:0:
448,192,88487,1,0,0:0:0:0:
448,192,88637,1,0,0:0:0:0:
320,192,88637,1,0,0:0:0:0:
64,192,88637,1,0,0:0:0:0:
192,192,88712,1,0,0:0:0:0:
320,192,88787,1,0,0:0:0:0:
448,192,88862,1,0,0:0:0:0:
64,192,88937,1,0,0:0:0:0:
192,192,89012,1,0,0:0:0:0:
448,192,89087,1,0,0:0:0:0:
320,192,89087,1,0,0:0:0:0:
192,192,89162,1,0,0:0:0:0:
64,192,89237,1,0,0:0:0:0:
448,192,89312,1,0,0:0:0:0:
320,192,89387,1,0,0:0:0:0:
192,192,89462,1,0,0:0:0:0:
64,192,89537,1,0,0:0:0:0:
448,192,89612,1,0,0:0:0:0:
192,192,89687,1,0,0:0:0:0:
320,192,89687,1,0,0:0:0:0:
64,192,89762,1,0,0:0:0:0:
448,192,89837,1,0,0:0:0:0:
320,192,89912,1,0,0:0:0:0:
64,192,89987,1,0,0:0:0:0:
192,192,90062,1,0,0:0:0:0:
320,192,90137,1,0,0:0:0:0:
448,192,90212,1,0,0:0:0:0:
64,192,90287,1,0,0:0:0:0:
192,192,90287,1,0,0:0:0:0:
448,192,90437,1,0,0:0:0:0:
320,192,90437,1,0,0:0:0:0:
192,192,90512,1,0,0:0:0:0:
64,192,90512,1,0,0:0:0:0:
320,192,90587,1,0,0:0:0:0:
448,192,90587,1,0,0:0:0:0:
64,192,90737,1,0,0:0:0:0:
448,192,90737,1,0,0:0:0:0:
64,192,90887,1,0,0:0:0:0:
192,192,90887,1,0,0:0:0:0:
320,192,90887,1,0,0:0:0:0:
448,192,91037,1,0,0:0:0:0:
320,192,91037,1,0,0:0:0:0:
64,192,91187,1,0,0:0:0:0:
320,192,91187,1,0,0:0:0:0:
448,192,91187,1,0,0:0:0:0:
192,192,91337,1,0,0:0:0:0:
320,192,91412,1,0,0:0:0:0:
448,192,91412,1,0,0:0:0:0:
192,192,91487,1,0,0:0:0:0:
64,192,91487,1,0,0:0:0:0:
320,192,91637,1,0,0:0:0:0:
192,192,91712,1,0,0:0:0:0:
64,192,91712,1,0,0:0:0:0:
320,192,91787,1,0,0:0:0:0:
448,192,91787,1,0,0:0:0:0:
192,192,91937,1,0,0:0:0:0:
320,192,92012,1,0,0:0:0:0:
448,192,92012,1,0,0:0:0:0:
192,192,92087,1,0,0:0:0:0:
64,192,92087,1,0,0:0:0:0:
320,192,92237,1,0,0:0:0:0:
192,192,92312,1,0,0:0:0:0:
64,192,92312,1,0,0:0:0:0:
320,192,92387,1,0,0:0:0:0:
448,192,92387,1,0,0:0:0:0:
192,192,92537,1,0,0:0:0:0:
320,192,92612,1,0,0:0:0:0:
448,192,92612,1,0,0:0:0:0:
192,192,92687,1,0,0:0:0:0:
64,192,92687,1,0,0:0:0:0:
320,192,92837,1,0,0:0:0:0:
192,192,92912,1,0,0:0:0:0:
64,192,92912,1,0,0:0:0:0:
320,192,92987,1,0,0:0:0:0:
448,192,92987,1,0,0:0:0:0:
192,192,93137,1,0,0:0:0:0:
320,192,93137,1,0,0:0:0:0:
64,192,93437,1,0,0:0:0:0:
448,192,93437,1,0,0:0:0:0:
320,192,93512,1,0,0:0:0:0:
192,192,93587,1,0,0:0:0:0:
64,192,93662,1,0,0:0:0:0:
448,192,93737,1,0,0:0:0:0:
320,192,93812,1,0,0:0:0:0:
192,192,93887,1,0,0:0:0:0:
64,192,93887,1,0,0:0:0:0:
320,192,93962,1,0,0:0:0:0:
448,192,94037,1,0,0:0:0:0:
64,192,94112,1,0,0:0:0:0:
192,192,94112,1,0,0:0:0:0:
320,192,94187,1,0,0:0:0:0:
448,192,94262,1,0,0:0:0:0:
192,192,94262,1,0,0:0:0:0:
64,192,94337,1,0,0:0:0:0:
320,192,94412,1,0,0:0:0:0:
192,192,94487,1,0,0:0:0:0:
64,192,94487,1,0,0:0:0:0:
448,192,94562,1,0,0:0:0:0:
320,192,94637,1,0,0:0:0:0:
192,192,94712,1,0,0:0:0:0:
320,192,94787,1,0,0:0:0:0:
448,192,94787,1,0,0:0:0:0:
192,192,94862,1,0,0:0:0:0:
64,192,94862,1,0,0:0:0:0:
448,192,94937,1,0,0:0:0:0:
320,192,95012,1,0,0:0:0:0:
192,192,95087,1,0,0:0:0:0:
64,192,95087,1,0,0:0:0:0:
320,192,95162,1,0,0:0:0:0:
448,192,95162,1,0,0:0:0:0:
192,192,95237,1,0,0:0:0:0:
64,192,95312,1,0,0:0:0:0:
448,192,95387,1,0,0:0:0:0:
320,192,95387,1,0,0:0:0:0:
192,192,95462,1,0,0:0:0:0:
64,192,95537,1,0,0:0:0:0:
320,192,95537,1,0,0:0:0:0:
448,192,95612,1,0,0:0:0:0:
64,192,95687,1,0,0:0:0:0:
192,192,95687,1,0,0:0:0:0:
320,192,95762,1,0,0:0:0:0:
192,192,95837,1,0,0:0:0:0:
448,192,95837,1,0,0:0:0:0:
64,192,95912,1,0,0:0:0:0:
448,192,95987,1,0,0:0:0:0:
320,192,95987,1,0,0:0:0:0:
192,192,95987,1,0,0:0:0:0:
448,192,96137,1,0,0:0:0:0:
320,192,96212,1,0,0:0:0:0:
192,192,96287,1,0,0:0:0:0:
64,192,96287,1,0,0:0:0:0:
448,192,96287,1,0,0:0:0:0:
448,192,96437,1,0,0:0:0:0:
320,192,96512,1,0,0:0:0:0:
192,192,96587,1,0,0:0:0:0:
64,192,96587,1,0,0:0:0:0:
448,192,96737,1,0,0:0:0:0:
320,192,96812,1,0,0:0:0:0:
192,192,96887,1,0,0:0:0:0:
64,192,96887,1,0,0:0:0:0:
448,192,96887,1,0,0:0:0:0:
64,192,97037,1,0,0:0:0:0:
192,192,97112,1,0,0:0:0:0:
320,192,97187,1,0,0:0:0:0:
448,192,97187,1,0,0:0:0:0:
64,192,97337,1,0,0:0:0:0:
192,192,97412,1,0,0:0:0:0:
320,192,97487,1,0,0:0:0:0:
448,192,97487,1,0,0:0:0:0:
64,192,97487,1,0,0:0:0:0:
448,192,97637,1,0,0:0:0:0:
320,192,97712,1,0,0:0:0:0:
192,192,97787,1,0,0:0:0:0:
64,192,97787,1,0,0:0:0:0:
64,192,97937,1,0,0:0:0:0:
192,192,98012,1,0,0:0:0:0:
320,192,98087,1,0,0:0:0:0:
448,192,98087,1,0,0:0:0:0:
64,192,98087,1,0,0:0:0:0:
448,192,98237,1,0,0:0:0:0:
320,192,98312,1,0,0:0:0:0:
192,192,98387,1,0,0:0:0:0:
64,192,98387,1,0,0:0:0:0:
64,192,98537,1,0,0:0:0:0:
192,192,98612,1,0,0:0:0:0:
320,192,98687,1,0,0:0:0:0:
448,192,98687,1,0,0:0:0:0:
64,192,98687,1,0,0:0:0:0:
448,192,98837,1,0,0:0:0:0:
320,192,98912,1,0,0:0:0:0:
192,192,98987,1,0,0:0:0:0:
64,192,98987,1,0,0:0:0:0:
448,192,99137,1,0,0:0:0:0:
320,192,99212,1,0,0:0:0:0:
192,192,99287,1,0,0:0:0:0:
64,192,99287,1,0,0:0:0:0:
448,192,99287,1,0,0:0:0:0:
64,192,99437,1,0,0:0:0:0:
192,192,99512,1,0,0:0:0:0:
320,192,99587,1,0,0:0:0:0:
448,192,99587,1,0,0:0:0:0:
64,192,99737,1,0,0:0:0:0:
192,192,99812,1,0,0:0:0:0:
320,192,99887,1,0,0:0:0:0:
448,192,99887,1,0,0:0:0:0:
64,192,99887,1,0,0:0:0:0:
448,192,100037,1,0,0:0:0:0:
320,192,100112,1,0,0:0:0:0:
192,192,100187,1,0,0:0:0:0:
64,192,100187,1,0,0:0:0:0:
448,192,100187,1,0,0:0:0:0:
192,192,100337,1,0,0:0:0:0:
64,192,100337,1,0,0:0:0:0:
192,192,100487,1,0,0:0:0:0:
64,192,100487,1,0,0:0:0:0:
64,192,100637,1,0,0:0:0:0:
192,192,100637,1,0,0:0:0:0:
64,192,100787,1,0,0:0:0:0:
320,192,100787,1,0,0:0:0:0:
448,192,100787,1,0,0:0:0:0:
448,192,100937,1,0,0:0:0:0:
320,192,101012,1,0,0:0:0:0:
192,192,101087,1,0,0:0:0:0:
64,192,101087,1,0,0:0:0:0:
448,192,101087,1,0,0:0:0:0:
64,192,101237,1,0,0:0:0:0:
192,192,101312,1,0,0:0:0:0:
320,192,101387,1,0,0:0:0:0:
448,192,101387,1,0,0:0:0:0:
64,192,101537,1,0,0:0:0:0:
192,192,101612,1,0,0:0:0:0:
320,192,101687,1,0,0:0:0:0:
448,192,101687,1,0,0:0:0:0:
64,192,101687,1,0,0:0:0:0:
448,192,101837,1,0,0:0:0:0:
320,192,101912,1,0,0:0:0:0:
192,192,101987,1,0,0:0:0:0:
64,192,101987,1,0,0:0:0:0:
448,192,102137,1,0,0:0:0:0:
320,192,102212,1,0,0:0:0:0:
192,192,102287,1,0,0:0:0:0:
64,192,102287,1,0,0:0:0:0:
448,192,102287,1,0,0:0:0:0:
64,192,102437,1,0,0:0:0:0:
192,192,102512,1,0,0:0:0:0:
320,192,102587,1,0,0:0:0:0:
448,192,102587,1,0,0:0:0:0:
448,192,102737,1,0,0:0:0:0:
320,192,102812,1,0,0:0:0:0:
192,192,102887,1,0,0:0:0:0:
64,192,102887,1,0,0:0:0:0:
448,192,102887,1,0,0:0:0:0:
64,192,103037,1,0,0:0:0:0:
192,192,103112,1,0,0:0:0:0:
320,192,103187,1,0,0:0:0:0:
448,192,103187,1,0,0:0:0:0:
448,192,103337,1,0,0:0:0:0:
320,192,103412,1,0,0:0:0:0:
64,192,103487,1,0,0:0:0:0:
192,192,103487,1,0,0:0:0:0:
448,192,103487,1,0,0:0:0:0:
64,192,103637,1,0,0:0:0:0:
192,192,103712,1,0,0:0:0:0:
320,192,103787,1,0,0:0:0:0:
448,192,103787,1,0,0:0:0:0:
64,192,103937,1,0,0:0:0:0:
192,192,104012,5,0,0:0:0:0:
320,192,104087,1,0,0:0:0:0:
448,192,104087,1,0,0:0:0:0:
64,192,104087,1,0,0:0:0:0:
448,192,104237,1,0,0:0:0:0:
320,192,104312,1,0,0:0:0:0:
192,192,104387,1,0,0:0:0:0:
64,192,104387,1,0,0:0:0:0:
448,192,104537,1,0,0:0:0:0:
320,192,104612,1,0,0:0:0:0:
192,192,104687,1,0,0:0:0:0:
64,192,104687,1,0,0:0:0:0:
448,192,104687,1,0,0:0:0:0:
64,192,104837,1,0,0:0:0:0:
192,192,104912,1,0,0:0:0:0:
320,192,104987,1,0,0:0:0:0:
448,192,104987,1,0,0:0:0:0:
64,192,104987,1,0,0:0:0:0:
64,192,105137,5,0,0:0:0:0:
448,192,105137,1,0,0:0:0:0:
320,192,105212,1,0,0:0:0:0:
192,192,105212,1,0,0:0:0:0:
448,192,105287,1,0,0:0:0:0:
64,192,105362,1,0,0:0:0:0:
192,192,105362,1,0,0:0:0:0:
320,192,105437,1,0,0:0:0:0:
448,192,105437,1,0,0:0:0:0:
64,192,105512,1,0,0:0:0:0:
448,192,105587,128,0,106637:0:0:0:0:
192,192,105587,128,0,105737:0:0:0:0:
320,192,105737,128,0,105887:0:0:0:0:
192,192,105887,128,0,106037:0:0:0:0:
64,192,106037,128,0,106187:0:0:0:0:
320,192,106187,128,0,106337:0:0:0:0:
192,192,106337,128,0,106487:0:0:0:0:
320,192,106487,128,0,106637:0:0:0:0:
64,192,106637,1,0,0:0:0:0:
192,192,106637,1,0,0:0:0:0:
320,192,106712,1,0,0:0:0:0:
64,192,106787,1,0,0:0:0:0:
448,192,106787,1,0,0:0:0:0:
192,192,106787,1,0,0:0:0:0:
448,192,106987,1,0,0:0:0:0:
320,192,106987,1,0,0:0:0:0:
192,192,107087,1,0,0:0:0:0:
64,192,107187,1,0,0:0:0:0:
448,192,107187,1,0,0:0:0:0:
192,192,107287,1,0,0:0:0:0:
448,192,107387,1,0,0:0:0:0:
320,192,107387,1,0,0:0:0:0:
192,192,107487,1,0,0:0:0:0:
64,192,107487,1,0,0:0:0:0:
320,192,107587,1,0,0:0:0:0:
448,192,107687,1,0,0:0:0:0:
64,192,107687,1,0,0:0:0:0:
320,192,107837,1,0,0:0:0:0:
448,192,107837,1,0,0:0:0:0:
192,192,107912,1,0,0:0:0:0:
448,192,107987,1,0,0:0:0:0:
64,192,107987,128,0,109187:0:0:0:0:
320,192,107987,128,0,108137:0:0:0:0:
192,192,108137,128,0,108287:0:0:0:0:
448,192,108287,128,0,108437:0:0:0:0:
192,192,108437,128,0,108587:0:0:0:0:
320,192,108587,128,0,108737:0:0:0:0:
448,192,108737,128,0,108887:0:0:0:0:
320,192,108887,128,0,109037:0:0:0:0:
192,192,109037,128,0,109187:0:0:0:0:
448,192,109187,1,0,0:0:0:0:
64,192,109262,1,0,0:0:0:0:
320,192,109337,1,0,0:0:0:0:
192,192,109412,1,0,0:0:0:0:
448,192,109487,1,0,0:0:0:0:
320,192,109487,1,0,0:0:0:0:
192,192,109562,1,0,0:0:0:0:
64,192,109562,1,0,0:0:0:0:
448,192,109637,1,0,0:0:0:0:
320,192,109637,1,0,0:0:0:0:
192,192,109712,1,0,0:0:0:0:
64,192,109712,1,0,0:0:0:0:
448,192,109787,1,0,0:0:0:0:
320,192,109787,1,0,0:0:0:0:
192,192,109862,1,0,0:0:0:0:
64,192,109937,1,0,0:0:0:0:
448,192,109937,1,0,0:0:0:0:
320,192,110012,1,0,0:0:0:0:
192,192,110087,1,0,0:0:0:0:
64,192,110087,1,0,0:0:0:0:
448,192,110087,1,0,0:0:0:0:
192,192,110237,1,0,0:0:0:0:
320,192,110312,1,0,0:0:0:0:
192,192,110387,128,0,111437:0:0:0:0:
64,192,110387,1,0,0:0:0:0:
448,192,110387,128,0,110837:0:0:0:0:
64,192,110837,128,0,110987:0:0:0:0:
320,192,110987,128,0,111287:0:0:0:0:
64,192,111287,128,0,111437:0:0:0:0:
448,192,111437,1,0,0:0:0:0:
320,192,111437,1,0,0:0:0:0:
192,192,111512,1,0,0:0:0:0:
64,192,111512,1,0,0:0:0:0:
448,192,111587,1,0,0:0:0:0:
320,192,111587,1,0,0:0:0:0:
64,192,111737,1,0,0:0:0:0:
192,192,111737,1,0,0:0:0:0:
448,192,111737,1,0,0:0:0:0:
448,192,111887,1,0,0:0:0:0:
320,192,111887,1,0,0:0:0:0:
320,192,112037,1,0,0:0:0:0:
192,192,112037,1,0,0:0:0:0:
64,192,112187,1,0,0:0:0:0:
192,192,112187,1,0,0:0:0:0:
448,192,112187,1,0,0:0:0:0:
320,192,112337,1,0,0:0:0:0:
192,192,112487,1,0,0:0:0:0:
320,192,112637,1,0,0:0:0:0:
448,192,112637,1,0,0:0:0:0:
192,192,112712,1,0,0:0:0:0:
320,192,112787,128,0,115037:0:0:0:0:
448,192,112787,1,0,0:0:0:0:
64,192,112787,128,0,113087:0:0:0:0:
192,192,113087,128,0,113387:0:0:0:0:
448,192,113387,128,0,113537:0:0:0:0:
64,192,113537,128,0,113687:0:0:0:0:
192,192,113687,128,0,113837:0:0:0:0:
448,192,113837,128,0,114137:0:0:0:0:
192,192,114137,128,0,114287:0:0:0:0:
64,192,114287,128,0,114437:0:0:0:0:
448,192,114437,128,0,114587:0:0:0:0:
192,192,114587,128,0,114887:0:0:0:0:
448,192,114887,1,0,0:0:0:0:
64,192,115037,1,0,0:0:0:0:
192,192,115037,1,0,0:0:0:0:
320,192,115112,1,0,0:0:0:0:
448,192,115112,1,0,0:0:0:0:
192,192,115187,1,0,0:0:0:0:
64,192,115187,1,0,0:0:0:0:
192,192,115337,1,0,0:0:0:0:
192,192,115487,1,0,0:0:0:0:
192,192,115637,1,0,0:0:0:0:
192,192,115787,128,0,115837:0:0:0:0:
192,192,115937,128,0,115987:0:0:0:0:
192,192,116087,128,0,116137:0:0:0:0:
192,192,116237,128,0,116287:0:0:0:0:
192,192,116387,128,0,116437:0:0:0:0:
192,192,116537,128,0,116587:0:0:0:0:
192,192,116687,128,0,116762:0:0:0:0:
192,192,116837,128,0,116912:0:0:0:0:
192,192,116987,128,0,117062:0:0:0:0:
192,192,117137,128,0,117212:0:0:0:0:
320,192,117287,1,0,0:0:0:0:
192,192,117287,128,0,117362:0:0:0:0:
448,192,117587,1,0,0:0:0:0:
320,192,117587,128,0,117737:0:0:0:0:
192,192,117587,1,0,0:0:0:0:
64,192,117737,128,0,117812:0:0:0:0:
192,192,117812,128,0,117887:0:0:0:0:
448,192,117887,128,0,118037:0:0:0:0:
64,192,117887,1,0,0:0:0:0:
320,192,117887,1,0,0:0:0:0:
320,192,118037,128,0,118112:0:0:0:0:
64,192,118112,128,0,118187:0:0:0:0:
192,192,118187,128,0,118337:0:0:0:0:
320,192,118187,1,0,0:0:0:0:
448,192,118337,128,0,118412:0:0:0:0:
192,192,118412,128,0,118487:0:0:0:0:
320,192,118487,128,0,118637:0:0:0:0:
64,192,118487,1,0,0:0:0:0:
448,192,118487,1,0,0:0:0:0:
64,192,118637,128,0,118712:0:0:0:0:
320,192,118712,128,0,118787:0:0:0:0:
192,192,118787,128,0,118937:0:0:0:0:
64,192,118787,1,0,0:0:0:0:
448,192,118937,128,0,119087:0:0:0:0:
320,192,118937,1,0,0:0:0:0:
320,192,119087,128,0,119237:0:0:0:0:
64,192,119087,1,0,0:0:0:0:
192,192,119087,1,0,0:0:0:0:
192,192,119237,128,0,119387:0:0:0:0:
448,192,119237,1,0,0:0:0:0:
64,192,119387,128,0,119837:0:0:0:0:
448,192,119387,1,0,0:0:0:0:
192,192,119537,1,0,0:0:0:0:
320,192,119537,1,0,0:0:0:0:
320,192,119687,1,0,0:0:0:0:
448,192,119687,1,0,0:0:0:0:
192,192,119687,1,0,0:0:0:0:
192,192,119837,128,0,119912:0:0:0:0:
320,192,119912,128,0,119987:0:0:0:0:
448,192,119987,128,0,120137:0:0:0:0:
192,192,119987,1,0,0:0:0:0:
64,192,120137,128,0,120212:0:0:0:0:
192,192,120212,128,0,120287:0:0:0:0:
320,192,120287,128,0,120437:0:0:0:0:
448,192,120287,1,0,0:0:0:0:
64,192,120287,1,0,0:0:0:0:
64,192,120437,128,0,120512:0:0:0:0:
192,192,120512,128,0,120587:0:0:0:0:
320,192,120587,128,0,120737:0:0:0:0:
448,192,120587,1,0,0:0:0:0:
448,192,120737,128,0,120887:0:0:0:0:
192,192,120737,1,0,0:0:0:0:
192,192,120887,128,0,121037:0:0:0:0:
64,192,120887,1,0,0:0:0:0:
320,192,120887,1,0,0:0:0:0:
320,192,121037,128,0,121187:0:0:0:0:
64,192,121037,1,0,0:0:0:0:
448,192,121187,128,0,121262:0:0:0:0:
64,192,121262,128,0,121337:0:0:0:0:
448,192,121337,128,0,121412:0:0:0:0:
64,192,121412,128,0,121487:0:0:0:0:
448,192,121487,128,0,121562:0:0:0:0:
64,192,121562,128,0,121637:0:0:0:0:
448,192,121637,128,0,121712:0:0:0:0:
64,192,121712,128,0,121787:0:0:0:0:
448,192,121787,128,0,121937:0:0:0:0:
320,192,121787,1,0,0:0:0:0:
192,192,121937,128,0,122012:0:0:0:0:
320,192,122012,128,0,122087:0:0:0:0:
64,192,122087,1,0,0:0:0:0:
192,192,122087,1,0,0:0:0:0:
320,192,122162,1,0,0:0:0:0:
448,192,122162,1,0,0:0:0:0:
192,192,122237,1,0,0:0:0:0:
64,192,122237,1,0,0:0:0:0:
320,192,122312,1,0,0:0:0:0:
448,192,122312,1,0,0:0:0:0:
192,192,122387,128,0,122687:0:0:0:0:
64,192,122387,1,0,0:0:0:0:
448,192,122687,1,0,0:0:0:0:
320,192,122687,1,0,0:0:0:0:
64,192,122687,128,0,122762:0:0:0:0:
192,192,122762,128,0,122837:0:0:0:0:
448,192,122837,128,0,122987:0:0:0:0:
320,192,122837,1,0,0:0:0:0:
320,192,122987,128,0,123137:0:0:0:0:
192,192,122987,1,0,0:0:0:0:
64,192,123137,128,0,123212:0:0:0:0:
320,192,123212,128,0,123287:0:0:0:0:
64,192,123287,1,0,0:0:0:0:
448,192,123287,1,0,0:0:0:0:
192,192,123287,128,0,123437:0:0:0:0:
448,192,123437,128,0,123587:0:0:0:0:
64,192,123437,1,0,0:0:0:0:
320,192,123587,128,0,123662:0:0:0:0:
64,192,123662,128,0,123737:0:0:0:0:
192,192,123737,128,0,123812:0:0:0:0:
320,192,123812,128,0,123887:0:0:0:0:
448,192,123887,1,0,0:0:0:0:
64,192,123887,128,0,123962:0:0:0:0:
320,192,123962,128,0,124037:0:0:0:0:
192,192,124037,128,0,124112:0:0:0:0:
64,192,124112,128,0,124187:0:0:0:0:
448,192,124187,128,0,124637:0:0:0:0:
192,192,124187,1,0,0:0:0:0:
320,192,124337,1,0,0:0:0:0:
64,192,124337,1,0,0:0:0:0:
320,192,124487,1,0,0:0:0:0:
64,192,124487,1,0,0:0:0:0:
192,192,124487,1,0,0:0:0:0:
320,192,124637,128,0,124712:0:0:0:0:
192,192,124712,128,0,124787:0:0:0:0:
64,192,124787,128,0,124937:0:0:0:0:
320,192,124787,1,0,0:0:0:0:
448,192,124937,128,0,125012:0:0:0:0:
320,192,125012,128,0,125087:0:0:0:0:
448,192,125087,1,0,0:0:0:0:
64,192,125087,1,0,0:0:0:0:
192,192,125087,128,0,125237:0:0:0:0:
448,192,125237,128,0,125312:0:0:0:0:
320,192,125312,128,0,125387:0:0:0:0:
192,192,125387,128,0,125537:0:0:0:0:
64,192,125387,1,0,0:0:0:0:
64,192,125537,128,0,125687:0:0:0:0:
320,192,125537,1,0,0:0:0:0:
192,192,125687,1,0,0:0:0:0:
448,192,125687,1,0,0:0:0:0:
320,192,125687,128,0,125837:0:0:0:0:
64,192,125837,128,0,125987:0:0:0:0:
448,192,125837,1,0,0:0:0:0:
320,192,125987,128,0,126062:0:0:0:0:
192,192,126062,128,0,126137:0:0:0:0:
320,192,126137,128,0,126212:0:0:0:0:
192,192,126212,128,0,126287:0:0:0:0:
320,192,126287,128,0,126362:0:0:0:0:
192,192,126362,128,0,126437:0:0:0:0:
320,192,126437,128,0,126512:0:0:0:0:
192,192,126512,128,0,126587:0:0:0:0:
64,192,126587,128,0,126887:0:0:0:0:
448,192,126587,1,0,0:0:0:0:
320,192,126737,1,0,0:0:0:0:
192,192,126737,1,0,0:0:0:0:
448,192,126887,1,0,0:0:0:0:
320,192,126887,1,0,0:0:0:0:
192,192,126962,1,0,0:0:0:0:
64,192,126962,1,0,0:0:0:0:
320,192,127037,1,0,0:0:0:0:
448,192,127037,1,0,0:0:0:0:
192,192,127112,1,0,0:0:0:0:
64,192,127112,1,0,0:0:0:0:
320,192,127187,1,0,0:0:0:0:
448,192,127187,128,0,127787:0:0:0:0:
320,192,127337,1,0,0:0:0:0:
192,192,127337,1,0,0:0:0:0:
320,192,127487,1,0,0:0:0:0:
64,192,127487,1,0,0:0:0:0:
64,192,127637,1,0,0:0:0:0:
192,192,127637,1,0,0:0:0:0:
64,192,127787,128,0,128387:0:0:0:0:
320,192,127787,1,0,0:0:0:0:
448,192,127937,1,0,0:0:0:0:
320,192,127937,1,0,0:0:0:0:
320,192,128087,1,0,0:0:0:0:
192,192,128087,1,0,0:0:0:0:
192,192,128237,1,0,0:0:0:0:
448,192,128237,1,0,0:0:0:0:
320,192,128387,128,0,128987:0:0:0:0:
448,192,128387,1,0,0:0:0:0:
64,192,128537,1,0,0:0:0:0:
192,192,128537,1,0,0:0:0:0:
64,192,128687,1,0,0:0:0:0:
448,192,128687,1,0,0:0:0:0:
448,192,128837,1,0,0:0:0:0:
192,192,128837,1,0,0:0:0:0:
192,192,128987,128,0,129587:0:0:0:0:
64,192,128987,1,0,0:0:0:0:
320,192,129137,1,0,0:0:0:0:
448,192,129137,1,0,0:0:0:0:
448,192,129287,1,0,0:0:0:0:
64,192,129287,1,0,0:0:0:0:
64,192,129437,1,0,0:0:0:0:
320,192,129437,1,0,0:0:0:0:
448,192,129587,128,0,131987:0:0:0:0:
320,192,129587,1,0,0:0:0:0:
64,192,129737,1,0,0:0:0:0:
192,192,129737,1,0,0:0:0:0:
64,192,129887,1,0,0:0:0:0:
320,192,129887,1,0,0:0:0:0:
320,192,130037,1,0,0:0:0:0:
192,192,130037,1,0,0:0:0:0:
192,192,130187,1,0,0:0:0:0:
64,192,130187,1,0,0:0:0:0:
320,192,130337,1,0,0:0:0:0:
64,192,130337,1,0,0:0:0:0:
320,192,130487,1,0,0:0:0:0:
192,192,130487,1,0,0:0:0:0:
192,192,130637,1,0,0:0:0:0:
64,192,130637,1,0,0:0:0:0:
64,192,130787,1,0,0:0:0:0:
320,192,130787,1,0,0:0:0:0:
320,192,130937,1,0,0:0:0:0:
192,192,130937,1,0,0:0:0:0:
192,192,131087,1,0,0:0:0:0:
64,192,131087,1,0,0:0:0:0:
64,192,131237,1,0,0:0:0:0:
320,192,131237,1,0,0:0:0:0:
320,192,131387,1,0,0:0:0:0:
192,192,131387,1,0,0:0:0:0:
192,192,131537,1,0,0:0:0:0:
64,192,131537,1,0,0:0:0:0:
64,192,131687,1,0,0:0:0:0:
320,192,131687,1,0,0:0:0:0:
320,192,131837,1,0,0:0:0:0:
192,192,131912,1,0,0:0:0:0:
64,192,131987,1,0,0:0:0:0:
320,192,131987,1,0,0:0:0:0:
192,192,132062,1,0,0:0:0:0:
320,192,132137,1,0,0:0:0:0:
192,192,132212,1,0,0:0:0:0:
64,192,132287,1,0,0:0:0:0:
448,192,132287,1,0,0:0:0:0:
320,192,132362,1,0,0:0:0:0:
192,192,132437,1,0,0:0:0:0:
448,192,132512,1,0,0:0:0:0:
320,192,132587,1,0,0:0:0:0:
192,192,132587,1,0,0:0:0:0:
64,192,132662,1,0,0:0:0:0:
192,192,132737,1,0,0:0:0:0:
320,192,132812,1,0,0:0:0:0:
192,192,132887,1,0,0:0:0:0:
64,192,132887,1,0,0:0:0:0:
320,192,132962,1,0,0:0:0:0:
448,192,133037,1,0,0:0:0:0:
192,192,133112,1,0,0:0:0:0:
320,192,133187,1,0,0:0:0:0:
448,192,133187,1,0,0:0:0:0:
192,192,133262,1,0,0:0:0:0:
64,192,133337,1,0,0:0:0:0:
448,192,133412,1,0,0:0:0:0:
320,192,133487,1,0,0:0:0:0:
192,192,133487,1,0,0:0:0:0:
64,192,133562,1,0,0:0:0:0:
448,192,133637,1,0,0:0:0:0:
320,192,133712,1,0,0:0:0:0:
192,192,133787,1,0,0:0:0:0:
64,192,133787,1,0,0:0:0:0:
448,192,133862,1,0,0:0:0:0:
320,192,133937,1,0,0:0:0:0:
64,192,134012,1,0,0:0:0:0:
192,192,134087,1,0,0:0:0:0:
448,192,134087,1,0,0:0:0:0:
320,192,134162,1,0,0:0:0:0:
192,192,134237,1,0,0:0:0:0:
320,192,134312,1,0,0:0:0:0:
448,192,134387,1,0,0:0:0:0:
64,192,134387,1,0,0:0:0:0:
192,192,134462,1,0,0:0:0:0:
320,192,134537,1,0,0:0:0:0:
192,192,134612,1,0,0:0:0:0:
64,192,134687,1,0,0:0:0:0:
448,192,134687,1,0,0:0:0:0:
320,192,134762,1,0,0:0:0:0:
192,192,134837,1,0,0:0:0:0:
448,192,134912,1,0,0:0:0:0:
320,192,134987,1,0,0:0:0:0:
64,192,134987,1,0,0:0:0:0:
192,192,135062,1,0,0:0:0:0:
448,192,135137,1,0,0:0:0:0:
320,192,135212,1,0,0:0:0:0:
64,192,135287,1,0,0:0:0:0:
192,192,135287,1,0,0:0:0:0:
320,192,135362,1,0,0:0:0:0:
448,192,135437,1,0,0:0:0:0:
64,192,135512,1,0,0:0:0:0:
320,192,135587,1,0,0:0:0:0:
448,192,135587,1,0,0:0:0:0:
192,192,135662,1,0,0:0:0:0:
64,192,135662,1,0,0:0:0:0:
448,192,135737,1,0,0:0:0:0:
320,192,135737,1,0,0:0:0:0:
192,192,135812,1,0,0:0:0:0:
64,192,135812,1,0,0:0:0:0:
320,192,135887,1,0,0:0:0:0:
448,192,135887,1,0,0:0:0:0:
192,192,135962,1,0,0:0:0:0:
64,192,135962,1,0,0:0:0:0:
448,192,136037,1,0,0:0:0:0:
320,192,136037,1,0,0:0:0:0:
192,192,136112,1,0,0:0:0:0:
64,192,136112,1,0,0:0:0:0:
320,192,136187,1,0,0:0:0:0:
448,192,136187,1,0,0:0:0:0:
192,192,136262,1,0,0:0:0:0:
64,192,136262,1,0,0:0:0:0:
448,192,136337,1,0,0:0:0:0:
320,192,136337,1,0,0:0:0:0:
192,192,136412,1,0,0:0:0:0:
64,192,136412,1,0,0:0:0:0:
320,192,136487,1,0,0:0:0:0:
448,192,136487,1,0,0:0:0:0:
192,192,136562,1,0,0:0:0:0:
64,192,136562,1,0,0:0:0:0:
448,192,136637,1,0,0:0:0:0:
320,192,136637,1,0,0:0:0:0:
192,192,136712,1,0,0:0:0:0:
64,192,136712,1,0,0:0:0:0:
320,192,136787,128,0,137012:0:0:0:0:
64,192,137237,1,0,0:0:0:0:
192,192,137312,1,0,0:0:0:0:
320,192,137387,1,0,0:0:0:0:
448,192,137387,1,0,0:0:0:0:
64,192,137387,1,0,0:0:0:0:
320,192,137537,1,0,0:0:0:0:
192,192,137537,1,0,0:0:0:0:
448,192,137687,1,0,0:0:0:0:
192,192,137687,1,0,0:0:0:0:
448,192,137837,1,0,0:0:0:0:
320,192,137837,1,0,0:0:0:0:
64,192,137837,1,0,0:0:0:0:
192,192,137912,1,0,0:0:0:0:
320,192,137987,1,0,0:0:0:0:
448,192,138062,1,0,0:0:0:0:
64,192,138137,1,0,0:0:0:0:
192,192,138212,1,0,0:0:0:0:
320,192,138287,1,0,0:0:0:0:
448,192,138362,1,0,0:0:0:0:
64,192,138437,1,0,0:0:0:0:
192,192,138512,1,0,0:0:0:0:
448,192,138587,1,0,0:0:0:0:
320,192,138662,1,0,0:0:0:0:
192,192,138737,1,0,0:0:0:0:
64,192,138812,1,0,0:0:0:0:
448,192,138887,1,0,0:0:0:0:
320,192,138962,1,0,0:0:0:0:
192,192,139037,1,0,0:0:0:0:
64,192,139112,1,0,0:0:0:0:
448,192,139187,1,0,0:0:0:0:
320,192,139337,1,0,0:0:0:0:
192,192,139487,1,0,0:0:0:0:
64,192,139637,1,0,0:0:0:0:
320,192,139787,1,0,0:0:0:0:
448,192,139787,1,0,0:0:0:0:
192,192,139787,1,0,0:0:0:0:
448,192,139937,1,0,0:0:0:0:
320,192,139937,1,0,0:0:0:0:
192,192,140087,1,0,0:0:0:0:
64,192,140087,1,0,0:0:0:0:
320,192,140237,1,0,0:0:0:0:
448,192,140237,1,0,0:0:0:0:
64,192,140237,1,0,0:0:0:0:
192,192,140312,1,0,0:0:0:0:
320,192,140387,1,0,0:0:0:0:
448,192,140462,1,0,0:0:0:0:
64,192,140537,1,0,0:0:0:0:
192,192,140612,1,0,0:0:0:0:
320,192,140687,1,0,0:0:0:0:
64,192,140762,1,0,0:0:0:0:
192,192,140837,1,0,0:0:0:0:
448,192,140912,1,0,0:0:0:0:
320,192,140987,1,0,0:0:0:0:
192,192,141062,1,0,0:0:0:0:
64,192,141137,1,0,0:0:0:0:
448,192,141212,1,0,0:0:0:0:
320,192,141287,1,0,0:0:0:0:
192,192,141362,1,0,0:0:0:0:
64,192,141437,1,0,0:0:0:0:
448,192,141512,1,0,0:0:0:0:
320,192,141587,1,0,0:0:0:0:
64,192,141737,1,0,0:0:0:0:
192,192,141887,1,0,0:0:0:0:
320,192,142037,1,0,0:0:0:0:
448,192,142187,128,0,142487:0:0:0:0:
320,192,142487,1,0,0:0:0:0:
64,192,142487,1,0,0:0:0:0:
320,192,142637,1,0,0:0:0:0:
192,192,142637,1,0,0:0:0:0:
64,192,142787,1,0,0:0:0:0:
448,192,142787,1,0,0:0:0:0:
320,192,142862,1,0,0:0:0:0:
192,192,142937,1,0,0:0:0:0:
64,192,142937,1,0,0:0:0:0:
320,192,143012,1,0,0:0:0:0:
448,192,143087,1,0,0:0:0:0:
64,192,143087,1,0,0:0:0:0:
192,192,143162,1,0,0:0:0:0:
320,192,143237,1,0,0:0:0:0:
448,192,143237,1,0,0:0:0:0:
192,192,143312,1,0,0:0:0:0:
64,192,143387,1,0,0:0:0:0:
448,192,143387,1,0,0:0:0:0:
320,192,143462,1,0,0:0:0:0:
192,192,143537,1,0,0:0:0:0:
64,192,143537,1,0,0:0:0:0:
320,192,143612,1,0,0:0:0:0:
448,192,143687,1,0,0:0:0:0:
64,192,143687,1,0,0:0:0:0:
192,192,143762,1,0,0:0:0:0:
320,192,143837,1,0,0:0:0:0:
448,192,143837,1,0,0:0:0:0:
192,192,143912,1,0,0:0:0:0:
64,192,143987,1,0,0:0:0:0:
448,192,143987,1,0,0:0:0:0:
320,192,143987,1,0,0:0:0:0:
192,192,144137,1,0,0:0:0:0:
192,192,144287,1,0,0:0:0:0:
320,192,144287,1,0,0:0:0:0:
448,192,144287,1,0,0:0:0:0:
320,192,144437,1,0,0:0:0:0:
64,192,144437,1,0,0:0:0:0:
64,192,144587,1,0,0:0:0:0:
192,192,144587,1,0,0:0:0:0:
448,192,144587,1,0,0:0:0:0:
448,192,144737,1,0,0:0:0:0:
320,192,144737,1,0,0:0:0:0:
320,192,144887,1,0,0:0:0:0:
192,192,144887,1,0,0:0:0:0:
64,192,144887,1,0,0:0:0:0:
192,192,145037,1,0,0:0:0:0:
448,192,145037,1,0,0:0:0:0:
448,192,145187,1,0,0:0:0:0:
320,192,145187,1,0,0:0:0:0:
64,192,145187,1,0,0:0:0:0:
64,192,145337,1,0,0:0:0:0:
192,192,145337,1,0,0:0:0:0:
192,192,145487,1,0,0:0:0:0:
320,192,145487,1,0,0:0:0:0:
448,192,145487,1,0,0:0:0:0:
320,192,145637,1,0,0:0:0:0:
64,192,145637,1,0,0:0:0:0:
64,192,145787,1,0,0:0:0:0:
448,192,145787,1,0,0:0:0:0:
192,192,145787,1,0,0:0:0:0:
448,192,145937,1,0,0:0:0:0:
320,192,145937,1,0,0:0:0:0:
320,192,146087,1,0,0:0:0:0:
192,192,146087,1,0,0:0:0:0:
64,192,146087,1,0,0:0:0:0:
192,192,146237,1,0,0:0:0:0:
448,192,146237,1,0,0:0:0:0:
448,192,146387,1,0,0:0:0:0:
320,192,146387,1,0,0:0:0:0:
64,192,146387,1,0,0:0:0:0:
64,192,146537,1,0,0:0:0:0:
192,192,146537,1,0,0:0:0:0:
320,192,146612,1,0,0:0:0:0:
64,192,146687,1,0,0:0:0:0:
448,192,146687,1,0,0:0:0:0:
448,192,146837,1,0,0:0:0:0:
320,192,146837,1,0,0:0:0:0:
192,192,146837,1,0,0:0:0:0:
192,192,146987,1,0,0:0:0:0:
64,192,146987,1,0,0:0:0:0:
320,192,147062,1,0,0:0:0:0:
64,192,147137,1,0,0:0:0:0:
448,192,147137,1,0,0:0:0:0:
64,192,147287,1,0,0:0:0:0:
192,192,147287,1,0,0:0:0:0:
320,192,147287,1,0,0:0:0:0:
448,192,147437,1,0,0:0:0:0:
64,192,147437,1,0,0:0:0:0:
192,192,147437,1,0,0:0:0:0:
320,192,147512,1,0,0:0:0:0:
192,192,147587,1,0,0:0:0:0:
64,192,147662,1,0,0:0:0:0:
448,192,147737,1,0,0:0:0:0:
320,192,147812,1,0,0:0:0:0:
192,192,147887,1,0,0:0:0:0:
64,192,147887,1,0,0:0:0:0:
320,192,147962,1,0,0:0:0:0:
448,192,148037,1,0,0:0:0:0:
64,192,148112,1,0,0:0:0:0:
192,192,148187,1,0,0:0:0:0:
320,192,148262,1,0,0:0:0:0:
448,192,148337,1,0,0:0:0:0:
64,192,148412,1,0,0:0:0:0:
192,192,148487,1,0,0:0:0:0:
320,192,148487,1,0,0:0:0:0:
448,192,148562,1,0,0:0:0:0:
320,192,148637,1,0,0:0:0:0:
192,192,148712,1,0,0:0:0:0:
64,192,148787,1,0,0:0:0:0:
448,192,148862,1,0,0:0:0:0:
320,192,148937,1,0,0:0:0:0:
192,192,149012,1,0,0:0:0:0:
320,192,149087,1,0,0:0:0:0:
448,192,149087,1,0,0:0:0:0:
64,192,149237,1,0,0:0:0:0:
192,192,149237,1,0,0:0:0:0:
448,192,149312,1,0,0:0:0:0:
320,192,149312,1,0,0:0:0:0:
192,192,149387,1,0,0:0:0:0:
64,192,149387,1,0,0:0:0:0:
192,192,149537,1,0,0:0:0:0:
320,192,149537,1,0,0:0:0:0:
448,192,149687,1,0,0:0:0:0:
320,192,149687,1,0,0:0:0:0:
64,192,149837,1,0,0:0:0:0:
448,192,149837,1,0,0:0:0:0:
192,192,149837,1,0,0:0:0:0:
320,192,149912,1,0,0:0:0:0:
448,192,149987,1,0,0:0:0:0:
64,192,150062,1,0,0:0:0:0:
192,192,150137,1,0,0:0:0:0:
320,192,150212,1,0,0:0:0:0:
192,192,150287,1,0,0:0:0:0:
64,192,150287,1,0,0:0:0:0:
448,192,150362,1,0,0:0:0:0:
320,192,150437,1,0,0:0:0:0:
192,192,150512,1,0,0:0:0:0:
64,192,150587,1,0,0:0:0:0:
448,192,150662,1,0,0:0:0:0:
320,192,150737,1,0,0:0:0:0:
192,192,150812,1,0,0:0:0:0:
64,192,150887,1,0,0:0:0:0:
320,192,150887,1,0,0:0:0:0:
448,192,150962,1,0,0:0:0:0:
64,192,151037,1,0,0:0:0:0:
192,192,151112,1,0,0:0:0:0:
320,192,151187,1,0,0:0:0:0:
448,192,151262,1,0,0:0:0:0:
320,192,151337,1,0,0:0:0:0:
192,192,151412,1,0,0:0:0:0:
64,192,151487,1,0,0:0:0:0:
448,192,151487,1,0,0:0:0:0:
448,192,151637,1,0,0:0:0:0:
320,192,151637,1,0,0:0:0:0:
192,192,151712,1,0,0:0:0:0:
64,192,151712,1,0,0:0:0:0:
320,192,151787,1,0,0:0:0:0:
448,192,151787,1,0,0:0:0:0:
64,192,151937,1,0,0:0:0:0:
320,192,151937,1,0,0:0:0:0:
64,192,152087,1,0,0:0:0:0:
192,192,152087,1,0,0:0:0:0:
448,192,152087,1,0,0:0:0:0:
320,192,152237,1,0,0:0:0:0:
192,192,152237,1,0,0:0:0:0:
448,192,152387,1,0,0:0:0:0:
320,192,152387,1,0,0:0:0:0:
64,192,152387,1,0,0:0:0:0:
192,192,152537,1,0,0:0:0:0:
320,192,152612,1,0,0:0:0:0:
448,192,152612,1,0,0:0:0:0:
192,192,152687,1,0,0:0:0:0:
64,192,152687,1,0,0:0:0:0:
320,192,152837,1,0,0:0:0:0:
192,192,152912,1,0,0:0:0:0:
64,192,152912,1,0,0:0:0:0:
320,192,152987,1,0,0:0:0:0:
448,192,152987,1,0,0:0:0:0:
192,192,153137,1,0,0:0:0:0:
320,192,153212,1,0,0:0:0:0:
448,192,153212,1,0,0:0:0:0:
192,192,153287,1,0,0:0:0:0:
64,192,153287,1,0,0:0:0:0:
320,192,153437,1,0,0:0:0:0:
192,192,153512,1,0,0:0:0:0:
64,192,153512,1,0,0:0:0:0:
320,192,153587,1,0,0:0:0:0:
448,192,153587,1,0,0:0:0:0:
192,192,153737,1,0,0:0:0:0:
320,192,153812,1,0,0:0:0:0:
448,192,153812,1,0,0:0:0:0:
64,192,153887,1,0,0:0:0:0:
192,192,153887,1,0,0:0:0:0:
320,192,154037,1,0,0:0:0:0:
192,192,154112,1,0,0:0:0:0:
64,192,154112,1,0,0:0:0:0:
320,192,154187,1,0,0:0:0:0:
448,192,154187,1,0,0:0:0:0:
320,192,154337,1,0,0:0:0:0:
192,192,154337,1,0,0:0:0:0:
64,192,154637,1,0,0:0:0:0:
448,192,154637,1,0,0:0:0:0:
320,192,154637,1,0,0:0:0:0:
192,192,154712,1,0,0:0:0:0:
320,192,154787,1,0,0:0:0:0:
448,192,154862,1,0,0:0:0:0:
64,192,154937,1,0,0:0:0:0:
192,192,155012,1,0,0:0:0:0:
320,192,155087,1,0,0:0:0:0:
448,192,155087,1,0,0:0:0:0:
192,192,155162,1,0,0:0:0:0:
64,192,155237,1,0,0:0:0:0:
448,192,155312,1,0,0:0:0:0:
320,192,155312,1,0,0:0:0:0:
192,192,155387,1,0,0:0:0:0:
64,192,155462,1,0,0:0:0:0:
320,192,155462,1,0,0:0:0:0:
448,192,155537,1,0,0:0:0:0:
192,192,155612,1,0,0:0:0:0:
320,192,155687,1,0,0:0:0:0:
448,192,155687,1,0,0:0:0:0:
192,192,155762,1,0,0:0:0:0:
64,192,155837,1,0,0:0:0:0:
320,192,155912,1,0,0:0:0:0:
192,192,155987,1,0,0:0:0:0:
64,192,155987,1,0,0:0:0:0:
448,192,156062,1,0,0:0:0:0:
320,192,156062,1,0,0:0:0:0:
64,192,156137,1,0,0:0:0:0:
192,192,156212,1,0,0:0:0:0:
320,192,156287,1,0,0:0:0:0:
448,192,156287,1,0,0:0:0:0:
64,192,156362,1,0,0:0:0:0:
192,192,156362,1,0,0:0:0:0:
448,192,156437,1,0,0:0:0:0:
192,192,156512,1,0,0:0:0:0:
320,192,156587,1,0,0:0:0:0:
448,192,156587,1,0,0:0:0:0:
192,192,156662,1,0,0:0:0:0:
64,192,156737,1,0,0:0:0:0:
320,192,156737,1,0,0:0:0:0:
448,192,156812,1,0,0:0:0:0:
64,192,156887,1,0,0:0:0:0:
192,192,156887,1,0,0:0:0:0:
320,192,156962,1,0,0:0:0:0:
192,192,157037,1,0,0:0:0:0:
448,192,157037,1,0,0:0:0:0:
64,192,157112,1,0,0:0:0:0:
448,192,157187,1,0,0:0:0:0:
320,192,157187,128,0,158987:0:0:0:0:
192,192,157187,128,0,157337:0:0:0:0:
64,192,157337,128,0,157487:0:0:0:0:
448,192,157487,128,0,157637:0:0:0:0:
192,192,157637,128,0,157787:0:0:0:0:
448,192,157787,128,0,158987:0:0:0:0:
64,192,157787,128,0,157937:0:0:0:0:
192,192,157937,128,0,158087:0:0:0:0:
64,192,158087,128,0,158237:0:0:0:0:
192,192,158237,128,0,158387:0:0:0:0:
64,192,158387,128,0,158537:0:0:0:0:
192,192,158537,128,0,158687:0:0:0:0:
64,192,158687,128,0,158837:0:0:0:0:
192,192,158837,128,0,158987:0:0:0:0:
64,192,158987,1,0,0:0:0:0:
192,192,159137,1,0,0:0:0:0:
64,192,159137,1,0,0:0:0:0:
448,192,159437,1,0,0:0:0:0:
192,192,159437,1,0,0:0:0:0:
64,192,159437,1,0,0:0:0:0:
320,192,159512,1,0,0:0:0:0:
192,192,159587,1,0,0:0:0:0:
64,192,159662,1,0,0:0:0:0:
320,192,159737,1,0,0:0:0:0:
448,192,159812,1,0,0:0:0:0:
64,192,159887,1,0,0:0:0:0:
320,192,159887,1,0,0:0:0:0:
192,192,159962,1,0,0:0:0:0:
320,192,160037,1,0,0:0:0:0:
448,192,160112,1,0,0:0:0:0:
192,192,160187,1,0,0:0:0:0:
320,192,160187,1,0,0:0:0:0:
64,192,160262,1,0,0:0:0:0:
320,192,160337,1,0,0:0:0:0:
192,192,160412,1,0,0:0:0:0:
320,192,160487,1,0,0:0:0:0:
448,192,160487,1,0,0:0:0:0:
64,192,160562,1,0,0:0:0:0:
192,192,160637,1,0,0:0:0:0:
320,192,160712,1,0,0:0:0:0:
192,192,160787,1,0,0:0:0:0:
64,192,160787,1,0,0:0:0:0:
448,192,160862,1,0,0:0:0:0:
320,192,160937,1,0,0:0:0:0:
192,192,161012,1,0,0:0:0:0:
320,192,161087,1,0,0:0:0:0:
448,192,161087,1,0,0:0:0:0:
192,192,161162,1,0,0:0:0:0:
64,192,161237,1,0,0:0:0:0:
320,192,161312,1,0,0:0:0:0:
192,192,161387,1,0,0:0:0:0:
64,192,161387,1,0,0:0:0:0:
320,192,161462,1,0,0:0:0:0:
448,192,161537,1,0,0:0:0:0:
64,192,161612,1,0,0:0:0:0:
192,192,161687,1,0,0:0:0:0:
320,192,161687,1,0,0:0:0:0:
448,192,161762,1,0,0:0:0:0:
64,192,161837,1,0,0:0:0:0:
192,192,161912,1,0,0:0:0:0:
320,192,161987,1,0,0:0:0:0:
448,192,161987,1,0,0:0:0:0:
192,192,162062,1,0,0:0:0:0:
448,192,162137,1,0,0:0:0:0:
320,192,162212,1,0,0:0:0:0:
192,192,162287,1,0,0:0:0:0:
64,192,162287,1,0,0:0:0:0:
448,192,162362,1,0,0:0:0:0:
320,192,162437,1,0,0:0:0:0:
192,192,162512,1,0,0:0:0:0:
320,192,162587,1,0,0:0:0:0:
448,192,162587,1,0,0:0:0:0:
64,192,162662,1,0,0:0:0:0:
192,192,162737,1,0,0:0:0:0:
320,192,162812,1,0,0:0:0:0:
192,192,162887,1,0,0:0:0:0:
64,192,162887,1,0,0:0:0:0:
448,192,162962,1,0,0:0:0:0:
320,192,163037,1,0,0:0:0:0:
192,192,163112,1,0,0:0:0:0:
64,192,163187,1,0,0:0:0:0:
320,192,163187,1,0,0:0:0:0:
448,192,163262,1,0,0:0:0:0:
320,192,163337,1,0,0:0:0:0:
192,192,163412,1,0,0:0:0:0:
448,192,163487,1,0,0:0:0:0:
64,192,163487,1,0,0:0:0:0:
320,192,163562,1,0,0:0:0:0:
64,192,163637,1,0,0:0:0:0:
192,192,163712,1,0,0:0:0:0:
320,192,163787,1,0,0:0:0:0:
448,192,163787,1,0,0:0:0:0:
192,192,163862,1,0,0:0:0:0:
448,192,163937,1,0,0:0:0:0:
320,192,164012,1,0,0:0:0:0:
192,192,164087,1,0,0:0:0:0:
64,192,164087,1,0,0:0:0:0:
320,192,164162,1,0,0:0:0:0:
448,192,164237,1,0,0:0:0:0:
192,192,164312,1,0,0:0:0:0:
320,192,164387,1,0,0:0:0:0:
448,192,164387,1,0,0:0:0:0:
192,192,164462,1,0,0:0:0:0:
64,192,164537,1,0,0:0:0:0:
320,192,164612,1,0,0:0:0:0:
192,192,164687,1,0,0:0:0:0:
64,192,164687,1,0,0:0:0:0:
320,192,164762,1,0,0:0:0:0:
448,192,164837,1,0,0:0:0:0:
192,192,164912,1,0,0:0:0:0:
320,192,164987,1,0,0:0:0:0:
448,192,164987,1,0,0:0:0:0:
192,192,165062,1,0,0:0:0:0:
64,192,165137,1,0,0:0:0:0:
320,192,165212,1,0,0:0:0:0:
64,192,165287,1,0,0:0:0:0:
448,192,165287,1,0,0:0:0:0:
192,192,165362,1,0,0:0:0:0:
320,192,165437,1,0,0:0:0:0:
192,192,165512,1,0,0:0:0:0:
448,192,165587,1,0,0:0:0:0:
64,192,165587,1,0,0:0:0:0:
320,192,165662,1,0,0:0:0:0:
192,192,165737,1,0,0:0:0:0:
64,192,165812,1,0,0:0:0:0:
320,192,165887,1,0,0:0:0:0:
448,192,165887,1,0,0:0:0:0:
192,192,165962,1,0,0:0:0:0:
64,192,166037,1,0,0:0:0:0:
320,192,166112,1,0,0:0:0:0:
192,192,166187,1,0,0:0:0:0:
448,192,166187,1,0,0:0:0:0:
64,192,166262,1,0,0:0:0:0:
192,192,166337,1,0,0:0:0:0:
320,192,166412,1,0,0:0:0:0:
192,192,166487,1,0,0:0:0:0:
64,192,166487,1,0,0:0:0:0:
448,192,166562,1,0,0:0:0:0:
320,192,166637,1,0,0:0:0:0:
192,192,166712,1,0,0:0:0:0:
320,192,166787,1,0,0:0:0:0:
448,192,166787,1,0,0:0:0:0:
64,192,166862,1,0,0:0:0:0:
192,192,166937,1,0,0:0:0:0:
320,192,167012,1,0,0:0:0:0:
192,192,167087,1,0,0:0:0:0:
64,192,167087,1,0,0:0:0:0:
448,192,167162,1,0,0:0:0:0:
320,192,167237,1,0,0:0:0:0:
192,192,167312,1,0,0:0:0:0:
448,192,167387,1,0,0:0:0:0:
64,192,167387,1,0,0:0:0:0:
320,192,167462,1,0,0:0:0:0:
192,192,167537,1,0,0:0:0:0:
64,192,167612,1,0,0:0:0:0:
192,192,167687,1,0,0:0:0:0:
320,192,167687,1,0,0:0:0:0:
448,192,167762,1,0,0:0:0:0:
64,192,167837,1,0,0:0:0:0:
192,192,167912,1,0,0:0:0:0:
320,192,167987,1,0,0:0:0:0:
64,192,167987,1,0,0:0:0:0:
448,192,168062,1,0,0:0:0:0:
192,192,168137,1,0,0:0:0:0:
64,192,168212,1,0,0:0:0:0:
192,192,168287,1,0,0:0:0:0:
320,192,168287,1,0,0:0:0:0:
448,192,168362,1,0,0:0:0:0:
320,192,168437,1,0,0:0:0:0:
192,192,168512,1,0,0:0:0:0:
64,192,168587,1,0,0:0:0:0:
320,192,168587,1,0,0:0:0:0:
448,192,168662,1,0,0:0:0:0:
64,192,168737,1,0,0:0:0:0:
192,192,168812,1,0,0:0:0:0:
448,192,168887,1,0,0:0:0:0:
320,192,168937,1,0,0:0:0:0:
192,192,168987,1,0,0:0:0:0:
64,192,169037,1,0,0:0:0:0:
448,192,169087,1,0,0:0:0:0:
320,192,169137,1,0,0:0:0:0:
64,192,169187,1,0,0:0:0:0:
192,192,169187,128,0,169337:0:0:0:0:
448,192,169337,128,0,169487:0:0:0:0:
64,192,169412,1,0,0:0:0:0:
320,192,169487,128,0,169637:0:0:0:0:
192,192,169637,1,0,0:0:0:0:
64,192,169637,128,0,169787:0:0:0:0:
448,192,169787,128,0,169937:0:0:0:0:
192,192,169862,1,0,0:0:0:0:
320,192,169937,128,0,170087:0:0:0:0:
64,192,170087,128,0,170237:0:0:0:0:
192,192,170237,128,0,170387:0:0:0:0:
448,192,170387,128,0,170537:0:0:0:0:
64,192,170537,128,0,170687:0:0:0:0:
192,192,170687,128,0,170837:0:0:0:0:
320,192,170837,128,0,170987:0:0:0:0:
64,192,170987,128,0,171137:0:0:0:0:
192,192,171137,128,0,171287:0:0:0:0:
448,192,171287,128,0,171437:0:0:0:0:
320,192,171437,128,0,171587:0:0:0:0:
64,192,171587,128,0,171737:0:0:0:0:
192,192,171737,128,0,171887:0:0:0:0:
320,192,171887,128,0,172037:0:0:0:0:
64,192,172037,128,0,172187:0:0:0:0:
320,192,172187,128,0,172337:0:0:0:0:
448,192,172337,128,0,172487:0:0:0:0:
192,192,172487,128,0,172637:0:0:0:0:
64,192,172637,128,0,172787:0:0:0:0:
320,192,172787,128,0,172937:0:0:0:0:
192,192,172937,128,0,173087:0:0:0:0:
448,192,173087,128,0,173237:0:0:0:0:
64,192,173237,128,0,173387:0:0:0:0:
192,192,173387,128,0,173537:0:0:0:0:
320,192,173537,128,0,173687:0:0:0:0:
448,192,173687,128,0,173837:0:0:0:0:
64,192,173837,128,0,173987:0:0:0:0:
192,192,173987,128,0,174137:0:0:0:0:
448,192,174137,128,0,174287:0:0:0:0:
320,192,174287,128,0,174437:0:0:0:0:
64,192,174437,128,0,174587:0:0:0:0:
448,192,174587,128,0,174737:0:0:0:0:
320,192,174737,128,0,174887:0:0:0:0:
64,192,174887,128,0,175037:0:0:0:0:
448,192,175037,128,0,175187:0:0:0:0:
64,192,175187,128,0,175337:0:0:0:0:
448,192,175337,128,0,175487:0:0:0:0:
192,192,175487,128,0,175637:0:0:0:0:
320,192,175637,128,0,175787:0:0:0:0:
64,192,175787,128,0,175937:0:0:0:0:
192,192,175937,128,0,176087:0:0:0:0:
448,192,176087,128,0,176237:0:0:0:0:
192,192,176237,128,0,176387:0:0:0:0:
448,192,176387,128,0,176537:0:0:0:0:
192,192,176537,128,0,176687:0:0:0:0:
320,192,176687,128,0,176837:0:0:0:0:
64,192,176837,128,0,176987:0:0:0:0:
192,192,176987,128,0,177137:0:0:0:0:
448,192,177137,128,0,177287:0:0:0:0:
320,192,177287,128,0,177437:0:0:0:0:
64,192,177437,128,0,177587:0:0:0:0:
320,192,177587,128,0,177737:0:0:0:0:
64,192,177737,128,0,177887:0:0:0:0:
320,192,177887,1,0,0:0:0:0:
448,192,177887,128,0,178037:0:0:0:0:
64,192,178037,128,0,178187:0:0:0:0:
192,192,178037,1,0,0:0:0:0:
320,192,178187,128,0,178337:0:0:0:0:
448,192,178187,1,0,0:0:0:0:
192,192,178337,128,0,178487:0:0:0:0:
64,192,178337,1,0,0:0:0:0:
448,192,178487,128,0,178637:0:0:0:0:
320,192,178487,1,0,0:0:0:0:
64,192,178637,128,0,178787:0:0:0:0:
192,192,178637,1,0,0:0:0:0:
