osu file format v14

[General]
AudioFilename: audio.mp3
AudioLeadIn: 0
PreviewTime: 76567
Countdown: 0
SampleSet: Normal
StackLeniency: 0.7
Mode: 1
LetterboxInBreaks: 0
WidescreenStoryboard: 1

[Editor]
Bookmarks: 962,6151,21718,32097,52853,98259,108637,119016,129394,139772,160529,181286,186475
DistanceSpacing: 0.1
BeatDivisor: 4
GridSize: 32
TimelineZoom: 0.8000011

[Metadata]
Title:sink to the deep sea world
TitleUnicode:sink to the deep sea world
Artist:Chroma
ArtistUnicode:黒魔
Creator:Reficul
Version:Sunken Oni
Source:
Tags:五つの物語 Midnaait ARGENTINE DREAM _w6 _WWWWWW_WWWWWW_ Axer Grimbow gaston_2199 Electronic Instrumental Chipbreak
BeatmapID:2387663
BeatmapSetID:901604

[Difficulty]
HPDrainRate:6
CircleSize:5
OverallDifficulty:6.6
ApproachRate:8
SliderMultiplier:1.4
SliderTickRate:1

[Events]
//Background and Video events
0,0,"wada pls.jpg",0,100
//Break Periods
//Storyboard Layer 0 (Background)
//Storyboard Layer 1 (Fail)
//Storyboard Layer 2 (Pass)
//Storyboard Layer 3 (Foreground)
//Storyboard Layer 4 (Overlay)
//Storyboard Sound Samples

[TimingPoints]
1324,324.324324324324,4,1,0,50,1,0
1324,-111.111111111111,4,1,0,50,0,0
6320,-104.166666666667,4,1,0,80,0,0
6429,-102.040816326531,4,1,0,80,0,0
6510,-100,4,1,0,80,0,0
20942,-99.3788819875776,4,1,0,80,0,0
21104,-98.7654320987654,4,1,0,80,0,0
21185,-98.4615384615385,4,1,0,80,0,0
21266,-98.159509202454,4,1,0,80,0,0
21429,-97.5609756097561,4,1,0,80,0,0
21510,-97.2644376899696,4,1,0,80,0,0
21591,-96.969696969697,4,1,0,80,0,0
21672,-96.6767371601208,4,1,0,80,0,0
21753,-96.3855421686747,4,1,0,80,0,0
21915,-95.8083832335329,4,1,0,80,0,0
22050,-95.2380952380952,4,1,0,90,0,0
31050,-94.987960276035,4,1,0,90,0,0
31104,-94.7391357896033,4,1,0,90,0,0
31158,-94.4916115071885,4,1,0,90,0,0
31239,-94.1227850555607,4,1,0,90,0,0
31320,-93.7567387655988,4,1,0,90,0,0
31402,-93.3936157992112,4,1,0,90,0,0
31483,-93.0332082036683,4,1,0,90,0,0
31564,-92.6756574411139,4,1,0,90,0,0
31645,-92.320759245924,4,1,0,90,0,0
31726,-91.9686534041737,4,1,0,90,0,0
31807,-91.6191392381869,4,1,0,90,0,0
31888,-91.2723548815193,4,1,0,90,0,0
31969,-90.9281031488402,4,1,0,90,0,0
32050,-90.5865205445699,4,1,0,90,0,0
32131,-90.2474132835168,4,1,0,90,0,0
32212,-89.9109162641655,4,1,0,90,0,0
32293,-89.5769192526777,4,1,0,90,0,0
32375,-89.245314844084,4,1,0,90,0,0
32456,-88.9162355711179,4,1,0,90,0,0
32618,-100,4,1,0,90,0,0
41672,-99.3788819875776,4,1,0,90,0,0
41834,-98.7654320987654,4,1,0,90,0,0
41915,-98.4615384615385,4,1,0,90,0,0
41996,-98.159509202454,4,1,0,90,0,0
42159,-97.5609756097561,4,1,0,90,0,0
42240,-97.2644376899696,4,1,0,90,0,0
42321,-96.969696969697,4,1,0,90,0,0
42402,-96.6767371601208,4,1,0,90,0,0
42483,-96.3855421686747,4,1,0,90,0,0
42645,-95.8083832335329,4,1,0,90,0,0
42807,-95.2380952380952,4,1,0,90,0,0
53212,-111.111111111111,4,1,0,67,0,0
63185,-107.52688172043,4,1,0,67,0,0
63402,-104.166666666667,4,1,0,80,0,0
63510,-102.040816326531,4,1,0,80,0,0
63591,-100,4,1,0,80,0,0
71456,-99.7402763204615,4,1,0,80,0,0
71537,-99.4818982737901,4,1,0,80,0,0
71699,-98.9690395153684,4,1,0,80,0,0
71780,-98.7146367153297,4,1,0,80,0,0
71861,-98.4615384615385,4,1,0,80,0,0
71942,-98.2097347453274,4,1,0,80,0,0
72023,-97.959215660152,4,1,0,80,0,0
72104,-97.7098759279995,4,1,0,80,0,0
72185,-97.4618972712618,4,1,0,80,0,0
72348,-96.969696969697,4,1,0,80,0,0
72429,-96.725456399066,4,1,0,80,0,0
72510,-96.4824430898309,4,1,0,80,0,0
72672,-95.9999692800098,4,1,0,80,0,0
72753,-95.7605832202561,4,1,0,80,0,0
72834,-95.5223880597015,4,1,0,80,0,0
72996,-95.0495350651992,4,1,0,80,0,0
73158,-94.5812509694578,4,1,0,80,0,0
73239,-94.3488795127069,4,1,0,80,0,0
73320,-94.1176470588235,4,1,0,80,0,0
73402,-93.8875452537968,4,1,0,80,0,0
73483,-93.6585658251132,4,1,0,80,0,0
73645,-93.2038545386083,4,1,0,80,0,0
73807,-92.7536231884058,4,1,0,80,0,0
73888,-92.5301347516352,4,1,0,80,0,0
73969,-92.3077207100679,4,1,0,80,0,0
74050,-92.0862885358096,4,1,0,80,0,0
74131,-91.8660005769185,4,1,0,80,0,0
74212,-91.6467640444084,4,1,0,80,0,0
74293,-91.4285714285714,4,1,0,80,0,0
74456,-90.9952882639737,4,1,0,80,0,0
74537,-90.7801830491611,4,1,0,80,0,0
74618,-90.5660103951667,4,1,0,80,0,0
74699,-90.3529275703827,4,1,0,80,0,0
74780,-90.1408450704225,4,1,0,80,0,0
74942,-89.71965300027,4,1,0,80,0,0
75104,-89.3022989983854,4,1,0,80,0,0
75185,-89.0951143803078,4,1,0,80,0,0
75266,-88.8888888888889,4,1,0,80,0,0
75320,-12.5,4,1,0,15,0,0
76483,-95.2380952380952,4,1,0,15,0,0
77823,-95.2380952380952,4,1,0,90,0,0
77864,-95.2380952380952,4,1,0,90,0,1
77905,-97.5609756097561,4,1,0,90,0,1
77986,-100,4,1,0,90,0,1
78067,-102.040816326531,4,1,0,90,0,1
78148,-95.2380952380952,4,1,0,90,0,1
78229,-97.5609756097561,4,1,0,90,0,1
78310,-100,4,1,0,90,0,1
78391,-102.040816326531,4,1,0,90,0,1
78472,-95.2380952380952,4,1,0,90,0,1
78553,-97.5609756097561,4,1,0,90,0,1
78634,-100,4,1,0,90,0,1
78715,-102.040816326531,4,1,0,90,0,1
78796,-95.2380952380952,4,1,0,90,0,1
78877,-97.5609756097561,4,1,0,90,0,1
78958,-100,4,1,0,90,0,1
79039,-102.040816326531,4,1,0,90,0,1
79121,-95.2380952380952,4,1,0,90,0,1
79202,-97.5609756097561,4,1,0,90,0,1
79283,-100,4,1,0,90,0,1
79364,-102.040816326531,4,1,0,90,0,1
79445,-95.2380952380952,4,1,0,90,0,1
79526,-97.5609756097561,4,1,0,90,0,1
79607,-100,4,1,0,90,0,1
79688,-102.040816326531,4,1,0,90,0,1
79769,-95.2380952380952,4,1,0,90,0,1
79850,-97.5609756097561,4,1,0,90,0,1
79931,-100,4,1,0,90,0,1
80012,-102.040816326531,4,1,0,90,0,1
80094,-95.2380952380952,4,1,0,90,0,1
80175,-97.5609756097561,4,1,0,90,0,1
80256,-100,4,1,0,90,0,1
80337,-102.040816326531,4,1,0,90,0,1
80418,-95.2380952380952,4,1,0,90,0,1
80499,-97.5609756097561,4,1,0,90,0,1
80580,-100,4,1,0,90,0,1
80661,-102.040816326531,4,1,0,90,0,1
80739,-95.2380952380952,4,1,0,90,0,1
80820,-97.5609756097561,4,1,0,90,0,1
80902,-100,4,1,0,90,0,1
80983,-102.040816326531,4,1,0,90,0,1
81067,-95.2380952380952,4,1,0,90,0,1
81148,-97.5609756097561,4,1,0,90,0,1
81229,-100,4,1,0,90,0,1
81310,-102.040816326531,4,1,0,90,0,1
81391,-95.2380952380952,4,1,0,90,0,1
81472,-97.5609756097561,4,1,0,90,0,1
81553,-100,4,1,0,90,0,1
81634,-102.040816326531,4,1,0,90,0,1
81715,-95.2380952380952,4,1,0,90,0,1
81796,-97.5609756097561,4,1,0,90,0,1
81877,-100,4,1,0,90,0,1
81958,-102.040816326531,4,1,0,90,0,1
82040,-95.2380952380952,4,1,0,90,0,1
82121,-97.5609756097561,4,1,0,90,0,1
82202,-100,4,1,0,90,0,1
82283,-102.040816326531,4,1,0,90,0,1
82364,-95.2380952380952,4,1,0,90,0,1
82445,-97.5609756097561,4,1,0,90,0,1
82526,-100,4,1,0,90,0,1
82607,-102.040816326531,4,1,0,90,0,1
82688,-95.2380952380952,4,1,0,90,0,1
82769,-97.5609756097561,4,1,0,90,0,1
82850,-100,4,1,0,90,0,1
82931,-102.040816326531,4,1,0,90,0,1
83013,-95.2380952380952,4,1,0,90,0,1
83094,-96.1538461538461,4,1,0,90,0,1
83175,-97.0873786407767,4,1,0,90,0,1
83256,-98.0392156862745,4,1,0,90,0,1
83337,-99.009900990099,4,1,0,90,0,1
83418,-100,4,1,0,90,0,1
83499,-101.010101010101,4,1,0,90,0,1
83580,-102.040816326531,4,1,0,90,0,1
83661,-95.2380952380952,4,1,0,90,0,1
83742,-96.1538461538461,4,1,0,90,0,1
83823,-97.0873786407767,4,1,0,90,0,1
83904,-98.0392156862745,4,1,0,90,0,1
83985,-99.009900990099,4,1,0,90,0,1
84066,-100,4,1,0,90,0,1
84147,-101.010101010101,4,1,0,90,0,1
84228,-102.040816326531,4,1,0,90,0,1
84310,-95.2380952380952,4,1,0,90,0,1
84391,-96.1538461538461,4,1,0,90,0,1
84472,-97.0873786407767,4,1,0,90,0,1
84553,-98.0392156862745,4,1,0,90,0,1
84634,-99.009900990099,4,1,0,90,0,1
84715,-100,4,1,0,90,0,1
84796,-101.010101010101,4,1,0,90,0,1
84877,-102.040816326531,4,1,0,90,0,1
84959,-95.2380952380952,4,1,0,90,0,1
85040,-96.1538461538461,4,1,0,90,0,1
85121,-97.0873786407767,4,1,0,90,0,1
85202,-98.0392156862745,4,1,0,90,0,1
85283,-99.009900990099,4,1,0,90,0,1
85364,-100,4,1,0,90,0,1
85445,-101.010101010101,4,1,0,90,0,1
85526,-102.040816326531,4,1,0,90,0,1
85607,-95.2380952380952,4,1,0,90,0,1
85688,-96.1538461538461,4,1,0,90,0,1
85769,-97.0873786407767,4,1,0,90,0,1
85850,-98.0392156862745,4,1,0,90,0,1
85931,-99.009900990099,4,1,0,90,0,1
86012,-100,4,1,0,90,0,1
86093,-101.010101010101,4,1,0,90,0,1
86174,-102.040816326531,4,1,0,90,0,1
86256,-95.2380952380952,4,1,0,90,0,1
86337,-96.1538461538461,4,1,0,90,0,1
86418,-97.0873786407767,4,1,0,90,0,1
86499,-98.0392156862745,4,1,0,90,0,1
86580,-99.009900990099,4,1,0,90,0,1
86661,-100,4,1,0,90,0,1
86742,-101.010101010101,4,1,0,90,0,1
86823,-102.040816326531,4,1,0,90,0,1
86905,-95.2380952380952,4,1,0,90,0,1
86986,-96.1538461538461,4,1,0,90,0,1
87067,-97.0873786407767,4,1,0,90,0,1
87148,-98.0392156862745,4,1,0,90,0,1
87229,-99.009900990099,4,1,0,90,0,1
87310,-100,4,1,0,90,0,1
87391,-101.010101010101,4,1,0,90,0,1
87472,-102.040816326531,4,1,0,90,0,1
87553,-103.092783505155,4,1,0,90,0,1
87712,-95.2380952380952,4,1,0,90,0,1
87793,-97.0873786407767,4,1,0,90,0,1
87875,-99.009900990099,4,1,0,90,0,1
88037,-92.5925925925926,4,1,0,90,0,1
88118,-93.8967136150235,4,1,0,90,0,1
88199,-95.2380952380952,4,1,0,90,0,1
88280,-97.5609756097561,4,1,0,90,0,1
88361,-100,4,1,0,90,0,1
88442,-102.040816326531,4,1,0,90,0,1
88526,-95.2380952380952,4,1,0,90,0,1
88607,-97.5609756097561,4,1,0,90,0,1
88688,-100,4,1,0,90,0,1
88769,-102.040816326531,4,1,0,90,0,1
88850,-95.2380952380952,4,1,0,90,0,1
88931,-97.5609756097561,4,1,0,90,0,1
89012,-100,4,1,0,90,0,1
89093,-102.040816326531,4,1,0,90,0,1
89174,-95.2380952380952,4,1,0,90,0,1
89255,-97.5609756097561,4,1,0,90,0,1
89336,-100,4,1,0,90,0,1
89417,-102.040816326531,4,1,0,90,0,1
89499,-95.2380952380952,4,1,0,90,0,1
89580,-97.5609756097561,4,1,0,90,0,1
89661,-100,4,1,0,90,0,1
89742,-102.040816326531,4,1,0,90,0,1
89823,-95.2380952380952,4,1,0,90,0,1
89904,-97.5609756097561,4,1,0,90,0,1
89985,-100,4,1,0,90,0,1
90066,-102.040816326531,4,1,0,90,0,1
90147,-95.2380952380952,4,1,0,90,0,1
90228,-97.5609756097561,4,1,0,90,0,1
90309,-100,4,1,0,90,0,1
90390,-102.040816326531,4,1,0,90,0,1
90472,-95.2380952380952,4,1,0,90,0,1
90553,-97.5609756097561,4,1,0,90,0,1
90634,-100,4,1,0,90,0,1
90715,-102.040816326531,4,1,0,90,0,1
90796,-95.2380952380952,4,1,0,90,0,1
90877,-97.5609756097561,4,1,0,90,0,1
90958,-100,4,1,0,90,0,1
91039,-102.040816326531,4,1,0,90,0,1
91118,-95.2380952380952,4,1,0,90,0,1
91199,-97.5609756097561,4,1,0,90,0,1
91280,-100,4,1,0,90,0,1
91361,-102.040816326531,4,1,0,90,0,1
91445,-95.2380952380952,4,1,0,90,0,1
91526,-97.5609756097561,4,1,0,90,0,1
91607,-100,4,1,0,90,0,1
91688,-102.040816326531,4,1,0,90,0,1
91769,-95.2380952380952,4,1,0,90,0,1
91850,-97.5609756097561,4,1,0,90,0,1
91931,-100,4,1,0,90,0,1
92012,-102.040816326531,4,1,0,90,0,1
92093,-95.2380952380952,4,1,0,90,0,1
92174,-97.5609756097561,4,1,0,90,0,1
92255,-100,4,1,0,90,0,1
92336,-102.040816326531,4,1,0,90,0,1
92418,-95.2380952380952,4,1,0,90,0,1
92499,-97.5609756097561,4,1,0,90,0,1
92580,-100,4,1,0,90,0,1
92661,-102.040816326531,4,1,0,90,0,1
92742,-95.2380952380952,4,1,0,90,0,1
92823,-97.5609756097561,4,1,0,90,0,1
92904,-100,4,1,0,90,0,1
92985,-102.040816326531,4,1,0,90,0,1
93066,-95.2380952380952,4,1,0,90,0,1
93147,-97.5609756097561,4,1,0,90,0,1
93228,-100,4,1,0,90,0,1
93309,-102.040816326531,4,1,0,90,0,1
93391,-95.2380952380952,4,1,0,90,0,1
93472,-96.1538461538461,4,1,0,90,0,1
93553,-97.0873786407767,4,1,0,90,0,1
93634,-98.0392156862745,4,1,0,90,0,1
93715,-99.009900990099,4,1,0,90,0,1
93796,-100,4,1,0,90,0,1
93877,-101.010101010101,4,1,0,90,0,1
93958,-102.040816326531,4,1,0,90,0,1
94039,-95.2380952380952,4,1,0,90,0,1
94120,-96.1538461538461,4,1,0,90,0,1
94201,-97.0873786407767,4,1,0,90,0,1
94282,-98.0392156862745,4,1,0,90,0,1
94363,-99.009900990099,4,1,0,90,0,1
94444,-100,4,1,0,90,0,1
94525,-101.010101010101,4,1,0,90,0,1
94606,-102.040816326531,4,1,0,90,0,1
94688,-95.2380952380952,4,1,0,90,0,1
94769,-96.1538461538461,4,1,0,90,0,1
94850,-97.0873786407767,4,1,0,90,0,1
94931,-98.0392156862745,4,1,0,90,0,1
95012,-99.009900990099,4,1,0,90,0,1
95093,-100,4,1,0,90,0,1
95174,-101.010101010101,4,1,0,90,0,1
95255,-102.040816326531,4,1,0,90,0,1
95337,-95.2380952380952,4,1,0,90,0,1
95418,-96.1538461538461,4,1,0,90,0,1
95499,-97.0873786407767,4,1,0,90,0,1
95580,-98.0392156862745,4,1,0,90,0,1
95661,-99.009900990099,4,1,0,90,0,1
95742,-100,4,1,0,90,0,1
95823,-101.010101010101,4,1,0,90,0,1
95904,-102.040816326531,4,1,0,90,0,1
95985,-95.2380952380952,4,1,0,90,0,1
96066,-96.1538461538461,4,1,0,90,0,1
96147,-97.0873786407767,4,1,0,90,0,1
96228,-98.0392156862745,4,1,0,90,0,1
96309,-99.009900990099,4,1,0,90,0,1
96390,-100,4,1,0,90,0,1
96471,-101.010101010101,4,1,0,90,0,1
96552,-102.040816326531,4,1,0,90,0,1
96634,-95.2380952380952,4,1,0,90,0,1
96715,-96.1538461538461,4,1,0,90,0,1
96796,-97.0873786407767,4,1,0,90,0,1
96877,-98.0392156862745,4,1,0,90,0,1
96958,-99.009900990099,4,1,0,90,0,1
97039,-100,4,1,0,90,0,1
97120,-101.010101010101,4,1,0,90,0,1
97201,-102.040816326531,4,1,0,90,0,1
97283,-95.2380952380952,4,1,0,90,0,1
97364,-96.1538461538461,4,1,0,90,0,1
97445,-97.0873786407767,4,1,0,90,0,1
97526,-98.0392156862745,4,1,0,90,0,1
97607,-99.009900990099,4,1,0,90,0,1
97688,-100,4,1,0,90,0,1
97769,-101.010101010101,4,1,0,90,0,1
97850,-102.040816326531,4,1,0,90,0,1
97929,-90.9090909090909,4,1,0,90,0,1
98010,-91.743119266055,4,1,0,90,0,1
98091,-92.5925925925926,4,1,0,90,0,1
98172,-93.4579439252336,4,1,0,90,0,1
98253,-94.3396226415094,4,1,0,90,0,1
98334,-95.2380952380952,4,1,0,90,0,1
98429,-96.1538461538461,4,1,0,90,0,1
98483,-97.0873786407767,4,1,0,90,0,1
98537,-98.5221674876847,4,1,0,90,0,1
98621,-100,4,1,0,90,0,0
98699,-99.858001921268,4,1,0,90,0,0
98780,-99.7164065398008,4,1,0,90,0,0
98861,-99.5753112973169,4,1,0,90,0,0
98942,-99.434515908031,4,1,0,90,0,0
99023,-99.2941181143253,4,1,0,90,0,0
99104,-99.1541162344043,4,1,0,90,0,0
99185,-99.0145085959445,4,1,0,90,0,0
99266,-98.8753912993611,4,1,0,90,0,0
99348,-98.7365668900746,4,1,0,90,0,0
99429,-98.5981317625994,4,1,0,90,0,0
99510,-98.4600842818321,4,1,0,90,0,0
99591,-98.3224228218142,4,1,0,90,0,0
99672,-98.1852421689905,4,1,0,90,0,0
99753,-98.0483476402214,4,1,0,90,0,0
99807,-97.9572964961655,4,1,0,90,0,0
99861,-97.8664143018063,4,1,0,90,0,0
99915,-97.7757005873386,4,1,0,90,0,0
99996,-97.6399448920151,4,1,0,90,0,0
100077,-97.5046607227825,4,1,0,90,0,0
100158,-97.3696561098485,4,1,0,90,0,0
100239,-97.2350248338253,4,1,0,90,0,0
100320,-97.1007653482325,4,1,0,90,0,0
100402,-96.9668761151191,4,1,0,90,0,0
100483,-96.8334493720835,4,1,0,90,0,0
100564,-96.7002958062049,4,1,0,90,0,0
100645,-96.5675079306066,4,1,0,90,0,0
100726,-96.4350842408678,4,1,0,90,0,0
100807,-96.3030232408086,4,1,0,90,0,0
100888,-96.1714159317568,4,1,0,90,0,0
100969,-96.0400756027475,4,1,0,90,0,0
101050,-95.9090935247935,4,1,0,90,0,0
101131,-95.7784682341132,4,1,0,90,0,0
101212,-95.6481982748891,4,1,0,90,0,0
101293,-95.5183734367224,4,1,0,90,0,0
101375,-95.3888095571956,4,1,0,90,0,0
101456,-95.2595966899195,4,1,0,90,0,0
101537,-95.1307334103892,4,1,0,90,0,0
101618,-95.0022183017973,4,1,0,90,0,0
101699,-94.8741399659212,4,1,0,90,0,0
101780,-94.7463167369368,4,1,0,90,0,0
101861,-94.6188374751152,4,1,0,90,0,0
101942,-94.4917007939193,4,1,0,90,0,0
102023,-94.364905314254,4,1,0,90,0,0
102104,-94.2385384733545,4,1,0,90,0,0
102185,-94.1124210514428,4,1,0,90,0,0
102266,-93.9866407388854,4,1,0,90,0,0
102348,-93.8611961858564,4,1,0,90,0,0
102402,-93.7777523535871,4,1,0,90,0,0
102456,-93.694456754855,4,1,0,90,0,0
102510,-93.6113966258708,4,1,0,90,0,0
102591,-93.4869510913667,4,1,0,90,0,0
102672,-93.362835989506,4,1,0,90,0,0
102753,-93.2390500059673,4,1,0,90,0,0
102834,-93.1155918333901,4,1,0,90,0,0
102915,-92.9925466473862,4,1,0,90,0,0
102996,-92.869739974015,4,1,0,90,0,0
103077,-92.7472572317355,4,1,0,90,0,0
103158,-92.6250971405706,4,1,0,90,0,0
103239,-92.5032584272781,4,1,0,90,0,0
103320,-92.3818251692435,4,1,0,90,0,0
103402,-92.2606251949006,4,1,0,90,0,0
103483,-92.1397428195499,4,1,0,90,0,0
103564,-92.0191767964444,4,1,0,90,0,0
103645,-91.8989258853542,4,1,0,90,0,0
103726,-91.7790730864293,4,1,0,90,0,0
103807,-91.6594484850985,4,1,0,90,0,0
103888,-91.540135314628,4,1,0,90,0,0
103969,-91.4211323604296,4,1,0,90,0,0
104050,-91.3024384142227,4,1,0,90,0,0
104131,-91.1841354193832,4,1,0,90,0,0
104212,-91.0660556741438,4,1,0,90,0,0
104293,-90.9482813503273,4,1,0,90,0,0
104375,-90.8308112644739,4,1,0,90,0,0
104456,-90.71364423923,4,1,0,90,0,0
104537,-90.5968611811475,4,1,0,90,0,0
104618,-90.48029655822,4,1,0,90,0,0
104699,-90.3640315009014,4,1,0,90,0,0
104780,-90.2480648558693,4,1,0,90,0,0
104861,-90.1323954757143,4,1,0,90,0,0
104942,-90.0171032496174,4,1,0,90,0,0
104996,-89.9403515588462,4,1,0,90,0,0
105050,-89.8637306388592,4,1,0,90,0,0
105104,-89.787240155727,4,1,0,90,0,0
105185,-89.6727482724545,4,1,0,90,0,0
105266,-89.5585480051729,4,1,0,90,0,0
105348,-89.4447182446653,4,1,0,90,0,0
105429,-89.3310976737289,4,1,0,90,0,0
105510,-89.2177653983172,4,1,0,90,0,0
105591,-89.1047203225591,4,1,0,90,0,0
105672,-88.9919613561307,4,1,0,90,0,0
105753,-88.8795664099232,4,1,0,90,0,0
105834,-88.7673762138939,4,1,0,90,0,0
105915,-88.6554688899094,4,1,0,90,0,0
105996,-88.5438433694828,4,1,0,90,0,0
106077,-88.4324985895016,4,1,0,90,0,0
106158,-88.3215114990192,4,1,0,90,0,0
106239,-88.2107248363471,4,1,0,90,0,0
106320,-88.1002157574284,4,1,0,90,0,0
106402,-87.9899832203102,4,1,0,90,0,0
106483,-87.8800261882478,4,1,0,90,0,0
106564,-87.7704206660722,4,1,0,90,0,0
106645,-87.6610113626203,4,1,0,90,0,0
106726,-87.5518744856327,4,1,0,90,0,0
106807,-87.4430090188719,4,1,0,90,0,0
106888,-87.3344139511486,4,1,0,90,0,0
106969,-87.2261643602615,4,1,0,90,0,0
107050,-87.1181068886901,4,1,0,90,0,0
107131,-87.0103168132646,4,1,0,90,0,0
107212,-86.9027931426744,4,1,0,90,0,0
107293,-86.7955348905031,4,1,0,90,0,0
107375,-86.688541075198,4,1,0,90,0,0
107456,-86.5818856842047,4,1,0,90,0,0
107537,-86.4754176330295,4,1,0,90,0,0
107591,-86.4045842816236,4,1,0,90,0,0
107645,-86.3338668766306,4,1,0,90,0,0
107699,-86.2632651335959,4,1,0,90,0,0
107780,-86.1575787652585,4,1,0,90,0,0
107861,-86.0522250954104,4,1,0,90,0,0
107942,-85.9470548952434,4,1,0,90,0,0
108023,-85.8421414523975,4,1,0,90,0,0
108104,-85.7374838277671,4,1,0,90,0,0
108185,-85.6330810868208,4,1,0,90,0,0
108266,-85.5290054516188,4,1,0,90,0,0
108348,-85.4251095149904,4,1,0,90,0,0
108429,-85.3214656862662,4,1,0,90,0,0
108510,-85.2180730489322,4,1,0,90,0,0
108591,-85.1149306909119,4,1,0,90,0,0
108996,-100,4,1,0,90,0,0
109077,-99.858001921268,4,1,0,90,0,0
109158,-99.7164065398008,4,1,0,90,0,0
109239,-99.5753112973169,4,1,0,90,0,0
109320,-99.434515908031,4,1,0,90,0,0
109402,-99.2941181143253,4,1,0,90,0,0
109483,-99.1541162344043,4,1,0,90,0,0
109564,-99.0145085959445,4,1,0,90,0,0
109645,-98.8753912993611,4,1,0,90,0,0
109726,-98.7365668900746,4,1,0,90,0,0
109807,-98.5981317625994,4,1,0,90,0,0
109888,-98.4600842818321,4,1,0,90,0,0
109969,-98.3224228218142,4,1,0,90,0,0
110050,-98.1852421689905,4,1,0,90,0,0
110131,-98.0483476402214,4,1,0,90,0,0
110212,-97.9118343096775,4,1,0,90,0,0
110293,-97.7757005873386,4,1,0,90,0,0
110375,-97.6399448920151,4,1,0,90,0,0
110456,-97.5046607227825,4,1,0,90,0,0
110537,-97.3696561098485,4,1,0,90,0,0
110618,-97.2350248338253,4,1,0,90,0,0
110699,-97.1007653482325,4,1,0,90,0,0
110780,-96.9668761151191,4,1,0,90,0,0
110861,-96.8334493720835,4,1,0,90,0,0
110942,-96.7002958062049,4,1,0,90,0,0
111023,-96.5675079306066,4,1,0,90,0,0
111104,-96.4350842408678,4,1,0,90,0,0
111185,-96.3030232408086,4,1,0,90,0,0
111266,-96.1714159317568,4,1,0,90,0,0
111348,-96.0400756027475,4,1,0,90,0,0
111429,-95.9090935247935,4,1,0,90,0,0
111510,-95.7784682341132,4,1,0,90,0,0
111591,-95.6481982748891,4,1,0,90,0,0
111672,-95.5183734367224,4,1,0,90,0,0
111753,-95.3888095571956,4,1,0,90,0,0
111834,-95.2595966899195,4,1,0,90,0,0
111915,-95.1307334103892,4,1,0,90,0,0
111996,-95.0022183017973,4,1,0,90,0,0
112077,-94.8741399659212,4,1,0,90,0,0
112158,-94.7463167369368,4,1,0,90,0,0
112239,-94.6188374751152,4,1,0,90,0,0
112320,-94.4917007939193,4,1,0,90,0,0
112402,-94.364905314254,4,1,0,90,0,0
112483,-94.2385384733545,4,1,0,90,0,0
112564,-94.1124210514428,4,1,0,90,0,0
112645,-93.9866407388854,4,1,0,90,0,0
112726,-93.8611961858564,4,1,0,90,0,0
112807,-93.736086049727,4,1,0,90,0,0
112888,-93.6113966258708,4,1,0,90,0,0
112969,-93.4869510913667,4,1,0,90,0,0
113050,-93.362835989506,4,1,0,90,0,0
113131,-93.2390500059673,4,1,0,90,0,0
113212,-93.1155918333901,4,1,0,90,0,0
113293,-92.9925466473862,4,1,0,90,0,0
113375,-92.869739974015,4,1,0,90,0,0
113456,-92.7472572317355,4,1,0,90,0,0
113537,-92.6250971405706,4,1,0,90,0,0
113618,-92.5032584272781,4,1,0,90,0,0
113699,-92.3818251692435,4,1,0,90,0,0
113780,-92.2606251949006,4,1,0,90,0,0
113861,-92.1397428195499,4,1,0,90,0,0
113942,-92.0191767964444,4,1,0,90,0,0
114023,-91.8989258853542,4,1,0,90,0,0
114104,-91.7790730864293,4,1,0,90,0,0
114185,-91.6594484850985,4,1,0,90,0,0
114266,-91.540135314628,4,1,0,90,0,0
114348,-91.4211323604296,4,1,0,90,0,0
114429,-91.3024384142227,4,1,0,90,0,0
114510,-91.1841354193832,4,1,0,90,0,0
114591,-91.0660556741438,4,1,0,90,0,0
114672,-90.9482813503273,4,1,0,90,0,0
114753,-90.8308112644739,4,1,0,90,0,0
114834,-90.71364423923,4,1,0,90,0,0
114915,-90.5968611811475,4,1,0,90,0,0
114996,-90.48029655822,4,1,0,90,0,0
115077,-90.3640315009014,4,1,0,90,0,0
115158,-90.2480648558693,4,1,0,90,0,0
115239,-90.1323954757143,4,1,0,90,0,0
115320,-90.0171032496174,4,1,0,90,0,0
115402,-89.9020247734019,4,1,0,90,0,0
115483,-89.787240155727,4,1,0,90,0,0
115564,-89.6727482724545,4,1,0,90,0,0
115645,-89.5585480051729,4,1,0,90,0,0
115726,-89.4447182446653,4,1,0,90,0,0
115807,-89.3310976737289,4,1,0,90,0,0
115888,-89.2177653983172,4,1,0,90,0,0
115969,-89.1047203225591,4,1,0,90,0,0
116050,-88.9919613561307,4,1,0,90,0,0
116131,-88.8795664099232,4,1,0,90,0,0
116212,-88.7673762138939,4,1,0,90,0,0
116293,-88.6554688899094,4,1,0,90,0,0
116375,-88.5438433694828,4,1,0,90,0,0
116456,-88.4324985895016,4,1,0,90,0,0
116537,-88.3215114990192,4,1,0,90,0,0
116618,-88.2107248363471,4,1,0,90,0,0
116699,-88.1002157574284,4,1,0,90,0,0
116780,-87.9899832203102,4,1,0,90,0,0
116861,-87.8800261882478,4,1,0,90,0,0
116942,-87.7704206660722,4,1,0,90,0,0
117023,-87.6610113626203,4,1,0,90,0,0
117104,-87.5518744856327,4,1,0,90,0,0
117185,-87.4430090188719,4,1,0,90,0,0
117266,-87.3344139511486,4,1,0,90,0,0
117348,-87.2261643602615,4,1,0,90,0,0
117429,-87.1181068886901,4,1,0,90,0,0
117510,-87.0103168132646,4,1,0,90,0,0
117591,-86.9027931426744,4,1,0,90,0,0
117672,-86.7955348905031,4,1,0,90,0,0
117753,-86.688541075198,4,1,0,90,0,0
117834,-86.5818856842047,4,1,0,90,0,0
117915,-86.4754176330295,4,1,0,90,0,0
117996,-86.3692111036258,4,1,0,90,0,0
118077,-86.2632651335959,4,1,0,90,0,0
118158,-86.1575787652585,4,1,0,90,0,0
118239,-86.0522250954104,4,1,0,90,0,0
118320,-85.9470548952434,4,1,0,90,0,0
118402,-85.8421414523975,4,1,0,90,0,0
118483,-85.7374838277671,4,1,0,90,0,0
118564,-85.6330810868208,4,1,0,90,0,0
118645,-85.5290054516188,4,1,0,90,0,0
118726,-85.4251095149904,4,1,0,90,0,0
118807,-85.3214656862662,4,1,0,90,0,0
118888,-85.2180730489322,4,1,0,90,0,0
118969,-85.1149306909119,4,1,0,90,0,0
119293,-105.263157894737,4,1,0,70,0,0
124402,-102.040816326531,4,1,0,80,0,0
124483,-101.010101010101,4,1,0,80,0,0
124564,-100,4,1,0,80,0,0
129699,-90.9090909090909,4,1,0,85,0,0
139077,-91.5032799350693,4,1,0,85,0,0
139158,-92.1052873961283,4,1,0,85,0,0
139239,-92.7152686285836,4,1,0,85,0,0
139320,-93.3332960000149,4,1,0,85,0,0
139402,-93.9597063195419,4,1,0,85,0,0
139483,-94.594581811543,4,1,0,85,0,0
139564,-95.2380952380952,4,1,0,85,0,0
139645,-95.8904240945786,4,1,0,85,0,0
139726,-96.5517507728968,4,1,0,85,0,0
139807,-97.2222627314984,4,1,0,85,0,0
139888,-97.9020568243118,4,1,0,85,0,0
139969,-98.5915215235151,4,1,0,85,0,0
140050,-99.2907660580474,4,1,0,85,0,0
140131,-100,4,1,0,85,0,0
169861,-99.5391338104576,4,1,0,85,0,0
169915,-99.082594259749,4,1,0,85,0,0
169969,-98.6301261775204,4,1,0,85,0,0
170050,-97.959215660152,4,1,0,85,0,0
170131,-97.2972762600484,4,1,0,85,0,0
170212,-96.6443160578397,4,1,0,85,0,0
170293,-95.9999692800098,4,1,0,85,0,0
170375,-95.3642485154171,4,1,0,85,0,0
170456,-94.7368022160833,4,1,0,85,0,0
170537,-94.1176470588235,4,1,0,85,0,0
170618,-93.5065323663511,4,1,0,85,0,0
170699,-92.9032162164422,4,1,0,85,0,0
170780,-92.3077207100679,4,1,0,85,0,0
170861,-91.7197265284634,4,1,0,85,0,0
170942,-91.1392589649132,4,1,0,85,0,0
171023,-90.5660103951667,4,1,0,85,0,0
171104,-90.0000090000009,4,1,0,85,0,0
171185,-89.4409582346502,4,1,0,85,0,0
171266,-88.8888888888889,4,1,0,85,0,0
171429,-95.2380952380952,4,1,0,85,0,0
176618,-94.9094374148188,4,1,0,85,0,0
176699,-94.7458678958364,4,1,0,85,0,0
176780,-94.5829506664788,4,1,0,85,0,0
176942,-94.2587912818159,4,1,0,85,0,0
177023,-94.0975433954346,4,1,0,85,0,0
177104,-93.9368462582606,4,1,0,85,0,0
177185,-93.7766091128358,4,1,0,85,0,0
177266,-93.6170053417863,4,1,0,85,0,0
177348,-93.4579439252336,4,1,0,85,0,0
177429,-93.2994221033795,4,1,0,85,0,0
177510,-93.1098696461825,4,1,0,85,0,0
177591,-92.9838998377431,4,1,0,85,0,0
177645,-92.8792282107653,4,1,0,85,0,0
177699,-92.7747919757227,4,1,0,85,0,0
177753,-92.6705903394616,4,1,0,85,0,0
177915,-92.3593851451012,4,1,0,85,0,0
177996,-92.2045650480155,4,1,0,85,0,0
178077,-92.0501783932457,4,1,0,85,0,0
178158,-91.8963923314299,4,1,0,85,0,0
178239,-91.743119266055,4,1,0,85,0,0
178320,-91.5903566345307,4,1,0,85,0,0
178402,-91.4381018913057,4,1,0,85,0,0
178483,-91.2862691758219,4,1,0,85,0,0
178564,-91.1350229159015,4,1,0,85,0,0
178645,-90.9842770070904,4,1,0,85,0,0
178726,-90.8340289706052,4,1,0,85,0,0
178888,-90.5350166810768,4,1,0,85,0,0
178969,-90.3861658549989,4,1,0,85,0,0
179050,-90.2378851127342,4,1,0,85,0,0
179212,-89.9427784043791,4,1,0,85,0,0
179293,-89.7959476884727,4,1,0,85,0,0
179375,-89.6495152202464,4,1,0,85,0,0
179537,-89.358238070005,4,1,0,85,0,0
179618,-89.2133081276,4,1,0,85,0,0
179699,-89.0688475470885,4,1,0,85,0,0
179780,-88.9248540520833,4,1,0,85,0,0
179861,-88.7812465597267,4,1,0,85,0,0
179942,-88.6381807190684,4,1,0,85,0,0
180023,-88.495575221239,4,1,0,85,0,0
180104,-88.3534278479402,4,1,0,85,0,0
180185,-88.2117363951039,4,1,0,85,0,0
180266,-88.0704211087185,4,1,0,85,0,0
180348,-87.9296351887366,4,1,0,85,0,0
180429,-87.7892986600719,4,1,0,85,0,0
180510,-87.6494093744549,4,1,0,85,0,0
180591,-87.5099651972868,4,1,0,85,0,0
180672,-87.3709640075314,4,1,0,85,0,0
180753,-87.232327602751,4,1,0,85,0,0
180834,-87.0942063192072,4,1,0,85,0,0
180915,-86.9565217391304,4,1,0,85,0,0
181645,-86.9565217391304,4,1,0,80,0,0
181726,-87.1595656315887,4,1,0,80,0,0
181807,-87.3634836363827,4,1,0,80,0,0
181888,-87.5684347317429,4,1,0,80,0,0
181969,-87.7742726584896,4,1,0,80,0,0
182050,-87.9811579552123,4,1,0,80,0,0
182131,-88.1889430466987,4,1,0,80,0,0
182212,-88.3977900552486,4,1,0,80,0,0
182293,-88.6076285851754,4,1,0,80,0,0
182375,-88.8183868271674,4,1,0,80,0,0
182456,-89.0302293240647,4,1,0,80,0,0
182537,-89.2430051332577,4,1,0,80,0,0
182618,-89.4568804417738,4,1,0,80,0,0
182699,-89.6717029284088,4,1,0,80,0,0
182780,-89.8876404494382,4,1,0,80,0,0
182861,-90.1046204748333,4,1,0,80,0,0
182942,-90.3225689906363,4,1,0,80,0,0
183023,-90.541656405279,4,1,0,80,0,0
183104,-90.7617268689201,4,1,0,80,0,0
183158,-90.9090909090909,4,1,0,80,0,0
183212,-91.0569342587146,4,1,0,80,0,0
183266,-91.2051760761527,4,1,0,80,0,0
183348,-91.4285714285714,4,1,0,80,0,0
183429,-91.6530638244441,4,1,0,80,0,0
183510,-91.8785769478488,4,1,0,80,0,0
183591,-92.1052873961283,4,1,0,80,0,0
183672,-92.3330341743026,4,1,0,80,0,0
183753,-92.5619957106771,4,1,0,80,0,0
183834,-92.7920094944784,4,1,0,80,0,0
183915,-93.0232558139535,4,1,0,80,0,0
183996,-93.2556575876067,4,1,0,80,0,0
184077,-93.4891360949401,4,1,0,80,0,0
184158,-93.7238744699915,4,1,0,80,0,0
184239,-93.9597063195419,4,1,0,80,0,0
184320,-94.196816712776,4,1,0,80,0,0
184402,-94.4350376654148,4,1,0,80,0,0
184483,-94.6745562130178,4,1,0,80,0,0
184564,-94.9152928468988,4,1,0,80,0,0
184645,-95.1571663337752,4,1,0,80,0,0
184726,-95.4003667190097,4,1,0,80,0,0
184807,-95.6447219416644,4,1,0,80,0,0
184888,-95.8904240945786,4,1,0,80,0,0
184969,-96.1372994455762,4,1,0,80,0,0
185050,-96.3855421686747,4,1,0,80,0,0
185131,-96.6350702198738,4,1,0,80,0,0
185212,-96.8857997389896,4,1,0,80,0,0
185293,-97.1379280868491,4,1,0,80,0,0
185375,-97.3912772476446,4,1,0,80,0,0
185456,-97.6460467509743,4,1,0,80,0,0
185537,-97.9020568243118,4,1,0,80,0,0
185618,-98.159509202454,4,1,0,80,0,0
185699,-98.4183191922612,4,1,0,80,0,0
185780,-98.5915215235151,4,1,0,80,0,0
185861,-98.9399572975144,4,1,0,80,0,0
185942,-99.2028062489832,4,1,0,80,0,0
186023,-99.4671544535921,4,1,0,80,0,0
186104,-99.7328157865079,4,1,0,80,0,0
186185,-100,4,1,0,80,0,0
186320,-95.2380952380952,4,1,0,75,0,0
186401,-97.0873786407767,4,1,0,75,0,0
186483,-99.009900990099,4,1,0,75,0,0
186645,-92.5925925925926,4,1,0,75,0,0
186726,-93.8967136150235,4,1,0,75,0,0
186793,-95.2380952380952,4,1,0,90,0,0
186837,-95.2380952380952,4,1,0,90,0,1
186875,-97.5609756097561,4,1,0,90,0,1
186956,-100,4,1,0,90,0,1
187037,-102.040816326531,4,1,0,90,0,1
187118,-95.2380952380952,4,1,0,90,0,1
187199,-97.5609756097561,4,1,0,90,0,1
187280,-100,4,1,0,90,0,1
187361,-102.040816326531,4,1,0,90,0,1
187442,-95.2380952380952,4,1,0,90,0,1
187523,-97.5609756097561,4,1,0,90,0,1
187604,-100,4,1,0,90,0,1
187685,-102.040816326531,4,1,0,90,0,1
187766,-95.2380952380952,4,1,0,90,0,1
187847,-97.5609756097561,4,1,0,90,0,1
187928,-100,4,1,0,90,0,1
188009,-102.040816326531,4,1,0,90,0,1
188091,-95.2380952380952,4,1,0,90,0,1
188172,-97.5609756097561,4,1,0,90,0,1
188253,-100,4,1,0,90,0,1
188334,-102.040816326531,4,1,0,90,0,1
188415,-95.2380952380952,4,1,0,90,0,1
188496,-97.5609756097561,4,1,0,90,0,1
188577,-100,4,1,0,90,0,1
188658,-102.040816326531,4,1,0,90,0,1
188739,-95.2380952380952,4,1,0,90,0,1
188820,-97.5609756097561,4,1,0,90,0,1
188901,-100,4,1,0,90,0,1
188982,-102.040816326531,4,1,0,90,0,1
189064,-95.2380952380952,4,1,0,90,0,1
189145,-97.5609756097561,4,1,0,90,0,1
189226,-100,4,1,0,90,0,1
189307,-102.040816326531,4,1,0,90,0,1
189388,-95.2380952380952,4,1,0,90,0,1
189469,-97.5609756097561,4,1,0,90,0,1
189550,-100,4,1,0,90,0,1
189631,-102.040816326531,4,1,0,90,0,1
189709,-95.2380952380952,4,1,0,90,0,1
189790,-97.5609756097561,4,1,0,90,0,1
189872,-100,4,1,0,90,0,1
189953,-102.040816326531,4,1,0,90,0,1
190037,-95.2380952380952,4,1,0,90,0,1
190118,-97.5609756097561,4,1,0,90,0,1
190199,-100,4,1,0,90,0,1
190280,-102.040816326531,4,1,0,90,0,1
190361,-95.2380952380952,4,1,0,90,0,1
190442,-97.5609756097561,4,1,0,90,0,1
190523,-100,4,1,0,90,0,1
190604,-102.040816326531,4,1,0,90,0,1
190685,-95.2380952380952,4,1,0,90,0,1
190766,-97.5609756097561,4,1,0,90,0,1
190847,-100,4,1,0,90,0,1
190928,-102.040816326531,4,1,0,90,0,1
191010,-95.2380952380952,4,1,0,90,0,1
191091,-97.5609756097561,4,1,0,90,0,1
191172,-100,4,1,0,90,0,1
191253,-102.040816326531,4,1,0,90,0,1
191334,-95.2380952380952,4,1,0,90,0,1
191415,-97.5609756097561,4,1,0,90,0,1
191496,-100,4,1,0,90,0,1
191577,-102.040816326531,4,1,0,90,0,1
191658,-95.2380952380952,4,1,0,90,0,1
191739,-97.5609756097561,4,1,0,90,0,1
191820,-100,4,1,0,90,0,1
191901,-102.040816326531,4,1,0,90,0,1
191983,-95.2380952380952,4,1,0,90,0,1
192064,-96.1538461538461,4,1,0,90,0,1
192145,-97.0873786407767,4,1,0,90,0,1
192226,-98.0392156862745,4,1,0,90,0,1
192307,-99.009900990099,4,1,0,90,0,1
192388,-100,4,1,0,90,0,1
192469,-101.010101010101,4,1,0,90,0,1
192550,-102.040816326531,4,1,0,90,0,1
192631,-95.2380952380952,4,1,0,90,0,1
192712,-96.1538461538461,4,1,0,90,0,1
192793,-97.0873786407767,4,1,0,90,0,1
192874,-98.0392156862745,4,1,0,90,0,1
192955,-99.009900990099,4,1,0,90,0,1
193036,-100,4,1,0,90,0,1
193117,-101.010101010101,4,1,0,90,0,1
193198,-102.040816326531,4,1,0,90,0,1
193280,-95.2380952380952,4,1,0,90,0,1
193361,-96.1538461538461,4,1,0,90,0,1
193442,-97.0873786407767,4,1,0,90,0,1
193523,-98.0392156862745,4,1,0,90,0,1
193604,-99.009900990099,4,1,0,90,0,1
193685,-100,4,1,0,90,0,1
193766,-101.010101010101,4,1,0,90,0,1
193847,-102.040816326531,4,1,0,90,0,1
193929,-95.2380952380952,4,1,0,90,0,1
194010,-96.1538461538461,4,1,0,90,0,1
194091,-97.0873786407767,4,1,0,90,0,1
194172,-98.0392156862745,4,1,0,90,0,1
194253,-99.009900990099,4,1,0,90,0,1
194334,-100,4,1,0,90,0,1
194415,-101.010101010101,4,1,0,90,0,1
194496,-102.040816326531,4,1,0,90,0,1
194577,-95.2380952380952,4,1,0,90,0,1
194658,-96.1538461538461,4,1,0,90,0,1
194739,-97.0873786407767,4,1,0,90,0,1
194820,-98.0392156862745,4,1,0,90,0,1
194901,-99.009900990099,4,1,0,90,0,1
194982,-100,4,1,0,90,0,1
195063,-101.010101010101,4,1,0,90,0,1
195144,-102.040816326531,4,1,0,90,0,1
195226,-95.2380952380952,4,1,0,90,0,1
195307,-96.1538461538461,4,1,0,90,0,1
195388,-97.0873786407767,4,1,0,90,0,1
195469,-98.0392156862745,4,1,0,90,0,1
195550,-99.009900990099,4,1,0,90,0,1
195631,-100,4,1,0,90,0,1
195712,-101.010101010101,4,1,0,90,0,1
195793,-102.040816326531,4,1,0,90,0,1
195875,-95.2380952380952,4,1,0,90,0,1
195956,-96.1538461538461,4,1,0,90,0,1
196037,-97.0873786407767,4,1,0,90,0,1
196118,-98.0392156862745,4,1,0,90,0,1
196199,-99.009900990099,4,1,0,90,0,1
196280,-100,4,1,0,90,0,1
196361,-101.010101010101,4,1,0,90,0,1
196442,-102.040816326531,4,1,0,90,0,1
196523,-103.092783505155,4,1,0,90,0,1
196845,-105.263157894737,4,1,0,90,0,1
197169,-95.2380952380952,4,1,0,90,0,1
197250,-97.5609756097561,4,1,0,90,0,1
197331,-100,4,1,0,90,0,1
197412,-102.040816326531,4,1,0,90,0,1
197496,-95.2380952380952,4,1,0,90,0,1
197577,-97.5609756097561,4,1,0,90,0,1
197658,-100,4,1,0,90,0,1
197739,-102.040816326531,4,1,0,90,0,1
197820,-95.2380952380952,4,1,0,90,0,1
197901,-97.5609756097561,4,1,0,90,0,1
197982,-100,4,1,0,90,0,1
198063,-102.040816326531,4,1,0,90,0,1
198144,-95.2380952380952,4,1,0,90,0,1
198225,-97.5609756097561,4,1,0,90,0,1
198306,-100,4,1,0,90,0,1
198387,-102.040816326531,4,1,0,90,0,1
198469,-95.2380952380952,4,1,0,90,0,1
198550,-97.5609756097561,4,1,0,90,0,1
198631,-100,4,1,0,90,0,1
198712,-102.040816326531,4,1,0,90,0,1
198793,-95.2380952380952,4,1,0,90,0,1
198874,-97.5609756097561,4,1,0,90,0,1
198955,-100,4,1,0,90,0,1
199036,-102.040816326531,4,1,0,90,0,1
199117,-95.2380952380952,4,1,0,90,0,1
199198,-97.5609756097561,4,1,0,90,0,1
199279,-100,4,1,0,90,0,1
199360,-102.040816326531,4,1,0,90,0,1
199442,-95.2380952380952,4,1,0,90,0,1
199523,-97.5609756097561,4,1,0,90,0,1
199604,-100,4,1,0,90,0,1
199685,-102.040816326531,4,1,0,90,0,1
199766,-95.2380952380952,4,1,0,90,0,1
199847,-97.5609756097561,4,1,0,90,0,1
199928,-100,4,1,0,90,0,1
200009,-102.040816326531,4,1,0,90,0,1
200088,-95.2380952380952,4,1,0,90,0,1
200169,-97.5609756097561,4,1,0,90,0,1
200250,-100,4,1,0,90,0,1
200331,-102.040816326531,4,1,0,90,0,1
200415,-95.2380952380952,4,1,0,90,0,1
200496,-97.5609756097561,4,1,0,90,0,1
200577,-100,4,1,0,90,0,1
200658,-102.040816326531,4,1,0,90,0,1
200739,-95.2380952380952,4,1,0,90,0,1
200820,-97.5609756097561,4,1,0,90,0,1
200901,-100,4,1,0,90,0,1
200982,-102.040816326531,4,1,0,90,0,1
201063,-95.2380952380952,4,1,0,90,0,1
201144,-97.5609756097561,4,1,0,90,0,1
201225,-100,4,1,0,90,0,1
201306,-102.040816326531,4,1,0,90,0,1
201388,-95.2380952380952,4,1,0,90,0,1
201469,-97.5609756097561,4,1,0,90,0,1
201550,-100,4,1,0,90,0,1
201631,-102.040816326531,4,1,0,90,0,1
201712,-95.2380952380952,4,1,0,90,0,1
201793,-97.5609756097561,4,1,0,90,0,1
201874,-100,4,1,0,90,0,1
201955,-102.040816326531,4,1,0,90,0,1
202036,-95.2380952380952,4,1,0,90,0,1
202117,-97.5609756097561,4,1,0,90,0,1
202198,-100,4,1,0,90,0,1
202279,-102.040816326531,4,1,0,90,0,1
202361,-95.2380952380952,4,1,0,90,0,1
202442,-96.1538461538461,4,1,0,90,0,1
202523,-97.0873786407767,4,1,0,90,0,1
202604,-98.0392156862745,4,1,0,90,0,1
202685,-99.009900990099,4,1,0,90,0,1
202766,-100,4,1,0,90,0,1
202847,-101.010101010101,4,1,0,90,0,1
202928,-102.040816326531,4,1,0,90,0,1
203009,-95.2380952380952,4,1,0,90,0,1
203090,-96.1538461538461,4,1,0,90,0,1
203171,-97.0873786407767,4,1,0,90,0,1
203252,-98.0392156862745,4,1,0,90,0,1
203333,-99.009900990099,4,1,0,90,0,1
203414,-100,4,1,0,90,0,1
203495,-101.010101010101,4,1,0,90,0,1
203576,-102.040816326531,4,1,0,90,0,1
203658,-95.2380952380952,4,1,0,90,0,1
203739,-96.1538461538461,4,1,0,90,0,1
203820,-97.0873786407767,4,1,0,90,0,1
203901,-98.0392156862745,4,1,0,90,0,1
203982,-99.009900990099,4,1,0,90,0,1
204063,-100,4,1,0,90,0,1
204144,-101.010101010101,4,1,0,90,0,1
204225,-102.040816326531,4,1,0,90,0,1
204307,-95.2380952380952,4,1,0,90,0,1
204388,-96.1538461538461,4,1,0,90,0,1
204469,-97.0873786407767,4,1,0,90,0,1
204550,-98.0392156862745,4,1,0,90,0,1
204631,-99.009900990099,4,1,0,90,0,1
204712,-100,4,1,0,90,0,1
204793,-101.010101010101,4,1,0,90,0,1
204874,-102.040816326531,4,1,0,90,0,1
204955,-95.2380952380952,4,1,0,90,0,1
205036,-96.1538461538461,4,1,0,90,0,1
205117,-97.0873786407767,4,1,0,90,0,1
205198,-98.0392156862745,4,1,0,90,0,1
205279,-99.009900990099,4,1,0,90,0,1
205360,-100,4,1,0,90,0,1
205441,-101.010101010101,4,1,0,90,0,1
205522,-102.040816326531,4,1,0,90,0,1
205604,-95.2380952380952,4,1,0,90,0,1
205685,-96.1538461538461,4,1,0,90,0,1
205766,-97.0873786407767,4,1,0,90,0,1
205847,-98.0392156862745,4,1,0,90,0,1
205928,-99.009900990099,4,1,0,90,0,1
206009,-100,4,1,0,90,0,1
206090,-101.010101010101,4,1,0,90,0,1
206171,-102.040816326531,4,1,0,90,0,1
206253,-95.2380952380952,4,1,0,90,0,1
206334,-96.1538461538461,4,1,0,90,0,1
206415,-97.0873786407767,4,1,0,90,0,1
206496,-98.0392156862745,4,1,0,90,0,1
206577,-99.009900990099,4,1,0,90,0,1
206658,-100,4,1,0,90,0,1
206739,-101.010101010101,4,1,0,90,0,1
206820,-102.040816326531,4,1,0,90,0,1
206899,-90.9090909090909,4,1,0,90,0,1
206980,-91.743119266055,4,1,0,90,0,1
207061,-92.5925925925926,4,1,0,90,0,1
207142,-93.4579439252336,4,1,0,90,0,1
207223,-94.3396226415094,4,1,0,90,0,1
207304,-95.2380952380952,4,1,0,90,0,1
207399,-96.1538461538461,4,1,0,90,0,1
207453,-97.0873786407767,4,1,0,90,0,1
207507,-98.5221674876847,4,1,0,90,0,1
207594,-100,4,1,0,90,0,0
207645,-99.858001921268,4,1,0,90,0,0
207726,-99.7164065398008,4,1,0,90,0,0
207807,-99.5753112973169,4,1,0,90,0,0
207888,-99.434515908031,4,1,0,90,0,0
207969,-99.2941181143253,4,1,0,90,0,0
208050,-99.1541162344043,4,1,0,90,0,0
208131,-99.0145085959445,4,1,0,90,0,0
208212,-98.8753912993611,4,1,0,90,0,0
208294,-98.7365668900746,4,1,0,90,0,0
208375,-98.5981317625994,4,1,0,90,0,0
208456,-98.4600842818321,4,1,0,90,0,0
208537,-98.3224228218142,4,1,0,90,0,0
208618,-98.1852421689905,4,1,0,90,0,0
208699,-98.0483476402214,4,1,0,90,0,0
208753,-97.9572964961655,4,1,0,90,0,0
208807,-97.8664143018063,4,1,0,90,0,0
208861,-97.7757005873386,4,1,0,90,0,0
208942,-97.6399448920151,4,1,0,90,0,0
209023,-97.5046607227825,4,1,0,90,0,0
209104,-97.3696561098485,4,1,0,90,0,0
209185,-97.2350248338253,4,1,0,90,0,0
209266,-97.1007653482325,4,1,0,90,0,0
209348,-96.9668761151191,4,1,0,90,0,0
209429,-96.8334493720835,4,1,0,90,0,0
209510,-96.7002958062049,4,1,0,90,0,0
209591,-96.5675079306066,4,1,0,90,0,0
209672,-96.4350842408678,4,1,0,90,0,0
209753,-96.3030232408086,4,1,0,90,0,0
209834,-96.1714159317568,4,1,0,90,0,0
209915,-96.0400756027475,4,1,0,90,0,0
209996,-95.9090935247935,4,1,0,90,0,0
210077,-95.7784682341132,4,1,0,90,0,0
210158,-95.6481982748891,4,1,0,90,0,0
210239,-95.5183734367224,4,1,0,90,0,0
210321,-95.3888095571956,4,1,0,90,0,0
210402,-95.2595966899195,4,1,0,90,0,0
210483,-95.1307334103892,4,1,0,90,0,0
210564,-95.0022183017973,4,1,0,90,0,0
210645,-94.8741399659212,4,1,0,90,0,0
210726,-94.7463167369368,4,1,0,90,0,0
210807,-94.6188374751152,4,1,0,90,0,0
210888,-94.4917007939193,4,1,0,90,0,0
210969,-94.364905314254,4,1,0,90,0,0
211050,-94.2385384733545,4,1,0,90,0,0
211131,-94.1124210514428,4,1,0,90,0,0
211212,-93.9866407388854,4,1,0,90,0,0
211294,-93.8611961858564,4,1,0,90,0,0
211348,-93.7777523535871,4,1,0,90,0,0
211402,-93.694456754855,4,1,0,90,0,0
211456,-93.6113966258708,4,1,0,90,0,0
211537,-93.4869510913667,4,1,0,90,0,0
211618,-93.362835989506,4,1,0,90,0,0
211699,-93.2390500059673,4,1,0,90,0,0
211780,-93.1155918333901,4,1,0,90,0,0
211861,-92.9925466473862,4,1,0,90,0,0
211942,-92.869739974015,4,1,0,90,0,0
212023,-92.7472572317355,4,1,0,90,0,0
212104,-92.6250971405706,4,1,0,90,0,0
212185,-92.5032584272781,4,1,0,90,0,0
212266,-92.3818251692435,4,1,0,90,0,0
212348,-92.2606251949006,4,1,0,90,0,0
212429,-92.1397428195499,4,1,0,90,0,0
212510,-92.0191767964444,4,1,0,90,0,0
212591,-91.8989258853542,4,1,0,90,0,0
212672,-91.7790730864293,4,1,0,90,0,0
212753,-91.6594484850985,4,1,0,90,0,0
212834,-91.540135314628,4,1,0,90,0,0
212915,-91.4211323604296,4,1,0,90,0,0
212996,-91.3024384142227,4,1,0,90,0,0
213077,-91.1841354193832,4,1,0,90,0,0
213158,-91.0660556741438,4,1,0,90,0,0
213239,-90.9482813503273,4,1,0,90,0,0
213321,-90.8308112644739,4,1,0,90,0,0
213402,-90.71364423923,4,1,0,90,0,0
213483,-90.5968611811475,4,1,0,90,0,0
213564,-90.48029655822,4,1,0,90,0,0
213645,-90.3640315009014,4,1,0,90,0,0
213726,-90.2480648558693,4,1,0,90,0,0
213807,-90.1323954757143,4,1,0,90,0,0
213888,-90.0171032496174,4,1,0,90,0,0
213942,-89.9403515588462,4,1,0,90,0,0
213996,-89.8637306388592,4,1,0,90,0,0
214050,-89.787240155727,4,1,0,90,0,0
214131,-89.6727482724545,4,1,0,90,0,0
214212,-89.5585480051729,4,1,0,90,0,0
214294,-89.4447182446653,4,1,0,90,0,0
214375,-89.3310976737289,4,1,0,90,0,0
214456,-89.2177653983172,4,1,0,90,0,0
214537,-89.1047203225591,4,1,0,90,0,0
214618,-88.9919613561307,4,1,0,90,0,0
214699,-88.8795664099232,4,1,0,90,0,0
214780,-88.7673762138939,4,1,0,90,0,0
214861,-88.6554688899094,4,1,0,90,0,0
214942,-88.5438433694828,4,1,0,90,0,0
215023,-88.4324985895016,4,1,0,90,0,0
215104,-88.3215114990192,4,1,0,90,0,0
215185,-88.2107248363471,4,1,0,90,0,0
215266,-88.1002157574284,4,1,0,90,0,0
215348,-87.9899832203102,4,1,0,90,0,0
215429,-87.8800261882478,4,1,0,90,0,0
215510,-87.7704206660722,4,1,0,90,0,0
215591,-87.6610113626203,4,1,0,90,0,0
215672,-87.5518744856327,4,1,0,90,0,0
215753,-87.4430090188719,4,1,0,90,0,0
215834,-87.3344139511486,4,1,0,90,0,0
215915,-87.2261643602615,4,1,0,90,0,0
215996,-87.1181068886901,4,1,0,90,0,0
216077,-87.0103168132646,4,1,0,90,0,0
216158,-86.9027931426744,4,1,0,90,0,0
216239,-86.7955348905031,4,1,0,90,0,0
216321,-86.688541075198,4,1,0,90,0,0
216402,-86.5818856842047,4,1,0,90,0,0
216483,-86.4754176330295,4,1,0,90,0,0
216537,-86.4045842816236,4,1,0,90,0,0
216591,-86.3338668766306,4,1,0,90,0,0
216645,-86.2632651335959,4,1,0,90,0,0
216726,-86.1575787652585,4,1,0,90,0,0
216807,-86.0522250954104,4,1,0,90,0,0
216888,-85.9470548952434,4,1,0,90,0,0
216969,-85.8421414523975,4,1,0,90,0,0
217050,-85.7374838277671,4,1,0,90,0,0
217131,-85.6330810868208,4,1,0,90,0,0
217212,-85.5290054516188,4,1,0,90,0,0
217294,-85.4251095149904,4,1,0,90,0,0
217375,-85.3214656862662,4,1,0,90,0,0
217456,-85.2180730489322,4,1,0,90,0,0
217537,-85.1149306909119,4,1,0,90,0,0
217726,-94.7867298578199,4,1,0,75,0,0
217942,-100,4,1,0,90,0,0
218023,-99.858001921268,4,1,0,90,0,0
218104,-99.7164065398008,4,1,0,90,0,0
218185,-99.5753112973169,4,1,0,90,0,0
218266,-99.434515908031,4,1,0,90,0,0
218348,-99.2941181143253,4,1,0,90,0,0
218429,-99.1541162344043,4,1,0,90,0,0
218510,-99.0145085959445,4,1,0,90,0,0
218591,-98.8753912993611,4,1,0,90,0,0
218672,-98.7365668900746,4,1,0,90,0,0
218753,-98.5981317625994,4,1,0,90,0,0
218834,-98.4600842818321,4,1,0,90,0,0
218915,-98.3224228218142,4,1,0,90,0,0
218996,-98.1852421689905,4,1,0,90,0,0
219077,-98.0483476402214,4,1,0,90,0,0
219158,-97.9118343096775,4,1,0,90,0,0
219239,-97.7757005873386,4,1,0,90,0,0
219321,-97.6399448920151,4,1,0,90,0,0
219402,-97.5046607227825,4,1,0,90,0,0
219483,-97.3696561098485,4,1,0,90,0,0
219564,-97.2350248338253,4,1,0,90,0,0
219645,-97.1007653482325,4,1,0,90,0,0
219726,-96.9668761151191,4,1,0,90,0,0
219807,-96.8334493720835,4,1,0,90,0,0
219888,-96.7002958062049,4,1,0,90,0,0
219969,-96.5675079306066,4,1,0,90,0,0
220050,-96.4350842408678,4,1,0,90,0,0
220131,-96.3030232408086,4,1,0,90,0,0
220212,-96.1714159317568,4,1,0,90,0,0
220294,-96.0400756027475,4,1,0,90,0,0
220375,-95.9090935247935,4,1,0,90,0,0
220456,-95.7784682341132,4,1,0,90,0,0
220537,-95.6481982748891,4,1,0,90,0,0
220618,-95.5183734367224,4,1,0,90,0,0
220699,-95.3888095571956,4,1,0,90,0,0
220780,-95.2595966899195,4,1,0,90,0,0
220861,-95.1307334103892,4,1,0,90,0,0
220942,-95.0022183017973,4,1,0,90,0,0
221023,-94.8741399659212,4,1,0,90,0,0
221104,-94.7463167369368,4,1,0,90,0,0
221185,-94.6188374751152,4,1,0,90,0,0
221266,-94.4917007939193,4,1,0,90,0,0
221348,-94.364905314254,4,1,0,90,0,0
221429,-94.2385384733545,4,1,0,90,0,0
221510,-94.1124210514428,4,1,0,90,0,0
221591,-93.9866407388854,4,1,0,90,0,0
221672,-93.8611961858564,4,1,0,90,0,0
221753,-93.736086049727,4,1,0,90,0,0
221834,-93.6113966258708,4,1,0,90,0,0
221915,-93.4869510913667,4,1,0,90,0,0
221996,-93.362835989506,4,1,0,90,0,0
222077,-93.2390500059673,4,1,0,90,0,0
222158,-93.1155918333901,4,1,0,90,0,0
222239,-92.9925466473862,4,1,0,90,0,0
222321,-92.869739974015,4,1,0,90,0,0
222402,-92.7472572317355,4,1,0,90,0,0
222483,-92.6250971405706,4,1,0,90,0,0
222564,-92.5032584272781,4,1,0,90,0,0
222645,-92.3818251692435,4,1,0,90,0,0
222726,-92.2606251949006,4,1,0,90,0,0
222807,-92.1397428195499,4,1,0,90,0,0
222888,-92.0191767964444,4,1,0,90,0,0
222969,-91.8989258853542,4,1,0,90,0,0
223050,-91.7790730864293,4,1,0,90,0,0
223131,-91.6594484850985,4,1,0,90,0,0
223212,-91.540135314628,4,1,0,90,0,0
223294,-91.4211323604296,4,1,0,90,0,0
223375,-91.3024384142227,4,1,0,90,0,0
223456,-91.1841354193832,4,1,0,90,0,0
223537,-91.0660556741438,4,1,0,90,0,0
223618,-90.9482813503273,4,1,0,90,0,0
223699,-90.8308112644739,4,1,0,90,0,0
223780,-90.71364423923,4,1,0,90,0,0
223861,-90.5968611811475,4,1,0,90,0,0
223942,-90.48029655822,4,1,0,90,0,0
224023,-90.3640315009014,4,1,0,90,0,0
224104,-90.2480648558693,4,1,0,90,0,0
224185,-90.1323954757143,4,1,0,90,0,0
224266,-90.0171032496174,4,1,0,90,0,0
224348,-89.9020247734019,4,1,0,90,0,0
224429,-89.787240155727,4,1,0,90,0,0
224510,-89.6727482724545,4,1,0,90,0,0
224591,-89.5585480051729,4,1,0,90,0,0
224672,-89.4447182446653,4,1,0,90,0,0
224753,-89.3310976737289,4,1,0,90,0,0
224834,-89.2177653983172,4,1,0,90,0,0
224915,-89.1047203225591,4,1,0,90,0,0
224996,-88.9919613561307,4,1,0,90,0,0
225077,-88.8795664099232,4,1,0,90,0,0
225158,-88.7673762138939,4,1,0,90,0,0
225239,-88.6554688899094,4,1,0,90,0,0
225321,-88.5438433694828,4,1,0,90,0,0
225402,-88.4324985895016,4,1,0,90,0,0
225483,-88.3215114990192,4,1,0,90,0,0
225564,-88.2107248363471,4,1,0,90,0,0
225645,-88.1002157574284,4,1,0,90,0,0
225726,-87.9899832203102,4,1,0,90,0,0
225807,-87.8800261882478,4,1,0,90,0,0
225888,-87.7704206660722,4,1,0,90,0,0
225969,-87.6610113626203,4,1,0,90,0,0
226050,-87.5518744856327,4,1,0,90,0,0
226131,-87.4430090188719,4,1,0,90,0,0
226212,-87.3344139511486,4,1,0,90,0,0
226294,-87.2261643602615,4,1,0,90,0,0
226375,-87.1181068886901,4,1,0,90,0,0
226456,-87.0103168132646,4,1,0,90,0,0
226537,-86.9027931426744,4,1,0,90,0,0
226618,-86.7955348905031,4,1,0,90,0,0
226699,-86.688541075198,4,1,0,90,0,0
226780,-86.5818856842047,4,1,0,90,0,0
226861,-86.4754176330295,4,1,0,90,0,0
226942,-86.3692111036258,4,1,0,90,0,0
227023,-86.2632651335959,4,1,0,90,0,0
227104,-86.1575787652585,4,1,0,90,0,0
227185,-86.0522250954104,4,1,0,90,0,0
227266,-85.9470548952434,4,1,0,90,0,0
227348,-85.8421414523975,4,1,0,90,0,0
227429,-85.7374838277671,4,1,0,90,0,0
227510,-85.6330810868208,4,1,0,90,0,0
227591,-85.5290054516188,4,1,0,90,0,0
227807,-111.111111111111,4,1,0,50,0,0

[HitObjects]
162,190,1324,5,0,0:0:0:0:
154,193,1486,1,0,0:0:0:0:
154,193,1648,1,8,0:0:0:0:
154,193,1810,1,0,0:0:0:0:
154,193,1972,1,8,0:0:0:0:
154,193,2134,1,8,0:0:0:0:
155,196,2296,1,0,0:0:0:0:
154,193,2459,1,0,0:0:0:0:
154,193,2621,1,0,0:0:0:0:
154,193,2783,1,0,0:0:0:0:
154,193,2945,1,8,0:0:0:0:
154,193,3107,1,8,0:0:0:0:
155,196,3269,1,0,0:0:0:0:
154,193,3432,1,0,0:0:0:0:
154,193,3594,1,8,0:0:0:0:
154,193,3756,1,0,0:0:0:0:
154,193,3918,1,8,0:0:0:0:
154,193,4080,1,8,0:0:0:0:
155,196,4242,1,0,0:0:0:0:
154,193,4405,1,8,0:0:0:0:
154,193,4567,1,0,0:0:0:0:
154,193,4729,1,0,0:0:0:0:
154,193,4891,1,8,0:0:0:0:
154,193,5053,1,8,0:0:0:0:
150,193,5215,1,0,0:0:0:0:
154,193,5378,1,8,0:0:0:0:
154,193,5540,1,8,0:0:0:0:
154,193,5702,1,8,0:0:0:0:
154,193,5864,1,0,0:0:0:0:
154,193,6026,1,8,0:0:0:0:
150,193,6188,1,8,0:0:0:0:
154,193,6351,1,0,0:0:0:0:
165,192,6432,1,0,0:0:0:0:
154,193,6513,1,8,0:0:0:0:
168,169,6675,1,0,0:0:0:0:
168,169,6837,1,8,0:0:0:0:
168,169,6999,1,0,0:0:0:0:
168,169,7080,1,8,0:0:0:0:
168,169,7161,1,0,0:0:0:0:
168,169,7242,1,8,0:0:0:0:
168,169,7323,1,0,0:0:0:0:
168,169,7486,1,8,0:0:0:0:
168,169,7648,1,0,0:0:0:0:
161,147,7702,1,0,0:0:0:0:
162,147,7756,1,0,0:0:0:0:
168,169,7810,1,0,0:0:0:0:
168,169,7972,1,8,0:0:0:0:
168,169,8134,1,0,0:0:0:0:
168,169,8215,1,8,0:0:0:0:
168,169,8296,1,0,0:0:0:0:
168,169,8459,1,8,0:0:0:0:
168,169,8621,1,8,0:0:0:0:
137,157,8702,1,8,0:0:0:0:
168,169,8783,1,0,0:0:0:0:
168,169,8945,1,8,0:0:0:0:
168,169,9026,1,0,0:0:0:0:
168,169,9107,1,0,0:0:0:0:
164,174,9269,1,0,0:0:0:0:
168,169,9432,1,8,0:0:0:0:
162,159,9594,1,8,0:0:0:0:
168,169,9675,1,8,0:0:0:0:
168,169,9756,1,0,0:0:0:0:
168,169,9837,1,8,0:0:0:0:
168,169,9918,1,0,0:0:0:0:
168,169,10080,1,8,0:0:0:0:
168,169,10242,1,0,0:0:0:0:
182,162,10296,1,0,0:0:0:0:
181,160,10351,1,0,0:0:0:0:
168,169,10405,1,0,0:0:0:0:
168,169,10567,1,8,0:0:0:0:
168,169,10729,1,0,0:0:0:0:
168,169,10810,1,8,0:0:0:0:
168,169,10891,1,0,0:0:0:0:
168,169,11053,1,8,0:0:0:0:
164,172,11134,1,0,0:0:0:0:
168,169,11215,1,8,0:0:0:0:
168,169,11296,1,8,0:0:0:0:
168,169,11378,1,0,0:0:0:0:
168,169,11540,1,8,0:0:0:0:
168,169,11621,1,0,0:0:0:0:
168,169,11702,1,0,0:0:0:0:
168,169,11864,1,0,0:0:0:0:
168,169,12026,1,8,0:0:0:0:
168,169,12188,1,8,0:0:0:0:
168,169,12269,1,0,0:0:0:0:
168,169,12351,1,8,0:0:0:0:
168,169,12432,1,8,0:0:0:0:
168,169,12513,1,0,0:0:0:0:
168,169,12675,1,8,0:0:0:0:
168,169,12837,1,8,0:0:0:0:
161,147,12891,1,8,0:0:0:0:
162,147,12945,1,8,0:0:0:0:
168,169,12999,1,0,0:0:0:0:
168,169,13161,1,8,0:0:0:0:
168,169,13323,1,0,0:0:0:0:
168,169,13405,1,8,0:0:0:0:
168,169,13486,1,0,0:0:0:0:
168,169,13648,1,8,0:0:0:0:
168,169,13810,1,0,0:0:0:0:
137,157,13891,1,0,0:0:0:0:
168,169,13972,1,8,0:0:0:0:
168,169,14053,1,8,0:0:0:0:
168,169,14134,1,0,0:0:0:0:
160,176,14215,1,8,0:0:0:0:
168,169,14296,1,0,0:0:0:0:
164,174,14459,1,0,0:0:0:0:
168,169,14621,1,8,0:0:0:0:
162,159,14783,1,0,0:0:0:0:
168,169,14864,1,8,0:0:0:0:
168,169,14945,1,8,0:0:0:0:
168,169,15026,1,8,0:0:0:0:
168,169,15107,1,0,0:0:0:0:
168,169,15269,1,8,0:0:0:0:
168,169,15432,1,8,0:0:0:0:
182,162,15486,1,8,0:0:0:0:
181,160,15540,1,8,0:0:0:0:
168,169,15594,1,0,0:0:0:0:
168,169,15756,1,8,0:0:0:0:
168,169,15918,1,0,0:0:0:0:
168,169,15999,1,8,0:0:0:0:
168,169,16080,1,8,0:0:0:0:
168,169,16242,1,8,0:0:0:0:
164,172,16323,1,8,0:0:0:0:
168,169,16405,1,0,0:0:0:0:
168,169,16486,1,8,0:0:0:0:
168,169,16567,1,0,0:0:0:0:
168,169,16729,1,8,0:0:0:0:
168,169,16810,1,8,0:0:0:0:
168,169,16891,1,0,0:0:0:0:
168,169,17053,1,0,0:0:0:0:
168,169,17215,1,8,0:0:0:0:
168,169,17378,1,8,0:0:0:0:
168,169,17459,1,0,0:0:0:0:
168,169,17540,1,8,0:0:0:0:
168,169,17621,1,8,0:0:0:0:
168,169,17702,1,0,0:0:0:0:
168,169,17864,1,8,0:0:0:0:
168,169,18026,1,8,0:0:0:0:
161,147,18080,1,8,0:0:0:0:
162,147,18134,1,8,0:0:0:0:
168,169,18188,1,0,0:0:0:0:
168,169,18351,1,8,0:0:0:0:
168,169,18513,1,0,0:0:0:0:
168,169,18594,1,8,0:0:0:0:
168,169,18675,1,0,0:0:0:0:
168,169,18837,1,8,0:0:0:0:
168,169,18999,1,0,0:0:0:0:
137,157,19080,1,0,0:0:0:0:
168,169,19161,1,8,0:0:0:0:
168,169,19242,1,8,0:0:0:0:
168,169,19323,1,0,0:0:0:0:
163,162,19405,1,8,0:0:0:0:
168,169,19486,1,0,0:0:0:0:
164,174,19648,1,0,0:0:0:0:
168,169,19810,1,8,0:0:0:0:
162,159,19972,1,0,0:0:0:0:
168,169,20053,1,8,0:0:0:0:
168,169,20134,1,8,0:0:0:0:
168,169,20215,1,8,0:0:0:0:
168,169,20296,1,0,0:0:0:0:
168,169,20459,1,8,0:0:0:0:
168,169,20621,1,8,0:0:0:0:
182,162,20675,1,8,0:0:0:0:
181,160,20729,1,8,0:0:0:0:
168,169,20783,1,0,0:0:0:0:
168,169,20945,1,8,0:0:0:0:
168,169,21107,1,0,0:0:0:0:
168,169,21188,1,8,0:0:0:0:
168,169,21269,1,8,0:0:0:0:
168,169,21432,1,8,0:0:0:0:
164,172,21513,1,8,0:0:0:0:
168,169,21594,1,0,0:0:0:0:
168,169,21675,1,0,0:0:0:0:
168,169,21756,1,8,0:0:0:0:
168,169,21918,1,0,0:0:0:0:
168,169,22080,1,12,0:0:0:0:
127,183,22242,1,0,0:0:0:0:
127,183,22405,1,8,0:0:0:0:
127,183,22567,1,8,0:0:0:0:
127,183,22648,1,8,0:0:0:0:
127,183,22729,1,0,0:0:0:0:
127,183,22810,1,8,0:0:0:0:
127,183,22891,1,0,0:0:0:0:
127,183,22972,1,0,0:0:0:0:
127,183,23053,1,8,0:0:0:0:
127,183,23215,1,8,0:0:0:0:
136,187,23269,1,8,0:0:0:0:
136,186,23323,1,8,0:0:0:0:
127,183,23378,1,0,0:0:0:0:
127,183,23540,1,8,0:0:0:0:
127,183,23702,1,0,0:0:0:0:
127,183,23783,1,8,0:0:0:0:
127,183,23864,1,0,0:0:0:0:
127,183,23945,1,0,0:0:0:0:
127,183,24026,1,8,0:0:0:0:
127,183,24188,1,0,0:0:0:0:
127,183,24269,1,8,0:0:0:0:
127,183,24351,1,0,0:0:0:0:
127,183,24513,1,8,0:0:0:0:
127,174,24594,1,8,0:0:0:0:
127,183,24675,1,0,0:0:0:0:
127,183,24837,1,0,0:0:0:0:
127,183,24999,1,8,0:0:0:0:
127,183,25161,1,0,0:0:0:0:
127,183,25242,1,8,0:0:0:0:
127,183,25323,1,0,0:0:0:0:
127,183,25405,1,8,0:0:0:0:
127,183,25486,1,0,0:0:0:0:
127,183,25648,1,8,0:0:0:0:
127,183,25810,1,8,0:0:0:0:
127,183,25864,1,8,0:0:0:0:
127,183,25918,1,8,0:0:0:0:
127,183,25972,1,0,0:0:0:0:
127,183,26134,1,8,0:0:0:0:
127,183,26296,1,0,0:0:0:0:
127,183,26378,1,8,0:0:0:0:
127,183,26459,1,0,0:0:0:0:
127,183,26540,1,0,0:0:0:0:
127,183,26621,1,8,0:0:0:0:
127,183,26783,1,0,0:0:0:0:
127,183,26864,1,0,0:0:0:0:
127,183,26945,1,8,0:0:0:0:
127,183,27107,1,0,0:0:0:0:
127,183,27269,1,8,0:0:0:0:
127,183,27432,1,0,0:0:0:0:
127,183,27594,1,8,0:0:0:0:
127,183,27756,1,0,0:0:0:0:
127,183,27837,1,8,0:0:0:0:
127,183,27918,1,0,0:0:0:0:
127,183,27999,1,8,0:0:0:0:
127,183,28080,1,8,0:0:0:0:
127,183,28161,1,0,0:0:0:0:
127,183,28242,1,8,0:0:0:0:
127,183,28405,1,0,0:0:0:0:
136,187,28459,1,0,0:0:0:0:
136,186,28513,1,0,0:0:0:0:
127,183,28567,1,8,0:0:0:0:
127,183,28729,1,8,0:0:0:0:
127,183,28891,1,0,0:0:0:0:
127,183,28972,1,0,0:0:0:0:
127,183,29053,1,8,0:0:0:0:
127,183,29134,1,8,0:0:0:0:
127,183,29215,1,0,0:0:0:0:
127,183,29378,1,0,0:0:0:0:
127,183,29459,1,0,0:0:0:0:
127,183,29540,1,8,0:0:0:0:
127,183,29702,1,8,0:0:0:0:
127,174,29783,1,8,0:0:0:0:
127,183,29864,1,0,0:0:0:0:
127,183,30026,1,0,0:0:0:0:
127,183,30188,1,8,0:0:0:0:
127,183,30351,1,0,0:0:0:0:
127,183,30432,1,8,0:0:0:0:
127,183,30513,1,0,0:0:0:0:
127,183,30594,1,8,0:0:0:0:
127,183,30675,1,0,0:0:0:0:
127,183,30837,1,8,0:0:0:0:
133,172,30918,1,8,0:0:0:0:
127,183,30999,1,0,0:0:0:0:
127,183,31053,1,0,0:0:0:0:
127,183,31107,1,0,0:0:0:0:
127,183,31161,1,8,0:0:0:0:
120,175,31242,1,0,0:0:0:0:
127,183,31323,1,8,0:0:0:0:
122,172,31405,1,0,0:0:0:0:
127,183,31486,1,8,0:0:0:0:
127,183,31567,1,8,0:0:0:0:
127,183,31648,1,8,0:0:0:0:
127,183,31729,1,8,0:0:0:0:
127,183,31810,1,0,0:0:0:0:
122,172,31891,1,8,0:0:0:0:
127,183,31972,1,0,0:0:0:0:
127,183,32053,1,0,0:0:0:0:
127,183,32134,1,8,0:0:0:0:
120,175,32215,1,8,0:0:0:0:
127,183,32296,1,8,0:0:0:0:
122,172,32378,1,8,0:0:0:0:
122,172,32459,1,0,0:0:0:0:
127,183,32621,1,0,0:0:0:0:
137,172,32702,1,0,0:0:0:0:
168,169,32783,1,8,0:0:0:0:
168,169,32945,1,8,0:0:0:0:
168,169,33026,1,0,0:0:0:0:
168,169,33107,1,8,0:0:0:0:
168,169,33188,1,8,0:0:0:0:
168,169,33269,1,0,0:0:0:0:
168,169,33432,1,8,0:0:0:0:
168,169,33594,1,8,0:0:0:0:
161,147,33648,1,8,0:0:0:0:
162,147,33702,1,8,0:0:0:0:
168,169,33756,1,0,0:0:0:0:
168,169,33918,1,8,0:0:0:0:
168,169,34080,1,0,0:0:0:0:
168,169,34161,1,8,0:0:0:0:
168,169,34242,1,0,0:0:0:0:
168,169,34405,1,8,0:0:0:0:
168,169,34567,1,0,0:0:0:0:
137,157,34648,1,0,0:0:0:0:
168,169,34729,1,8,0:0:0:0:
168,169,34810,1,8,0:0:0:0:
168,169,34891,1,0,0:0:0:0:
168,169,35053,1,0,0:0:0:0:
164,174,35215,1,0,0:0:0:0:
163,165,35296,1,0,0:0:0:0:
168,169,35378,1,8,0:0:0:0:
162,159,35540,1,0,0:0:0:0:
168,169,35621,1,8,0:0:0:0:
168,169,35702,1,8,0:0:0:0:
168,169,35783,1,8,0:0:0:0:
168,169,35864,1,0,0:0:0:0:
168,169,36026,1,8,0:0:0:0:
168,169,36188,1,8,0:0:0:0:
182,162,36242,1,8,0:0:0:0:
181,160,36296,1,8,0:0:0:0:
168,169,36351,1,0,0:0:0:0:
168,169,36513,1,8,0:0:0:0:
168,169,36675,1,0,0:0:0:0:
168,169,36756,1,8,0:0:0:0:
168,169,36837,1,8,0:0:0:0:
168,169,36999,1,8,0:0:0:0:
164,172,37080,1,8,0:0:0:0:
168,169,37161,1,0,0:0:0:0:
168,169,37242,1,8,0:0:0:0:
168,169,37323,1,0,0:0:0:0:
168,169,37486,1,8,0:0:0:0:
168,169,37567,1,8,0:0:0:0:
168,169,37648,1,0,0:0:0:0:
168,169,37810,1,0,0:0:0:0:
168,169,37891,1,0,0:0:0:0:
168,169,37972,1,8,0:0:0:0:
168,169,38134,1,8,0:0:0:0:
168,169,38215,1,0,0:0:0:0:
168,169,38296,1,8,0:0:0:0:
168,169,38378,1,8,0:0:0:0:
168,169,38459,1,0,0:0:0:0:
168,169,38621,1,8,0:0:0:0:
168,169,38783,1,8,0:0:0:0:
161,147,38837,1,8,0:0:0:0:
162,147,38891,1,8,0:0:0:0:
168,169,38945,1,0,0:0:0:0:
168,169,39107,1,8,0:0:0:0:
168,169,39269,1,0,0:0:0:0:
168,169,39351,1,8,0:0:0:0:
168,169,39432,1,0,0:0:0:0:
168,169,39594,1,8,0:0:0:0:
168,169,39756,1,0,0:0:0:0:
137,157,39837,1,0,0:0:0:0:
168,169,39918,1,8,0:0:0:0:
168,169,39999,1,8,0:0:0:0:
168,169,40080,1,0,0:0:0:0:
168,169,40242,1,0,0:0:0:0:
164,174,40405,1,0,0:0:0:0:
168,169,40486,1,0,0:0:0:0:
168,169,40567,1,8,0:0:0:0:
162,159,40729,1,0,0:0:0:0:
168,169,40810,1,8,0:0:0:0:
168,169,40891,1,8,0:0:0:0:
168,169,40972,1,8,0:0:0:0:
168,169,41053,1,0,0:0:0:0:
168,169,41215,1,8,0:0:0:0:
168,169,41378,1,8,0:0:0:0:
182,162,41432,1,8,0:0:0:0:
181,160,41486,1,8,0:0:0:0:
168,169,41540,1,0,0:0:0:0:
168,169,41702,1,8,0:0:0:0:
168,169,41864,1,0,0:0:0:0:
168,169,41945,1,8,0:0:0:0:
168,169,42026,1,8,0:0:0:0:
168,169,42188,1,8,0:0:0:0:
164,172,42269,1,8,0:0:0:0:
168,169,42351,1,0,0:0:0:0:
168,169,42432,1,0,0:0:0:0:
168,169,42513,1,8,0:0:0:0:
168,169,42675,1,0,0:0:0:0:
168,169,42837,1,12,0:0:0:0:
127,183,42999,1,0,0:0:0:0:
158,172,43080,1,0,0:0:0:0:
127,183,43161,1,8,0:0:0:0:
127,183,43323,1,8,0:0:0:0:
127,183,43405,1,8,0:0:0:0:
127,183,43486,1,0,0:0:0:0:
127,183,43567,1,8,0:0:0:0:
127,183,43648,1,0,0:0:0:0:
127,183,43729,1,0,0:0:0:0:
127,183,43810,1,8,0:0:0:0:
127,183,43972,1,0,0:0:0:0:
136,187,44026,1,8,0:0:0:0:
136,186,44080,1,8,0:0:0:0:
127,183,44134,1,0,0:0:0:0:
127,183,44296,1,8,0:0:0:0:
147,173,44378,1,0,0:0:0:0:
127,183,44459,1,8,0:0:0:0:
127,183,44540,1,8,0:0:0:0:
127,183,44621,1,0,0:0:0:0:
127,183,44783,1,8,0:0:0:0:
127,183,44864,1,0,0:0:0:0:
127,183,44945,1,8,0:0:0:0:
127,183,45026,1,0,0:0:0:0:
127,183,45107,1,8,0:0:0:0:
80,167,45188,1,8,0:0:0:0:
127,183,45269,1,8,0:0:0:0:
127,174,45351,1,8,0:0:0:0:
127,183,45432,1,0,0:0:0:0:
127,183,45594,1,0,0:0:0:0:
162,208,45675,1,0,0:0:0:0:
127,183,45756,1,8,0:0:0:0:
127,183,45918,1,0,0:0:0:0:
127,183,45999,1,8,0:0:0:0:
127,183,46080,1,0,0:0:0:0:
127,183,46161,1,8,0:0:0:0:
127,183,46242,1,0,0:0:0:0:
127,183,46405,1,8,0:0:0:0:
131,185,46486,1,8,0:0:0:0:
127,183,46567,1,0,0:0:0:0:
127,183,46621,1,8,0:0:0:0:
127,183,46675,1,8,0:0:0:0:
127,183,46729,1,0,0:0:0:0:
127,183,46891,1,8,0:0:0:0:
127,183,47053,1,0,0:0:0:0:
127,183,47134,1,8,0:0:0:0:
127,183,47215,1,0,0:0:0:0:
127,183,47296,1,0,0:0:0:0:
127,183,47378,1,8,0:0:0:0:
127,183,47540,1,0,0:0:0:0:
127,183,47621,1,0,0:0:0:0:
127,183,47702,1,8,0:0:0:0:
131,185,47783,1,8,0:0:0:0:
127,183,47864,1,0,0:0:0:0:
127,183,48026,1,8,0:0:0:0:
127,183,48188,1,0,0:0:0:0:
141,184,48269,1,0,0:0:0:0:
127,183,48351,1,8,0:0:0:0:
127,183,48513,1,0,0:0:0:0:
127,183,48594,1,8,0:0:0:0:
127,183,48675,1,0,0:0:0:0:
127,183,48756,1,8,0:0:0:0:
127,183,48837,1,8,0:0:0:0:
127,183,48918,1,0,0:0:0:0:
127,183,48999,1,8,0:0:0:0:
127,183,49161,1,0,0:0:0:0:
136,187,49215,1,0,0:0:0:0:
136,186,49269,1,0,0:0:0:0:
127,183,49323,1,8,0:0:0:0:
127,183,49486,1,8,0:0:0:0:
127,183,49648,1,0,0:0:0:0:
127,183,49729,1,0,0:0:0:0:
127,183,49810,1,8,0:0:0:0:
127,183,49891,1,8,0:0:0:0:
127,183,49972,1,0,0:0:0:0:
127,183,50053,1,8,0:0:0:0:
127,183,50134,1,0,0:0:0:0:
127,183,50215,1,0,0:0:0:0:
127,183,50296,1,8,0:0:0:0:
127,183,50459,1,8,0:0:0:0:
127,174,50540,1,8,0:0:0:0:
127,183,50621,1,0,0:0:0:0:
127,183,50783,1,0,0:0:0:0:
127,183,50945,1,8,0:0:0:0:
127,183,51107,1,0,0:0:0:0:
127,183,51188,1,8,0:0:0:0:
127,183,51269,1,0,0:0:0:0:
127,183,51351,1,8,0:0:0:0:
127,183,51432,1,0,0:0:0:0:
124,184,51513,1,0,0:0:0:0:
127,183,51594,1,8,0:0:0:0:
127,183,51756,1,0,0:0:0:0:
127,183,51810,1,8,0:0:0:0:
127,183,51864,1,8,0:0:0:0:
127,183,51918,1,0,0:0:0:0:
127,183,52080,1,0,0:0:0:0:
122,172,52161,1,0,0:0:0:0:
127,183,52242,1,8,0:0:0:0:
127,183,52405,1,8,0:0:0:0:
127,183,52486,1,8,0:0:0:0:
127,183,52567,1,0,0:0:0:0:
122,172,52648,1,0,0:0:0:0:
127,183,52729,1,8,0:0:0:0:
127,183,52810,1,8,0:0:0:0:
85,162,53378,1,0,0:0:0:0:
92,163,53540,1,8,0:0:0:0:
95,163,53702,1,8,0:0:0:0:
93,158,53783,1,8,0:0:0:0:
95,163,53864,1,0,0:0:0:0:
95,163,54026,1,0,0:0:0:0:
102,159,54107,1,0,0:0:0:0:
95,164,54188,1,8,0:0:0:0:
95,164,54351,1,8,0:0:0:0:
97,160,54432,1,8,0:0:0:0:
92,163,54513,1,0,0:0:0:0:
95,163,54675,1,0,0:0:0:0:
95,163,54837,1,8,0:0:0:0:
100,157,54918,1,8,0:0:0:0:
95,163,54999,1,8,0:0:0:0:
95,164,55161,1,0,0:0:0:0:
103,158,55242,1,8,0:0:0:0:
95,164,55323,1,0,0:0:0:0:
92,163,55486,1,8,0:0:0:0:
47,157,55567,1,8,0:0:0:0:
95,163,55648,1,0,0:0:0:0:
95,163,55972,1,0,0:0:0:0:
99,155,56053,1,8,0:0:0:0:
95,164,56134,1,0,0:0:0:0:
95,164,56296,1,0,0:0:0:0:
92,163,56459,1,8,0:0:0:0:
104,150,56540,1,8,0:0:0:0:
95,163,56621,1,0,0:0:0:0:
95,163,56783,1,0,0:0:0:0:
89,145,56864,1,0,0:0:0:0:
95,163,56945,1,8,0:0:0:0:
95,164,57107,1,8,0:0:0:0:
105,150,57188,1,8,0:0:0:0:
95,164,57269,1,0,0:0:0:0:
106,160,57351,1,0,0:0:0:0:
92,163,57432,1,8,0:0:0:0:
95,163,57594,1,0,0:0:0:0:
106,150,57675,1,8,0:0:0:0:
95,163,57756,1,8,0:0:0:0:
95,163,57918,1,8,0:0:0:0:
95,164,58080,1,0,0:0:0:0:
95,164,58242,1,8,0:0:0:0:
106,150,58323,1,8,0:0:0:0:
95,163,58567,1,0,0:0:0:0:
106,150,58648,1,8,0:0:0:0:
95,163,58729,1,8,0:0:0:0:
95,163,58891,1,8,0:0:0:0:
95,164,59053,1,8,0:0:0:0:
47,150,59134,1,8,0:0:0:0:
95,164,59215,1,0,0:0:0:0:
95,163,59378,1,0,0:0:0:0:
112,156,59459,1,0,0:0:0:0:
95,163,59540,1,0,0:0:0:0:
95,163,59702,1,0,0:0:0:0:
82,150,59783,1,8,0:0:0:0:
95,163,59864,1,0,0:0:0:0:
95,164,60026,1,0,0:0:0:0:
95,164,60188,1,8,0:0:0:0:
118,131,60269,1,8,0:0:0:0:
95,163,60351,1,0,0:0:0:0:
65,155,60432,1,0,0:0:0:0:
95,163,60513,1,8,0:0:0:0:
95,163,60675,1,8,0:0:0:0:
110,146,60756,1,0,0:0:0:0:
95,163,60837,1,8,0:0:0:0:
95,164,60999,1,8,0:0:0:0:
83,148,61080,1,8,0:0:0:0:
95,164,61161,1,0,0:0:0:0:
95,163,61323,1,0,0:0:0:0:
109,138,61405,1,0,0:0:0:0:
95,163,61486,1,8,0:0:0:0:
95,163,61648,1,0,0:0:0:0:
117,158,61729,1,0,0:0:0:0:
95,163,61810,1,0,0:0:0:0:
95,164,61972,1,8,0:0:0:0:
109,138,62053,1,8,0:0:0:0:
95,164,62134,1,0,0:0:0:0:
95,163,62296,1,0,0:0:0:0:
76,155,62378,1,0,0:0:0:0:
85,162,62459,1,8,0:0:0:0:
89,155,62621,1,0,0:0:0:0:
89,155,62783,1,0,0:0:0:0:
109,138,62864,1,0,0:0:0:0:
89,155,62945,1,8,0:0:0:0:
107,153,63026,1,8,0:0:0:0:
89,155,63107,1,0,0:0:0:0:
89,155,63269,1,8,0:0:0:0:
89,155,63432,1,0,0:0:0:0:
89,155,63513,1,0,0:0:0:0:
154,193,63594,1,0,0:0:0:0:
168,169,63756,1,0,0:0:0:0:
168,169,63918,1,8,0:0:0:0:
168,169,64080,1,0,0:0:0:0:
168,169,64161,1,8,0:0:0:0:
168,169,64242,1,0,0:0:0:0:
168,169,64323,1,8,0:0:0:0:
168,169,64405,1,0,0:0:0:0:
168,169,64567,1,8,0:0:0:0:
168,169,64729,1,8,0:0:0:0:
162,147,64810,1,8,0:0:0:0:
168,169,64891,1,0,0:0:0:0:
168,169,65053,1,0,0:0:0:0:
168,169,65215,1,8,0:0:0:0:
168,169,65296,1,8,0:0:0:0:
168,169,65378,1,8,0:0:0:0:
168,169,65540,1,8,0:0:0:0:
168,169,65702,1,8,0:0:0:0:
137,157,65783,1,8,0:0:0:0:
168,169,65864,1,0,0:0:0:0:
168,169,65945,1,0,0:0:0:0:
168,169,66026,1,8,0:0:0:0:
157,160,66080,1,8,0:0:0:0:
150,160,66134,1,8,0:0:0:0:
168,169,66188,1,0,0:0:0:0:
164,174,66351,1,0,0:0:0:0:
126,133,66432,1,8,0:0:0:0:
168,169,66513,1,0,0:0:0:0:
162,159,66675,1,8,0:0:0:0:
168,169,66756,1,8,0:0:0:0:
168,169,66837,1,0,0:0:0:0:
168,169,66918,1,8,0:0:0:0:
168,169,66999,1,0,0:0:0:0:
168,169,67161,1,8,0:0:0:0:
168,169,67323,1,0,0:0:0:0:
181,160,67405,1,0,0:0:0:0:
168,169,67486,1,8,0:0:0:0:
148,160,67567,1,8,0:0:0:0:
168,169,67648,1,0,0:0:0:0:
168,169,67810,1,8,0:0:0:0:
168,169,67972,1,0,0:0:0:0:
168,169,68026,1,0,0:0:0:0:
137,169,68080,1,0,0:0:0:0:
168,169,68134,1,8,0:0:0:0:
164,172,68215,1,0,0:0:0:0:
168,169,68296,1,8,0:0:0:0:
168,169,68378,1,8,0:0:0:0:
168,169,68459,1,0,0:0:0:0:
168,169,68621,1,8,0:0:0:0:
168,169,68675,1,8,0:0:0:0:
76,164,68729,1,8,0:0:0:0:
168,169,68783,1,0,0:0:0:0:
95,163,68945,1,0,0:0:0:0:
106,150,69026,1,8,0:0:0:0:
95,163,69107,1,8,0:0:0:0:
95,163,69269,1,8,0:0:0:0:
111,149,69351,1,0,0:0:0:0:
95,164,69432,1,8,0:0:0:0:
47,150,69513,1,8,0:0:0:0:
95,164,69594,1,0,0:0:0:0:
95,163,69756,1,8,0:0:0:0:
95,163,69918,1,0,0:0:0:0:
141,171,69999,1,0,0:0:0:0:
95,163,70080,1,8,0:0:0:0:
82,150,70161,1,8,0:0:0:0:
95,163,70242,1,0,0:0:0:0:
95,164,70405,1,8,0:0:0:0:
95,164,70567,1,8,0:0:0:0:
70,147,70648,1,8,0:0:0:0:
95,163,70729,1,0,0:0:0:0:
65,155,70810,1,8,0:0:0:0:
95,163,70891,1,0,0:0:0:0:
110,146,70972,1,0,0:0:0:0:
95,163,71053,1,8,0:0:0:0:
128,141,71134,1,0,0:0:0:0:
95,163,71215,1,8,0:0:0:0:
134,127,71269,1,0,0:0:0:0:
134,127,71323,1,0,0:0:0:0:
95,164,71378,1,8,0:0:0:0:
83,148,71459,1,8,0:0:0:0:
95,164,71540,1,0,0:0:0:0:
95,163,71702,1,0,0:0:0:0:
153,167,71783,1,0,0:0:0:0:
95,163,71864,1,8,0:0:0:0:
114,152,71945,1,0,0:0:0:0:
95,163,72026,1,8,0:0:0:0:
117,158,72107,1,8,0:0:0:0:
95,163,72188,1,0,0:0:0:0:
95,164,72351,1,8,0:0:0:0:
130,153,72432,1,8,0:0:0:0:
95,164,72513,1,0,0:0:0:0:
95,163,72675,1,0,0:0:0:0:
76,155,72756,1,0,0:0:0:0:
85,162,72837,1,8,0:0:0:0:
89,155,72999,1,0,0:0:0:0:
89,155,73161,1,0,0:0:0:0:
85,153,73242,1,0,0:0:0:0:
89,155,73323,1,8,0:0:0:0:
107,153,73405,1,8,0:0:0:0:
89,155,73486,1,0,0:0:0:0:
89,155,73648,1,0,0:0:0:0:
110,152,73810,1,8,0:0:0:0:
133,148,73891,1,8,0:0:0:0:
109,152,73972,1,0,0:0:0:0:
113,151,74053,1,0,0:0:0:0:
109,152,74134,1,0,0:0:0:0:
103,147,74215,1,0,0:0:0:0:
109,152,74296,1,8,0:0:0:0:
109,152,74459,1,0,0:0:0:0:
82,147,74540,1,8,0:0:0:0:
109,152,74621,1,0,0:0:0:0:
110,152,74702,1,0,0:0:0:0:
110,152,74783,1,8,0:0:0:0:
109,152,74945,1,0,0:0:0:0:
109,152,75107,1,0,0:0:0:0:
113,151,75188,1,0,0:0:0:0:
167,175,75269,1,12,0:0:0:0:
256,192,75351,8,0,76242,0:0:0:0:
219,157,77864,5,8,0:0:0:0:
219,157,77945,1,8,0:0:0:0:
219,157,78026,1,0,0:0:0:0:
219,157,78107,1,0,0:0:0:0:
219,157,78188,1,8,0:0:0:0:
219,157,78269,1,8,0:0:0:0:
219,157,78351,1,0,0:0:0:0:
219,157,78432,1,0,0:0:0:0:
219,157,78513,1,8,0:0:0:0:
219,157,78594,1,8,0:0:0:0:
219,157,78675,1,0,0:0:0:0:
219,157,78756,1,0,0:0:0:0:
219,157,78837,1,8,0:0:0:0:
219,157,78918,1,8,0:0:0:0:
219,157,78999,1,0,0:0:0:0:
219,157,79080,1,0,0:0:0:0:
219,157,79161,1,8,0:0:0:0:
219,157,79242,1,8,0:0:0:0:
219,157,79323,1,0,0:0:0:0:
219,157,79405,1,0,0:0:0:0:
219,157,79486,1,8,0:0:0:0:
219,157,79567,1,8,0:0:0:0:
219,157,79648,1,0,0:0:0:0:
219,157,79729,1,0,0:0:0:0:
219,157,79810,1,8,0:0:0:0:
219,157,79891,1,8,0:0:0:0:
219,157,79972,1,0,0:0:0:0:
219,157,80053,1,0,0:0:0:0:
219,157,80134,1,8,0:0:0:0:
219,157,80215,1,8,0:0:0:0:
219,157,80296,1,0,0:0:0:0:
219,157,80378,1,0,0:0:0:0:
141,142,80459,1,8,0:0:0:0:
144,133,80540,1,8,0:0:0:0:
141,142,80621,1,8,0:0:0:0:
141,142,80702,1,0,0:0:0:0:
141,142,80783,1,8,0:0:0:0:
144,133,80864,1,8,0:0:0:0:
141,142,80945,1,8,0:0:0:0:
141,142,81026,1,0,0:0:0:0:
141,142,81107,1,8,0:0:0:0:
144,133,81188,1,8,0:0:0:0:
141,142,81269,1,8,0:0:0:0:
141,142,81351,1,0,0:0:0:0:
141,142,81432,1,8,0:0:0:0:
144,133,81513,1,8,0:0:0:0:
141,142,81594,1,8,0:0:0:0:
141,142,81675,1,0,0:0:0:0:
141,142,81756,1,8,0:0:0:0:
144,133,81837,1,8,0:0:0:0:
141,142,81918,1,8,0:0:0:0:
141,142,81999,1,0,0:0:0:0:
141,142,82080,1,8,0:0:0:0:
144,133,82161,1,8,0:0:0:0:
141,142,82242,1,8,0:0:0:0:
141,142,82323,1,0,0:0:0:0:
141,142,82405,1,8,0:0:0:0:
144,133,82486,1,8,0:0:0:0:
141,142,82567,1,8,0:0:0:0:
141,142,82648,1,0,0:0:0:0:
141,142,82729,1,8,0:0:0:0:
144,133,82810,1,8,0:0:0:0:
141,142,82891,1,8,0:0:0:0:
141,142,82972,1,0,0:0:0:0:
141,142,83053,1,8,0:0:0:0:
144,133,83134,1,8,0:0:0:0:
147,126,83215,1,0,0:0:0:0:
144,136,83296,1,8,0:0:0:0:
144,136,83378,1,0,0:0:0:0:
144,133,83459,1,0,0:0:0:0:
145,134,83540,1,8,0:0:0:0:
145,134,83621,1,0,0:0:0:0:
141,142,83702,1,8,0:0:0:0:
144,133,83783,1,8,0:0:0:0:
147,126,83864,1,0,0:0:0:0:
144,136,83945,1,8,0:0:0:0:
144,136,84026,1,0,0:0:0:0:
144,133,84107,1,0,0:0:0:0:
145,134,84188,1,8,0:0:0:0:
145,134,84269,1,0,0:0:0:0:
141,142,84351,1,8,0:0:0:0:
144,133,84432,1,8,0:0:0:0:
147,126,84513,1,0,0:0:0:0:
144,136,84594,1,8,0:0:0:0:
144,136,84675,1,0,0:0:0:0:
144,133,84756,1,0,0:0:0:0:
145,134,84837,1,8,0:0:0:0:
145,134,84918,1,0,0:0:0:0:
141,142,84999,1,8,0:0:0:0:
144,133,85080,1,8,0:0:0:0:
147,126,85161,1,0,0:0:0:0:
144,136,85242,1,8,0:0:0:0:
144,136,85323,1,0,0:0:0:0:
144,133,85405,1,0,0:0:0:0:
145,134,85486,1,8,0:0:0:0:
145,134,85567,1,0,0:0:0:0:
141,142,85648,1,8,0:0:0:0:
144,133,85729,1,8,0:0:0:0:
147,126,85810,1,0,0:0:0:0:
144,136,85891,1,8,0:0:0:0:
144,136,85972,1,0,0:0:0:0:
144,133,86053,1,0,0:0:0:0:
145,134,86134,1,8,0:0:0:0:
145,134,86215,1,0,0:0:0:0:
141,142,86296,1,8,0:0:0:0:
144,133,86378,1,8,0:0:0:0:
147,126,86459,1,0,0:0:0:0:
144,136,86540,1,8,0:0:0:0:
144,136,86621,1,0,0:0:0:0:
144,133,86702,1,0,0:0:0:0:
145,134,86783,1,8,0:0:0:0:
145,134,86864,1,0,0:0:0:0:
141,142,86945,1,8,0:0:0:0:
144,133,87026,1,8,0:0:0:0:
147,126,87107,1,0,0:0:0:0:
144,136,87188,1,8,0:0:0:0:
144,136,87269,1,0,0:0:0:0:
144,133,87351,1,0,0:0:0:0:
145,134,87432,1,8,0:0:0:0:
145,134,87513,1,0,0:0:0:0:
127,141,87594,1,0,0:0:0:0:
128,139,87756,1,0,0:0:0:0:
128,139,87837,1,8,0:0:0:0:
128,139,87918,1,0,0:0:0:0:
128,139,88080,1,8,0:0:0:0:
128,139,88161,1,0,0:0:0:0:
219,157,88242,1,8,0:0:0:0:
219,157,88323,1,8,0:0:0:0:
219,157,88405,1,0,0:0:0:0:
219,157,88486,1,0,0:0:0:0:
219,157,88567,1,8,0:0:0:0:
219,157,88648,1,8,0:0:0:0:
219,157,88729,1,0,0:0:0:0:
219,157,88810,1,0,0:0:0:0:
219,157,88891,1,8,0:0:0:0:
219,157,88972,1,8,0:0:0:0:
219,157,89053,1,0,0:0:0:0:
219,157,89134,1,0,0:0:0:0:
219,157,89215,1,8,0:0:0:0:
219,157,89296,1,8,0:0:0:0:
219,157,89378,1,0,0:0:0:0:
219,157,89459,1,0,0:0:0:0:
219,157,89540,1,8,0:0:0:0:
219,157,89621,1,8,0:0:0:0:
219,157,89702,1,0,0:0:0:0:
219,157,89783,1,0,0:0:0:0:
219,157,89864,1,8,0:0:0:0:
219,157,89945,1,8,0:0:0:0:
219,157,90026,1,0,0:0:0:0:
219,157,90107,1,0,0:0:0:0:
219,157,90188,1,8,0:0:0:0:
219,157,90269,1,8,0:0:0:0:
219,157,90351,1,0,0:0:0:0:
219,157,90432,1,0,0:0:0:0:
219,157,90513,1,8,0:0:0:0:
219,157,90594,1,8,0:0:0:0:
219,157,90675,1,0,0:0:0:0:
219,157,90756,1,0,0:0:0:0:
141,142,90837,1,8,0:0:0:0:
144,133,90918,1,8,0:0:0:0:
141,142,90999,1,8,0:0:0:0:
141,142,91080,1,0,0:0:0:0:
141,142,91161,1,8,0:0:0:0:
144,133,91242,1,8,0:0:0:0:
141,142,91323,1,8,0:0:0:0:
141,142,91405,1,0,0:0:0:0:
141,142,91486,1,8,0:0:0:0:
144,133,91567,1,8,0:0:0:0:
141,142,91648,1,8,0:0:0:0:
141,142,91729,1,0,0:0:0:0:
141,142,91810,1,8,0:0:0:0:
144,133,91891,1,8,0:0:0:0:
141,142,91972,1,8,0:0:0:0:
141,142,92053,1,0,0:0:0:0:
141,142,92134,1,8,0:0:0:0:
144,133,92215,1,8,0:0:0:0:
141,142,92296,1,8,0:0:0:0:
141,142,92378,1,0,0:0:0:0:
141,142,92459,1,8,0:0:0:0:
144,133,92540,1,8,0:0:0:0:
141,142,92621,1,8,0:0:0:0:
141,142,92702,1,0,0:0:0:0:
141,142,92783,1,8,0:0:0:0:
144,133,92864,1,8,0:0:0:0:
141,142,92945,1,8,0:0:0:0:
141,142,93026,1,0,0:0:0:0:
141,142,93107,1,8,0:0:0:0:
144,133,93188,1,8,0:0:0:0:
141,142,93269,1,8,0:0:0:0:
141,142,93351,1,0,0:0:0:0:
141,142,93432,1,8,0:0:0:0:
144,133,93513,1,0,0:0:0:0:
147,126,93594,1,8,0:0:0:0:
144,136,93675,1,8,0:0:0:0:
144,136,93756,1,0,0:0:0:0:
144,133,93837,1,8,0:0:0:0:
145,134,93918,1,0,0:0:0:0:
145,134,93999,1,0,0:0:0:0:
141,142,94080,1,8,0:0:0:0:
144,133,94161,1,0,0:0:0:0:
147,126,94242,1,8,0:0:0:0:
144,136,94323,1,8,0:0:0:0:
144,136,94405,1,0,0:0:0:0:
144,133,94486,1,8,0:0:0:0:
145,134,94567,1,0,0:0:0:0:
145,134,94648,1,0,0:0:0:0:
141,142,94729,1,8,0:0:0:0:
144,133,94810,1,0,0:0:0:0:
147,126,94891,1,8,0:0:0:0:
144,136,94972,1,8,0:0:0:0:
144,136,95053,1,0,0:0:0:0:
144,133,95134,1,8,0:0:0:0:
145,134,95215,1,0,0:0:0:0:
145,134,95296,1,0,0:0:0:0:
141,142,95378,1,8,0:0:0:0:
144,133,95459,1,0,0:0:0:0:
147,126,95540,1,8,0:0:0:0:
144,136,95621,1,8,0:0:0:0:
144,136,95702,1,0,0:0:0:0:
144,133,95783,1,8,0:0:0:0:
145,134,95864,1,0,0:0:0:0:
145,134,95945,1,0,0:0:0:0:
141,142,96026,1,8,0:0:0:0:
144,133,96107,1,0,0:0:0:0:
147,126,96188,1,8,0:0:0:0:
144,136,96269,1,8,0:0:0:0:
144,136,96351,1,0,0:0:0:0:
144,133,96432,1,8,0:0:0:0:
145,134,96513,1,0,0:0:0:0:
145,134,96594,1,0,0:0:0:0:
141,142,96675,1,8,0:0:0:0:
144,133,96756,1,0,0:0:0:0:
147,126,96837,1,8,0:0:0:0:
144,136,96918,1,8,0:0:0:0:
144,136,96999,1,0,0:0:0:0:
144,133,97080,1,8,0:0:0:0:
145,134,97161,1,0,0:0:0:0:
145,134,97242,1,0,0:0:0:0:
141,142,97323,1,8,0:0:0:0:
144,133,97405,1,0,0:0:0:0:
147,126,97486,1,8,0:0:0:0:
144,136,97567,1,8,0:0:0:0:
144,136,97648,1,0,0:0:0:0:
144,133,97729,1,8,0:0:0:0:
145,134,97810,1,0,0:0:0:0:
145,134,97891,1,0,0:0:0:0:
127,141,97972,1,0,0:0:0:0:
160,132,98053,1,8,0:0:0:0:
128,139,98134,1,8,0:0:0:0:
128,139,98215,1,8,0:0:0:0:
128,139,98296,1,0,0:0:0:0:
144,133,98378,1,8,0:0:0:0:
128,139,98459,1,0,0:0:0:0:
155,140,98513,1,0,0:0:0:0:
128,139,98567,1,0,0:0:0:0:
144,136,98621,1,8,0:0:0:0:
151,259,98702,1,8,0:0:0:0:
151,259,98783,1,0,0:0:0:0:
151,259,98864,1,8,0:0:0:0:
151,259,98945,1,8,0:0:0:0:
151,259,99026,1,0,0:0:0:0:
151,259,99107,1,8,0:0:0:0:
151,259,99188,1,8,0:0:0:0:
151,259,99269,1,0,0:0:0:0:
151,259,99351,1,8,0:0:0:0:
151,259,99432,1,8,0:0:0:0:
151,259,99513,1,0,0:0:0:0:
151,259,99594,1,8,0:0:0:0:
151,259,99675,1,8,0:0:0:0:
151,259,99756,1,0,0:0:0:0:
151,259,99810,1,0,0:0:0:0:
157,252,99864,1,0,0:0:0:0:
151,259,99918,1,8,0:0:0:0:
151,259,99999,1,8,0:0:0:0:
151,259,100080,1,0,0:0:0:0:
151,259,100161,1,8,0:0:0:0:
151,259,100242,1,0,0:0:0:0:
151,259,100323,1,0,0:0:0:0:
151,259,100405,1,8,0:0:0:0:
151,259,100486,1,8,0:0:0:0:
151,259,100567,1,0,0:0:0:0:
151,259,100648,1,8,0:0:0:0:
151,259,100729,1,0,0:0:0:0:
151,259,100810,1,0,0:0:0:0:
151,259,100891,1,8,0:0:0:0:
151,259,100972,1,8,0:0:0:0:
151,259,101053,1,0,0:0:0:0:
151,259,101134,1,0,0:0:0:0:
151,259,101215,1,8,0:0:0:0:
151,259,101296,1,0,0:0:0:0:
151,259,101378,1,0,0:0:0:0:
151,259,101459,1,8,0:0:0:0:
151,259,101540,1,0,0:0:0:0:
151,259,101621,1,0,0:0:0:0:
151,259,101702,1,8,0:0:0:0:
151,259,101783,1,8,0:0:0:0:
151,259,101864,1,0,0:0:0:0:
151,259,101945,1,8,0:0:0:0:
151,259,102026,1,8,0:0:0:0:
151,259,102107,1,0,0:0:0:0:
151,259,102188,1,8,0:0:0:0:
151,259,102269,1,8,0:0:0:0:
151,259,102351,1,0,0:0:0:0:
151,259,102405,1,0,0:0:0:0:
115,247,102459,1,0,0:0:0:0:
151,259,102513,1,8,0:0:0:0:
151,259,102594,1,0,0:0:0:0:
151,259,102675,1,8,0:0:0:0:
151,259,102756,1,8,0:0:0:0:
151,259,102837,1,0,0:0:0:0:
151,259,102918,1,0,0:0:0:0:
151,259,102999,1,8,0:0:0:0:
151,259,103080,1,0,0:0:0:0:
151,259,103161,1,8,0:0:0:0:
151,259,103242,1,8,0:0:0:0:
151,259,103323,1,0,0:0:0:0:
151,259,103405,1,0,0:0:0:0:
151,259,103486,1,8,0:0:0:0:
151,259,103567,1,8,0:0:0:0:
151,259,103648,1,8,0:0:0:0:
151,259,103729,1,0,0:0:0:0:
151,259,103810,1,8,0:0:0:0:
151,259,103891,1,8,0:0:0:0:
151,259,103972,1,0,0:0:0:0:
151,259,104053,1,8,0:0:0:0:
151,259,104134,1,0,0:0:0:0:
151,259,104215,1,0,0:0:0:0:
151,259,104296,1,8,0:0:0:0:
151,259,104378,1,8,0:0:0:0:
151,259,104459,1,0,0:0:0:0:
151,259,104540,1,8,0:0:0:0:
151,259,104621,1,0,0:0:0:0:
151,259,104702,1,0,0:0:0:0:
151,259,104783,1,8,0:0:0:0:
151,259,104864,1,8,0:0:0:0:
151,259,104945,1,0,0:0:0:0:
151,259,104999,1,0,0:0:0:0:
150,271,105053,1,0,0:0:0:0:
151,259,105107,1,8,0:0:0:0:
151,259,105188,1,0,0:0:0:0:
151,259,105269,1,0,0:0:0:0:
151,259,105351,1,8,0:0:0:0:
151,259,105432,1,8,0:0:0:0:
151,259,105513,1,0,0:0:0:0:
151,259,105594,1,8,0:0:0:0:
151,259,105675,1,0,0:0:0:0:
151,259,105756,1,0,0:0:0:0:
151,259,105837,1,8,0:0:0:0:
151,259,105918,1,8,0:0:0:0:
151,259,105999,1,0,0:0:0:0:
151,259,106080,1,8,0:0:0:0:
151,259,106161,1,8,0:0:0:0:
151,259,106242,1,0,0:0:0:0:
151,259,106323,1,0,0:0:0:0:
151,259,106405,1,8,0:0:0:0:
151,259,106486,1,0,0:0:0:0:
151,259,106567,1,8,0:0:0:0:
151,259,106648,1,8,0:0:0:0:
151,259,106729,1,0,0:0:0:0:
151,259,106810,1,0,0:0:0:0:
151,259,106891,1,8,0:0:0:0:
151,259,106972,1,0,0:0:0:0:
151,259,107053,1,8,0:0:0:0:
151,259,107134,1,8,0:0:0:0:
151,259,107215,1,0,0:0:0:0:
151,259,107296,1,8,0:0:0:0:
140,172,107378,1,0,0:0:0:0:
140,172,107459,1,8,0:0:0:0:
140,172,107540,1,0,0:0:0:0:
140,172,107594,1,0,0:0:0:0:
142,184,107648,1,0,0:0:0:0:
140,172,107702,1,8,0:0:0:0:
140,172,107783,1,8,0:0:0:0:
140,172,107864,1,0,0:0:0:0:
140,172,107945,1,8,0:0:0:0:
140,172,108026,1,8,0:0:0:0:
140,172,108107,1,0,0:0:0:0:
140,172,108188,1,8,0:0:0:0:
140,172,108269,1,8,0:0:0:0:
151,259,108351,1,0,0:0:0:0:
151,259,108432,1,8,0:0:0:0:
151,259,108513,1,8,0:0:0:0:
151,259,108594,1,0,0:0:0:0:
144,136,108999,1,0,0:0:0:0:
151,259,109080,1,8,0:0:0:0:
151,259,109161,1,8,0:0:0:0:
151,259,109242,1,0,0:0:0:0:
151,259,109323,1,8,0:0:0:0:
151,259,109405,1,8,0:0:0:0:
151,259,109486,1,0,0:0:0:0:
151,259,109567,1,8,0:0:0:0:
151,259,109648,1,8,0:0:0:0:
151,259,109729,1,0,0:0:0:0:
151,259,109810,1,8,0:0:0:0:
151,259,109891,1,8,0:0:0:0:
151,259,109972,1,0,0:0:0:0:
151,259,110053,1,8,0:0:0:0:
151,259,110134,1,0,0:0:0:0:
151,259,110215,1,0,0:0:0:0:
151,259,110296,1,8,0:0:0:0:
151,259,110378,1,8,0:0:0:0:
151,259,110459,1,0,0:0:0:0:
151,259,110540,1,8,0:0:0:0:
151,259,110621,1,0,0:0:0:0:
151,259,110702,1,0,0:0:0:0:
151,259,110783,1,8,0:0:0:0:
151,259,110864,1,8,0:0:0:0:
151,259,110945,1,0,0:0:0:0:
151,259,111026,1,8,0:0:0:0:
151,259,111107,1,0,0:0:0:0:
151,259,111188,1,0,0:0:0:0:
151,259,111269,1,8,0:0:0:0:
151,259,111351,1,8,0:0:0:0:
151,259,111432,1,0,0:0:0:0:
151,259,111513,1,8,0:0:0:0:
151,259,111594,1,0,0:0:0:0:
151,259,111675,1,0,0:0:0:0:
151,259,111756,1,8,0:0:0:0:
151,259,111837,1,0,0:0:0:0:
151,259,111918,1,8,0:0:0:0:
151,259,111999,1,8,0:0:0:0:
151,259,112080,1,0,0:0:0:0:
151,259,112161,1,0,0:0:0:0:
151,259,112242,1,8,0:0:0:0:
151,259,112323,1,0,0:0:0:0:
151,259,112405,1,8,0:0:0:0:
151,259,112486,1,8,0:0:0:0:
151,259,112567,1,0,0:0:0:0:
151,259,112648,1,8,0:0:0:0:
151,259,112729,1,0,0:0:0:0:
151,259,112810,1,0,0:0:0:0:
151,259,112891,1,8,0:0:0:0:
151,259,112972,1,0,0:0:0:0:
151,259,113053,1,0,0:0:0:0:
151,259,113134,1,8,0:0:0:0:
151,259,113215,1,0,0:0:0:0:
151,259,113296,1,0,0:0:0:0:
151,259,113378,1,8,0:0:0:0:
151,259,113459,1,8,0:0:0:0:
151,259,113540,1,0,0:0:0:0:
151,259,113621,1,8,0:0:0:0:
151,259,113702,1,8,0:0:0:0:
151,259,113783,1,0,0:0:0:0:
151,259,113864,1,0,0:0:0:0:
151,259,113945,1,8,0:0:0:0:
151,259,114026,1,8,0:0:0:0:
151,259,114107,1,8,0:0:0:0:
151,259,114188,1,0,0:0:0:0:
151,259,114269,1,8,0:0:0:0:
151,259,114351,1,8,0:0:0:0:
151,259,114432,1,0,0:0:0:0:
151,259,114513,1,8,0:0:0:0:
151,259,114594,1,8,0:0:0:0:
151,259,114675,1,0,0:0:0:0:
151,259,114756,1,8,0:0:0:0:
151,259,114837,1,0,0:0:0:0:
151,259,114918,1,0,0:0:0:0:
151,259,114999,1,8,0:0:0:0:
151,259,115080,1,0,0:0:0:0:
151,259,115161,1,8,0:0:0:0:
151,259,115242,1,8,0:0:0:0:
151,259,115323,1,0,0:0:0:0:
151,259,115405,1,0,0:0:0:0:
151,259,115486,1,8,0:0:0:0:
151,259,115567,1,0,0:0:0:0:
151,259,115648,1,0,0:0:0:0:
151,259,115729,1,8,0:0:0:0:
151,259,115810,1,8,0:0:0:0:
151,259,115891,1,0,0:0:0:0:
151,259,115972,1,8,0:0:0:0:
151,259,116053,1,0,0:0:0:0:
151,259,116134,1,0,0:0:0:0:
151,259,116215,1,8,0:0:0:0:
151,259,116296,1,8,0:0:0:0:
151,259,116378,1,0,0:0:0:0:
151,259,116459,1,8,0:0:0:0:
151,259,116540,1,8,0:0:0:0:
151,259,116621,1,0,0:0:0:0:
151,259,116702,1,8,0:0:0:0:
151,259,116783,1,0,0:0:0:0:
151,259,116864,1,0,0:0:0:0:
151,259,116945,1,8,0:0:0:0:
151,259,117026,1,0,0:0:0:0:
151,259,117107,1,8,0:0:0:0:
151,259,117188,1,8,0:0:0:0:
151,259,117269,1,0,0:0:0:0:
151,259,117351,1,0,0:0:0:0:
151,259,117432,1,8,0:0:0:0:
151,259,117513,1,0,0:0:0:0:
151,259,117594,1,8,0:0:0:0:
151,259,117675,1,8,0:0:0:0:
140,172,117756,1,0,0:0:0:0:
140,172,117837,1,8,0:0:0:0:
140,172,117918,1,0,0:0:0:0:
140,172,117999,1,0,0:0:0:0:
140,172,118080,1,8,0:0:0:0:
140,172,118161,1,0,0:0:0:0:
140,172,118242,1,0,0:0:0:0:
140,172,118323,1,8,0:0:0:0:
140,172,118405,1,0,0:0:0:0:
140,172,118486,1,0,0:0:0:0:
140,172,118567,1,8,0:0:0:0:
140,172,118648,1,0,0:0:0:0:
151,259,118729,1,8,0:0:0:0:
151,259,118810,1,8,0:0:0:0:
151,259,118891,1,8,0:0:0:0:
151,259,118972,1,8,0:0:0:0:
154,193,119378,1,0,0:0:0:0:
168,169,119540,1,0,0:0:0:0:
169,189,119621,1,0,0:0:0:0:
168,169,119702,1,8,0:0:0:0:
168,169,119864,1,0,0:0:0:0:
168,169,119945,1,8,0:0:0:0:
168,169,120026,1,0,0:0:0:0:
168,169,120107,1,8,0:0:0:0:
168,169,120188,1,0,0:0:0:0:
168,169,120351,1,8,0:0:0:0:
168,169,120675,1,0,0:0:0:0:
168,169,120837,1,8,0:0:0:0:
168,169,120999,1,0,0:0:0:0:
168,169,121080,1,8,0:0:0:0:
168,169,121161,1,0,0:0:0:0:
168,169,121323,1,8,0:0:0:0:
168,174,121405,1,0,0:0:0:0:
168,169,121486,1,8,0:0:0:0:
137,157,121567,1,8,0:0:0:0:
168,169,121648,1,0,0:0:0:0:
168,169,121810,1,8,0:0:0:0:
168,169,121972,1,0,0:0:0:0:
164,174,122134,1,0,0:0:0:0:
168,169,122215,1,0,0:0:0:0:
168,169,122296,1,8,0:0:0:0:
162,159,122459,1,8,0:0:0:0:
168,169,122540,1,8,0:0:0:0:
168,169,122621,1,0,0:0:0:0:
168,169,122702,1,8,0:0:0:0:
168,169,122783,1,0,0:0:0:0:
168,169,122945,1,8,0:0:0:0:
168,169,123269,1,0,0:0:0:0:
168,169,123432,1,8,0:0:0:0:
168,169,123513,1,0,0:0:0:0:
168,169,123594,1,0,0:0:0:0:
168,169,123675,1,8,0:0:0:0:
168,169,123756,1,0,0:0:0:0:
168,169,123918,1,8,0:0:0:0:
164,172,123999,1,0,0:0:0:0:
168,169,124080,1,8,0:0:0:0:
168,169,124161,1,8,0:0:0:0:
168,169,124242,1,0,0:0:0:0:
180,180,124405,1,0,0:0:0:0:
173,164,124486,1,0,0:0:0:0:
154,193,124567,1,0,0:0:0:0:
168,169,124729,1,0,0:0:0:0:
168,169,124891,1,8,0:0:0:0:
168,169,125053,1,0,0:0:0:0:
168,169,125134,1,8,0:0:0:0:
168,169,125215,1,0,0:0:0:0:
168,169,125296,1,8,0:0:0:0:
168,169,125378,1,0,0:0:0:0:
180,169,125459,1,0,0:0:0:0:
168,169,125540,1,8,0:0:0:0:
168,169,125702,1,0,0:0:0:0:
161,147,125756,1,0,0:0:0:0:
162,147,125810,1,0,0:0:0:0:
168,169,125864,1,0,0:0:0:0:
168,169,126026,1,8,0:0:0:0:
175,169,126107,1,0,0:0:0:0:
168,169,126188,1,0,0:0:0:0:
168,169,126269,1,8,0:0:0:0:
168,169,126351,1,0,0:0:0:0:
168,169,126513,1,8,0:0:0:0:
168,169,126594,1,0,0:0:0:0:
168,169,126675,1,8,0:0:0:0:
137,157,126756,1,8,0:0:0:0:
168,169,126837,1,0,0:0:0:0:
168,169,126999,1,8,0:0:0:0:
168,169,127080,1,0,0:0:0:0:
168,169,127161,1,0,0:0:0:0:
164,174,127323,1,0,0:0:0:0:
172,170,127405,1,0,0:0:0:0:
168,169,127486,1,8,0:0:0:0:
162,159,127648,1,8,0:0:0:0:
168,169,127729,1,8,0:0:0:0:
168,169,127810,1,0,0:0:0:0:
168,169,127891,1,8,0:0:0:0:
168,169,127972,1,0,0:0:0:0:
168,169,128053,1,0,0:0:0:0:
168,169,128134,1,8,0:0:0:0:
168,169,128296,1,0,0:0:0:0:
182,162,128351,1,0,0:0:0:0:
181,160,128405,1,0,0:0:0:0:
168,169,128459,1,0,0:0:0:0:
168,169,128621,1,8,0:0:0:0:
168,169,128783,1,0,0:0:0:0:
168,169,128864,1,8,0:0:0:0:
168,169,128945,1,0,0:0:0:0:
212,164,129026,1,0,0:0:0:0:
168,169,129107,1,8,0:0:0:0:
164,172,129188,1,0,0:0:0:0:
168,169,129269,1,8,0:0:0:0:
168,169,129351,1,8,0:0:0:0:
154,193,129756,1,0,0:0:0:0:
168,169,129918,1,0,0:0:0:0:
169,189,129999,1,0,0:0:0:0:
168,169,130080,1,8,0:0:0:0:
168,169,130242,1,0,0:0:0:0:
168,169,130323,1,8,0:0:0:0:
168,169,130405,1,0,0:0:0:0:
168,169,130486,1,8,0:0:0:0:
168,169,130567,1,0,0:0:0:0:
160,163,130648,1,8,0:0:0:0:
168,169,130729,1,8,0:0:0:0:
202,175,130891,1,0,0:0:0:0:
184,169,130945,1,0,0:0:0:0:
184,167,130999,1,0,0:0:0:0:
168,169,131053,1,0,0:0:0:0:
168,169,131215,1,8,0:0:0:0:
186,171,131296,1,0,0:0:0:0:
168,169,131378,1,0,0:0:0:0:
168,169,131459,1,8,0:0:0:0:
168,169,131540,1,0,0:0:0:0:
168,169,131702,1,8,0:0:0:0:
168,174,131783,1,0,0:0:0:0:
168,169,131864,1,8,0:0:0:0:
137,157,131945,1,8,0:0:0:0:
168,169,132026,1,8,0:0:0:0:
140,148,132107,1,0,0:0:0:0:
168,169,132188,1,8,0:0:0:0:
140,149,132269,1,8,0:0:0:0:
168,169,132351,1,0,0:0:0:0:
164,174,132513,1,0,0:0:0:0:
168,169,132594,1,0,0:0:0:0:
168,169,132675,1,8,0:0:0:0:
162,159,132837,1,8,0:0:0:0:
168,169,132918,1,8,0:0:0:0:
168,169,132999,1,0,0:0:0:0:
168,169,133080,1,8,0:0:0:0:
168,169,133161,1,0,0:0:0:0:
140,149,133242,1,0,0:0:0:0:
168,169,133323,1,8,0:0:0:0:
184,161,133486,1,0,0:0:0:0:
196,160,133540,1,0,0:0:0:0:
189,158,133594,1,0,0:0:0:0:
168,169,133648,1,0,0:0:0:0:
168,169,133810,1,8,0:0:0:0:
168,169,133891,1,0,0:0:0:0:
168,169,133972,1,0,0:0:0:0:
168,169,134053,1,8,0:0:0:0:
168,169,134134,1,0,0:0:0:0:
168,169,134296,1,8,0:0:0:0:
164,172,134378,1,0,0:0:0:0:
168,169,134459,1,8,0:0:0:0:
168,169,134540,1,8,0:0:0:0:
168,169,134621,1,0,0:0:0:0:
167,143,134702,1,8,0:0:0:0:
152,177,134783,1,8,0:0:0:0:
173,164,134864,1,8,0:0:0:0:
154,193,134945,1,0,0:0:0:0:
168,169,135107,1,0,0:0:0:0:
175,178,135188,1,0,0:0:0:0:
168,169,135269,1,8,0:0:0:0:
168,169,135432,1,8,0:0:0:0:
168,169,135513,1,8,0:0:0:0:
168,169,135594,1,0,0:0:0:0:
168,169,135675,1,8,0:0:0:0:
168,169,135756,1,0,0:0:0:0:
180,169,135837,1,0,0:0:0:0:
168,169,135918,1,8,0:0:0:0:
168,169,136080,1,0,0:0:0:0:
161,147,136134,1,0,0:0:0:0:
162,147,136188,1,0,0:0:0:0:
168,169,136242,1,0,0:0:0:0:
168,169,136405,1,8,0:0:0:0:
175,169,136486,1,8,0:0:0:0:
168,169,136567,1,0,0:0:0:0:
168,169,136648,1,8,0:0:0:0:
168,169,136729,1,0,0:0:0:0:
168,169,136891,1,8,0:0:0:0:
168,169,136972,1,0,0:0:0:0:
168,169,137053,1,8,0:0:0:0:
137,157,137134,1,8,0:0:0:0:
168,169,137215,1,0,0:0:0:0:
171,176,137296,1,0,0:0:0:0:
168,169,137378,1,8,0:0:0:0:
168,169,137459,1,8,0:0:0:0:
168,169,137540,1,0,0:0:0:0:
164,174,137702,1,0,0:0:0:0:
172,170,137783,1,0,0:0:0:0:
168,169,137864,1,8,0:0:0:0:
162,159,138026,1,8,0:0:0:0:
168,169,138107,1,8,0:0:0:0:
168,169,138188,1,0,0:0:0:0:
168,169,138269,1,8,0:0:0:0:
168,169,138351,1,0,0:0:0:0:
168,169,138432,1,0,0:0:0:0:
168,169,138513,1,8,0:0:0:0:
168,169,138675,1,0,0:0:0:0:
182,162,138729,1,0,0:0:0:0:
181,160,138783,1,0,0:0:0:0:
168,169,138837,1,0,0:0:0:0:
168,169,138999,1,8,0:0:0:0:
168,143,139080,1,0,0:0:0:0:
168,169,139161,1,0,0:0:0:0:
168,169,139242,1,8,0:0:0:0:
168,169,139323,1,0,0:0:0:0:
212,164,139405,1,0,0:0:0:0:
168,169,139486,1,8,0:0:0:0:
164,172,139567,1,8,0:0:0:0:
168,169,139648,1,0,0:0:0:0:
168,143,139729,1,8,0:0:0:0:
220,143,139810,1,0,0:0:0:0:
168,143,139891,1,0,0:0:0:0:
168,143,139972,1,8,0:0:0:0:
202,135,140053,1,8,0:0:0:0:
202,143,140134,1,4,0:0:0:0:
195,158,140296,1,0,0:0:0:0:
197,159,140459,1,8,0:0:0:0:
208,160,140621,1,4,0:0:0:0:
197,159,140783,1,8,0:0:0:0:
197,159,140945,1,8,0:0:0:0:
207,160,141107,1,4,0:0:0:0:
218,165,141432,1,0,0:0:0:0:
216,164,141594,1,8,0:0:0:0:
219,154,141648,1,8,0:0:0:0:
216,164,141702,1,8,0:0:0:0:
197,159,141756,1,0,0:0:0:0:
197,159,141837,1,0,0:0:0:0:
201,159,141918,1,8,0:0:0:0:
207,160,141999,1,0,0:0:0:0:
207,160,142080,1,8,0:0:0:0:
203,159,142161,1,0,0:0:0:0:
211,159,142242,1,8,0:0:0:0:
214,159,142323,1,8,0:0:0:0:
215,159,142405,1,0,0:0:0:0:
213,176,142513,1,0,0:0:0:0:
211,159,142621,1,8,0:0:0:0:
223,156,142729,1,4,0:0:0:0:
205,169,142891,1,8,0:0:0:0:
205,169,143053,1,8,0:0:0:0:
207,159,143215,1,4,0:0:0:0:
124,156,143378,1,0,0:0:0:0:
128,157,143540,1,8,0:0:0:0:
207,159,143702,1,4,0:0:0:0:
173,163,144026,1,8,0:0:0:0:
186,156,144188,1,0,0:0:0:0:
127,162,144242,1,0,0:0:0:0:
155,158,144296,1,0,0:0:0:0:
170,154,144351,1,0,0:0:0:0:
193,154,144459,1,0,0:0:0:0:
193,153,144567,1,0,0:0:0:0:
192,153,144675,1,8,0:0:0:0:
185,152,144756,1,8,0:0:0:0:
185,152,144837,1,0,0:0:0:0:
210,152,144918,1,0,0:0:0:0:
212,151,144999,1,8,0:0:0:0:
212,150,145080,1,0,0:0:0:0:
213,150,145161,1,8,0:0:0:0:
220,148,145242,1,8,0:0:0:0:
206,158,145323,1,4,0:0:0:0:
160,153,145486,1,0,0:0:0:0:
216,151,145648,1,8,0:0:0:0:
206,158,145810,1,4,0:0:0:0:
212,151,145972,1,8,0:0:0:0:
213,150,146134,1,8,0:0:0:0:
206,158,146296,1,4,0:0:0:0:
216,151,146621,1,0,0:0:0:0:
216,150,146783,1,8,0:0:0:0:
210,151,146837,1,8,0:0:0:0:
212,151,146891,1,8,0:0:0:0:
212,151,146945,1,0,0:0:0:0:
253,142,147026,1,0,0:0:0:0:
213,150,147107,1,8,0:0:0:0:
226,144,147188,1,0,0:0:0:0:
226,142,147269,1,8,0:0:0:0:
227,141,147351,1,0,0:0:0:0:
242,136,147432,1,8,0:0:0:0:
243,136,147513,1,8,0:0:0:0:
251,135,147594,1,0,0:0:0:0:
246,130,147702,1,0,0:0:0:0:
246,130,147810,1,8,0:0:0:0:
203,157,147918,1,4,0:0:0:0:
248,148,148080,1,8,0:0:0:0:
246,145,148242,1,8,0:0:0:0:
205,163,148405,1,4,0:0:0:0:
236,140,148567,1,8,0:0:0:0:
232,140,148729,1,8,0:0:0:0:
193,157,148891,1,4,0:0:0:0:
235,138,149053,1,8,0:0:0:0:
235,138,149215,1,8,0:0:0:0:
295,74,149378,1,0,0:0:0:0:
236,140,149432,1,8,0:0:0:0:
236,140,149486,1,8,0:0:0:0:
236,140,149540,1,0,0:0:0:0:
249,129,149648,1,0,0:0:0:0:
251,128,149756,1,0,0:0:0:0:
249,129,149864,1,8,0:0:0:0:
282,165,149945,1,8,0:0:0:0:
282,165,150026,1,8,0:0:0:0:
282,165,150107,1,8,0:0:0:0:
286,156,150188,1,8,0:0:0:0:
288,155,150269,1,8,0:0:0:0:
293,153,150351,1,8,0:0:0:0:
311,147,150432,1,8,0:0:0:0:
330,144,150513,1,4,0:0:0:0:
288,146,150675,1,0,0:0:0:0:
285,147,150837,1,0,0:0:0:0:
255,134,150999,1,12,0:0:0:0:
285,147,151161,1,0,0:0:0:0:
282,146,151323,1,0,0:0:0:0:
255,134,151486,1,12,0:0:0:0:
285,147,151810,1,0,0:0:0:0:
285,147,151972,1,8,0:0:0:0:
249,164,152026,1,8,0:0:0:0:
285,147,152080,1,8,0:0:0:0:
287,141,152134,1,0,0:0:0:0:
286,141,152215,1,0,0:0:0:0:
286,141,152296,1,8,0:0:0:0:
292,138,152378,1,0,0:0:0:0:
302,142,152459,1,8,0:0:0:0:
295,137,152540,1,0,0:0:0:0:
296,138,152621,1,8,0:0:0:0:
297,138,152702,1,8,0:0:0:0:
310,144,152783,1,0,0:0:0:0:
268,138,152891,1,8,0:0:0:0:
269,135,152999,1,8,0:0:0:0:
255,134,153107,1,4,0:0:0:0:
303,137,153269,1,8,0:0:0:0:
292,146,153432,1,8,0:0:0:0:
255,134,153594,1,4,0:0:0:0:
289,142,153756,1,0,0:0:0:0:
284,140,153918,1,8,0:0:0:0:
255,134,154080,1,4,0:0:0:0:
262,145,154405,1,8,0:0:0:0:
255,134,154567,1,0,0:0:0:0:
255,134,154621,1,8,0:0:0:0:
255,134,154675,1,8,0:0:0:0:
255,134,154729,1,0,0:0:0:0:
255,134,154837,1,0,0:0:0:0:
255,134,154945,1,0,0:0:0:0:
264,130,155053,1,8,0:0:0:0:
264,128,155134,1,8,0:0:0:0:
319,113,155215,1,0,0:0:0:0:
286,124,155296,1,0,0:0:0:0:
319,113,155378,1,8,0:0:0:0:
327,108,155459,1,0,0:0:0:0:
298,120,155540,1,8,0:0:0:0:
298,120,155621,1,8,0:0:0:0:
255,132,155702,1,4,0:0:0:0:
246,138,155864,1,0,0:0:0:0:
243,135,156026,1,0,0:0:0:0:
255,132,156188,1,12,0:0:0:0:
216,141,156351,1,0,0:0:0:0:
226,133,156513,1,0,0:0:0:0:
255,132,156675,1,12,0:0:0:0:
198,120,156999,1,0,0:0:0:0:
198,120,157161,1,8,0:0:0:0:
140,149,157215,1,8,0:0:0:0:
198,120,157269,1,8,0:0:0:0:
198,120,157323,1,0,0:0:0:0:
219,118,157405,1,0,0:0:0:0:
237,143,157486,1,8,0:0:0:0:
219,118,157567,1,0,0:0:0:0:
220,118,157648,1,8,0:0:0:0:
220,118,157729,1,0,0:0:0:0:
231,118,157810,1,8,0:0:0:0:
234,118,157891,1,8,0:0:0:0:
243,123,157972,1,0,0:0:0:0:
229,119,158080,1,8,0:0:0:0:
228,119,158188,1,8,0:0:0:0:
255,132,158296,1,4,0:0:0:0:
220,131,158459,1,8,0:0:0:0:
220,131,158621,1,0,0:0:0:0:
255,132,158783,1,12,0:0:0:0:
220,131,158945,1,8,0:0:0:0:
220,131,159107,1,0,0:0:0:0:
255,132,159269,1,8,0:0:0:0:
236,126,159351,1,8,0:0:0:0:
236,127,159432,1,8,0:0:0:0:
236,128,159513,1,8,0:0:0:0:
255,132,159594,1,4,0:0:0:0:
174,161,160729,1,0,0:0:0:0:
168,169,160891,1,12,0:0:0:0:
127,183,161053,1,0,0:0:0:0:
158,172,161134,1,0,0:0:0:0:
127,183,161215,1,8,0:0:0:0:
127,183,161378,1,8,0:0:0:0:
127,183,161459,1,8,0:0:0:0:
127,183,161540,1,0,0:0:0:0:
127,183,161621,1,8,0:0:0:0:
127,183,161702,1,0,0:0:0:0:
127,183,161783,1,0,0:0:0:0:
127,183,161864,1,8,0:0:0:0:
127,183,162026,1,8,0:0:0:0:
136,187,162080,1,8,0:0:0:0:
136,186,162134,1,8,0:0:0:0:
127,183,162188,1,0,0:0:0:0:
127,183,162351,1,8,0:0:0:0:
147,173,162432,1,8,0:0:0:0:
127,183,162513,1,0,0:0:0:0:
127,183,162594,1,8,0:0:0:0:
127,183,162675,1,0,0:0:0:0:
127,183,162837,1,8,0:0:0:0:
127,183,162918,1,0,0:0:0:0:
127,183,162999,1,8,0:0:0:0:
127,183,163080,1,8,0:0:0:0:
127,183,163161,1,0,0:0:0:0:
80,167,163242,1,8,0:0:0:0:
127,183,163323,1,8,0:0:0:0:
127,174,163405,1,8,0:0:0:0:
127,183,163486,1,0,0:0:0:0:
127,183,163648,1,0,0:0:0:0:
162,208,163729,1,0,0:0:0:0:
127,183,163810,1,8,0:0:0:0:
127,183,163972,1,0,0:0:0:0:
127,183,164053,1,8,0:0:0:0:
127,183,164134,1,0,0:0:0:0:
127,183,164215,1,8,0:0:0:0:
127,183,164296,1,0,0:0:0:0:
127,183,164459,1,8,0:0:0:0:
131,185,164540,1,0,0:0:0:0:
127,183,164621,1,8,0:0:0:0:
127,183,164675,1,8,0:0:0:0:
127,183,164729,1,8,0:0:0:0:
127,183,164783,1,0,0:0:0:0:
127,183,164945,1,8,0:0:0:0:
127,183,165107,1,0,0:0:0:0:
127,183,165188,1,8,0:0:0:0:
127,183,165269,1,0,0:0:0:0:
127,183,165351,1,0,0:0:0:0:
127,183,165432,1,8,0:0:0:0:
127,183,165594,1,0,0:0:0:0:
127,183,165675,1,0,0:0:0:0:
127,183,165756,1,8,0:0:0:0:
131,185,165837,1,8,0:0:0:0:
127,183,165918,1,0,0:0:0:0:
127,183,166080,1,8,0:0:0:0:
127,183,166242,1,0,0:0:0:0:
141,184,166323,1,0,0:0:0:0:
127,183,166405,1,8,0:0:0:0:
127,183,166567,1,0,0:0:0:0:
127,183,166648,1,8,0:0:0:0:
127,183,166729,1,0,0:0:0:0:
127,183,166810,1,8,0:0:0:0:
127,183,166891,1,8,0:0:0:0:
127,183,166972,1,0,0:0:0:0:
127,183,167053,1,8,0:0:0:0:
127,183,167215,1,0,0:0:0:0:
136,187,167269,1,0,0:0:0:0:
136,186,167323,1,0,0:0:0:0:
127,183,167378,1,8,0:0:0:0:
127,183,167540,1,8,0:0:0:0:
127,183,167702,1,0,0:0:0:0:
127,183,167783,1,0,0:0:0:0:
127,183,167864,1,8,0:0:0:0:
127,183,167945,1,8,0:0:0:0:
127,183,168026,1,0,0:0:0:0:
127,183,168107,1,8,0:0:0:0:
127,183,168188,1,0,0:0:0:0:
127,183,168269,1,0,0:0:0:0:
127,183,168351,1,8,0:0:0:0:
127,183,168513,1,8,0:0:0:0:
127,174,168594,1,8,0:0:0:0:
127,183,168675,1,0,0:0:0:0:
127,183,168837,1,0,0:0:0:0:
127,183,168918,1,8,0:0:0:0:
127,183,168999,1,8,0:0:0:0:
127,183,169161,1,0,0:0:0:0:
127,183,169242,1,8,0:0:0:0:
127,183,169323,1,0,0:0:0:0:
127,183,169405,1,8,0:0:0:0:
127,183,169486,1,0,0:0:0:0:
124,184,169567,1,0,0:0:0:0:
127,183,169648,1,8,0:0:0:0:
127,183,169810,1,0,0:0:0:0:
127,183,169864,1,0,0:0:0:0:
127,183,169918,1,0,0:0:0:0:
127,183,169972,1,8,0:0:0:0:
106,187,170053,1,8,0:0:0:0:
127,183,170134,1,0,0:0:0:0:
122,172,170215,1,8,0:0:0:0:
127,183,170296,1,0,0:0:0:0:
133,194,170378,1,8,0:0:0:0:
127,183,170459,1,8,0:0:0:0:
127,183,170540,1,8,0:0:0:0:
127,183,170621,1,0,0:0:0:0:
122,172,170702,1,8,0:0:0:0:
127,183,170783,1,0,0:0:0:0:
127,183,170864,1,0,0:0:0:0:
89,172,170945,1,8,0:0:0:0:
101,180,171026,1,8,0:0:0:0:
101,180,171107,1,0,0:0:0:0:
101,180,171188,1,0,0:0:0:0:
168,169,171269,1,12,0:0:0:0:
142,179,171432,1,0,0:0:0:0:
158,172,171513,1,0,0:0:0:0:
127,183,171594,1,8,0:0:0:0:
127,183,171756,1,8,0:0:0:0:
127,183,171837,1,8,0:0:0:0:
127,183,171918,1,0,0:0:0:0:
127,183,171999,1,8,0:0:0:0:
127,183,172080,1,0,0:0:0:0:
127,183,172161,1,0,0:0:0:0:
127,183,172242,1,8,0:0:0:0:
162,172,172323,1,0,0:0:0:0:
127,183,172405,1,8,0:0:0:0:
136,187,172459,1,8,0:0:0:0:
136,186,172513,1,8,0:0:0:0:
127,183,172567,1,0,0:0:0:0:
127,183,172729,1,8,0:0:0:0:
147,173,172810,1,8,0:0:0:0:
127,183,172891,1,0,0:0:0:0:
127,183,172972,1,8,0:0:0:0:
127,183,173053,1,0,0:0:0:0:
127,183,173215,1,8,0:0:0:0:
127,183,173296,1,8,0:0:0:0:
127,183,173378,1,0,0:0:0:0:
127,183,173459,1,8,0:0:0:0:
127,183,173540,1,0,0:0:0:0:
80,167,173621,1,0,0:0:0:0:
127,183,173702,1,8,0:0:0:0:
127,174,173783,1,8,0:0:0:0:
127,183,173864,1,0,0:0:0:0:
127,183,174026,1,0,0:0:0:0:
162,208,174107,1,0,0:0:0:0:
127,183,174188,1,8,0:0:0:0:
127,183,174351,1,0,0:0:0:0:
127,183,174432,1,8,0:0:0:0:
127,183,174513,1,0,0:0:0:0:
127,183,174594,1,8,0:0:0:0:
127,183,174675,1,0,0:0:0:0:
131,185,174756,1,0,0:0:0:0:
127,183,174837,1,8,0:0:0:0:
127,183,174999,1,8,0:0:0:0:
127,183,175053,1,8,0:0:0:0:
127,183,175107,1,8,0:0:0:0:
127,183,175161,1,0,0:0:0:0:
127,183,175323,1,8,0:0:0:0:
127,183,175405,1,8,0:0:0:0:
127,183,175486,1,0,0:0:0:0:
127,183,175567,1,0,0:0:0:0:
127,183,175648,1,8,0:0:0:0:
127,183,175810,1,8,0:0:0:0:
108,177,175891,1,0,0:0:0:0:
127,183,175972,1,0,0:0:0:0:
127,183,176053,1,0,0:0:0:0:
127,183,176134,1,8,0:0:0:0:
131,185,176215,1,8,0:0:0:0:
127,183,176296,1,0,0:0:0:0:
127,183,176459,1,8,0:0:0:0:
127,183,176621,1,0,0:0:0:0:
141,184,176702,1,0,0:0:0:0:
127,183,176783,1,8,0:0:0:0:
127,183,176945,1,0,0:0:0:0:
127,183,177026,1,8,0:0:0:0:
127,183,177107,1,0,0:0:0:0:
127,183,177188,1,8,0:0:0:0:
127,183,177269,1,0,0:0:0:0:
127,183,177351,1,0,0:0:0:0:
127,183,177432,1,8,0:0:0:0:
139,177,177513,1,8,0:0:0:0:
127,183,177594,1,0,0:0:0:0:
136,187,177648,1,0,0:0:0:0:
136,186,177702,1,0,0:0:0:0:
127,183,177756,1,8,0:0:0:0:
127,183,177918,1,8,0:0:0:0:
141,190,177999,1,8,0:0:0:0:
127,183,178080,1,0,0:0:0:0:
127,183,178161,1,0,0:0:0:0:
127,183,178242,1,8,0:0:0:0:
127,183,178323,1,0,0:0:0:0:
127,183,178405,1,8,0:0:0:0:
127,183,178486,1,8,0:0:0:0:
127,183,178567,1,0,0:0:0:0:
127,183,178648,1,0,0:0:0:0:
127,183,178729,1,8,0:0:0:0:
127,183,178891,1,8,0:0:0:0:
127,174,178972,1,8,0:0:0:0:
127,183,179053,1,0,0:0:0:0:
127,183,179215,1,8,0:0:0:0:
127,183,179296,1,0,0:0:0:0:
127,183,179378,1,8,0:0:0:0:
127,183,179540,1,0,0:0:0:0:
127,183,179621,1,8,0:0:0:0:
127,183,179702,1,0,0:0:0:0:
127,183,179783,1,8,0:0:0:0:
127,183,179864,1,0,0:0:0:0:
124,184,179945,1,0,0:0:0:0:
127,183,180026,1,8,0:0:0:0:
127,183,180107,1,8,0:0:0:0:
127,183,180188,1,0,0:0:0:0:
136,174,180269,1,8,0:0:0:0:
127,183,180351,1,0,0:0:0:0:
106,187,180432,1,0,0:0:0:0:
127,183,180513,1,0,0:0:0:0:
122,172,180594,1,0,0:0:0:0:
127,183,180675,1,8,0:0:0:0:
133,194,180756,1,0,0:0:0:0:
127,183,180837,1,8,0:0:0:0:
127,183,180918,1,8,0:0:0:0:
217,136,181648,1,8,0:0:0:0:
225,135,181729,1,8,0:0:0:0:
225,135,181810,1,0,0:0:0:0:
225,135,181891,1,8,0:0:0:0:
225,135,181972,1,0,0:0:0:0:
225,135,182053,1,0,0:0:0:0:
225,135,182134,1,8,0:0:0:0:
225,135,182215,1,8,0:0:0:0:
225,135,182296,1,0,0:0:0:0:
225,135,182378,1,8,0:0:0:0:
225,135,182459,1,0,0:0:0:0:
225,135,182540,1,0,0:0:0:0:
225,135,182621,1,8,0:0:0:0:
225,135,182702,1,8,0:0:0:0:
225,135,182783,1,0,0:0:0:0:
225,135,182864,1,0,0:0:0:0:
225,135,182945,1,8,0:0:0:0:
225,135,183026,1,0,0:0:0:0:
225,135,183107,1,8,0:0:0:0:
225,135,183161,1,8,0:0:0:0:
247,137,183215,1,8,0:0:0:0:
225,135,183269,1,0,0:0:0:0:
225,135,183351,1,0,0:0:0:0:
225,135,183432,1,8,0:0:0:0:
225,135,183513,1,8,0:0:0:0:
225,135,183594,1,0,0:0:0:0:
225,135,183675,1,8,0:0:0:0:
225,135,183756,1,0,0:0:0:0:
225,135,183837,1,0,0:0:0:0:
225,135,183918,1,0,0:0:0:0:
225,135,183999,1,8,0:0:0:0:
225,135,184080,1,8,0:0:0:0:
225,135,184161,1,8,0:0:0:0:
225,135,184242,1,0,0:0:0:0:
225,135,184323,1,0,0:0:0:0:
225,135,184405,1,8,0:0:0:0:
225,135,184486,1,0,0:0:0:0:
225,135,184567,1,8,0:0:0:0:
225,135,184648,1,8,0:0:0:0:
225,135,184729,1,0,0:0:0:0:
225,135,184810,1,0,0:0:0:0:
225,135,184891,1,8,0:0:0:0:
225,135,184972,1,0,0:0:0:0:
225,135,185053,1,8,0:0:0:0:
225,135,185134,1,8,0:0:0:0:
225,135,185215,1,0,0:0:0:0:
225,135,185296,1,8,0:0:0:0:
225,135,185378,1,8,0:0:0:0:
225,135,185459,1,8,0:0:0:0:
225,135,185540,1,0,0:0:0:0:
225,135,185621,1,0,0:0:0:0:
225,135,185702,1,8,0:0:0:0:
225,135,185783,1,8,0:0:0:0:
225,135,185864,1,0,0:0:0:0:
225,135,185945,1,8,0:0:0:0:
225,135,186026,1,0,0:0:0:0:
225,135,186107,1,8,0:0:0:0:
181,131,186188,1,0,0:0:0:0:
225,135,186351,1,0,0:0:0:0:
225,135,186432,1,8,0:0:0:0:
225,135,186513,1,0,0:0:0:0:
225,135,186675,1,8,0:0:0:0:
225,135,186756,1,0,0:0:0:0:
225,135,186837,1,8,0:0:0:0:
219,157,186918,1,8,0:0:0:0:
219,157,186999,1,0,0:0:0:0:
219,157,187080,1,0,0:0:0:0:
219,157,187161,1,8,0:0:0:0:
219,157,187242,1,8,0:0:0:0:
219,157,187323,1,0,0:0:0:0:
219,157,187405,1,0,0:0:0:0:
219,157,187486,1,8,0:0:0:0:
219,157,187567,1,8,0:0:0:0:
219,157,187648,1,0,0:0:0:0:
219,157,187729,1,0,0:0:0:0:
219,157,187810,1,8,0:0:0:0:
219,157,187891,1,8,0:0:0:0:
219,157,187972,1,0,0:0:0:0:
219,157,188053,1,0,0:0:0:0:
219,157,188134,1,8,0:0:0:0:
219,157,188215,1,8,0:0:0:0:
219,157,188296,1,0,0:0:0:0:
219,157,188378,1,0,0:0:0:0:
219,157,188459,1,8,0:0:0:0:
219,157,188540,1,8,0:0:0:0:
219,157,188621,1,0,0:0:0:0:
219,157,188702,1,0,0:0:0:0:
219,157,188783,1,8,0:0:0:0:
219,157,188864,1,8,0:0:0:0:
219,157,188945,1,0,0:0:0:0:
219,157,189026,1,0,0:0:0:0:
219,157,189107,1,8,0:0:0:0:
219,157,189188,1,8,0:0:0:0:
219,157,189269,1,0,0:0:0:0:
219,157,189351,1,0,0:0:0:0:
141,142,189432,1,8,0:0:0:0:
144,133,189513,1,8,0:0:0:0:
141,142,189594,1,8,0:0:0:0:
141,142,189675,1,0,0:0:0:0:
141,142,189756,1,8,0:0:0:0:
144,133,189837,1,8,0:0:0:0:
141,142,189918,1,8,0:0:0:0:
141,142,189999,1,0,0:0:0:0:
141,142,190080,1,8,0:0:0:0:
144,133,190161,1,8,0:0:0:0:
141,142,190242,1,8,0:0:0:0:
141,142,190323,1,0,0:0:0:0:
141,142,190405,1,8,0:0:0:0:
144,133,190486,1,8,0:0:0:0:
141,142,190567,1,8,0:0:0:0:
141,142,190648,1,0,0:0:0:0:
141,142,190729,1,8,0:0:0:0:
144,133,190810,1,8,0:0:0:0:
141,142,190891,1,8,0:0:0:0:
141,142,190972,1,0,0:0:0:0:
141,142,191053,1,8,0:0:0:0:
144,133,191134,1,8,0:0:0:0:
141,142,191215,1,8,0:0:0:0:
141,142,191296,1,0,0:0:0:0:
141,142,191378,1,8,0:0:0:0:
144,133,191459,1,8,0:0:0:0:
141,142,191540,1,8,0:0:0:0:
141,142,191621,1,0,0:0:0:0:
141,142,191702,1,8,0:0:0:0:
144,133,191783,1,8,0:0:0:0:
141,142,191864,1,8,0:0:0:0:
141,142,191945,1,0,0:0:0:0:
141,142,192026,1,8,0:0:0:0:
144,133,192107,1,8,0:0:0:0:
147,126,192188,1,8,0:0:0:0:
144,136,192269,1,0,0:0:0:0:
144,136,192351,1,8,0:0:0:0:
144,133,192432,1,0,0:0:0:0:
145,134,192513,1,0,0:0:0:0:
145,134,192594,1,0,0:0:0:0:
141,142,192675,1,8,0:0:0:0:
144,133,192756,1,8,0:0:0:0:
147,126,192837,1,8,0:0:0:0:
144,136,192918,1,0,0:0:0:0:
144,136,192999,1,8,0:0:0:0:
144,133,193080,1,0,0:0:0:0:
145,134,193161,1,0,0:0:0:0:
145,134,193242,1,0,0:0:0:0:
141,142,193323,1,8,0:0:0:0:
144,133,193405,1,8,0:0:0:0:
147,126,193486,1,8,0:0:0:0:
144,136,193567,1,0,0:0:0:0:
144,136,193648,1,8,0:0:0:0:
144,133,193729,1,0,0:0:0:0:
145,134,193810,1,0,0:0:0:0:
145,134,193891,1,0,0:0:0:0:
141,142,193972,1,8,0:0:0:0:
144,133,194053,1,8,0:0:0:0:
147,126,194134,1,8,0:0:0:0:
144,136,194215,1,0,0:0:0:0:
144,136,194296,1,8,0:0:0:0:
144,133,194378,1,0,0:0:0:0:
145,134,194459,1,0,0:0:0:0:
145,134,194540,1,0,0:0:0:0:
141,142,194621,1,8,0:0:0:0:
144,133,194702,1,8,0:0:0:0:
147,126,194783,1,8,0:0:0:0:
144,136,194864,1,0,0:0:0:0:
144,136,194945,1,8,0:0:0:0:
144,133,195026,1,0,0:0:0:0:
145,134,195107,1,0,0:0:0:0:
145,134,195188,1,0,0:0:0:0:
141,142,195269,1,8,0:0:0:0:
144,133,195351,1,8,0:0:0:0:
147,126,195432,1,8,0:0:0:0:
144,136,195513,1,0,0:0:0:0:
144,136,195594,1,8,0:0:0:0:
144,133,195675,1,0,0:0:0:0:
145,134,195756,1,0,0:0:0:0:
145,134,195837,1,0,0:0:0:0:
141,142,195918,1,8,0:0:0:0:
144,133,195999,1,8,0:0:0:0:
147,126,196080,1,8,0:0:0:0:
144,136,196161,1,0,0:0:0:0:
144,136,196242,1,8,0:0:0:0:
144,133,196323,1,0,0:0:0:0:
145,134,196405,1,0,0:0:0:0:
145,134,196486,1,0,0:0:0:0:
127,141,196567,1,0,0:0:0:0:
128,139,196891,1,0,0:0:0:0:
219,157,197215,1,8,0:0:0:0:
219,157,197296,1,8,0:0:0:0:
219,157,197378,1,0,0:0:0:0:
219,157,197459,1,0,0:0:0:0:
219,157,197540,1,8,0:0:0:0:
219,157,197621,1,8,0:0:0:0:
219,157,197702,1,0,0:0:0:0:
219,157,197783,1,0,0:0:0:0:
219,157,197864,1,8,0:0:0:0:
219,157,197945,1,8,0:0:0:0:
219,157,198026,1,0,0:0:0:0:
219,157,198107,1,0,0:0:0:0:
219,157,198188,1,8,0:0:0:0:
219,157,198269,1,8,0:0:0:0:
219,157,198351,1,0,0:0:0:0:
219,157,198432,1,0,0:0:0:0:
219,157,198513,1,8,0:0:0:0:
219,157,198594,1,8,0:0:0:0:
219,157,198675,1,0,0:0:0:0:
219,157,198756,1,0,0:0:0:0:
219,157,198837,1,8,0:0:0:0:
219,157,198918,1,8,0:0:0:0:
219,157,198999,1,0,0:0:0:0:
219,157,199080,1,0,0:0:0:0:
219,157,199161,1,8,0:0:0:0:
219,157,199242,1,8,0:0:0:0:
219,157,199323,1,0,0:0:0:0:
219,157,199405,1,0,0:0:0:0:
219,157,199486,1,8,0:0:0:0:
219,157,199567,1,8,0:0:0:0:
219,157,199648,1,0,0:0:0:0:
219,157,199729,1,0,0:0:0:0:
141,142,199810,1,8,0:0:0:0:
144,133,199891,1,8,0:0:0:0:
141,142,199972,1,8,0:0:0:0:
141,142,200053,1,0,0:0:0:0:
141,142,200134,1,8,0:0:0:0:
144,133,200215,1,8,0:0:0:0:
141,142,200296,1,8,0:0:0:0:
141,142,200378,1,0,0:0:0:0:
141,142,200459,1,8,0:0:0:0:
144,133,200540,1,8,0:0:0:0:
141,142,200621,1,8,0:0:0:0:
141,142,200702,1,0,0:0:0:0:
141,142,200783,1,8,0:0:0:0:
144,133,200864,1,8,0:0:0:0:
141,142,200945,1,8,0:0:0:0:
141,142,201026,1,0,0:0:0:0:
141,142,201107,1,8,0:0:0:0:
144,133,201188,1,8,0:0:0:0:
141,142,201269,1,8,0:0:0:0:
141,142,201351,1,0,0:0:0:0:
141,142,201432,1,8,0:0:0:0:
144,133,201513,1,8,0:0:0:0:
141,142,201594,1,8,0:0:0:0:
141,142,201675,1,0,0:0:0:0:
141,142,201756,1,8,0:0:0:0:
144,133,201837,1,8,0:0:0:0:
141,142,201918,1,8,0:0:0:0:
141,142,201999,1,0,0:0:0:0:
141,142,202080,1,8,0:0:0:0:
144,133,202161,1,8,0:0:0:0:
141,142,202242,1,8,0:0:0:0:
141,142,202323,1,0,0:0:0:0:
141,142,202405,1,8,0:0:0:0:
144,133,202486,1,8,0:0:0:0:
147,126,202567,1,8,0:0:0:0:
144,136,202648,1,8,0:0:0:0:
144,136,202729,1,0,0:0:0:0:
144,133,202810,1,0,0:0:0:0:
145,134,202891,1,8,0:0:0:0:
145,134,202972,1,0,0:0:0:0:
141,142,203053,1,8,0:0:0:0:
144,133,203134,1,8,0:0:0:0:
147,126,203215,1,8,0:0:0:0:
144,136,203296,1,8,0:0:0:0:
144,136,203378,1,0,0:0:0:0:
144,133,203459,1,0,0:0:0:0:
145,134,203540,1,8,0:0:0:0:
145,134,203621,1,0,0:0:0:0:
141,142,203702,1,8,0:0:0:0:
144,133,203783,1,8,0:0:0:0:
147,126,203864,1,8,0:0:0:0:
144,136,203945,1,8,0:0:0:0:
144,136,204026,1,0,0:0:0:0:
144,133,204107,1,0,0:0:0:0:
145,134,204188,1,8,0:0:0:0:
145,134,204269,1,0,0:0:0:0:
141,142,204351,1,8,0:0:0:0:
144,133,204432,1,8,0:0:0:0:
147,126,204513,1,8,0:0:0:0:
144,136,204594,1,8,0:0:0:0:
144,136,204675,1,0,0:0:0:0:
144,133,204756,1,0,0:0:0:0:
145,134,204837,1,8,0:0:0:0:
145,134,204918,1,0,0:0:0:0:
141,142,204999,1,8,0:0:0:0:
144,133,205080,1,8,0:0:0:0:
147,126,205161,1,8,0:0:0:0:
144,136,205242,1,8,0:0:0:0:
144,136,205323,1,0,0:0:0:0:
144,133,205405,1,0,0:0:0:0:
145,134,205486,1,8,0:0:0:0:
145,134,205567,1,0,0:0:0:0:
141,142,205648,1,8,0:0:0:0:
144,133,205729,1,8,0:0:0:0:
147,126,205810,1,8,0:0:0:0:
144,136,205891,1,8,0:0:0:0:
144,136,205972,1,0,0:0:0:0:
144,133,206053,1,0,0:0:0:0:
145,134,206134,1,8,0:0:0:0:
145,134,206215,1,0,0:0:0:0:
141,142,206296,1,8,0:0:0:0:
144,133,206378,1,8,0:0:0:0:
147,126,206459,1,8,0:0:0:0:
144,136,206540,1,8,0:0:0:0:
144,136,206621,1,0,0:0:0:0:
144,133,206702,1,0,0:0:0:0:
145,134,206783,1,8,0:0:0:0:
145,134,206864,1,0,0:0:0:0:
127,141,206945,1,0,0:0:0:0:
160,132,207026,1,8,0:0:0:0:
128,139,207107,1,8,0:0:0:0:
128,139,207188,1,8,0:0:0:0:
128,139,207269,1,0,0:0:0:0:
144,133,207351,1,8,0:0:0:0:
128,139,207432,1,0,0:0:0:0:
155,140,207486,1,0,0:0:0:0:
128,139,207540,1,0,0:0:0:0:
144,136,207594,1,8,0:0:0:0:
151,259,207675,1,8,0:0:0:0:
151,259,207756,1,0,0:0:0:0:
151,259,207837,1,8,0:0:0:0:
151,259,207918,1,8,0:0:0:0:
151,259,207999,1,0,0:0:0:0:
151,259,208080,1,8,0:0:0:0:
151,259,208161,1,8,0:0:0:0:
151,259,208242,1,0,0:0:0:0:
151,259,208323,1,8,0:0:0:0:
151,259,208405,1,8,0:0:0:0:
151,259,208486,1,0,0:0:0:0:
151,259,208567,1,8,0:0:0:0:
151,259,208648,1,8,0:0:0:0:
151,259,208729,1,0,0:0:0:0:
151,259,208783,1,0,0:0:0:0:
157,252,208837,1,0,0:0:0:0:
151,259,208891,1,8,0:0:0:0:
151,259,208972,1,8,0:0:0:0:
151,259,209053,1,0,0:0:0:0:
151,259,209134,1,8,0:0:0:0:
151,259,209215,1,0,0:0:0:0:
151,259,209296,1,0,0:0:0:0:
151,259,209378,1,8,0:0:0:0:
151,259,209459,1,8,0:0:0:0:
151,259,209540,1,0,0:0:0:0:
151,259,209621,1,8,0:0:0:0:
151,259,209702,1,0,0:0:0:0:
151,259,209783,1,0,0:0:0:0:
151,259,209864,1,8,0:0:0:0:
151,259,209945,1,8,0:0:0:0:
151,259,210026,1,0,0:0:0:0:
151,259,210107,1,0,0:0:0:0:
151,259,210188,1,8,0:0:0:0:
151,259,210269,1,0,0:0:0:0:
151,259,210351,1,0,0:0:0:0:
151,259,210432,1,8,0:0:0:0:
151,259,210513,1,0,0:0:0:0:
151,259,210594,1,0,0:0:0:0:
151,259,210675,1,8,0:0:0:0:
151,259,210756,1,8,0:0:0:0:
151,259,210837,1,0,0:0:0:0:
151,259,210918,1,8,0:0:0:0:
151,259,210999,1,8,0:0:0:0:
151,259,211080,1,0,0:0:0:0:
151,259,211161,1,8,0:0:0:0:
151,259,211242,1,8,0:0:0:0:
151,259,211323,1,0,0:0:0:0:
151,259,211378,1,0,0:0:0:0:
115,247,211432,1,0,0:0:0:0:
151,259,211486,1,8,0:0:0:0:
151,259,211567,1,0,0:0:0:0:
151,259,211648,1,8,0:0:0:0:
151,259,211729,1,8,0:0:0:0:
151,259,211810,1,0,0:0:0:0:
151,259,211891,1,0,0:0:0:0:
151,259,211972,1,8,0:0:0:0:
151,259,212053,1,0,0:0:0:0:
151,259,212134,1,8,0:0:0:0:
151,259,212215,1,8,0:0:0:0:
151,259,212296,1,0,0:0:0:0:
151,259,212378,1,0,0:0:0:0:
151,259,212459,1,8,0:0:0:0:
151,259,212540,1,8,0:0:0:0:
151,259,212621,1,8,0:0:0:0:
151,259,212702,1,0,0:0:0:0:
151,259,212783,1,8,0:0:0:0:
151,259,212864,1,8,0:0:0:0:
151,259,212945,1,0,0:0:0:0:
151,259,213026,1,8,0:0:0:0:
151,259,213107,1,0,0:0:0:0:
151,259,213188,1,0,0:0:0:0:
151,259,213269,1,8,0:0:0:0:
151,259,213351,1,8,0:0:0:0:
151,259,213432,1,0,0:0:0:0:
151,259,213513,1,8,0:0:0:0:
151,259,213594,1,0,0:0:0:0:
151,259,213675,1,0,0:0:0:0:
151,259,213756,1,8,0:0:0:0:
151,259,213837,1,8,0:0:0:0:
151,259,213918,1,0,0:0:0:0:
151,259,213972,1,0,0:0:0:0:
150,271,214026,1,0,0:0:0:0:
151,259,214080,1,8,0:0:0:0:
151,259,214161,1,0,0:0:0:0:
151,259,214242,1,0,0:0:0:0:
151,259,214323,1,8,0:0:0:0:
151,259,214405,1,8,0:0:0:0:
151,259,214486,1,0,0:0:0:0:
151,259,214567,1,8,0:0:0:0:
151,259,214648,1,0,0:0:0:0:
151,259,214729,1,0,0:0:0:0:
151,259,214810,1,8,0:0:0:0:
151,259,214891,1,8,0:0:0:0:
151,259,214972,1,0,0:0:0:0:
151,259,215053,1,8,0:0:0:0:
151,259,215134,1,8,0:0:0:0:
151,259,215215,1,0,0:0:0:0:
151,259,215296,1,0,0:0:0:0:
151,259,215378,1,8,0:0:0:0:
151,259,215459,1,0,0:0:0:0:
151,259,215540,1,8,0:0:0:0:
151,259,215621,1,8,0:0:0:0:
151,259,215702,1,0,0:0:0:0:
151,259,215783,1,0,0:0:0:0:
151,259,215864,1,8,0:0:0:0:
151,259,215945,1,0,0:0:0:0:
151,259,216026,1,8,0:0:0:0:
151,259,216107,1,8,0:0:0:0:
151,259,216188,1,0,0:0:0:0:
151,259,216269,1,8,0:0:0:0:
140,172,216351,1,0,0:0:0:0:
140,172,216432,1,8,0:0:0:0:
140,172,216513,1,0,0:0:0:0:
140,172,216567,1,0,0:0:0:0:
142,184,216621,1,0,0:0:0:0:
140,172,216675,1,8,0:0:0:0:
140,172,216756,1,8,0:0:0:0:
140,172,216837,1,0,0:0:0:0:
140,172,216918,1,8,0:0:0:0:
140,172,216999,1,8,0:0:0:0:
140,172,217080,1,0,0:0:0:0:
140,172,217161,1,8,0:0:0:0:
140,172,217242,1,8,0:0:0:0:
151,259,217323,1,0,0:0:0:0:
151,259,217405,1,8,0:0:0:0:
151,259,217486,1,8,0:0:0:0:
151,259,217567,1,0,0:0:0:0:
140,172,217810,1,8,0:0:0:0:
144,136,217972,1,0,0:0:0:0:
151,259,218053,1,0,0:0:0:0:
151,259,218134,1,8,0:0:0:0:
151,259,218215,1,0,0:0:0:0:
151,259,218296,1,8,0:0:0:0:
151,259,218378,1,8,0:0:0:0:
151,259,218459,1,0,0:0:0:0:
151,259,218540,1,0,0:0:0:0:
151,259,218621,1,8,0:0:0:0:
151,259,218702,1,0,0:0:0:0:
151,259,218783,1,8,0:0:0:0:
151,259,218864,1,8,0:0:0:0:
151,259,218945,1,0,0:0:0:0:
151,259,219026,1,8,0:0:0:0:
151,259,219107,1,0,0:0:0:0:
151,259,219188,1,0,0:0:0:0:
151,259,219269,1,8,0:0:0:0:
151,259,219351,1,8,0:0:0:0:
151,259,219432,1,0,0:0:0:0:
151,259,219513,1,8,0:0:0:0:
151,259,219594,1,0,0:0:0:0:
151,259,219675,1,0,0:0:0:0:
151,259,219756,1,8,0:0:0:0:
151,259,219837,1,8,0:0:0:0:
151,259,219918,1,0,0:0:0:0:
151,259,219999,1,8,0:0:0:0:
151,259,220080,1,0,0:0:0:0:
151,259,220161,1,0,0:0:0:0:
151,259,220242,1,8,0:0:0:0:
151,259,220323,1,8,0:0:0:0:
151,259,220405,1,0,0:0:0:0:
151,259,220486,1,8,0:0:0:0:
151,259,220567,1,0,0:0:0:0:
151,259,220648,1,8,0:0:0:0:
151,259,220729,1,8,0:0:0:0:
151,259,220810,1,0,0:0:0:0:
151,259,220891,1,8,0:0:0:0:
151,259,220972,1,8,0:0:0:0:
151,259,221053,1,0,0:0:0:0:
151,259,221134,1,0,0:0:0:0:
151,259,221215,1,8,0:0:0:0:
151,259,221296,1,0,0:0:0:0:
151,259,221378,1,0,0:0:0:0:
151,259,221459,1,8,0:0:0:0:
151,259,221540,1,0,0:0:0:0:
151,259,221621,1,8,0:0:0:0:
151,259,221702,1,0,0:0:0:0:
151,259,221783,1,0,0:0:0:0:
151,259,221864,1,8,0:0:0:0:
151,259,221945,1,0,0:0:0:0:
151,259,222026,1,0,0:0:0:0:
151,259,222107,1,8,0:0:0:0:
151,259,222188,1,0,0:0:0:0:
151,259,222269,1,0,0:0:0:0:
151,259,222351,1,8,0:0:0:0:
151,259,222432,1,8,0:0:0:0:
151,259,222513,1,0,0:0:0:0:
151,259,222594,1,8,0:0:0:0:
151,259,222675,1,8,0:0:0:0:
151,259,222756,1,0,0:0:0:0:
151,259,222837,1,0,0:0:0:0:
151,259,222918,1,8,0:0:0:0:
151,259,222999,1,8,0:0:0:0:
151,259,223080,1,8,0:0:0:0:
151,259,223161,1,0,0:0:0:0:
151,259,223242,1,8,0:0:0:0:
151,259,223323,1,8,0:0:0:0:
151,259,223405,1,0,0:0:0:0:
151,259,223486,1,8,0:0:0:0:
151,259,223567,1,8,0:0:0:0:
151,259,223648,1,0,0:0:0:0:
151,259,223729,1,8,0:0:0:0:
151,259,223810,1,0,0:0:0:0:
151,259,223891,1,0,0:0:0:0:
151,259,223972,1,8,0:0:0:0:
151,259,224053,1,0,0:0:0:0:
151,259,224134,1,8,0:0:0:0:
151,259,224215,1,8,0:0:0:0:
151,259,224296,1,0,0:0:0:0:
151,259,224378,1,0,0:0:0:0:
151,259,224459,1,8,0:0:0:0:
151,259,224540,1,0,0:0:0:0:
151,259,224621,1,0,0:0:0:0:
151,259,224702,1,8,0:0:0:0:
151,259,224783,1,8,0:0:0:0:
151,259,224864,1,0,0:0:0:0:
151,259,224945,1,8,0:0:0:0:
151,259,225026,1,0,0:0:0:0:
151,259,225107,1,0,0:0:0:0:
151,259,225188,1,8,0:0:0:0:
151,259,225269,1,8,0:0:0:0:
151,259,225351,1,0,0:0:0:0:
151,259,225432,1,8,0:0:0:0:
151,259,225513,1,8,0:0:0:0:
151,259,225594,1,0,0:0:0:0:
151,259,225675,1,8,0:0:0:0:
151,259,225756,1,0,0:0:0:0:
151,259,225837,1,8,0:0:0:0:
151,259,225918,1,0,0:0:0:0:
151,259,225999,1,8,0:0:0:0:
151,259,226080,1,8,0:0:0:0:
151,259,226161,1,8,0:0:0:0:
151,259,226242,1,0,0:0:0:0:
151,259,226323,1,8,0:0:0:0:
151,259,226405,1,0,0:0:0:0:
151,259,226486,1,8,0:0:0:0:
151,259,226567,1,8,0:0:0:0:
151,259,226648,1,8,0:0:0:0:
140,172,226729,1,0,0:0:0:0:
140,172,226810,1,8,0:0:0:0:
140,172,226891,1,0,0:0:0:0:
140,172,226972,1,0,0:0:0:0:
140,172,227053,1,8,0:0:0:0:
140,172,227134,1,0,0:0:0:0:
140,172,227215,1,0,0:0:0:0:
140,172,227296,1,8,0:0:0:0:
140,172,227378,1,0,0:0:0:0:
140,172,227459,1,0,0:0:0:0:
140,172,227540,1,8,0:0:0:0:
140,172,227621,1,8,0:0:0:0:
130,178,228351,1,0,0:0:0:0:
130,178,228513,1,0,0:0:0:0:
130,178,228675,1,8,0:0:0:0:
130,178,228837,1,0,0:0:0:0:
130,178,228999,1,8,0:0:0:0:
130,178,229161,1,8,0:0:0:0:
130,178,229323,1,0,0:0:0:0:
130,178,229486,1,0,0:0:0:0:
130,178,229648,1,0,0:0:0:0:
130,178,229810,1,0,0:0:0:0:
130,178,229972,1,8,0:0:0:0:
130,178,230134,1,8,0:0:0:0:
130,178,230296,1,0,0:0:0:0:
130,178,230459,1,0,0:0:0:0:
130,178,230621,1,8,0:0:0:0:
130,178,230783,1,0,0:0:0:0:
130,178,230945,1,8,0:0:0:0:
130,178,231107,1,8,0:0:0:0:
130,178,231269,1,0,0:0:0:0:
130,178,231432,1,8,0:0:0:0:
133,182,231594,1,0,0:0:0:0:
133,182,231756,1,0,0:0:0:0:
133,182,231918,1,8,0:0:0:0:
133,182,232080,1,8,0:0:0:0:
133,182,232242,1,0,0:0:0:0:
133,182,232405,1,0,0:0:0:0:
133,182,232567,1,8,0:0:0:0:
133,182,232729,1,8,0:0:0:0:
133,182,232891,1,0,0:0:0:0:
133,182,233053,1,8,0:0:0:0:
133,182,233215,1,8,0:0:0:0:
133,182,233378,1,8,0:0:0:0:
133,182,233540,1,0,0:0:0:0:
133,182,233702,1,0,0:0:0:0:
133,182,233864,1,8,0:0:0:0:
133,182,234026,1,0,0:0:0:0:
133,182,234188,1,8,0:0:0:0:
133,182,234351,1,8,0:0:0:0:
133,182,234513,1,0,0:0:0:0:
133,182,234675,1,0,0:0:0:0:
133,182,234837,1,0,0:0:0:0:
133,182,234999,1,0,0:0:0:0:
133,182,235161,1,8,0:0:0:0:
133,182,235323,1,8,0:0:0:0:
133,182,235486,1,0,0:0:0:0:
133,182,235648,1,0,0:0:0:0:
133,182,235810,1,8,0:0:0:0:
133,182,235972,1,0,0:0:0:0:
133,182,236134,1,8,0:0:0:0:
133,182,236296,1,8,0:0:0:0:
133,182,236459,1,0,0:0:0:0:
133,182,236621,1,0,0:0:0:0:
133,182,236783,1,8,0:0:0:0:
133,182,236945,1,0,0:0:0:0:
133,182,237107,1,8,0:0:0:0:
133,182,237269,1,8,0:0:0:0:
133,182,237432,1,0,0:0:0:0:
133,182,237594,1,0,0:0:0:0:
133,182,237756,1,8,0:0:0:0:
133,182,237918,1,8,0:0:0:0:
133,182,238080,1,0,0:0:0:0:
133,182,238242,1,8,0:0:0:0:
133,182,238405,1,8,0:0:0:0:
133,182,238567,1,0,0:0:0:0:
