osu file format v14

[General]
AudioFilename: audio.mp3
AudioLeadIn: 0
PreviewTime: 76567
Countdown: 0
SampleSet: Normal
StackLeniency: 0.7
Mode: 1
LetterboxInBreaks: 0
WidescreenStoryboard: 0

[Editor]
Bookmarks: 962,6151,21718,32097,42475,52853,98259,108637,119016,129394,139772,160529,170907,181286,186475,196853,207232,217610,227340
DistanceSpacing: 0.1
BeatDivisor: 4
GridSize: 32
TimelineZoom: 1.600002

[Metadata]
Title:sink to the deep sea world
TitleUnicode:sink to the deep sea world
Artist:Chroma
ArtistUnicode:黒魔
Creator:Reficul
Version:Grim's Oni
Source:
Tags:五つの物語 Midnaait ARGENTINE DREAM _w6 _WWWWWW_WWWWWW_ Axer Grimbow gaston_2199 Electronic Instrumental Chipbreak
BeatmapID:1887807
BeatmapSetID:901604

[Difficulty]
HPDrainRate:5
CircleSize:5
OverallDifficulty:5.5
ApproachRate:5
SliderMultiplier:1.4
SliderTickRate:1

[Events]
//Background and Video events
0,0,"bg1.jpg",0,40
//Break Periods
//Storyboard Layer 0 (Background)
//Storyboard Layer 1 (Fail)
//Storyboard Layer 2 (Pass)
//Storyboard Layer 3 (Foreground)
//Storyboard Layer 4 (Overlay)
//Storyboard Sound Samples

[TimingPoints]
1324,324.324324324324,4,1,0,50,1,0
6320,-100,4,1,0,80,0,0
22050,-100,4,1,0,90,0,0
53212,-100,4,1,0,67,0,0
63402,-100,4,1,0,80,0,0
75320,-100,4,1,0,15,0,0
77823,-100,4,1,0,90,0,0
77864,-100,4,1,0,90,0,1
98621,-100,4,1,0,90,0,0
119293,-100,4,1,0,70,0,0
124402,-100,4,1,0,80,0,0
129699,-100,4,1,0,85,0,0
181645,-100,4,1,0,80,0,0
186320,-100,4,1,0,75,0,0
186793,-100,4,1,0,90,0,0
186837,-100,4,1,0,90,0,1
207594,-100,4,1,0,90,0,0
217726,-100,4,1,0,75,0,0
217942,-100,4,1,0,90,0,0
227807,-100,4,1,0,50,0,0

[HitObjects]
256,192,1324,5,0,0:0:0:0:
256,192,1486,1,8,0:0:0:0:
256,192,1648,1,8,0:0:0:0:
256,192,1810,1,0,0:0:0:0:
256,192,1972,1,8,0:0:0:0:
256,192,2296,1,0,0:0:0:0:
256,192,2459,1,8,0:0:0:0:
256,192,2621,1,0,0:0:0:0:
256,192,2783,1,0,0:0:0:0:
256,192,2945,1,8,0:0:0:0:
256,192,3269,1,0,0:0:0:0:
256,192,3432,1,8,0:0:0:0:
256,192,3594,1,0,0:0:0:0:
256,192,3756,1,8,0:0:0:0:
256,192,3918,1,8,0:0:0:0:
256,192,4080,1,8,0:0:0:0:
256,192,4242,1,0,0:0:0:0:
256,192,4405,1,0,0:0:0:0:
256,192,4567,1,8,0:0:0:0:
256,192,4891,1,0,0:0:0:0:
256,192,5053,1,8,0:0:0:0:
256,192,5215,1,0,0:0:0:0:
256,192,5378,1,8,0:0:0:0:
256,192,5540,1,8,0:0:0:0:
256,192,5702,1,8,0:0:0:0:
256,192,5864,1,0,0:0:0:0:
256,192,6026,1,8,0:0:0:0:
256,192,6188,1,0,0:0:0:0:
256,192,6351,1,8,0:0:0:0:
256,192,6432,1,8,0:0:0:0:
256,192,6513,1,0,0:0:0:0:
256,192,6675,1,0,0:0:0:0:
256,192,6837,1,8,0:0:0:0:
256,192,6999,1,0,0:0:0:0:
256,192,7080,1,8,0:0:0:0:
256,192,7161,1,0,0:0:0:0:
256,192,7323,1,0,0:0:0:0:
256,192,7486,1,8,0:0:0:0:
256,192,7648,1,8,0:0:0:0:
256,192,7729,1,8,0:0:0:0:
256,192,7810,1,0,0:0:0:0:
256,192,7972,1,8,0:0:0:0:
256,192,8134,1,0,0:0:0:0:
256,192,8215,1,8,0:0:0:0:
256,192,8296,1,0,0:0:0:0:
256,192,8459,1,8,0:0:0:0:
256,192,8621,1,0,0:0:0:0:
256,192,8702,1,0,0:0:0:0:
256,192,8783,1,0,0:0:0:0:
256,192,8945,1,8,0:0:0:0:
256,192,9026,1,0,0:0:0:0:
256,192,9107,1,0,0:0:0:0:
256,192,9432,1,8,0:0:0:0:
256,192,9594,1,0,0:0:0:0:
256,192,9675,1,8,0:0:0:0:
256,192,9756,1,0,0:0:0:0:
256,192,9837,1,8,0:0:0:0:
256,192,9918,1,0,0:0:0:0:
256,192,10080,1,8,0:0:0:0:
256,192,10242,1,0,0:0:0:0:
256,192,10323,1,0,0:0:0:0:
256,192,10405,1,0,0:0:0:0:
256,192,10567,1,8,0:0:0:0:
256,192,10729,1,0,0:0:0:0:
256,192,10810,1,8,0:0:0:0:
256,192,10891,1,0,0:0:0:0:
256,192,11053,1,8,0:0:0:0:
256,192,11215,1,8,0:0:0:0:
256,192,11296,1,8,0:0:0:0:
256,192,11378,1,0,0:0:0:0:
256,192,11540,1,8,0:0:0:0:
256,192,11702,1,4,0:0:0:0:
256,192,11864,1,0,0:0:0:0:
256,192,11945,1,0,0:0:0:0:
256,192,12026,1,8,0:0:0:0:
256,192,12188,1,0,0:0:0:0:
256,192,12351,1,8,0:0:0:0:
256,192,12513,1,0,0:0:0:0:
256,192,12675,1,8,0:0:0:0:
256,192,12837,1,8,0:0:0:0:
256,192,13161,1,8,0:0:0:0:
256,192,13323,1,0,0:0:0:0:
256,192,13405,1,8,0:0:0:0:
256,192,13486,1,0,0:0:0:0:
256,192,13567,1,0,0:0:0:0:
256,192,13648,1,8,0:0:0:0:
256,192,13810,1,8,0:0:0:0:
256,192,13972,1,0,0:0:0:0:
256,192,14134,1,0,0:0:0:0:
256,192,14459,1,0,0:0:0:0:
256,192,14540,1,0,0:0:0:0:
256,192,14621,1,8,0:0:0:0:
256,192,14783,1,0,0:0:0:0:
256,192,14945,1,8,0:0:0:0:
256,192,15026,1,8,0:0:0:0:
256,192,15107,1,0,0:0:0:0:
256,192,15269,1,8,0:0:0:0:
256,192,15432,1,8,0:0:0:0:
256,192,15756,1,8,0:0:0:0:
256,192,15918,1,0,0:0:0:0:
256,192,15999,1,8,0:0:0:0:
256,192,16080,1,8,0:0:0:0:
256,192,16161,1,0,0:0:0:0:
256,192,16242,1,8,0:0:0:0:
256,192,16405,1,8,0:0:0:0:
256,192,16486,1,8,0:0:0:0:
256,192,16567,1,0,0:0:0:0:
256,192,16729,1,0,0:0:0:0:
256,192,17053,1,8,0:0:0:0:
256,192,17134,1,0,0:0:0:0:
256,192,17215,1,8,0:0:0:0:
256,192,17378,1,0,0:0:0:0:
256,192,17459,1,8,0:0:0:0:
256,192,17540,1,0,0:0:0:0:
256,192,17621,1,8,0:0:0:0:
256,192,17702,1,0,0:0:0:0:
256,192,17864,1,8,0:0:0:0:
256,192,18026,1,8,0:0:0:0:
256,192,18351,1,8,0:0:0:0:
256,192,18513,1,0,0:0:0:0:
256,192,18594,1,8,0:0:0:0:
256,192,18675,1,0,0:0:0:0:
256,192,18756,1,0,0:0:0:0:
256,192,18837,1,8,0:0:0:0:
256,192,18999,1,0,0:0:0:0:
256,192,19161,1,8,0:0:0:0:
256,192,19323,1,0,0:0:0:0:
256,192,19648,1,0,0:0:0:0:
256,192,19729,1,8,0:0:0:0:
256,192,19810,1,8,0:0:0:0:
256,192,19972,1,0,0:0:0:0:
256,192,20053,1,8,0:0:0:0:
256,192,20134,1,8,0:0:0:0:
256,192,20215,1,8,0:0:0:0:
256,192,20296,1,0,0:0:0:0:
256,192,20459,1,8,0:0:0:0:
256,192,20621,1,8,0:0:0:0:
256,192,20945,1,8,0:0:0:0:
256,192,21107,1,0,0:0:0:0:
256,192,21188,1,8,0:0:0:0:
256,192,21269,1,0,0:0:0:0:
256,192,21351,1,0,0:0:0:0:
256,192,21432,1,8,0:0:0:0:
256,192,21513,1,8,0:0:0:0:
256,192,21594,1,0,0:0:0:0:
256,192,21756,1,8,0:0:0:0:
256,192,21918,1,0,0:0:0:0:
256,192,22080,1,12,0:0:0:0:
256,192,22242,1,0,0:0:0:0:
256,192,22405,1,8,0:0:0:0:
256,192,22567,1,0,0:0:0:0:
256,192,22648,1,8,0:0:0:0:
256,192,22729,1,0,0:0:0:0:
256,192,22810,1,8,0:0:0:0:
256,192,22891,1,0,0:0:0:0:
256,192,23053,1,8,0:0:0:0:
256,192,23215,1,8,0:0:0:0:
256,192,23296,1,8,0:0:0:0:
256,192,23378,1,0,0:0:0:0:
256,192,23540,1,8,0:0:0:0:
256,192,23702,1,0,0:0:0:0:
256,192,23783,1,8,0:0:0:0:
256,192,23864,1,0,0:0:0:0:
256,192,24026,1,8,0:0:0:0:
256,192,24188,1,8,0:0:0:0:
256,192,24269,1,8,0:0:0:0:
256,192,24351,1,0,0:0:0:0:
256,192,24513,1,8,0:0:0:0:
256,192,24675,1,0,0:0:0:0:
256,192,24999,1,8,0:0:0:0:
256,192,25161,1,0,0:0:0:0:
256,192,25242,1,0,0:0:0:0:
256,192,25323,1,0,0:0:0:0:
256,192,25486,1,0,0:0:0:0:
256,192,25648,1,8,0:0:0:0:
256,192,25810,1,8,0:0:0:0:
256,192,25891,1,8,0:0:0:0:
256,192,25972,1,0,0:0:0:0:
256,192,26134,1,8,0:0:0:0:
256,192,26296,1,0,0:0:0:0:
256,192,26378,1,8,0:0:0:0:
256,192,26459,1,0,0:0:0:0:
256,192,26621,1,8,0:0:0:0:
256,192,26783,1,0,0:0:0:0:
256,192,26864,1,0,0:0:0:0:
256,192,26945,1,8,0:0:0:0:
256,192,27107,1,0,0:0:0:0:
256,192,27269,1,8,0:0:0:0:
256,192,27594,1,8,0:0:0:0:
256,192,27756,1,8,0:0:0:0:
256,192,27837,1,8,0:0:0:0:
256,192,27918,1,0,0:0:0:0:
256,192,28080,1,0,0:0:0:0:
256,192,28242,1,8,0:0:0:0:
256,192,28405,1,8,0:0:0:0:
256,192,28486,1,0,0:0:0:0:
256,192,28567,1,0,0:0:0:0:
256,192,28729,1,8,0:0:0:0:
256,192,28891,1,0,0:0:0:0:
256,192,28972,1,8,0:0:0:0:
256,192,29053,1,0,0:0:0:0:
256,192,29215,1,8,0:0:0:0:
256,192,29378,1,0,0:0:0:0:
256,192,29459,1,0,0:0:0:0:
256,192,29540,1,0,0:0:0:0:
256,192,29702,1,8,0:0:0:0:
256,192,29864,1,0,0:0:0:0:
256,192,30188,1,8,0:0:0:0:
256,192,30351,1,0,0:0:0:0:
256,192,30432,1,8,0:0:0:0:
256,192,30513,1,0,0:0:0:0:
256,192,30675,1,0,0:0:0:0:
256,192,30837,1,8,0:0:0:0:
256,192,30999,1,8,0:0:0:0:
256,192,31080,1,0,0:0:0:0:
256,192,31161,1,0,0:0:0:0:
256,192,31323,1,8,0:0:0:0:
256,192,31486,1,8,0:0:0:0:
256,192,31567,1,8,0:0:0:0:
256,192,31648,1,8,0:0:0:0:
256,192,31810,1,8,0:0:0:0:
256,192,31972,1,8,0:0:0:0:
256,192,32053,1,0,0:0:0:0:
256,192,32134,1,0,0:0:0:0:
256,192,32215,1,0,0:0:0:0:
256,192,32296,1,0,0:0:0:0:
256,192,32378,1,0,0:0:0:0:
256,192,32459,1,8,0:0:0:0:
256,192,32621,1,0,0:0:0:0:
256,192,32702,1,0,0:0:0:0:
256,192,32783,1,8,0:0:0:0:
256,192,32945,1,0,0:0:0:0:
256,192,33107,1,8,0:0:0:0:
256,192,33188,1,8,0:0:0:0:
256,192,33269,1,0,0:0:0:0:
256,192,33432,1,8,0:0:0:0:
256,192,33594,1,8,0:0:0:0:
256,192,33918,1,8,0:0:0:0:
256,192,34080,1,0,0:0:0:0:
256,192,34161,1,8,0:0:0:0:
256,192,34242,1,0,0:0:0:0:
256,192,34405,1,8,0:0:0:0:
256,192,34486,1,8,0:0:0:0:
256,192,34567,1,8,0:0:0:0:
256,192,34729,1,0,0:0:0:0:
256,192,34891,1,0,0:0:0:0:
256,192,35215,1,0,0:0:0:0:
256,192,35296,1,0,0:0:0:0:
256,192,35378,1,8,0:0:0:0:
256,192,35540,1,0,0:0:0:0:
256,192,35702,1,8,0:0:0:0:
256,192,35783,1,0,0:0:0:0:
256,192,35864,1,0,0:0:0:0:
256,192,36026,1,8,0:0:0:0:
256,192,36188,1,8,0:0:0:0:
256,192,36513,1,8,0:0:0:0:
256,192,36675,1,0,0:0:0:0:
256,192,36756,1,0,0:0:0:0:
256,192,36837,1,8,0:0:0:0:
256,192,36918,1,0,0:0:0:0:
256,192,36999,1,8,0:0:0:0:
256,192,37080,1,8,0:0:0:0:
256,192,37161,1,0,0:0:0:0:
256,192,37323,1,8,0:0:0:0:
256,192,37486,1,0,0:0:0:0:
256,192,37810,1,0,0:0:0:0:
256,192,37891,1,8,0:0:0:0:
256,192,37972,1,8,0:0:0:0:
256,192,38134,1,0,0:0:0:0:
256,192,38296,1,8,0:0:0:0:
256,192,38378,1,0,0:0:0:0:
256,192,38459,1,8,0:0:0:0:
256,192,38621,1,8,0:0:0:0:
256,192,38783,1,8,0:0:0:0:
256,192,39107,1,8,0:0:0:0:
256,192,39269,1,0,0:0:0:0:
256,192,39351,1,8,0:0:0:0:
256,192,39432,1,0,0:0:0:0:
256,192,39594,1,8,0:0:0:0:
256,192,39756,1,8,0:0:0:0:
256,192,39837,1,8,0:0:0:0:
256,192,39918,1,0,0:0:0:0:
256,192,40080,1,0,0:0:0:0:
256,192,40405,1,0,0:0:0:0:
256,192,40486,1,0,0:0:0:0:
256,192,40567,1,8,0:0:0:0:
256,192,40729,1,0,0:0:0:0:
256,192,40891,1,8,0:0:0:0:
256,192,40972,1,8,0:0:0:0:
256,192,41053,1,0,0:0:0:0:
256,192,41215,1,8,0:0:0:0:
256,192,41378,1,8,0:0:0:0:
256,192,41702,1,8,0:0:0:0:
256,192,41864,1,0,0:0:0:0:
256,192,41945,1,8,0:0:0:0:
256,192,42026,1,0,0:0:0:0:
256,192,42107,1,0,0:0:0:0:
256,192,42188,1,8,0:0:0:0:
256,192,42269,1,8,0:0:0:0:
256,192,42351,1,0,0:0:0:0:
256,192,42513,1,8,0:0:0:0:
256,192,42675,1,0,0:0:0:0:
256,192,42837,1,12,0:0:0:0:
256,192,43161,1,8,0:0:0:0:
256,192,43323,1,0,0:0:0:0:
256,192,43405,1,8,0:0:0:0:
256,192,43486,1,0,0:0:0:0:
256,192,43648,1,8,0:0:0:0:
256,192,43810,1,8,0:0:0:0:
256,192,43972,1,8,0:0:0:0:
256,192,44053,1,8,0:0:0:0:
256,192,44134,1,0,0:0:0:0:
256,192,44296,1,8,0:0:0:0:
256,192,44459,1,0,0:0:0:0:
256,192,44540,1,8,0:0:0:0:
256,192,44621,1,0,0:0:0:0:
256,192,44783,1,8,0:0:0:0:
256,192,44945,1,8,0:0:0:0:
256,192,45026,1,8,0:0:0:0:
256,192,45107,1,8,0:0:0:0:
256,192,45269,1,0,0:0:0:0:
256,192,45351,1,8,0:0:0:0:
256,192,45432,1,0,0:0:0:0:
256,192,45756,1,8,0:0:0:0:
256,192,45918,1,0,0:0:0:0:
256,192,45999,1,8,0:0:0:0:
256,192,46080,1,0,0:0:0:0:
256,192,46242,1,0,0:0:0:0:
256,192,46405,1,8,0:0:0:0:
256,192,46567,1,8,0:0:0:0:
256,192,46648,1,8,0:0:0:0:
256,192,46729,1,0,0:0:0:0:
256,192,46891,1,8,0:0:0:0:
256,192,47053,1,0,0:0:0:0:
256,192,47134,1,8,0:0:0:0:
256,192,47215,1,0,0:0:0:0:
256,192,47378,1,8,0:0:0:0:
256,192,47540,1,0,0:0:0:0:
256,192,47621,1,0,0:0:0:0:
256,192,47702,1,8,0:0:0:0:
256,192,47783,1,8,0:0:0:0:
256,192,47864,1,0,0:0:0:0:
256,192,48026,1,8,0:0:0:0:
256,192,48351,1,8,0:0:0:0:
256,192,48513,1,8,0:0:0:0:
256,192,48594,1,8,0:0:0:0:
256,192,48675,1,0,0:0:0:0:
256,192,48756,1,8,0:0:0:0:
256,192,48837,1,0,0:0:0:0:
256,192,48999,1,8,0:0:0:0:
256,192,49161,1,0,0:0:0:0:
256,192,49242,1,0,0:0:0:0:
256,192,49323,1,0,0:0:0:0:
256,192,49486,1,8,0:0:0:0:
256,192,49648,1,0,0:0:0:0:
256,192,49729,1,8,0:0:0:0:
256,192,49810,1,0,0:0:0:0:
256,192,49972,1,8,0:0:0:0:
256,192,50134,1,0,0:0:0:0:
256,192,50215,1,0,0:0:0:0:
256,192,50296,1,0,0:0:0:0:
256,192,50459,1,8,0:0:0:0:
256,192,50540,1,8,0:0:0:0:
256,192,50621,1,0,0:0:0:0:
256,192,50945,1,8,0:0:0:0:
256,192,51107,1,0,0:0:0:0:
256,192,51188,1,8,0:0:0:0:
256,192,51269,1,0,0:0:0:0:
256,192,51351,1,8,0:0:0:0:
256,192,51432,1,0,0:0:0:0:
256,192,51594,1,8,0:0:0:0:
256,192,51756,1,0,0:0:0:0:
256,192,51837,1,0,0:0:0:0:
256,192,51918,1,0,0:0:0:0:
256,192,52080,1,8,0:0:0:0:
256,192,52242,1,0,0:0:0:0:
256,192,52323,1,0,0:0:0:0:
256,192,52405,1,0,0:0:0:0:
256,192,52567,1,8,0:0:0:0:
256,192,52729,1,0,0:0:0:0:
256,192,52891,1,8,0:0:0:0:
256,192,52972,1,8,0:0:0:0:
256,192,53053,1,8,0:0:0:0:
256,192,53134,1,8,0:0:0:0:
256,192,53215,1,0,0:0:0:0:
256,192,53378,1,0,0:0:0:0:
256,192,53540,1,0,0:0:0:0:
256,192,53702,1,8,0:0:0:0:
256,192,53783,1,0,0:0:0:0:
256,192,53864,1,0,0:0:0:0:
256,192,54026,1,0,0:0:0:0:
256,192,54188,1,8,0:0:0:0:
256,192,54351,1,8,0:0:0:0:
256,192,54432,1,8,0:0:0:0:
256,192,54513,1,0,0:0:0:0:
256,192,54675,1,0,0:0:0:0:
256,192,54837,1,8,0:0:0:0:
256,192,54999,1,8,0:0:0:0:
256,192,55161,1,8,0:0:0:0:
256,192,55242,1,8,0:0:0:0:
256,192,55323,1,0,0:0:0:0:
256,192,55486,1,0,0:0:0:0:
256,192,55567,1,0,0:0:0:0:
256,192,55648,1,0,0:0:0:0:
256,192,55972,1,0,0:0:0:0:
256,192,56053,1,8,0:0:0:0:
256,192,56134,1,0,0:0:0:0:
256,192,56296,1,0,0:0:0:0:
256,192,56459,1,8,0:0:0:0:
256,192,56540,1,8,0:0:0:0:
256,192,56621,1,0,0:0:0:0:
256,192,56783,1,0,0:0:0:0:
256,192,56945,1,8,0:0:0:0:
256,192,57107,1,8,0:0:0:0:
256,192,57269,1,0,0:0:0:0:
256,192,57432,1,8,0:0:0:0:
256,192,57594,1,0,0:0:0:0:
256,192,57675,1,8,0:0:0:0:
256,192,57756,1,0,0:0:0:0:
256,192,57918,1,0,0:0:0:0:
256,192,58080,1,8,0:0:0:0:
256,192,58242,1,8,0:0:0:0:
256,192,58567,1,8,0:0:0:0:
256,192,58648,1,8,0:0:0:0:
256,192,58729,1,8,0:0:0:0:
256,192,58891,1,8,0:0:0:0:
256,192,59053,1,8,0:0:0:0:
256,192,59134,1,0,0:0:0:0:
256,192,59215,1,0,0:0:0:0:
256,192,59378,1,0,0:0:0:0:
256,192,59459,1,0,0:0:0:0:
256,192,59540,1,0,0:0:0:0:
256,192,59702,1,0,0:0:0:0:
256,192,59864,1,0,0:0:0:0:
256,192,60026,1,8,0:0:0:0:
256,192,60188,1,8,0:0:0:0:
256,192,60351,1,0,0:0:0:0:
256,192,60513,1,8,0:0:0:0:
256,192,60675,1,0,0:0:0:0:
256,192,60756,1,8,0:0:0:0:
256,192,60837,1,0,0:0:0:0:
256,192,60999,1,8,0:0:0:0:
256,192,61161,1,0,0:0:0:0:
256,192,61323,1,0,0:0:0:0:
256,192,61486,1,8,0:0:0:0:
256,192,61648,1,0,0:0:0:0:
256,192,61810,1,0,0:0:0:0:
256,192,61972,1,8,0:0:0:0:
256,192,62134,1,0,0:0:0:0:
256,192,62296,1,8,0:0:0:0:
256,192,62378,1,0,0:0:0:0:
256,192,62459,1,8,0:0:0:0:
256,192,62621,1,0,0:0:0:0:
256,192,62783,1,0,0:0:0:0:
256,192,62945,1,8,0:0:0:0:
256,192,63107,1,0,0:0:0:0:
256,192,63269,5,0,0:0:0:0:
256,192,63351,1,8,0:0:0:0:
256,192,63432,1,0,0:0:0:0:
256,192,63513,1,8,0:0:0:0:
256,192,63594,1,0,0:0:0:0:
256,192,63756,1,8,0:0:0:0:
256,192,63918,1,8,0:0:0:0:
256,192,64080,1,0,0:0:0:0:
256,192,64161,1,8,0:0:0:0:
256,192,64242,1,0,0:0:0:0:
256,192,64323,1,8,0:0:0:0:
256,192,64405,1,0,0:0:0:0:
256,192,64567,1,8,0:0:0:0:
256,192,64729,1,0,0:0:0:0:
256,192,64810,1,0,0:0:0:0:
256,192,64891,1,0,0:0:0:0:
256,192,65053,1,8,0:0:0:0:
256,192,65215,1,8,0:0:0:0:
256,192,65296,1,8,0:0:0:0:
256,192,65378,1,8,0:0:0:0:
256,192,65540,1,8,0:0:0:0:
256,192,65702,1,0,0:0:0:0:
256,192,65783,1,8,0:0:0:0:
256,192,65864,1,0,0:0:0:0:
256,192,66026,1,8,0:0:0:0:
256,192,66351,1,8,0:0:0:0:
256,192,66513,1,0,0:0:0:0:
256,192,66675,1,8,0:0:0:0:
256,192,66756,1,0,0:0:0:0:
256,192,66837,1,8,0:0:0:0:
256,192,66918,1,8,0:0:0:0:
256,192,66999,1,0,0:0:0:0:
256,192,67161,1,8,0:0:0:0:
256,192,67323,1,0,0:0:0:0:
256,192,67405,1,0,0:0:0:0:
256,192,67486,1,0,0:0:0:0:
256,192,67648,1,8,0:0:0:0:
256,192,67729,1,0,0:0:0:0:
256,192,67810,1,0,0:0:0:0:
256,192,67891,1,8,0:0:0:0:
256,192,67972,1,0,0:0:0:0:
256,192,68134,1,8,0:0:0:0:
256,192,68296,1,0,0:0:0:0:
256,192,68378,1,8,0:0:0:0:
256,192,68459,1,0,0:0:0:0:
256,192,68621,1,8,0:0:0:0:
256,192,68945,1,8,0:0:0:0:
256,192,69026,1,8,0:0:0:0:
256,192,69107,1,8,0:0:0:0:
256,192,69269,1,0,0:0:0:0:
256,192,69432,1,8,0:0:0:0:
256,192,69513,1,8,0:0:0:0:
256,192,69594,1,0,0:0:0:0:
256,192,69675,1,0,0:0:0:0:
256,192,69756,1,8,0:0:0:0:
256,192,69837,1,8,0:0:0:0:
256,192,69918,1,0,0:0:0:0:
256,192,70080,1,0,0:0:0:0:
256,192,70242,1,8,0:0:0:0:
256,192,70405,1,0,0:0:0:0:
256,192,70567,1,8,0:0:0:0:
256,192,70648,1,8,0:0:0:0:
256,192,70729,1,8,0:0:0:0:
256,192,70891,1,0,0:0:0:0:
256,192,71053,1,8,0:0:0:0:
256,192,71134,1,0,0:0:0:0:
256,192,71215,1,8,0:0:0:0:
256,192,71378,1,8,0:0:0:0:
256,192,71540,1,0,0:0:0:0:
256,192,71702,1,0,0:0:0:0:
256,192,71864,1,8,0:0:0:0:
256,192,72026,1,0,0:0:0:0:
256,192,72188,1,0,0:0:0:0:
256,192,72351,1,8,0:0:0:0:
256,192,72513,1,0,0:0:0:0:
256,192,72675,1,0,0:0:0:0:
256,192,72837,1,8,0:0:0:0:
256,192,72999,1,0,0:0:0:0:
256,192,73161,1,0,0:0:0:0:
256,192,73323,1,8,0:0:0:0:
256,192,73486,1,0,0:0:0:0:
256,192,73648,1,0,0:0:0:0:
256,192,73810,1,8,0:0:0:0:
256,192,73972,1,0,0:0:0:0:
256,192,74134,1,0,0:0:0:0:
256,192,74296,1,8,0:0:0:0:
256,192,74459,1,0,0:0:0:0:
256,192,74621,1,0,0:0:0:0:
256,192,74783,1,8,0:0:0:0:
256,192,74945,1,0,0:0:0:0:
256,192,75107,1,0,0:0:0:0:
256,192,75269,1,8,0:0:0:0:
256,192,75432,12,0,77540,0:0:0:0:
256,192,77864,5,8,0:0:0:0:
256,192,77945,1,0,0:0:0:0:
256,192,78026,1,0,0:0:0:0:
256,192,78188,1,8,0:0:0:0:
256,192,78351,1,0,0:0:0:0:
256,192,78513,1,8,0:0:0:0:
256,192,78594,1,0,0:0:0:0:
256,192,78675,1,0,0:0:0:0:
256,192,78837,1,8,0:0:0:0:
256,192,78999,1,0,0:0:0:0:
256,192,79161,1,8,0:0:0:0:
256,192,79242,1,0,0:0:0:0:
256,192,79323,1,0,0:0:0:0:
256,192,79486,1,8,0:0:0:0:
256,192,79648,1,0,0:0:0:0:
256,192,79810,1,8,0:0:0:0:
256,192,79891,1,0,0:0:0:0:
256,192,79972,1,0,0:0:0:0:
256,192,80134,1,8,0:0:0:0:
256,192,80459,1,0,0:0:0:0:
256,192,80540,1,8,0:0:0:0:
256,192,80621,1,8,0:0:0:0:
256,192,80783,1,0,0:0:0:0:
256,192,80945,1,8,0:0:0:0:
256,192,81107,1,0,0:0:0:0:
256,192,81188,1,8,0:0:0:0:
256,192,81269,1,8,0:0:0:0:
256,192,81432,1,0,0:0:0:0:
256,192,81594,1,8,0:0:0:0:
256,192,81756,1,0,0:0:0:0:
256,192,81837,1,8,0:0:0:0:
256,192,81918,1,8,0:0:0:0:
256,192,82080,1,0,0:0:0:0:
256,192,82242,1,8,0:0:0:0:
256,192,82405,1,0,0:0:0:0:
256,192,82486,1,8,0:0:0:0:
256,192,82567,1,8,0:0:0:0:
256,192,82729,1,0,0:0:0:0:
256,192,83053,1,8,0:0:0:0:
256,192,83134,1,8,0:0:0:0:
256,192,83215,1,8,0:0:0:0:
256,192,83378,1,0,0:0:0:0:
256,192,83540,1,0,0:0:0:0:
256,192,83702,1,8,0:0:0:0:
256,192,83783,1,8,0:0:0:0:
256,192,83864,1,8,0:0:0:0:
256,192,84026,1,0,0:0:0:0:
256,192,84188,1,0,0:0:0:0:
256,192,84351,1,8,0:0:0:0:
256,192,84432,1,8,0:0:0:0:
256,192,84513,1,8,0:0:0:0:
256,192,84675,1,0,0:0:0:0:
256,192,84837,1,0,0:0:0:0:
256,192,84999,1,8,0:0:0:0:
256,192,85080,1,8,0:0:0:0:
256,192,85161,1,8,0:0:0:0:
256,192,85323,1,0,0:0:0:0:
256,192,85486,1,0,0:0:0:0:
256,192,85648,1,8,0:0:0:0:
256,192,85729,1,8,0:0:0:0:
256,192,85810,1,8,0:0:0:0:
256,192,85972,1,0,0:0:0:0:
256,192,86134,1,0,0:0:0:0:
256,192,86296,1,8,0:0:0:0:
256,192,86378,1,8,0:0:0:0:
256,192,86459,1,8,0:0:0:0:
256,192,86621,1,0,0:0:0:0:
256,192,86783,1,0,0:0:0:0:
256,192,86945,1,8,0:0:0:0:
256,192,87026,1,8,0:0:0:0:
256,192,87107,1,8,0:0:0:0:
256,192,87269,1,0,0:0:0:0:
256,192,87594,1,0,0:0:0:0:
256,192,87756,1,0,0:0:0:0:
256,192,87837,1,8,0:0:0:0:
256,192,87918,1,0,0:0:0:0:
256,192,88242,1,8,0:0:0:0:
256,192,88405,1,0,0:0:0:0:
256,192,88567,1,8,0:0:0:0:
256,192,88648,1,8,0:0:0:0:
256,192,88729,1,0,0:0:0:0:
256,192,88891,1,8,0:0:0:0:
256,192,89053,1,0,0:0:0:0:
256,192,89215,1,8,0:0:0:0:
256,192,89296,1,8,0:0:0:0:
256,192,89378,1,0,0:0:0:0:
256,192,89540,1,8,0:0:0:0:
256,192,89702,1,0,0:0:0:0:
256,192,89864,1,8,0:0:0:0:
256,192,89945,1,8,0:0:0:0:
256,192,90026,1,0,0:0:0:0:
256,192,90188,1,8,0:0:0:0:
256,192,90351,1,0,0:0:0:0:
256,192,90513,1,8,0:0:0:0:
256,192,90837,1,0,0:0:0:0:
256,192,90999,1,8,0:0:0:0:
256,192,91161,1,0,0:0:0:0:
256,192,91242,1,0,0:0:0:0:
256,192,91323,1,8,0:0:0:0:
256,192,91486,1,0,0:0:0:0:
256,192,91648,1,8,0:0:0:0:
256,192,91810,1,0,0:0:0:0:
256,192,91891,1,0,0:0:0:0:
256,192,91972,1,8,0:0:0:0:
256,192,92134,1,0,0:0:0:0:
256,192,92296,1,8,0:0:0:0:
256,192,92459,1,0,0:0:0:0:
256,192,92540,1,0,0:0:0:0:
256,192,92621,1,8,0:0:0:0:
256,192,92783,1,0,0:0:0:0:
256,192,92945,1,8,0:0:0:0:
256,192,93107,1,0,0:0:0:0:
256,192,93432,1,8,0:0:0:0:
256,192,93594,1,8,0:0:0:0:
256,192,93756,1,0,0:0:0:0:
256,192,93837,1,0,0:0:0:0:
256,192,93918,1,0,0:0:0:0:
256,192,94080,1,8,0:0:0:0:
256,192,94242,1,8,0:0:0:0:
256,192,94405,1,0,0:0:0:0:
256,192,94486,1,0,0:0:0:0:
256,192,94567,1,0,0:0:0:0:
256,192,94729,1,8,0:0:0:0:
256,192,94891,1,8,0:0:0:0:
256,192,95053,1,0,0:0:0:0:
256,192,95134,1,0,0:0:0:0:
256,192,95215,1,0,0:0:0:0:
256,192,95378,1,8,0:0:0:0:
256,192,95540,1,8,0:0:0:0:
256,192,95702,1,0,0:0:0:0:
256,192,95783,1,0,0:0:0:0:
256,192,95864,1,0,0:0:0:0:
256,192,96026,1,8,0:0:0:0:
256,192,96188,1,8,0:0:0:0:
256,192,96351,1,0,0:0:0:0:
256,192,96432,1,0,0:0:0:0:
256,192,96513,1,0,0:0:0:0:
256,192,96675,1,8,0:0:0:0:
256,192,96837,1,8,0:0:0:0:
256,192,96999,1,0,0:0:0:0:
256,192,97080,1,0,0:0:0:0:
256,192,97161,1,0,0:0:0:0:
256,192,97323,1,8,0:0:0:0:
256,192,97486,1,8,0:0:0:0:
256,192,97648,1,0,0:0:0:0:
256,192,97729,1,0,0:0:0:0:
256,192,97810,1,0,0:0:0:0:
256,192,97972,1,0,0:0:0:0:
256,192,98621,1,8,0:0:0:0:
256,192,98864,1,8,0:0:0:0:
256,192,99107,1,8,0:0:0:0:
256,192,99351,1,8,0:0:0:0:
256,192,99594,1,8,0:0:0:0:
256,192,99756,1,8,0:0:0:0:
256,192,99837,1,8,0:0:0:0:
256,192,99918,1,0,0:0:0:0:
256,192,100161,1,0,0:0:0:0:
256,192,100405,1,0,0:0:0:0:
256,192,100648,1,0,0:0:0:0:
256,192,100891,1,0,0:0:0:0:
256,192,101053,1,0,0:0:0:0:
256,192,101134,1,0,0:0:0:0:
256,192,101215,1,8,0:0:0:0:
256,192,101459,1,8,0:0:0:0:
256,192,101702,1,8,0:0:0:0:
256,192,101945,1,8,0:0:0:0:
256,192,102188,1,8,0:0:0:0:
256,192,102351,1,8,0:0:0:0:
256,192,102432,1,8,0:0:0:0:
256,192,102513,1,0,0:0:0:0:
256,192,102756,1,0,0:0:0:0:
256,192,102999,1,0,0:0:0:0:
256,192,103242,1,0,0:0:0:0:
256,192,103486,1,0,0:0:0:0:
256,192,103648,1,0,0:0:0:0:
256,192,103729,1,0,0:0:0:0:
256,192,103810,1,8,0:0:0:0:
256,192,104053,1,8,0:0:0:0:
256,192,104296,1,8,0:0:0:0:
256,192,104540,1,8,0:0:0:0:
256,192,104783,1,8,0:0:0:0:
256,192,104945,1,8,0:0:0:0:
256,192,105026,1,8,0:0:0:0:
256,192,105107,1,0,0:0:0:0:
256,192,105351,1,0,0:0:0:0:
256,192,105594,1,0,0:0:0:0:
256,192,105837,1,0,0:0:0:0:
256,192,106080,1,0,0:0:0:0:
256,192,106242,1,0,0:0:0:0:
256,192,106323,1,0,0:0:0:0:
256,192,106405,1,8,0:0:0:0:
256,192,106648,1,8,0:0:0:0:
256,192,106891,1,8,0:0:0:0:
256,192,107134,1,8,0:0:0:0:
256,192,107378,1,8,0:0:0:0:
256,192,107540,1,8,0:0:0:0:
256,192,107621,1,8,0:0:0:0:
256,192,107702,1,0,0:0:0:0:
256,192,107945,1,0,0:0:0:0:
256,192,108188,1,0,0:0:0:0:
256,192,108432,1,0,0:0:0:0:
256,192,108999,1,8,0:0:0:0:
256,192,109242,1,8,0:0:0:0:
256,192,109486,1,8,0:0:0:0:
256,192,109729,1,8,0:0:0:0:
256,192,109972,1,8,0:0:0:0:
256,192,110053,1,8,0:0:0:0:
256,192,110134,1,0,0:0:0:0:
256,192,110215,1,8,0:0:0:0:
256,192,110296,1,0,0:0:0:0:
256,192,110540,1,0,0:0:0:0:
256,192,110783,1,0,0:0:0:0:
256,192,111026,1,0,0:0:0:0:
256,192,111269,1,0,0:0:0:0:
256,192,111351,1,0,0:0:0:0:
256,192,111432,1,8,0:0:0:0:
256,192,111513,1,0,0:0:0:0:
256,192,111594,1,8,0:0:0:0:
256,192,111837,1,8,0:0:0:0:
256,192,112080,1,8,0:0:0:0:
256,192,112323,1,8,0:0:0:0:
256,192,112567,1,8,0:0:0:0:
256,192,112648,1,0,0:0:0:0:
256,192,112729,1,8,0:0:0:0:
256,192,112810,1,8,0:0:0:0:
256,192,112891,1,0,0:0:0:0:
256,192,113134,1,0,0:0:0:0:
256,192,113378,1,0,0:0:0:0:
256,192,113621,1,0,0:0:0:0:
256,192,113864,1,0,0:0:0:0:
256,192,113945,1,8,0:0:0:0:
256,192,114026,1,0,0:0:0:0:
256,192,114107,1,0,0:0:0:0:
256,192,114188,1,8,0:0:0:0:
256,192,114432,1,8,0:0:0:0:
256,192,114675,1,8,0:0:0:0:
256,192,114918,1,8,0:0:0:0:
256,192,115161,1,8,0:0:0:0:
256,192,115242,1,8,0:0:0:0:
256,192,115323,1,0,0:0:0:0:
256,192,115405,1,8,0:0:0:0:
256,192,115486,1,0,0:0:0:0:
256,192,115729,1,0,0:0:0:0:
256,192,115972,1,0,0:0:0:0:
256,192,116215,1,0,0:0:0:0:
256,192,116459,1,0,0:0:0:0:
256,192,116540,1,0,0:0:0:0:
256,192,116621,1,8,0:0:0:0:
256,192,116702,1,0,0:0:0:0:
256,192,116783,1,8,0:0:0:0:
256,192,117026,1,8,0:0:0:0:
256,192,117269,1,8,0:0:0:0:
256,192,117513,1,8,0:0:0:0:
256,192,117756,1,8,0:0:0:0:
256,192,117837,1,8,0:0:0:0:
256,192,117918,1,0,0:0:0:0:
256,192,117999,1,8,0:0:0:0:
256,192,118080,1,0,0:0:0:0:
256,192,118323,1,0,0:0:0:0:
256,192,118567,1,0,0:0:0:0:
256,192,118729,1,8,0:0:0:0:
256,192,118810,1,8,0:0:0:0:
256,192,118891,1,8,0:0:0:0:
256,192,118972,1,8,0:0:0:0:
256,192,119378,1,0,0:0:0:0:
256,192,119702,1,8,0:0:0:0:
256,192,119864,1,0,0:0:0:0:
256,192,119945,1,8,0:0:0:0:
256,192,120026,1,0,0:0:0:0:
256,192,120188,1,0,0:0:0:0:
256,192,120351,1,8,0:0:0:0:
256,192,120675,1,0,0:0:0:0:
256,192,120837,1,8,0:0:0:0:
256,192,120999,1,0,0:0:0:0:
256,192,121080,1,8,0:0:0:0:
256,192,121161,1,0,0:0:0:0:
256,192,121323,1,8,0:0:0:0:
256,192,121486,1,8,0:0:0:0:
256,192,121567,1,8,0:0:0:0:
256,192,121648,1,0,0:0:0:0:
256,192,121810,1,8,0:0:0:0:
256,192,121972,1,0,0:0:0:0:
256,192,122296,1,8,0:0:0:0:
256,192,122459,1,0,0:0:0:0:
256,192,122540,1,8,0:0:0:0:
256,192,122621,1,8,0:0:0:0:
256,192,122783,1,0,0:0:0:0:
256,192,122945,1,8,0:0:0:0:
256,192,123269,1,0,0:0:0:0:
256,192,123432,1,8,0:0:0:0:
256,192,123594,1,8,0:0:0:0:
256,192,123675,1,8,0:0:0:0:
256,192,123756,1,0,0:0:0:0:
256,192,123918,1,8,0:0:0:0:
256,192,124080,1,0,0:0:0:0:
256,192,124161,1,8,0:0:0:0:
256,192,124242,1,8,0:0:0:0:
256,192,124405,1,8,0:0:0:0:
256,192,124486,1,0,0:0:0:0:
256,192,124567,1,0,0:0:0:0:
256,192,124891,1,8,0:0:0:0:
256,192,125053,1,8,0:0:0:0:
256,192,125134,1,8,0:0:0:0:
256,192,125215,1,0,0:0:0:0:
256,192,125296,1,8,0:0:0:0:
256,192,125378,1,0,0:0:0:0:
256,192,125540,1,8,0:0:0:0:
256,192,125702,1,0,0:0:0:0:
256,192,125783,1,0,0:0:0:0:
256,192,125864,1,0,0:0:0:0:
256,192,126026,1,8,0:0:0:0:
256,192,126188,1,0,0:0:0:0:
256,192,126269,1,8,0:0:0:0:
256,192,126351,1,0,0:0:0:0:
256,192,126513,1,8,0:0:0:0:
256,192,126675,1,8,0:0:0:0:
256,192,126756,1,8,0:0:0:0:
256,192,126837,1,0,0:0:0:0:
256,192,126999,1,8,0:0:0:0:
256,192,127080,1,0,0:0:0:0:
256,192,127161,1,0,0:0:0:0:
256,192,127486,1,8,0:0:0:0:
256,192,127648,1,0,0:0:0:0:
256,192,127729,1,8,0:0:0:0:
256,192,127810,1,0,0:0:0:0:
256,192,127972,1,0,0:0:0:0:
256,192,128134,1,8,0:0:0:0:
256,192,128296,1,0,0:0:0:0:
256,192,128378,1,0,0:0:0:0:
256,192,128459,1,0,0:0:0:0:
256,192,128621,1,8,0:0:0:0:
256,192,128783,1,0,0:0:0:0:
256,192,128864,1,8,0:0:0:0:
256,192,128945,1,0,0:0:0:0:
256,192,129107,1,8,0:0:0:0:
256,192,129269,1,0,0:0:0:0:
256,192,129351,1,8,0:0:0:0:
256,192,129756,1,8,0:0:0:0:
256,192,129837,1,8,0:0:0:0:
256,192,129918,1,0,0:0:0:0:
256,192,130080,1,8,0:0:0:0:
256,192,130242,1,0,0:0:0:0:
256,192,130323,1,8,0:0:0:0:
256,192,130405,1,0,0:0:0:0:
256,192,130486,1,8,0:0:0:0:
256,192,130567,1,0,0:0:0:0:
256,192,130729,1,8,0:0:0:0:
256,192,130810,1,8,0:0:0:0:
256,192,130891,1,0,0:0:0:0:
256,192,131215,1,8,0:0:0:0:
256,192,131378,1,8,0:0:0:0:
256,192,131459,1,0,0:0:0:0:
256,192,131540,1,0,0:0:0:0:
256,192,131702,1,8,0:0:0:0:
256,192,131783,1,8,0:0:0:0:
256,192,131864,1,8,0:0:0:0:
256,192,132026,1,0,0:0:0:0:
256,192,132188,1,0,0:0:0:0:
256,192,132269,1,0,0:0:0:0:
256,192,132351,1,8,0:0:0:0:
256,192,132675,1,8,0:0:0:0:
256,192,132837,1,8,0:0:0:0:
256,192,132918,1,0,0:0:0:0:
256,192,132999,1,0,0:0:0:0:
256,192,133080,1,8,0:0:0:0:
256,192,133161,1,0,0:0:0:0:
256,192,133323,1,8,0:0:0:0:
256,192,133486,1,0,0:0:0:0:
256,192,133810,1,8,0:0:0:0:
256,192,133972,1,0,0:0:0:0:
256,192,134053,1,8,0:0:0:0:
256,192,134134,1,8,0:0:0:0:
256,192,134296,1,8,0:0:0:0:
256,192,134378,1,0,0:0:0:0:
256,192,134459,1,8,0:0:0:0:
256,192,134540,1,0,0:0:0:0:
256,192,134621,1,0,0:0:0:0:
256,192,134783,1,8,0:0:0:0:
256,192,134864,1,8,0:0:0:0:
256,192,134945,1,0,0:0:0:0:
256,192,135269,1,8,0:0:0:0:
256,192,135432,1,0,0:0:0:0:
256,192,135513,1,8,0:0:0:0:
256,192,135594,1,0,0:0:0:0:
256,192,135675,1,8,0:0:0:0:
256,192,135756,1,0,0:0:0:0:
256,192,135918,1,8,0:0:0:0:
256,192,136242,1,0,0:0:0:0:
256,192,136405,1,8,0:0:0:0:
256,192,136567,1,8,0:0:0:0:
256,192,136648,1,8,0:0:0:0:
256,192,136729,1,0,0:0:0:0:
256,192,136891,1,8,0:0:0:0:
256,192,137053,1,8,0:0:0:0:
256,192,137134,1,8,0:0:0:0:
256,192,137215,1,8,0:0:0:0:
256,192,137378,1,8,0:0:0:0:
256,192,137459,1,0,0:0:0:0:
256,192,137540,1,8,0:0:0:0:
256,192,137864,1,8,0:0:0:0:
256,192,138026,1,8,0:0:0:0:
256,192,138107,1,8,0:0:0:0:
256,192,138188,1,0,0:0:0:0:
256,192,138269,1,8,0:0:0:0:
256,192,138351,1,0,0:0:0:0:
256,192,138513,1,8,0:0:0:0:
256,192,138837,1,0,0:0:0:0:
256,192,138999,1,8,0:0:0:0:
256,192,139161,1,8,0:0:0:0:
256,192,139242,1,8,0:0:0:0:
256,192,139323,1,0,0:0:0:0:
256,192,139486,1,8,0:0:0:0:
256,192,139567,1,0,0:0:0:0:
256,192,139648,1,0,0:0:0:0:
256,192,139729,1,0,0:0:0:0:
256,192,139810,1,8,0:0:0:0:
256,192,139891,1,8,0:0:0:0:
256,192,139972,1,0,0:0:0:0:
256,192,140134,1,12,0:0:0:0:
256,192,140459,1,8,0:0:0:0:
256,192,140621,1,4,0:0:0:0:
256,192,140945,1,0,0:0:0:0:
256,192,141107,1,12,0:0:0:0:
256,192,141594,1,8,0:0:0:0:
256,192,141675,1,8,0:0:0:0:
256,192,141756,1,0,0:0:0:0:
256,192,142405,1,0,0:0:0:0:
256,192,142513,1,0,0:0:0:0:
256,192,142621,1,0,0:0:0:0:
256,192,142729,1,12,0:0:0:0:
256,192,143053,1,0,0:0:0:0:
256,192,143215,1,12,0:0:0:0:
256,192,143540,1,8,0:0:0:0:
256,192,143702,1,4,0:0:0:0:
256,192,144242,1,0,0:0:0:0:
256,192,144459,1,0,0:0:0:0:
256,192,144567,1,0,0:0:0:0:
256,192,144675,1,8,0:0:0:0:
256,192,144837,1,8,0:0:0:0:
256,192,144999,1,8,0:0:0:0:
256,192,145080,1,8,0:0:0:0:
256,192,145161,1,0,0:0:0:0:
256,192,145323,1,4,0:0:0:0:
256,192,145648,1,8,0:0:0:0:
256,192,145810,1,4,0:0:0:0:
256,192,146134,1,0,0:0:0:0:
256,192,146296,1,12,0:0:0:0:
256,192,146783,1,8,0:0:0:0:
256,192,146864,1,8,0:0:0:0:
256,192,146945,1,0,0:0:0:0:
256,192,147594,1,0,0:0:0:0:
256,192,147702,1,0,0:0:0:0:
256,192,147810,1,0,0:0:0:0:
256,192,147918,1,12,0:0:0:0:
256,192,148242,1,8,0:0:0:0:
256,192,148405,1,12,0:0:0:0:
256,192,148729,1,8,0:0:0:0:
256,192,148891,1,4,0:0:0:0:
256,192,149432,5,0,0:0:0:0:
256,192,149648,1,0,0:0:0:0:
256,192,149756,1,0,0:0:0:0:
256,192,149864,1,8,0:0:0:0:
256,192,149945,1,8,0:0:0:0:
256,192,150026,1,8,0:0:0:0:
256,192,150188,1,8,0:0:0:0:
256,192,150269,1,8,0:0:0:0:
256,192,150351,1,8,0:0:0:0:
256,192,150513,1,4,0:0:0:0:
256,192,150837,1,8,0:0:0:0:
256,192,150999,1,4,0:0:0:0:
256,192,151323,1,0,0:0:0:0:
256,192,151486,1,12,0:0:0:0:
256,192,151972,1,8,0:0:0:0:
256,192,152053,1,8,0:0:0:0:
256,192,152134,1,0,0:0:0:0:
256,192,152783,1,0,0:0:0:0:
256,192,152891,1,0,0:0:0:0:
256,192,152999,1,0,0:0:0:0:
256,192,153107,1,12,0:0:0:0:
256,192,153432,1,8,0:0:0:0:
256,192,153594,1,4,0:0:0:0:
256,192,153918,1,0,0:0:0:0:
256,192,154080,1,12,0:0:0:0:
256,192,154621,1,0,0:0:0:0:
256,192,154837,1,0,0:0:0:0:
256,192,154945,1,0,0:0:0:0:
256,192,155053,1,8,0:0:0:0:
256,192,155215,1,0,0:0:0:0:
256,192,155296,1,0,0:0:0:0:
256,192,155378,1,8,0:0:0:0:
256,192,155459,1,8,0:0:0:0:
256,192,155540,1,0,0:0:0:0:
256,192,155702,1,12,0:0:0:0:
256,192,156026,1,8,0:0:0:0:
256,192,156188,1,4,0:0:0:0:
256,192,156513,1,0,0:0:0:0:
256,192,156675,1,12,0:0:0:0:
256,192,157161,1,8,0:0:0:0:
256,192,157242,1,8,0:0:0:0:
256,192,157323,1,0,0:0:0:0:
256,192,157972,1,0,0:0:0:0:
256,192,158080,1,0,0:0:0:0:
256,192,158188,1,0,0:0:0:0:
256,192,158296,1,12,0:0:0:0:
256,192,158621,1,8,0:0:0:0:
256,192,158783,1,12,0:0:0:0:
256,192,159107,1,8,0:0:0:0:
256,192,159269,1,4,0:0:0:0:
256,192,159594,1,8,0:0:0:0:
256,192,160891,1,4,0:0:0:0:
256,192,161053,1,0,0:0:0:0:
256,192,161215,1,8,0:0:0:0:
256,192,161378,1,8,0:0:0:0:
256,192,161459,1,8,0:0:0:0:
256,192,161540,1,0,0:0:0:0:
256,192,161621,1,8,0:0:0:0:
256,192,161702,1,0,0:0:0:0:
256,192,161864,1,8,0:0:0:0:
256,192,162026,1,0,0:0:0:0:
256,192,162107,1,0,0:0:0:0:
256,192,162188,1,0,0:0:0:0:
256,192,162351,1,8,0:0:0:0:
256,192,162513,1,0,0:0:0:0:
256,192,162594,1,8,0:0:0:0:
256,192,162675,1,0,0:0:0:0:
256,192,162837,1,8,0:0:0:0:
256,192,162999,1,8,0:0:0:0:
256,192,163080,1,8,0:0:0:0:
256,192,163161,1,8,0:0:0:0:
256,192,163323,1,8,0:0:0:0:
256,192,163486,1,0,0:0:0:0:
256,192,163810,1,8,0:0:0:0:
256,192,163972,1,0,0:0:0:0:
256,192,164053,1,8,0:0:0:0:
256,192,164134,1,0,0:0:0:0:
256,192,164215,1,8,0:0:0:0:
256,192,164296,1,0,0:0:0:0:
256,192,164459,1,8,0:0:0:0:
256,192,164621,1,8,0:0:0:0:
256,192,164702,1,0,0:0:0:0:
256,192,164783,1,0,0:0:0:0:
256,192,164945,1,8,0:0:0:0:
256,192,165107,1,0,0:0:0:0:
256,192,165188,1,8,0:0:0:0:
256,192,165269,1,0,0:0:0:0:
256,192,165432,1,8,0:0:0:0:
256,192,165594,1,0,0:0:0:0:
256,192,165756,1,8,0:0:0:0:
256,192,165918,1,0,0:0:0:0:
256,192,166080,1,8,0:0:0:0:
256,192,166405,1,8,0:0:0:0:
256,192,166567,1,0,0:0:0:0:
256,192,166648,1,8,0:0:0:0:
256,192,166729,1,8,0:0:0:0:
256,192,166810,1,8,0:0:0:0:
256,192,166891,1,0,0:0:0:0:
256,192,167053,1,8,0:0:0:0:
256,192,167215,1,0,0:0:0:0:
256,192,167296,1,0,0:0:0:0:
256,192,167378,1,0,0:0:0:0:
256,192,167540,1,8,0:0:0:0:
256,192,167702,1,0,0:0:0:0:
256,192,167783,1,8,0:0:0:0:
256,192,167864,1,0,0:0:0:0:
256,192,168026,1,8,0:0:0:0:
256,192,168188,1,0,0:0:0:0:
256,192,168269,1,8,0:0:0:0:
256,192,168351,1,0,0:0:0:0:
256,192,168432,1,0,0:0:0:0:
256,192,168513,1,8,0:0:0:0:
256,192,168675,1,0,0:0:0:0:
256,192,168999,1,8,0:0:0:0:
256,192,169161,1,0,0:0:0:0:
256,192,169242,1,8,0:0:0:0:
256,192,169323,1,0,0:0:0:0:
256,192,169405,1,8,0:0:0:0:
256,192,169486,1,8,0:0:0:0:
256,192,169648,1,8,0:0:0:0:
256,192,169810,1,0,0:0:0:0:
256,192,169891,1,0,0:0:0:0:
256,192,169972,1,0,0:0:0:0:
256,192,170134,1,8,0:0:0:0:
256,192,170296,1,8,0:0:0:0:
256,192,170378,1,8,0:0:0:0:
256,192,170459,1,8,0:0:0:0:
256,192,170621,1,8,0:0:0:0:
256,192,170702,1,0,0:0:0:0:
256,192,170783,1,8,0:0:0:0:
256,192,170864,1,8,0:0:0:0:
256,192,170945,1,0,0:0:0:0:
256,192,171026,1,0,0:0:0:0:
256,192,171107,1,8,0:0:0:0:
256,192,171269,1,0,0:0:0:0:
256,192,171594,1,8,0:0:0:0:
256,192,171756,1,0,0:0:0:0:
256,192,171837,1,8,0:0:0:0:
256,192,171918,1,0,0:0:0:0:
256,192,171999,1,0,0:0:0:0:
256,192,172080,1,8,0:0:0:0:
256,192,172242,1,8,0:0:0:0:
256,192,172567,1,0,0:0:0:0:
256,192,172891,1,8,0:0:0:0:
256,192,173053,1,8,0:0:0:0:
256,192,173134,1,8,0:0:0:0:
256,192,173215,1,0,0:0:0:0:
256,192,173296,1,8,0:0:0:0:
256,192,173378,1,0,0:0:0:0:
256,192,173540,1,8,0:0:0:0:
256,192,173864,1,0,0:0:0:0:
256,192,174188,1,8,0:0:0:0:
256,192,174351,1,0,0:0:0:0:
256,192,174432,1,8,0:0:0:0:
256,192,174513,1,0,0:0:0:0:
256,192,174594,1,8,0:0:0:0:
256,192,174675,1,0,0:0:0:0:
256,192,174837,1,8,0:0:0:0:
256,192,174999,1,8,0:0:0:0:
256,192,175080,1,8,0:0:0:0:
256,192,175161,1,0,0:0:0:0:
256,192,175486,1,8,0:0:0:0:
256,192,175567,1,8,0:0:0:0:
256,192,175648,1,0,0:0:0:0:
256,192,175810,1,8,0:0:0:0:
256,192,175972,1,0,0:0:0:0:
256,192,176053,1,0,0:0:0:0:
256,192,176134,1,8,0:0:0:0:
256,192,176296,1,0,0:0:0:0:
256,192,176459,1,8,0:0:0:0:
256,192,176621,1,0,0:0:0:0:
256,192,176783,1,8,0:0:0:0:
256,192,176945,1,0,0:0:0:0:
256,192,177026,1,8,0:0:0:0:
256,192,177107,1,0,0:0:0:0:
256,192,177188,1,8,0:0:0:0:
256,192,177269,1,0,0:0:0:0:
256,192,177432,1,8,0:0:0:0:
256,192,177594,1,0,0:0:0:0:
256,192,177756,1,0,0:0:0:0:
256,192,177918,1,8,0:0:0:0:
256,192,178080,1,0,0:0:0:0:
256,192,178161,1,8,0:0:0:0:
256,192,178242,1,0,0:0:0:0:
256,192,178405,1,8,0:0:0:0:
256,192,178567,1,0,0:0:0:0:
256,192,178648,1,0,0:0:0:0:
256,192,178729,1,0,0:0:0:0:
256,192,178891,1,8,0:0:0:0:
256,192,179053,1,0,0:0:0:0:
256,192,179378,1,8,0:0:0:0:
256,192,179540,1,8,0:0:0:0:
256,192,179621,1,8,0:0:0:0:
256,192,179702,1,0,0:0:0:0:
256,192,179783,1,8,0:0:0:0:
256,192,179864,1,0,0:0:0:0:
256,192,180026,1,8,0:0:0:0:
256,192,180188,1,0,0:0:0:0:
256,192,180269,1,0,0:0:0:0:
256,192,180351,1,0,0:0:0:0:
256,192,180513,1,8,0:0:0:0:
256,192,180675,1,0,0:0:0:0:
256,192,180756,1,8,0:0:0:0:
256,192,180837,1,0,0:0:0:0:
256,192,181648,1,0,0:0:0:0:
256,192,181891,1,0,0:0:0:0:
256,192,182134,1,0,0:0:0:0:
256,192,182378,1,0,0:0:0:0:
256,192,182621,1,8,0:0:0:0:
256,192,182702,1,8,0:0:0:0:
256,192,182783,1,0,0:0:0:0:
256,192,182864,1,0,0:0:0:0:
256,192,182945,1,8,0:0:0:0:
256,192,183188,1,8,0:0:0:0:
256,192,183432,1,8,0:0:0:0:
256,192,183675,1,8,0:0:0:0:
256,192,183918,1,8,0:0:0:0:
256,192,183999,1,8,0:0:0:0:
256,192,184080,1,0,0:0:0:0:
256,192,184161,1,8,0:0:0:0:
256,192,184242,1,0,0:0:0:0:
256,192,184486,1,0,0:0:0:0:
256,192,184729,1,0,0:0:0:0:
256,192,184972,1,0,0:0:0:0:
256,192,185215,1,0,0:0:0:0:
256,192,185296,1,8,0:0:0:0:
256,192,185378,1,0,0:0:0:0:
256,192,185459,1,0,0:0:0:0:
256,192,185540,1,8,0:0:0:0:
256,192,185783,1,8,0:0:0:0:
256,192,186026,1,8,0:0:0:0:
256,192,186188,1,0,0:0:0:0:
256,192,186513,1,12,0:0:0:0:
256,192,186837,1,8,0:0:0:0:
256,192,186918,1,8,0:0:0:0:
256,192,186999,1,0,0:0:0:0:
256,192,187161,1,0,0:0:0:0:
256,192,187323,1,8,0:0:0:0:
256,192,187486,1,8,0:0:0:0:
256,192,187567,1,8,0:0:0:0:
256,192,187648,1,0,0:0:0:0:
256,192,187810,1,0,0:0:0:0:
256,192,187972,1,8,0:0:0:0:
256,192,188134,1,8,0:0:0:0:
256,192,188215,1,8,0:0:0:0:
256,192,188296,1,0,0:0:0:0:
256,192,188459,1,0,0:0:0:0:
256,192,188621,1,8,0:0:0:0:
256,192,188783,1,8,0:0:0:0:
256,192,188864,1,8,0:0:0:0:
256,192,188945,1,0,0:0:0:0:
256,192,189107,1,0,0:0:0:0:
256,192,189432,1,0,0:0:0:0:
256,192,189513,1,8,0:0:0:0:
256,192,189594,1,0,0:0:0:0:
256,192,189756,1,0,0:0:0:0:
256,192,189918,1,8,0:0:0:0:
256,192,190080,1,0,0:0:0:0:
256,192,190161,1,8,0:0:0:0:
256,192,190242,1,0,0:0:0:0:
256,192,190405,1,0,0:0:0:0:
256,192,190567,1,8,0:0:0:0:
256,192,190729,1,0,0:0:0:0:
256,192,190810,1,8,0:0:0:0:
256,192,190891,1,0,0:0:0:0:
256,192,191053,1,0,0:0:0:0:
256,192,191215,1,8,0:0:0:0:
256,192,191378,1,0,0:0:0:0:
256,192,191459,1,8,0:0:0:0:
256,192,191540,1,0,0:0:0:0:
256,192,191702,1,0,0:0:0:0:
256,192,192026,1,8,0:0:0:0:
256,192,192107,1,8,0:0:0:0:
256,192,192188,1,8,0:0:0:0:
256,192,192351,1,0,0:0:0:0:
256,192,192513,1,8,0:0:0:0:
256,192,192675,1,0,0:0:0:0:
256,192,192756,1,0,0:0:0:0:
256,192,192837,1,0,0:0:0:0:
256,192,192999,1,8,0:0:0:0:
256,192,193161,1,0,0:0:0:0:
256,192,193323,1,8,0:0:0:0:
256,192,193405,1,8,0:0:0:0:
256,192,193486,1,8,0:0:0:0:
256,192,193648,1,0,0:0:0:0:
256,192,193810,1,8,0:0:0:0:
256,192,193972,1,0,0:0:0:0:
256,192,194053,1,0,0:0:0:0:
256,192,194134,1,0,0:0:0:0:
256,192,194296,1,8,0:0:0:0:
256,192,194459,1,0,0:0:0:0:
256,192,194621,1,8,0:0:0:0:
256,192,194702,1,8,0:0:0:0:
256,192,194783,1,8,0:0:0:0:
256,192,194945,1,0,0:0:0:0:
256,192,195107,1,8,0:0:0:0:
256,192,195269,1,0,0:0:0:0:
256,192,195351,1,0,0:0:0:0:
256,192,195432,1,0,0:0:0:0:
256,192,195594,1,8,0:0:0:0:
256,192,195756,1,0,0:0:0:0:
256,192,195918,1,8,0:0:0:0:
256,192,195999,1,8,0:0:0:0:
256,192,196080,1,8,0:0:0:0:
256,192,196242,1,0,0:0:0:0:
256,192,196405,1,8,0:0:0:0:
256,192,196567,1,0,0:0:0:0:
256,192,197215,1,0,0:0:0:0:
256,192,197296,1,0,0:0:0:0:
256,192,197378,1,8,0:0:0:0:
256,192,197540,1,8,0:0:0:0:
256,192,197702,1,0,0:0:0:0:
256,192,197864,1,0,0:0:0:0:
256,192,197945,1,0,0:0:0:0:
256,192,198026,1,8,0:0:0:0:
256,192,198188,1,8,0:0:0:0:
256,192,198351,1,0,0:0:0:0:
256,192,198513,1,0,0:0:0:0:
256,192,198594,1,0,0:0:0:0:
256,192,198675,1,8,0:0:0:0:
256,192,198837,1,8,0:0:0:0:
256,192,198999,1,0,0:0:0:0:
256,192,199161,1,0,0:0:0:0:
256,192,199242,1,0,0:0:0:0:
256,192,199323,1,8,0:0:0:0:
256,192,199486,1,0,0:0:0:0:
256,192,199810,1,8,0:0:0:0:
256,192,199891,1,0,0:0:0:0:
256,192,199972,1,8,0:0:0:0:
256,192,200134,1,0,0:0:0:0:
256,192,200296,1,8,0:0:0:0:
256,192,200459,1,8,0:0:0:0:
256,192,200540,1,0,0:0:0:0:
256,192,200621,1,8,0:0:0:0:
256,192,200783,1,0,0:0:0:0:
256,192,200945,1,8,0:0:0:0:
256,192,201107,1,8,0:0:0:0:
256,192,201188,1,0,0:0:0:0:
256,192,201269,1,8,0:0:0:0:
256,192,201432,1,0,0:0:0:0:
256,192,201594,1,8,0:0:0:0:
256,192,201756,1,8,0:0:0:0:
256,192,201837,1,0,0:0:0:0:
256,192,201918,1,8,0:0:0:0:
256,192,202080,1,0,0:0:0:0:
256,192,202405,1,8,0:0:0:0:
256,192,202486,1,8,0:0:0:0:
256,192,202567,1,8,0:0:0:0:
256,192,202729,1,8,0:0:0:0:
256,192,202891,1,0,0:0:0:0:
256,192,203053,1,0,0:0:0:0:
256,192,203134,1,0,0:0:0:0:
256,192,203215,1,0,0:0:0:0:
256,192,203378,1,0,0:0:0:0:
256,192,203540,1,8,0:0:0:0:
256,192,203702,1,8,0:0:0:0:
256,192,203783,1,8,0:0:0:0:
256,192,203864,1,8,0:0:0:0:
256,192,204026,1,8,0:0:0:0:
256,192,204188,1,0,0:0:0:0:
256,192,204351,1,0,0:0:0:0:
256,192,204432,1,0,0:0:0:0:
256,192,204513,1,0,0:0:0:0:
256,192,204675,1,0,0:0:0:0:
256,192,204837,1,8,0:0:0:0:
256,192,204999,1,8,0:0:0:0:
256,192,205080,1,8,0:0:0:0:
256,192,205161,1,8,0:0:0:0:
256,192,205323,1,8,0:0:0:0:
256,192,205486,1,0,0:0:0:0:
256,192,205648,1,0,0:0:0:0:
256,192,205729,1,0,0:0:0:0:
256,192,205810,1,0,0:0:0:0:
256,192,205972,1,0,0:0:0:0:
256,192,206134,1,8,0:0:0:0:
256,192,206296,1,8,0:0:0:0:
256,192,206378,1,8,0:0:0:0:
256,192,206459,1,8,0:0:0:0:
256,192,206621,1,8,0:0:0:0:
256,192,206783,1,0,0:0:0:0:
256,192,206945,1,0,0:0:0:0:
256,192,207594,1,8,0:0:0:0:
256,192,207837,1,8,0:0:0:0:
256,192,208080,1,8,0:0:0:0:
256,192,208323,1,8,0:0:0:0:
256,192,208567,1,8,0:0:0:0:
256,192,208729,1,0,0:0:0:0:
256,192,208810,1,8,0:0:0:0:
256,192,208891,1,0,0:0:0:0:
256,192,209134,1,0,0:0:0:0:
256,192,209378,1,0,0:0:0:0:
256,192,209621,1,0,0:0:0:0:
256,192,209864,1,0,0:0:0:0:
256,192,210026,1,8,0:0:0:0:
256,192,210107,1,0,0:0:0:0:
256,192,210188,1,8,0:0:0:0:
256,192,210432,1,8,0:0:0:0:
256,192,210675,1,8,0:0:0:0:
256,192,210918,1,8,0:0:0:0:
256,192,211161,1,8,0:0:0:0:
256,192,211323,1,0,0:0:0:0:
256,192,211405,1,8,0:0:0:0:
256,192,211486,1,0,0:0:0:0:
256,192,211729,1,0,0:0:0:0:
256,192,211972,1,0,0:0:0:0:
256,192,212215,1,0,0:0:0:0:
256,192,212459,1,0,0:0:0:0:
256,192,212621,1,8,0:0:0:0:
256,192,212702,1,0,0:0:0:0:
256,192,212783,1,8,0:0:0:0:
256,192,213026,1,8,0:0:0:0:
256,192,213269,1,8,0:0:0:0:
256,192,213513,1,8,0:0:0:0:
256,192,213756,1,8,0:0:0:0:
256,192,213918,1,0,0:0:0:0:
256,192,213999,1,0,0:0:0:0:
256,192,214080,1,0,0:0:0:0:
256,192,214323,1,0,0:0:0:0:
256,192,214567,1,0,0:0:0:0:
256,192,214810,1,0,0:0:0:0:
256,192,215053,1,0,0:0:0:0:
256,192,215215,1,8,0:0:0:0:
256,192,215296,1,8,0:0:0:0:
256,192,215378,1,8,0:0:0:0:
256,192,215621,1,8,0:0:0:0:
256,192,215864,1,8,0:0:0:0:
256,192,216107,1,8,0:0:0:0:
256,192,216351,1,8,0:0:0:0:
256,192,216513,1,0,0:0:0:0:
256,192,216594,1,0,0:0:0:0:
256,192,216675,1,0,0:0:0:0:
256,192,216918,1,0,0:0:0:0:
256,192,217161,1,0,0:0:0:0:
256,192,217405,1,0,0:0:0:0:
256,192,217972,1,8,0:0:0:0:
256,192,218215,1,8,0:0:0:0:
256,192,218459,1,8,0:0:0:0:
256,192,218702,1,8,0:0:0:0:
256,192,218945,1,8,0:0:0:0:
256,192,219026,1,8,0:0:0:0:
256,192,219107,1,0,0:0:0:0:
256,192,219188,1,8,0:0:0:0:
256,192,219269,1,0,0:0:0:0:
256,192,219513,1,0,0:0:0:0:
256,192,219756,1,0,0:0:0:0:
256,192,219999,1,0,0:0:0:0:
256,192,220242,1,0,0:0:0:0:
256,192,220323,1,0,0:0:0:0:
256,192,220405,1,8,0:0:0:0:
256,192,220486,1,0,0:0:0:0:
256,192,220567,1,8,0:0:0:0:
256,192,220810,1,8,0:0:0:0:
256,192,221053,1,8,0:0:0:0:
256,192,221296,1,8,0:0:0:0:
256,192,221540,1,8,0:0:0:0:
256,192,221621,1,8,0:0:0:0:
256,192,221702,1,0,0:0:0:0:
256,192,221783,1,8,0:0:0:0:
256,192,221864,1,0,0:0:0:0:
256,192,222107,1,0,0:0:0:0:
256,192,222351,1,0,0:0:0:0:
256,192,222594,1,0,0:0:0:0:
256,192,222837,1,0,0:0:0:0:
256,192,222918,1,0,0:0:0:0:
256,192,222999,1,8,0:0:0:0:
256,192,223080,1,0,0:0:0:0:
256,192,223161,1,8,0:0:0:0:
256,192,223405,1,8,0:0:0:0:
256,192,223648,1,8,0:0:0:0:
256,192,223891,1,8,0:0:0:0:
256,192,224134,1,8,0:0:0:0:
256,192,224215,1,0,0:0:0:0:
256,192,224296,1,0,0:0:0:0:
256,192,224378,1,8,0:0:0:0:
256,192,224459,1,0,0:0:0:0:
256,192,224702,1,0,0:0:0:0:
256,192,224945,1,0,0:0:0:0:
256,192,225188,1,0,0:0:0:0:
256,192,225432,1,0,0:0:0:0:
256,192,225513,1,8,0:0:0:0:
256,192,225594,1,8,0:0:0:0:
256,192,225675,1,0,0:0:0:0:
256,192,225756,1,8,0:0:0:0:
256,192,225999,1,8,0:0:0:0:
256,192,226242,1,8,0:0:0:0:
256,192,226486,1,8,0:0:0:0:
256,192,226729,1,8,0:0:0:0:
256,192,226810,1,0,0:0:0:0:
256,192,226891,1,0,0:0:0:0:
256,192,226972,1,8,0:0:0:0:
256,192,227053,1,0,0:0:0:0:
256,192,227296,1,0,0:0:0:0:
256,192,227540,1,0,0:0:0:0:
256,192,228351,1,0,0:0:0:0:
256,192,228513,1,0,0:0:0:0:
256,192,228675,1,8,0:0:0:0:
256,192,228837,1,0,0:0:0:0:
256,192,228999,1,8,0:0:0:0:
256,192,229323,1,0,0:0:0:0:
256,192,229486,1,8,0:0:0:0:
256,192,229648,1,0,0:0:0:0:
256,192,229810,1,0,0:0:0:0:
256,192,229972,1,8,0:0:0:0:
256,192,230296,1,8,0:0:0:0:
256,192,230459,1,0,0:0:0:0:
256,192,230621,1,0,0:0:0:0:
256,192,230783,1,8,0:0:0:0:
256,192,230945,1,8,0:0:0:0:
256,192,231107,1,0,0:0:0:0:
256,192,231269,1,0,0:0:0:0:
256,192,231432,1,0,0:0:0:0:
256,192,231594,1,8,0:0:0:0:
256,192,231918,1,0,0:0:0:0:
256,192,232080,1,0,0:0:0:0:
256,192,232242,1,8,0:0:0:0:
256,192,232405,1,8,0:0:0:0:
256,192,232567,1,8,0:0:0:0:
256,192,232729,1,8,0:0:0:0:
256,192,232891,1,0,0:0:0:0:
256,192,233053,1,8,0:0:0:0:
256,192,233215,1,0,0:0:0:0:
256,192,233540,1,8,0:0:0:0:
256,192,233864,1,0,0:0:0:0:
256,192,234026,1,0,0:0:0:0:
256,192,234188,1,8,0:0:0:0:
256,192,234351,1,0,0:0:0:0:
256,192,234513,1,0,0:0:0:0:
256,192,234837,1,8,0:0:0:0:
256,192,234999,1,0,0:0:0:0:
256,192,235161,1,8,0:0:0:0:
256,192,235323,1,8,0:0:0:0:
256,192,235486,1,0,0:0:0:0:
256,192,235810,1,0,0:0:0:0:
256,192,235972,1,8,0:0:0:0:
256,192,236134,1,8,0:0:0:0:
256,192,236296,1,8,0:0:0:0:
256,192,236459,1,0,0:0:0:0:
256,192,236621,1,0,0:0:0:0:
256,192,236783,1,8,0:0:0:0:
256,192,237107,1,0,0:0:0:0:
256,192,237269,1,0,0:0:0:0:
256,192,237432,1,0,0:0:0:0:
256,192,237594,1,8,0:0:0:0:
256,192,237756,1,8,0:0:0:0:
256,192,237918,1,8,0:0:0:0:
256,192,238080,1,0,0:0:0:0:
256,192,238242,1,8,0:0:0:0:
256,192,238405,1,0,0:0:0:0:
256,192,238567,1,0,0:0:0:0:
