osu file format v14

[General]
AudioFilename: audio.mp3
AudioLeadIn: 0
PreviewTime: 75859
Countdown: 1
SampleSet: Normal
StackLeniency: 0.7
Mode: 0
LetterboxInBreaks: 0
WidescreenStoryboard: 0

[Editor]
DistanceSpacing: 1.2
BeatDivisor: 8
GridSize: 16
TimelineZoom: 2.599999

[Metadata]
Title:sink to the deep sea world
TitleUnicode:sink to the deep sea world
Artist:Chroma
ArtistUnicode:Chroma
Creator:Lemonstride
Version:Mare Nostrum
Source:
Tags:
BeatmapID:1876722
BeatmapSetID:898402

[Difficulty]
HPDrainRate:6
CircleSize:4
OverallDifficulty:8.6
ApproachRate:9.6
SliderMultiplier:2.2
SliderTickRate:1

[Events]
//Background and Video events
0,0,"Konachan.com - 266452 sample.jpg",0,0
//Break Periods
//Storyboard Layer 0 (Background)
//Storyboard Layer 1 (Fail)
//Storyboard Layer 2 (Pass)
//Storyboard Layer 3 (Foreground)
//Storyboard Sound Samples

[TimingPoints]
1022,324.324324324324,4,1,0,80,1,0
31670,-100,4,1,0,65,0,0
32157,-100,4,1,0,80,0,0
77481,-100,4,1,0,80,0,1
87211,-100,4,1,0,80,0,0
87859,-100,4,1,0,80,0,1
97589,-100,4,1,0,80,0,0
140743,-133.333333333333,4,1,0,80,0,0
142021,-100,4,1,0,80,0,0
143319,-200,4,1,0,80,0,0
144049,-100,4,1,0,80,0,0
145913,-200,4,1,0,80,0,0
147616,-100,4,1,0,80,0,0
148589,-200,4,1,0,80,0,0
149562,-100,4,1,0,80,0,0
151103,-200,4,1,0,80,0,0
152479,-100,4,1,0,80,0,0
153697,-200,4,1,0,80,0,0
155400,-100,4,1,0,80,0,0
156292,-200,4,1,0,80,0,0
157994,-100,4,1,0,80,0,0
158886,-200,4,1,0,80,0,0
159373,-100,4,1,0,80,0,0
185238,-100,4,1,0,95,0,0
186008,-100,4,1,0,80,0,0
186535,-100,4,1,0,80,0,1
196265,-100,4,1,0,80,0,0
196913,-100,4,1,0,80,0,1
206643,-100,4,1,0,80,0,0

[Colours]
Combo1 : 128,128,192
Combo2 : 128,255,255
Combo3 : 0,128,255
Combo4 : 128,128,255
Combo5 : 187,103,229
Combo6 : 155,240,238

[HitObjects]
72,38,1022,6,0,P|40:106|52:139,1,110
115,100,1346,1,0,0:0:0:0:
111,234,1508,1,0,0:0:0:0:
181,156,1670,1,0,0:0:0:0:
72,141,1832,1,0,0:0:0:0:
380,182,1994,6,0,P|354:249|303:261,1,110
302,189,2319,1,0,0:0:0:0:
311,308,2481,1,0,0:0:0:0:
411,243,2643,1,0,0:0:0:0:
295,204,2805,1,0,0:0:0:0:
202,345,2967,6,0,P|259:295|255:257,1,110
186,272,3292,1,0,0:0:0:0:
272,192,3454,1,0,0:0:0:0:
175,154,3616,1,0,0:0:0:0:
255,89,3778,1,0,0:0:0:0:
346,165,3940,1,0,0:0:0:0:
252,209,4103,1,0,0:0:0:0:
186,118,4265,1,0,0:0:0:0:
130,209,4427,1,0,0:0:0:0:
41,272,4589,6,0,P|95:335|138:325,1,110
112,262,4913,1,0,0:0:0:0:
199,322,5076,1,0,0:0:0:0:
207,228,5238,1,0,0:0:0:0:
107,303,5400,1,0,0:0:0:0:
113,213,5562,1,0,0:0:0:0:
215,253,5724,1,0,0:0:0:0:
201,156,5886,1,0,0:0:0:0:
346,308,6049,5,0,0:0:0:0:
346,308,6130,1,0,0:0:0:0:
346,308,6211,2,0,P|371:248|370:188,1,110
298,236,6535,1,0,0:0:0:0:
370,131,6697,1,0,0:0:0:0:
329,114,6778,1,0,0:0:0:0:
305,151,6859,1,0,0:0:0:0:
266,130,6940,1,0,0:0:0:0:
242,167,7021,1,0,0:0:0:0:
216,130,7103,1,0,0:0:0:0:
193,168,7184,2,0,P|161:243|158:276,1,110
170,296,7427,1,0,0:0:0:0:
170,296,7508,5,0,0:0:0:0:
274,277,7670,2,0,P|327:320|351:318,1,55
344,251,7832,1,0,0:0:0:0:
344,251,7913,1,0,0:0:0:0:
344,251,7994,2,0,P|369:185|355:147,1,110
229,120,8319,5,0,0:0:0:0:
229,120,8400,1,0,0:0:0:0:
229,120,8481,2,0,P|146:141|131:157,1,110
116,180,8724,1,0,0:0:0:0:
116,180,8805,1,0,0:0:0:0:
203,191,8967,1,0,0:0:0:0:
294,233,9130,1,0,0:0:0:0:
212,294,9292,1,0,0:0:0:0:
244,323,9373,1,0,0:0:0:0:
265,284,9454,1,0,0:0:0:0:
297,314,9535,1,0,0:0:0:0:
321,277,9616,2,0,P|333:208|312:172,1,110
166,133,9940,6,0,L|145:96,4,27.5
181,222,10265,1,0,0:0:0:0:
250,183,10427,1,0,0:0:0:0:
250,183,10508,1,0,0:0:0:0:
250,183,10589,2,0,P|239:278|207:301,1,110
185,224,10913,1,0,0:0:0:0:
185,224,10994,1,0,0:0:0:0:
185,224,11076,1,0,0:0:0:0:
183,132,11238,1,0,0:0:0:0:
183,132,11319,1,0,0:0:0:0:
183,132,11400,1,0,0:0:0:0:
381,62,11562,6,0,L|302:148,1,110
398,202,11886,2,0,L|276:242,1,110
243,174,12211,2,0,L|139:106,1,110
99,227,12535,2,0,L|99:177,4,27.5
206,352,12859,2,0,P|182:292|207:243,1,110
271,294,13184,2,0,P|281:208|236:175,1,110
200,176,13508,1,0,0:0:0:0:
200,176,13589,1,0,0:0:0:0:
200,176,13670,1,0,0:0:0:0:
165,67,13832,2,0,P|80:101|71:143,1,110
144,339,14157,6,0,L|171:224,1,110
265,265,14481,2,0,L|217:147,1,110
133,168,14805,2,0,L|197:66,1,110
275,98,15130,2,0,L|277:60,4,27.5
409,165,15454,2,0,P|425:262|395:288,1,110
348,227,15778,2,0,P|320:147|353:94,1,110
385,62,16103,1,0,0:0:0:0:
385,62,16184,1,0,0:0:0:0:
385,62,16265,1,0,0:0:0:0:
300,73,16427,1,0,0:0:0:0:
300,73,16508,1,0,0:0:0:0:
300,73,16589,1,0,0:0:0:0:
83,54,16751,6,0,L|94:170,1,110
47,223,17076,1,0,0:0:0:0:
59,265,17157,1,0,0:0:0:0:
95,240,17238,1,0,0:0:0:0:
110,281,17319,1,0,0:0:0:0:
146,256,17400,2,0,L|260:293,1,110
213,184,17724,2,0,L|239:142,4,27.5
427,127,18049,6,0,P|402:206|355:222,1,110
331,153,18373,2,0,P|303:226|331:284,1,110
381,295,18697,1,0,0:0:0:0:
381,295,18778,1,0,0:0:0:0:
381,295,18859,2,0,P|315:347|289:347,1,110
274,345,19103,1,0,0:0:0:0:
274,345,19184,1,0,0:0:0:0:
70,310,19346,6,0,L|81:191,1,110
178,239,19670,1,0,0:0:0:0:
158,199,19751,1,0,0:0:0:0:
198,182,19832,1,0,0:0:0:0:
168,148,19913,1,0,0:0:0:0:
207,127,19994,2,0,L|270:35,1,110
349,146,20319,2,0,L|336:179,4,27.5
220,328,20643,6,0,L|166:226,1,110
238,195,20967,2,0,P|168:152|132:163,1,110
273,62,21292,1,0,0:0:0:0:
273,62,21373,1,0,0:0:0:0:
273,62,21454,6,0,L|249:121,1,55
365,126,21616,2,0,L|399:64,1,55
111,207,21778,6,0,P|97:262|99:267,1,55
172,248,21940,2,0,P|218:279|224:279,1,55
236,206,22103,2,0,P|292:199|296:195,1,55
262,130,22265,2,0,P|298:86|299:81,1,55
343,27,22427,2,0,P|380:69|380:75,1,55
360,135,22589,2,0,P|353:191|349:195,1,55
288,201,22751,2,0,P|295:257|299:261,1,55
368,274,22913,2,0,P|329:315|323:316,1,55
273,360,23076,2,0,P|251:308|252:302,1,55
169,321,23238,2,0,P|181:266|186:262,1,55
257,235,23400,2,0,P|217:194|212:193,1,55
139,199,23562,2,0,P|150:143|155:140,1,55
219,122,23724,2,0,P|258:81|263:80,1,55
323,82,23886,2,0,P|370:50|375:50,1,55
389,121,24049,2,0,P|405:175|403:180,1,55
289,154,24211,2,0,P|331:191|332:196,1,55
144,257,24373,6,0,L|121:193,1,55
211,208,24535,2,0,L|224:147,1,55
143,118,24697,2,0,L|206:77,1,55
288,72,24859,2,0,L|315:134,1,55
269,192,25021,2,0,L|340:209,1,55
387,259,25184,2,0,L|341:304,1,55
271,305,25346,2,0,L|266:229,1,55
322,204,25508,2,0,L|354:154,1,55
274,127,25670,2,0,L|242:75,1,55
225,190,25832,2,0,L|153:184,1,55
167,111,25994,2,0,L|174:57,1,55
245,80,26157,2,0,L|290:132,1,55
225,190,26319,2,0,L|281:241,1,55
396,160,26481,2,0,L|373:137|366:130|351:115|336:100|286:172,1,55
396,160,26643,2,0,B|390:157|337:161|312:159,1,55
396,160,26805,2,0,L|361:211,1,55
263,49,26967,6,0,P|227:98|240:136,1,55
306,134,27130,2,0,L|238:160,1,55
178,154,27292,2,0,P|199:206|204:208,1,55
266,232,27454,2,0,L|222:299,1,55
190,335,27616,2,0,P|158:287|158:282,1,55
82,270,27778,2,0,L|119:213,1,55
182,220,27940,2,0,P|170:164|166:161,1,55
102,146,28103,2,0,L|135:79,1,55
202,100,28265,2,0,P|241:59|246:58,1,55
253,155,28427,2,0,L|310:168,1,55
320,94,28589,2,0,P|371:116|374:120,1,55
384,192,28751,2,0,L|431:152,1,55
417,259,28913,2,0,P|362:273|357:271,1,55
312,221,29076,2,0,L|265:176,1,55
284,301,29238,2,0,P|245:259|244:254,1,55
311,224,29400,2,0,L|271:177,1,55
328,120,29562,6,0,P|265:105|251:110,1,55
227,47,29724,2,0,P|201:106|203:121,1,55
231,165,29886,2,0,L|140:191,1,55
110,233,30049,2,0,L|170:274,1,55
230,238,30211,2,0,P|255:297|253:312,1,55
231,165,30373,2,0,P|288:194|296:206,1,55
350,154,30535,2,0,L|308:98,1,55
273,84,30697,5,0,0:0:0:0:
229,88,30778,1,0,0:0:0:0:
220,131,30859,1,0,0:0:0:0:
176,129,30940,1,0,0:0:0:0:
153,172,31021,1,0,0:0:0:0:
191,211,31103,1,0,0:0:0:0:
170,262,31184,1,0,0:0:0:0:
220,282,31265,1,0,0:0:0:0:
264,240,31346,1,0,0:0:0:0:
291,293,31427,1,0,0:0:0:0:
336,253,31508,1,0,0:0:0:0:
327,193,31589,1,0,0:0:0:0:
308,147,31670,2,0,L|252:91|234:73|197:36|160:0|133:-28,1,27.5
308,147,31751,2,0,L|263:102|249:88|219:58|189:28|198:-4,1,27.5
308,147,31832,2,0,L|275:114|264:103|242:81|220:59|263:49,1,27.5
308,147,31913,2,0,L|285:124|278:117|263:102|248:87|267:114,1,27.5
308,147,31994,2,0,L|296:135|293:132|285:124|277:116|256:146,1,27.5
308,147,32076,2,0,L|300:139|297:136|289:128|281:120|260:150,1,27.5
127,47,32319,6,0,P|158:125|145:146,1,110
66,133,32643,1,0,0:0:0:0:
52,174,32724,1,0,0:0:0:0:
94,186,32805,1,0,0:0:0:0:
77,226,32886,1,0,0:0:0:0:
92,267,32967,2,0,P|152:248|180:209,1,110
156,123,33292,2,0,L|171:87,4,27.5
312,128,33616,6,0,P|325:198|301:236,1,110
239,181,33940,2,0,L|230:293,1,110
236,99,34265,1,0,0:0:0:0:
236,99,34346,1,0,0:0:0:0:
236,99,34427,2,0,P|164:146|166:189,1,110
159,187,34670,1,0,0:0:0:0:
159,187,34751,1,0,0:0:0:0:
353,338,34913,6,0,P|306:247|316:221,1,110
383,262,35238,2,0,P|365:185|327:163,1,110
312,247,35481,1,0,0:0:0:0:
312,247,35562,2,0,P|251:201|255:160,1,110
299,113,35886,2,0,L|288:83,4,27.5
176,170,36211,6,0,P|86:194|78:226,1,110
146,239,36535,2,0,P|221:242|240:214,1,110
218,145,36859,1,0,0:0:0:0:
218,145,36940,1,0,0:0:0:0:
218,145,37021,2,0,L|277:52,1,110
290,44,37265,1,0,0:0:0:0:
290,44,37346,1,0,0:0:0:0:
392,217,37508,6,0,P|352:280|283:275,1,110
307,205,37832,1,0,0:0:0:0:
276,236,37913,1,0,0:0:0:0:
243,206,37994,1,0,0:0:0:0:
208,233,38076,1,0,0:0:0:0:
165,243,38157,2,0,P|115:196|116:153,1,110
185,165,38481,2,0,L|190:134,4,27.5
315,158,38805,6,0,P|304:212|283:273,1,110
285,291,39049,1,0,0:0:0:0:
285,291,39130,1,0,0:0:0:0:
285,291,39211,1,0,0:0:0:0:
285,291,39292,1,0,0:0:0:0:
222,190,39454,1,0,0:0:0:0:
222,190,39535,1,0,0:0:0:0:
222,190,39616,1,0,0:0:0:0:
129,317,39778,1,0,0:0:0:0:
129,317,39859,1,0,0:0:0:0:
129,317,39940,6,0,P|207:289|212:232,1,110
142,239,40265,2,0,P|144:165|173:130,1,110
214,195,40589,2,0,P|261:119|252:79,1,110
184,36,40913,2,0,L|165:90,1,55
129,181,41076,2,0,L|111:205,4,27.5
270,339,41400,6,0,P|241:281|250:233,1,110
319,277,41724,2,0,P|323:204|291:178,1,110
201,176,42049,1,0,0:0:0:0:
201,176,42130,1,0,0:0:0:0:
201,176,42211,6,0,L|183:118,1,55
297,117,42373,2,0,L|311:63,1,55
168,53,42535,5,0,0:0:0:0:
126,79,42616,1,0,0:0:0:0:
89,112,42697,2,0,L|51:152,1,55
135,172,42859,2,0,L|122:228,1,55
195,115,43021,2,0,L|231:159,1,55
293,97,43184,1,0,0:0:0:0:
325,134,43265,1,0,0:0:0:0:
327,183,43346,2,0,L|319:238,1,55
192,166,43508,5,0,0:0:0:0:
241,196,43589,1,0,0:0:0:0:
231,216,43670,1,0,0:0:0:0:
237,265,43751,1,0,0:0:0:0:
272,298,43832,6,0,L|325:334,1,55
320,215,43994,2,0,L|362:269,1,55
268,143,44157,2,0,L|246:195,1,55
332,90,44319,2,0,L|381:127,1,55
226,57,44481,1,0,0:0:0:0:
188,89,44562,1,0,0:0:0:0:
181,138,44643,2,0,L|183:198,1,55
268,133,44805,1,0,0:0:0:0:
312,155,44886,1,0,0:0:0:0:
283,195,44967,1,0,0:0:0:0:
323,224,45049,1,0,0:0:0:0:
205,250,45130,6,0,L|218:312,1,55
287,292,45292,2,0,L|330:330,1,55
312,155,45454,2,0,L|292:218,1,55
188,100,45616,1,0,0:0:0:0:
170,146,45697,1,0,0:0:0:0:
212,171,45778,6,0,L|190:222,1,55
287,105,45940,2,0,L|314:159,1,55
395,176,46103,1,0,0:0:0:0:
358,209,46184,1,0,0:0:0:0:
380,253,46265,1,0,0:0:0:0:
331,263,46346,1,0,0:0:0:0:
217,236,46427,5,0,0:0:0:0:
186,274,46508,1,0,0:0:0:0:
227,301,46589,2,0,L|240:359,1,55
288,132,46751,2,0,L|262:189,1,55
186,190,46913,2,0,L|216:235,1,55
273,32,47076,1,0,0:0:0:0:
220,27,47157,1,0,0:0:0:0:
188,65,47238,6,0,P|211:114|219:117,1,55
291,98,47400,2,0,P|279:156|250:179,1,55
203,187,47562,2,0,P|251:223|273:218,1,55
282,150,47724,5,0,0:0:0:0:
315,200,47805,1,0,0:0:0:0:
262,230,47886,1,0,0:0:0:0:
305,271,47967,1,0,0:0:0:0:
391,219,48049,5,0,0:0:0:0:
371,276,48130,1,0,0:0:0:0:
416,315,48211,2,0,L|366:341,1,55
326,210,48373,2,0,L|314:268,1,55
431,167,48535,2,0,L|389:229,1,55
372,99,48697,1,0,0:0:0:0:
312,89,48778,1,0,0:0:0:0:
303,148,48859,1,0,0:0:0:0:
244,162,48940,1,0,0:0:0:0:
181,91,49021,5,0,0:0:0:0:
137,125,49103,1,0,0:0:0:0:
172,166,49184,2,0,L|141:223,1,55
251,181,49346,1,0,0:0:0:0:
284,224,49427,1,0,0:0:0:0:
251,268,49508,2,0,L|299:313,1,55
176,290,49670,2,0,L|161:342,1,55
229,236,49832,2,0,L|257:290,1,55
161,220,49994,1,0,0:0:0:0:
135,158,50076,1,0,0:0:0:0:
200,149,50157,1,0,0:0:0:0:
185,84,50238,1,0,0:0:0:0:
314,95,50319,5,0,0:0:0:0:
336,151,50400,1,0,0:0:0:0:
306,203,50481,2,0,L|232:249,1,55
258,103,50643,1,0,0:0:0:0:
217,147,50724,1,0,0:0:0:0:
202,205,50805,2,0,L|278:222,1,55
296,144,50967,2,0,L|332:199,1,55
335,269,51130,2,0,L|306:324,1,55
210,227,51292,2,0,L|219:286,1,55
178,340,51454,1,0,0:0:0:0:
142,278,51535,1,0,0:0:0:0:
175,143,51616,5,0,0:0:0:0:
241,168,51697,1,0,0:0:0:0:
244,239,51778,2,0,L|314:262,1,55
352,108,51940,1,0,0:0:0:0:
296,152,52021,1,0,0:0:0:0:
355,193,52103,2,0,L|396:237,1,55
420,157,52265,1,0,0:0:0:0:
376,99,52346,1,0,0:0:0:0:
310,126,52427,1,0,0:0:0:0:
271,65,52508,1,0,0:0:0:0:
205,118,52589,6,0,L|172:85|161:74|139:52|117:30|90:16,1,27.5
205,118,52670,2,0,L|182:95|175:88|160:73|145:58|118:44,1,27.5
205,118,52751,2,0,L|193:106|190:103|182:95|174:87|147:73,1,27.5
205,118,52832,2,0,L|197:110|194:107|186:99|178:91|151:77,1,27.5
124,258,52913,6,0,B|129:249|129:249|148:253|148:253|147:239|147:239|172:229|172:229|174:221,1,55
255,260,53076,1,0,0:0:0:0:
157,146,53238,1,0,0:0:0:0:
263,138,53400,2,0,L|284:166,4,27.5
401,104,53724,2,0,L|373:153,1,55
331,231,53886,1,0,0:0:0:0:
230,87,54049,2,0,B|202:132|202:132|176:124|176:124|166:177,1,110
212,295,54373,1,0,0:0:0:0:
286,200,54535,2,0,L|292:168,4,27.5
212,295,54859,2,0,L|218:327,4,27.5
131,170,55184,2,0,L|137:138,4,27.5
119,328,55670,6,0,B|158:309|158:309|162:315|162:315|169:315|169:315|170:308|171:304|171:304|178:301|178:301|239:289,1,110
264,133,55994,1,0,0:0:0:0:
325,210,56157,2,0,L|358:231,2,27.5
250,219,56319,1,0,0:0:0:0:
460,71,56481,2,0,L|446:40,3,27.5
471,99,56643,1,0,0:0:0:0:
374,79,56805,1,0,0:0:0:0:
372,156,56886,1,0,0:0:0:0:
309,116,56967,2,0,L|295:85,4,27.5
212,202,57292,2,0,L|222:230,2,27.5
197,163,57454,1,0,0:0:0:0:
135,266,57616,1,0,0:0:0:0:
247,314,57778,2,0,B|265:295|265:295|279:295|279:295|299:275,1,55
261,183,57940,2,0,B|283:198|283:198|303:193|303:193|334:211,1,55
374,131,58265,6,0,L|378:168,2,27.5
289,135,58427,1,0,0:0:0:0:
191,167,58589,1,0,0:0:0:0:
130,252,58751,2,0,B|137:267|137:267|144:258|144:258|145:265|145:265|185:285,1,55
215,217,58913,1,0,0:0:0:0:
351,315,59076,2,0,B|344:330|344:330|337:321|337:321|336:328|336:328|296:348,1,55
290,262,59238,1,0,0:0:0:0:
201,160,59400,2,0,B|197:132|197:132|182:130|182:130|183:89,1,55
246,66,59562,1,0,0:0:0:0:
193,234,59724,1,0,0:0:0:0:
330,237,59886,6,0,L|334:182,1,55
260,142,60049,2,0,L|250:113,2,27.5
153,188,60211,1,0,0:0:0:0:
186,297,60373,2,0,L|211:279,2,27.5
137,220,60535,2,0,P|148:162|171:147,1,55
332,179,60697,6,0,L|317:151,2,27.5
250,194,60859,2,0,L|237:258,1,55
178,109,61021,2,0,L|163:81,2,27.5
125,208,61184,2,0,L|124:273,1,55
275,249,61346,2,0,L|260:221,2,27.5
236,153,61508,2,0,L|177:127,1,55
362,300,61670,2,0,L|347:272,2,27.5
138,278,61832,2,0,L|159:201,1,55
268,236,61994,2,0,L|253:208,2,27.5
209,132,62157,2,0,L|270:104,1,55
347,156,62319,2,0,L|369:227,1,55
406,66,62481,2,0,L|391:38,2,27.5
208,207,62643,2,0,L|197:248,2,27.5
164,140,62805,2,0,L|200:87,1,55
360,147,62967,2,0,L|361:205,1,55
283,209,63130,2,0,L|282:268,2,55
123,166,63454,6,0,P|90:245|101:268,1,110
183,234,63778,2,0,B|194:188|194:188|209:182|209:182|208:170|183:119,1,110
260,68,64103,2,0,P|289:118|278:137,1,55
225,147,64265,2,0,P|258:190|274:189,1,55
334,177,64427,1,0,0:0:0:0:
334,177,64508,1,0,0:0:0:0:
334,177,64589,1,0,0:0:0:0:
374,350,64751,2,0,P|323:301|322:260,1,110
325,239,64994,1,0,0:0:0:0:
325,239,65076,1,0,0:0:0:0:
402,270,65238,2,0,P|431:219|424:202,1,55
378,157,65400,1,0,0:0:0:0:
378,157,65481,1,0,0:0:0:0:
378,157,65562,2,0,L|320:152,1,55
268,239,65724,2,0,L|285:264,4,27.5
208,43,66049,5,0,0:0:0:0:
233,137,66130,2,0,L|251:111,2,27.5
130,146,66373,1,0,0:0:0:0:
130,146,66454,1,0,0:0:0:0:
130,146,66535,2,0,P|147:207|155:213,1,55
207,160,66697,1,0,0:0:0:0:
301,99,66859,1,0,0:0:0:0:
313,203,67021,1,0,0:0:0:0:
313,203,67103,1,0,0:0:0:0:
313,203,67184,1,0,0:0:0:0:
213,203,67346,2,0,L|184:252,2,55
177,108,67670,2,0,P|140:148|136:157,1,55
127,179,67832,1,0,0:0:0:0:
309,102,67994,1,0,0:0:0:0:
309,102,68076,1,0,0:0:0:0:
309,102,68157,1,0,0:0:0:0:
277,196,68319,2,0,L|298:217,4,27.5
144,310,68643,6,0,B|136:253|136:253|116:250|116:250|122:234|136:204,1,110
199,146,68967,1,0,0:0:0:0:
199,146,69049,1,0,0:0:0:0:
199,146,69130,2,0,L|257:150,2,55
196,243,69454,2,0,L|137:225,2,55
216,252,69697,1,0,0:0:0:0:
253,275,69778,1,0,0:0:0:0:
287,247,69859,1,0,0:0:0:0:
279,203,69940,2,0,P|302:153|320:149,1,55
330,135,70103,1,0,0:0:0:0:
410,187,70265,1,0,0:0:0:0:
410,187,70346,1,0,0:0:0:0:
410,187,70427,2,0,L|392:244,1,55
316,173,70589,1,0,0:0:0:0:
236,114,70751,2,0,L|225:84,2,27.5
124,191,70913,6,0,L|125:220,4,27.5
143,69,71238,2,0,L|115:122,1,55
193,150,71400,2,0,L|207:209,1,55
248,91,71562,2,0,L|272:27,1,55
328,117,71724,6,0,L|305:180,1,55
340,241,71886,2,0,L|366:310,1,55
256,229,72049,2,0,L|262:170,1,55
193,279,72211,6,0,L|190:343,1,55
79,216,72373,2,0,L|50:287,1,55
156,150,72535,2,0,L|164:86,1,55
273,199,72697,6,0,L|264:265,1,55
389,202,72859,2,0,L|369:265,1,55
223,119,73021,2,0,L|204:61,1,55
155,240,73184,6,0,L|164:295,1,55
281,324,73346,2,0,L|265:381,1,55
287,180,73508,2,0,L|298:120,1,55
421,232,73670,6,0,L|405:290,1,55
302,292,73832,2,0,L|321:368,1,55
188,196,73994,2,0,L|176:138,1,55
306,105,74157,6,0,L|276:163,1,55
393,191,74319,2,0,L|382:247,1,55
177,143,74481,2,0,L|154:93,1,55
257,239,74643,6,0,L|219:297,1,55
123,311,74805,2,0,L|154:359,1,55
344,158,74967,2,0,L|339:92,1,55
256,192,75130,12,0,75940,0:0:0:0:
256,192,75940,5,0,0:0:0:0:
456,324,76305,6,0,B|446:248|446:248|473:150|399:167,1,165
357,181,76630,2,0,B|367:105|367:105|340:7|414:24,1,165
134,42,77562,5,0,0:0:0:0:
119,95,77643,1,0,0:0:0:0:
98,146,77724,2,0,L|158:182,1,55
220,116,77886,5,0,0:0:0:0:
236,169,77967,1,0,0:0:0:0:
257,220,78048,2,0,L|197:256,1,55
145,174,78211,5,0,0:0:0:0:
130,227,78292,1,0,0:0:0:0:
109,278,78373,2,0,L|169:314,1,55
257,220,78535,5,0,0:0:0:0:
272,273,78616,1,0,0:0:0:0:
293,324,78697,2,0,L|233:360,1,55
412,334,78859,5,0,0:0:0:0:
427,281,78940,1,0,0:0:0:0:
448,230,79021,2,0,L|388:194,1,55
326,260,79183,5,0,0:0:0:0:
310,207,79264,1,0,0:0:0:0:
289,156,79345,2,0,L|349:120,1,55
401,202,79508,5,0,0:0:0:0:
416,149,79589,1,0,0:0:0:0:
437,98,79670,2,0,L|377:62,1,55
289,156,79832,5,0,0:0:0:0:
274,103,79913,1,0,0:0:0:0:
253,52,79994,2,0,L|313:16,1,55
160,132,80157,5,0,0:0:0:0:
124,173,80238,1,0,0:0:0:0:
177,185,80319,2,0,L|156:241,1,55
352,132,80481,5,0,0:0:0:0:
388,173,80562,1,0,0:0:0:0:
335,185,80643,2,0,L|356:241,1,55
160,132,80805,5,0,0:0:0:0:
124,173,80886,1,0,0:0:0:0:
177,185,80967,2,0,L|156:241,1,55
352,132,81130,5,0,0:0:0:0:
388,173,81211,1,0,0:0:0:0:
335,185,81292,2,0,L|356:241,1,55
160,132,81454,5,0,0:0:0:0:
124,173,81535,1,0,0:0:0:0:
177,185,81616,2,0,L|156:241,1,55
352,132,81778,5,0,0:0:0:0:
388,173,81859,1,0,0:0:0:0:
335,185,81940,2,0,L|356:241,1,55
160,132,82103,5,0,0:0:0:0:
124,173,82184,1,0,0:0:0:0:
177,185,82265,2,0,L|156:241,1,55
352,132,82427,5,0,0:0:0:0:
388,173,82508,1,0,0:0:0:0:
335,185,82589,2,0,L|356:241,1,55
225,109,82751,5,0,0:0:0:0:
181,118,82832,1,0,0:0:0:0:
142,139,82913,1,0,0:0:0:0:
126,180,82994,1,0,0:0:0:0:
171,187,83076,5,0,0:0:0:0:
202,128,83157,1,0,0:0:0:0:
183,64,83238,2,0,P|228:27|241:27,1,55
286,154,83400,5,0,0:0:0:0:
330,163,83481,1,0,0:0:0:0:
369,184,83562,1,0,0:0:0:0:
385,225,83643,1,0,0:0:0:0:
340,232,83725,5,0,0:0:0:0:
309,173,83806,1,0,0:0:0:0:
328,109,83887,2,0,P|283:72|270:72,1,55
240,196,84049,5,0,0:0:0:0:
196,205,84130,1,0,0:0:0:0:
157,226,84211,1,0,0:0:0:0:
141,267,84292,1,0,0:0:0:0:
186,274,84374,5,0,0:0:0:0:
217,215,84455,1,0,0:0:0:0:
198,151,84536,2,0,P|243:114|256:114,1,55
320,204,84697,5,0,0:0:0:0:
364,213,84778,1,0,0:0:0:0:
403,234,84859,1,0,0:0:0:0:
419,275,84940,1,0,0:0:0:0:
374,282,85022,5,0,0:0:0:0:
343,223,85103,1,0,0:0:0:0:
362,159,85184,2,0,P|317:122|304:122,1,55
256,185,85346,5,0,0:0:0:0:
212,194,85427,1,0,0:0:0:0:
173,215,85508,1,0,0:0:0:0:
157,256,85589,1,0,0:0:0:0:
202,263,85671,5,0,0:0:0:0:
233,204,85752,1,0,0:0:0:0:
214,140,85833,2,0,P|259:103|272:103,1,55
299,161,85994,5,0,0:0:0:0:
343,170,86075,1,0,0:0:0:0:
382,191,86156,1,0,0:0:0:0:
398,232,86237,1,0,0:0:0:0:
353,239,86319,5,0,0:0:0:0:
322,180,86400,1,0,0:0:0:0:
341,116,86481,2,0,P|296:79|283:79,1,55
251,153,86643,5,0,0:0:0:0:
207,162,86724,1,0,0:0:0:0:
168,183,86805,1,0,0:0:0:0:
152,224,86886,1,0,0:0:0:0:
197,231,86968,5,0,0:0:0:0:
228,172,87049,1,0,0:0:0:0:
209,108,87130,2,0,P|254:71|267:71,1,55
326,180,87292,6,0,L|312:257,1,55
245,253,87454,1,0,0:0:0:0:
223,202,87535,1,0,0:0:0:0:
249,153,87616,2,0,P|199:105|168:113,1,55
143,173,87778,2,0,P|158:234|167:242,1,55
257,262,87940,5,0,0:0:0:0:
297,224,88021,1,0,0:0:0:0:
341,191,88102,2,0,L|308:129,1,55
180,276,88265,5,0,0:0:0:0:
140,238,88346,1,0,0:0:0:0:
96,205,88427,2,0,L|128:143,1,55
324,261,88589,5,0,0:0:0:0:
364,223,88670,1,0,0:0:0:0:
408,190,88751,2,0,L|375:128,1,55
193,223,88913,5,0,0:0:0:0:
153,185,88994,1,0,0:0:0:0:
109,152,89075,2,0,L|141:90,1,55
329,254,89238,5,0,0:0:0:0:
369,216,89319,1,0,0:0:0:0:
413,183,89400,2,0,L|380:121,1,55
206,232,89562,5,0,0:0:0:0:
166,194,89643,1,0,0:0:0:0:
122,161,89724,2,0,L|154:99,1,55
295,319,89886,5,0,0:0:0:0:
335,281,89967,1,0,0:0:0:0:
379,248,90048,2,0,L|346:186,1,55
180,280,90211,5,0,0:0:0:0:
140,242,90292,1,0,0:0:0:0:
96,209,90373,2,0,L|128:147,1,55
251,145,90535,5,0,0:0:0:0:
304,157,90616,1,0,0:0:0:0:
268,197,90697,2,0,L|317:229,1,55
181,220,90859,5,0,0:0:0:0:
128,232,90940,1,0,0:0:0:0:
164,272,91021,2,0,L|114:304,1,55
251,145,91184,5,0,0:0:0:0:
304,157,91265,1,0,0:0:0:0:
268,197,91346,2,0,L|317:229,1,55
181,220,91508,5,0,0:0:0:0:
128,232,91589,1,0,0:0:0:0:
164,272,91670,2,0,L|114:304,1,55
251,145,91832,5,0,0:0:0:0:
304,157,91913,1,0,0:0:0:0:
268,197,91994,2,0,L|317:229,1,55
181,220,92156,5,0,0:0:0:0:
128,232,92237,1,0,0:0:0:0:
164,272,92318,2,0,L|114:304,1,55
251,145,92481,5,0,0:0:0:0:
304,157,92562,1,0,0:0:0:0:
268,197,92643,2,0,L|317:229,1,55
181,220,92805,5,0,0:0:0:0:
128,232,92886,1,0,0:0:0:0:
164,272,92967,2,0,L|114:304,1,55
280,241,93130,5,0,0:0:0:0:
323,229,93211,1,0,0:0:0:0:
367,231,93292,1,0,0:0:0:0:
400,261,93373,1,0,0:0:0:0:
362,287,93455,5,0,0:0:0:0:
309,247,93536,1,0,0:0:0:0:
298,182,93617,2,0,P|241:168|229:174,1,55
175,244,93778,5,0,0:0:0:0:
132,232,93859,1,0,0:0:0:0:
88,234,93940,1,0,0:0:0:0:
55,264,94021,1,0,0:0:0:0:
93,290,94103,5,0,0:0:0:0:
146,250,94184,1,0,0:0:0:0:
157,185,94265,2,0,P|213:171|225:177,1,55
239,244,94427,5,0,0:0:0:0:
282,232,94508,1,0,0:0:0:0:
326,234,94589,1,0,0:0:0:0:
359,264,94670,1,0,0:0:0:0:
321,290,94752,5,0,0:0:0:0:
268,250,94833,1,0,0:0:0:0:
257,185,94914,2,0,P|200:171|188:177,1,55
203,80,95076,5,0,0:0:0:0:
160,68,95157,1,0,0:0:0:0:
116,70,95238,1,0,0:0:0:0:
83,100,95319,1,0,0:0:0:0:
121,126,95401,5,0,0:0:0:0:
174,86,95482,1,0,0:0:0:0:
185,21,95563,2,0,P|241:7|253:13,1,55
284,139,95724,5,0,0:0:0:0:
327,127,95805,1,0,0:0:0:0:
371,129,95886,1,0,0:0:0:0:
404,159,95967,1,0,0:0:0:0:
366,185,96049,5,0,0:0:0:0:
313,145,96130,1,0,0:0:0:0:
302,80,96211,2,0,P|245:66|233:72,1,55
180,110,96373,5,0,0:0:0:0:
144,137,96454,1,0,0:0:0:0:
119,173,96535,1,0,0:0:0:0:
123,217,96616,1,0,0:0:0:0:
167,203,96698,5,0,0:0:0:0:
167,136,96779,1,0,0:0:0:0:
122,88,96860,2,0,P|145:34|156:28,1,55
244,76,97021,5,0,0:0:0:0:
287,88,97102,1,0,0:0:0:0:
331,86,97183,1,0,0:0:0:0:
364,56,97264,1,0,0:0:0:0:
326,30,97346,5,0,0:0:0:0:
273,70,97427,1,0,0:0:0:0:
262,135,97508,2,0,P|205:148|193:142,1,55
152,74,97670,5,0,0:0:0:0:
133,148,97751,5,0,0:0:0:0:
104,194,97832,1,0,0:0:0:0:
166,215,97913,1,0,0:0:0:0:
152,268,97994,1,0,0:0:0:0:
218,269,98076,1,0,0:0:0:0:
209,323,98157,1,0,0:0:0:0:
258,361,98238,1,0,0:0:0:0:
336,303,98319,5,0,0:0:0:0:
309,254,98400,1,0,0:0:0:0:
344,212,98481,1,0,0:0:0:0:
300,178,98562,1,0,0:0:0:0:
276,128,98643,2,0,P|272:64|292:39,1,55
318,39,98805,5,0,0:0:0:0:
360,73,98886,1,0,0:0:0:0:
328,118,98967,1,0,0:0:0:0:
367,156,99049,1,0,0:0:0:0:
340,203,99130,2,0,P|344:267|324:292,1,55
292,271,99292,5,0,0:0:0:0:
262,224,99373,1,0,0:0:0:0:
208,235,99454,2,0,P|166:193|164:152,1,55
180,145,99616,5,0,0:0:0:0:
234,147,99697,1,0,0:0:0:0:
273,109,99778,1,0,0:0:0:0:
315,143,99859,1,0,0:0:0:0:
338,192,99940,2,0,P|297:236|255:230,1,55
259,265,100103,5,0,0:0:0:0:
300,300,100184,1,0,0:0:0:0:
346,270,100265,1,0,0:0:0:0:
334,216,100346,1,0,0:0:0:0:
301,171,100427,2,0,L|279:119,1,55
232,91,100589,5,0,0:0:0:0:
199,135,100670,1,0,0:0:0:0:
144,138,100751,2,0,P|125:78|141:52,1,55
80,53,100913,5,0,0:0:0:0:
51,99,100994,1,0,0:0:0:0:
94,133,101076,1,0,0:0:0:0:
89,187,101157,1,0,0:0:0:0:
103,239,101238,2,0,P|161:221|180:189,1,55
173,174,101400,5,0,0:0:0:0:
226,188,101481,1,0,0:0:0:0:
259,238,101562,1,0,0:0:0:0:
309,217,101643,1,0,0:0:0:0:
317,162,101724,2,0,P|352:111|359:110,1,55
378,155,101886,5,0,0:0:0:0:
348,201,101967,1,0,0:0:0:0:
358,255,102049,1,0,0:0:0:0:
417,218,102130,1,0,0:0:0:0:
407,141,102211,1,0,0:0:0:0:
339,104,102292,1,0,0:0:0:0:
263,91,102373,2,0,P|210:55|174:54,1,55
169,79,102535,5,0,0:0:0:0:
189,130,102616,1,0,0:0:0:0:
142,159,102697,2,0,P|140:223|148:233,1,55
188,200,102859,5,0,0:0:0:0:
212,249,102940,1,0,0:0:0:0:
175,289,103021,1,0,0:0:0:0:
129,256,103103,1,0,0:0:0:0:
96,211,103184,2,0,L|107:155,1,55
151,125,103346,5,0,0:0:0:0:
183,169,103427,1,0,0:0:0:0:
235,151,103508,1,0,0:0:0:0:
275,187,103589,1,0,0:0:0:0:
314,224,103670,2,0,P|366:195|379:167,1,55
353,145,103832,5,0,0:0:0:0:
383,99,103913,1,0,0:0:0:0:
337,67,103994,2,0,P|283:46|251:59,1,55
242,77,104157,5,0,0:0:0:0:
260,128,104238,1,0,0:0:0:0:
216,161,104319,1,0,0:0:0:0:
185,206,104400,1,0,0:0:0:0:
154,251,104481,2,0,P|140:284|116:299,1,55
76,236,104643,5,0,0:0:0:0:
99,162,104724,1,0,0:0:0:0:
148,103,104805,2,0,P|195:66|219:69,1,55
226,90,104967,5,0,0:0:0:0:
277,69,105049,1,0,0:0:0:0:
322,99,105130,1,0,0:0:0:0:
350,145,105211,1,0,0:0:0:0:
368,196,105292,2,0,P|411:234|429:234,1,55
437,187,105454,5,0,0:0:0:0:
418,135,105535,1,0,0:0:0:0:
366,114,105616,1,0,0:0:0:0:
322,80,105697,1,0,0:0:0:0:
271,110,105778,2,0,P|232:154|231:179,1,55
220,201,105940,5,0,0:0:0:0:
176,167,106021,1,0,0:0:0:0:
187,112,106103,1,0,0:0:0:0:
220,68,106184,1,0,0:0:0:0:
177,33,106265,2,0,P|116:52|91:70,1,55
107,99,106427,5,0,0:0:0:0:
126,150,106508,1,0,0:0:0:0:
124,204,106589,2,0,P|150:258|172:263,1,55
196,250,106751,5,0,0:0:0:0:
248,266,106832,1,0,0:0:0:0:
295,239,106913,1,0,0:0:0:0:
342,266,106994,1,0,0:0:0:0:
370,218,107076,2,0,L|392:166,1,55
354,126,107238,5,0,0:0:0:0:
305,150,107319,1,0,0:0:0:0:
250,122,107400,2,0,P|268:61|280:57,1,55
304,47,107562,5,0,0:0:0:0:
324,98,107643,1,0,0:0:0:0:
301,148,107724,1,0,0:0:0:0:
249,177,107805,1,0,0:0:0:0:
251,231,107886,1,0,0:0:0:0:
301,264,107967,1,0,0:0:0:0:
342,219,108049,2,0,P|358:167|352:150,1,55
299,154,108211,2,0,P|301:100|316:84,1,55
349,59,108373,5,0,0:0:0:0:
407,117,108454,1,0,0:0:0:0:
432,195,108535,1,0,0:0:0:0:
406,273,108616,1,0,0:0:0:0:
338,314,108697,6,0,L|277:309,1,55
243,269,108859,1,0,0:0:0:0:
275,211,108940,1,0,0:0:0:0:
224,168,109021,1,0,0:0:0:0:
254,108,109103,1,0,0:0:0:0:
198,71,109184,2,0,P|139:90|126:113,1,55
113,140,109346,5,0,0:0:0:0:
161,184,109427,1,0,0:0:0:0:
171,249,109508,1,0,0:0:0:0:
230,278,109589,1,0,0:0:0:0:
270,226,109670,1,0,0:0:0:0:
335,226,109751,1,0,0:0:0:0:
375,178,109832,2,0,P|378:122|367:103,1,55
350,64,109994,5,0,0:0:0:0:
416,70,110076,1,0,0:0:0:0:
451,125,110157,1,0,0:0:0:0:
454,190,110238,1,0,0:0:0:0:
419,248,110319,1,0,0:0:0:0:
354,261,110400,1,0,0:0:0:0:
308,208,110481,2,0,P|306:146|317:129,1,55
378,152,110643,2,0,P|351:96|326:87,1,55
298,77,110805,5,0,0:0:0:0:
235,97,110886,1,0,0:0:0:0:
244,162,110967,1,0,0:0:0:0:
208,218,111049,1,0,0:0:0:0:
247,271,111130,2,0,L|324:240,1,55
339,196,111292,5,0,0:0:0:0:
311,136,111373,1,0,0:0:0:0:
245,144,111454,1,0,0:0:0:0:
199,96,111535,1,0,0:0:0:0:
136,118,111616,1,0,0:0:0:0:
88,163,111697,1,0,0:0:0:0:
66,225,111778,2,0,P|121:233|143:216,1,55
149,176,111940,5,0,0:0:0:0:
204,211,112021,1,0,0:0:0:0:
234,151,112103,1,0,0:0:0:0:
290,184,112184,1,0,0:0:0:0:
293,249,112265,2,0,P|267:299|245:305,1,55
203,243,112427,2,0,P|164:188|170:176,1,55
180,140,112589,5,0,0:0:0:0:
222,89,112670,1,0,0:0:0:0:
286,101,112751,1,0,0:0:0:0:
333,146,112832,1,0,0:0:0:0:
391,115,112913,1,0,0:0:0:0:
433,165,112994,1,0,0:0:0:0:
408,227,113076,1,0,0:0:0:0:
350,259,113157,1,0,0:0:0:0:
287,237,113238,2,0,L|236:193,1,55
265,138,113400,5,0,0:0:0:0:
230,82,113481,1,0,0:0:0:0:
169,115,113562,2,0,P|142:175|148:185,1,55
210,172,113724,2,0,P|187:227|172:237,1,55
125,223,113886,5,0,0:0:0:0:
143,286,113967,1,0,0:0:0:0:
209,292,114049,1,0,0:0:0:0:
260,250,114130,1,0,0:0:0:0:
278,185,114211,2,0,L|295:133,1,55
248,85,114373,5,0,0:0:0:0:
298,42,114454,1,0,0:0:0:0:
362,55,114535,1,0,0:0:0:0:
389,115,114616,1,0,0:0:0:0:
369,180,114697,2,0,P|344:237|331:243,1,55
302,187,114859,5,0,0:0:0:0:
269,244,114940,1,0,0:0:0:0:
205,262,115021,1,0,0:0:0:0:
145,231,115103,1,0,0:0:0:0:
92,271,115184,2,0,P|105:317|120:327,1,55
168,292,115346,5,0,0:0:0:0:
224,326,115427,1,0,0:0:0:0:
286,303,115508,1,0,0:0:0:0:
351,297,115589,1,0,0:0:0:0:
390,243,115670,2,0,P|391:184|384:172,1,55
328,197,115832,5,0,0:0:0:0:
306,134,115913,1,0,0:0:0:0:
348,83,115994,1,0,0:0:0:0:
366,147,116076,1,0,0:0:0:0:
318,193,116157,1,0,0:0:0:0:
252,197,116238,1,0,0:0:0:0:
192,169,116319,2,0,P|151:124|150:98,1,55
206,85,116481,5,0,0:0:0:0:
237,143,116562,1,0,0:0:0:0:
219,206,116643,1,0,0:0:0:0:
178,257,116724,1,0,0:0:0:0:
204,317,116805,1,0,0:0:0:0:
267,300,116886,1,0,0:0:0:0:
288,237,116967,2,0,P|269:177|275:161,1,55
304,132,117130,5,0,0:0:0:0:
369,141,117211,1,0,0:0:0:0:
400,198,117292,2,0,P|379:258|358:266,1,55
324,235,117454,1,0,0:0:0:0:
283,182,117535,1,0,0:0:0:0:
217,186,117616,1,0,0:0:0:0:
167,229,117697,1,0,0:0:0:0:
101,230,117778,2,0,P|93:160|101:149,1,55
129,129,117940,5,0,0:0:0:0:
167,182,118021,1,0,0:0:0:0:
167,248,118103,1,0,0:0:0:0:
130,298,118184,1,0,0:0:0:0:
72,324,118265,5,0,0:0:0:0:
127,360,118346,1,0,0:0:0:0:
181,320,118427,2,0,L|162:284,1,27.5
246,321,118508,2,0,L|240:294,1,27.5
304,295,118589,2,0,L|301:264,1,27.5
358,307,118670,2,0,L|366:279,1,27.5
163,107,119076,6,0,L|244:71,1,55
277,144,119238,2,0,L|267:202,1,55
166,194,119400,2,0,L|214:255,1,55
278,270,119562,2,0,L|319:322,3,55
374,242,119886,6,0,L|368:185,1,55
283,183,120049,2,0,L|308:131,1,55
263,59,120211,2,0,L|210:86,1,55
156,140,120373,2,0,L|189:199,1,55
198,271,120535,2,0,L|147:312,1,55
119,233,120697,2,0,L|87:181,2,55
211,310,120940,2,0,L|229:249,1,55
192,176,121103,1,0,0:0:0:0:
189,85,121184,2,0,L|150:44,2,55
284,113,121427,1,0,0:0:0:0:
383,165,121508,6,0,L|366:225,1,55
254,227,121670,2,0,L|297:273,1,55
339,192,121832,1,0,0:0:0:0:
373,272,121913,1,0,0:0:0:0:
263,147,121994,2,0,L|286:84,1,55
375,63,122157,2,0,L|371:122,3,55
283,150,122481,2,0,L|241:109,1,55
229,214,122643,2,0,L|233:272,1,55
97,279,122805,2,0,L|66:344,1,55
207,284,122967,6,0,L|178:221,1,55
256,219,123130,2,0,L|266:152,1,55
190,142,123292,2,0,L|161:88,2,55
255,95,123535,1,0,0:0:0:0:
339,123,123616,2,0,L|326:68,1,55
310,200,123778,2,0,L|264:153,1,55
378,241,123940,2,0,L|386:183,1,55
296,272,124103,2,0,L|234:273,3,55
161,242,124427,6,0,L|149:167,1,55
226,190,124589,2,0,L|231:133,1,55
299,164,124751,2,0,L|371:165,1,55
279,234,124913,2,0,L|299:290,2,55
198,237,125157,1,0,0:0:0:0:
236,164,125238,2,0,L|231:100,1,55
156,149,125400,2,0,L|130:135,4,27.5
209,74,125643,1,0,0:0:0:0:
285,47,125724,6,0,L|308:110,1,55
396,94,125886,2,0,L|363:161,2,55
303,98,126130,1,0,0:0:0:0:
199,85,126211,2,0,L|220:141,1,55
137,159,126373,2,0,L|121:213,2,55
143,77,126616,1,0,0:0:0:0:
229,92,126697,2,0,P|235:164|230:171,2,55
298,73,126940,5,0,0:0:0:0:
157,169,127021,2,0,L|214:236,1,55
277,178,127184,2,0,L|266:263,1,55
358,170,127346,2,0,L|411:208,3,55
269,232,127670,2,0,L|262:289,1,55
194,171,127832,2,0,L|171:226,1,55
277,121,127994,2,0,L|261:95,4,27.5
103,117,128319,6,0,L|41:185,1,55
144,199,128481,2,0,L|147:255,1,55
193,230,128643,2,0,L|200:287,1,55
284,246,128805,2,0,L|352:271,1,55
260,166,128967,2,0,L|256:111,1,55
160,176,129454,6,0,L|160:256,1,55
160,304,129616,1,0,0:0:0:0:
241,255,129697,6,0,L|241:335,1,55
241,383,129859,1,0,0:0:0:0:
328,195,129940,6,0,L|328:275,1,55
328,323,130102,1,0,0:0:0:0:
411,291,130184,6,0,L|411:211,1,55
411,163,130346,1,0,0:0:0:0:
320,224,130427,6,0,L|320:144,1,55
320,96,130589,1,0,0:0:0:0:
232,192,130670,6,0,L|232:112,1,55
231,66,130832,1,0,0:0:0:0:
231,66,130913,1,0,0:0:0:0:
148,255,130994,6,0,L|148:175,1,55
148,127,131156,1,0,0:0:0:0:
241,169,131238,6,0,L|241:249,1,55
241,297,131400,1,0,0:0:0:0:
323,112,131481,6,0,L|323:192,1,55
323,240,131643,1,0,0:0:0:0:
238,189,131724,6,0,L|238:269,1,55
238,317,131886,1,0,0:0:0:0:
238,317,131967,1,0,0:0:0:0:
132,281,132049,6,0,L|132:201,1,55
132,153,132211,1,0,0:0:0:0:
214,214,132292,6,0,L|214:134,1,55
214,86,132454,1,0,0:0:0:0:
306,171,132535,6,0,L|306:91,1,55
306,43,132697,1,0,0:0:0:0:
392,256,132778,6,0,L|392:176,1,55
392,128,132940,1,0,0:0:0:0:
295,169,133021,6,0,L|295:89,1,55
295,41,133183,1,0,0:0:0:0:
295,41,133265,1,0,0:0:0:0:
208,238,133346,6,0,L|208:158,1,55
208,110,133508,1,0,0:0:0:0:
115,46,133589,6,0,L|115:126,1,55
115,174,133751,1,0,0:0:0:0:
201,148,133832,6,0,L|201:228,1,55
201,276,133994,1,0,0:0:0:0:
287,206,134076,6,0,L|287:286,1,55
287,334,134238,1,0,0:0:0:0:
369,174,134319,6,0,L|369:254,1,55
369,302,134481,1,0,0:0:0:0:
369,302,134562,1,0,0:0:0:0:
269,110,134643,6,0,L|269:190,1,55
269,238,134805,1,0,0:0:0:0:
178,171,134886,6,0,L|178:251,1,55
178,299,135048,1,0,0:0:0:0:
260,233,135130,6,0,L|260:153,1,55
260,105,135292,1,0,0:0:0:0:
346,198,135373,6,0,L|346:278,1,55
346,326,135535,1,0,0:0:0:0:
260,233,135616,6,0,L|260:153,1,55
260,105,135778,1,0,0:0:0:0:
346,198,135859,6,0,L|346:278,1,55
346,326,136021,1,0,0:0:0:0:
428,213,136103,6,0,L|428:133,1,55
428,85,136265,1,0,0:0:0:0:
428,85,136346,1,0,0:0:0:0:
328,127,136427,6,0,L|328:207,1,55
328,255,136589,1,0,0:0:0:0:
231,170,136670,6,0,L|231:250,1,55
231,298,136832,1,0,0:0:0:0:
141,221,136913,6,0,L|141:141,1,55
141,93,137075,1,0,0:0:0:0:
141,93,137157,1,0,0:0:0:0:
225,148,137238,6,0,L|225:228,1,55
225,276,137400,1,0,0:0:0:0:
328,210,137481,6,0,L|328:130,1,55
328,82,137643,1,0,0:0:0:0:
238,142,137724,6,0,L|238:222,1,55
238,270,137886,1,0,0:0:0:0:
325,353,137967,6,0,L|325:273,1,55
325,225,138129,1,0,0:0:0:0:
425,270,138211,6,0,L|425:190,1,55
425,142,138373,1,0,0:0:0:0:
325,97,138454,6,0,L|325:177,1,55
325,225,138616,1,0,0:0:0:0:
220,155,138697,6,0,L|220:235,1,55
220,283,138859,1,0,0:0:0:0:
220,283,138940,1,0,0:0:0:0:
131,232,139021,6,0,L|131:152,1,55
131,104,139183,5,0,0:0:0:0:
174,68,139265,1,0,0:0:0:0:
209,109,139346,1,0,0:0:0:0:
263,103,139427,1,0,0:0:0:0:
304,139,139508,1,0,0:0:0:0:
344,101,139589,1,0,0:0:0:0:
379,142,139670,1,0,0:0:0:0:
383,196,139751,1,0,0:0:0:0:
350,239,139832,6,0,P|305:278|258:272,1,110
283,199,140157,2,0,P|276:131|241:107,1,110
204,179,140481,2,0,P|164:116|180:63,1,110
263,107,140805,2,0,B|296:144|296:144|319:176|319:176|292:199|292:199|285:231|285:231|272:255|272:255|238:253|238:253|224:304|224:304|156:322,1,330.000012588501
122,275,141535,5,0,0:0:0:0:
142,239,141616,1,0,0:0:0:0:
125,196,141697,1,0,0:0:0:0:
144,159,141778,1,0,0:0:0:0:
182,174,141859,1,0,0:0:0:0:
200,137,141940,1,0,0:0:0:0:
235,116,142021,1,0,0:0:0:0:
287,105,142103,6,0,L|286:143,1,20.6250007867813
343,165,142224,2,0,L|316:191,1,20.6250007867813
381,242,142305,2,0,L|274:259,1,82.5
119,233,142589,6,0,P|115:153|146:123,1,110
174,297,142913,2,0,P|194:228|174:163,1,110
131,133,143238,1,0,0:0:0:0:
260,64,143400,2,0,B|200:118|293:154|256:230,1,178.75
233,260,143967,1,0,0:0:0:0:
233,260,144008,1,0,0:0:0:0:
140,228,144170,1,0,0:0:0:0:
110,154,144251,1,0,0:0:0:0:
169,78,144373,5,0,0:0:0:0:
201,122,144454,1,0,0:0:0:0:
254,133,144535,1,0,0:0:0:0:
279,84,144616,1,0,0:0:0:0:
330,133,144697,5,0,0:0:0:0:
330,204,144778,1,0,0:0:0:0:
288,261,144859,2,0,L|275:237,1,27.5
211,261,144940,2,0,L|202:287,1,27.5
165,189,145021,6,0,P|211:150|287:142,1,110
343,169,145346,2,0,P|338:108|289:49,1,110
243,84,145670,2,0,P|253:20|311:0,1,110
361,71,145994,2,0,B|298:112|292:161|322:201|322:201|274:266,1,220
235,264,146724,5,0,0:0:0:0:
168,235,146805,1,0,0:0:0:0:
209,181,146886,1,0,0:0:0:0:
158,160,146967,1,0,0:0:0:0:
155,108,147049,1,0,0:0:0:0:
222,74,147130,1,0,0:0:0:0:
269,102,147211,1,0,0:0:0:0:
326,160,147292,5,0,0:0:0:0:
305,238,147413,1,0,0:0:0:0:
222,250,147494,1,0,0:0:0:0:
172,174,147616,2,0,P|138:124|85:105,1,110
87,182,147940,2,0,P|78:253|100:284,1,110
178,253,148265,2,0,P|141:346|91:357,1,110
88,241,148589,2,0,B|110:199|160:144|180:225|270:111,1,220
299,82,149319,1,0,0:0:0:0:
372,114,149440,1,0,0:0:0:0:
391,222,149562,6,0,L|417:260,1,27.5
370,259,149643,2,0,L|348:296,1,27.5
325,262,149724,2,0,L|315:297,1,27.5
301,290,149805,2,0,L|274:266,1,27.5
264,295,149886,2,0,L|250:327,1,27.5
231,316,149967,2,0,L|181:305,1,27.5
222,344,150049,2,0,L|194:373,1,27.5
180,348,150130,2,0,L|140:355,1,27.5
94,296,150211,6,0,P|74:221|92:190,1,110
150,234,150535,2,0,P|172:167|143:132,1,110
89,100,150859,2,0,P|139:56|200:73,1,110
249,98,151184,2,0,B|211:149|431:96|354:235,1,220
304,260,151913,5,0,0:0:0:0:
285,199,151994,1,0,0:0:0:0:
235,233,152076,5,0,0:0:0:0:
220,181,152157,1,0,0:0:0:0:
165,213,152238,5,0,0:0:0:0:
139,163,152319,1,0,0:0:0:0:
167,110,152400,1,0,0:0:0:0:
252,79,152481,5,0,0:0:0:0:
326,100,152603,1,0,0:0:0:0:
352,146,152684,1,0,0:0:0:0:
309,227,152805,2,0,P|393:229|427:192,1,110
446,152,153130,2,0,P|423:102|367:78,1,110
333,146,153454,2,0,P|294:103|295:39,1,110
390,72,153778,2,0,B|431:149|431:149|407:216|407:216|338:245,1,220
299,237,154508,1,0,0:0:0:0:
232,196,154630,1,0,0:0:0:0:
171,155,154751,5,0,0:0:0:0:
150,198,154832,1,0,0:0:0:0:
172,229,154913,1,0,0:0:0:0:
166,267,154994,1,0,0:0:0:0:
198,287,155076,1,0,0:0:0:0:
235,276,155157,1,0,0:0:0:0:
268,257,155238,2,0,L|259:236,1,13.75
316,252,155319,2,0,L|320:274,1,13.75
371,307,155400,6,0,P|406:241|382:192,1,110
321,238,155724,2,0,P|291:183|318:126,1,110
379,120,156049,2,0,P|345:68|282:69,1,110
303,140,156373,2,0,B|207:87|147:207|195:254,1,220
245,269,157103,5,0,0:0:0:0:
279,213,157184,1,0,0:0:0:0:
338,241,157265,1,0,0:0:0:0:
379,193,157346,1,0,0:0:0:0:
421,178,157427,1,0,0:0:0:0:
429,135,157508,1,0,0:0:0:0:
375,100,157589,1,0,0:0:0:0:
264,86,157670,5,0,0:0:0:0:
185,113,157792,1,0,0:0:0:0:
127,85,157873,1,0,0:0:0:0:
78,131,157994,6,0,P|98:225|114:247,1,110
200,294,158319,2,0,P|288:238|309:213,1,110
202,190,158643,2,0,P|266:136|300:124,1,110
315,163,158886,5,0,0:0:0:0:
316,174,158967,1,0,0:0:0:0:
297,208,159049,1,0,0:0:0:0:
246,227,159130,1,0,0:0:0:0:
181,244,159211,1,0,0:0:0:0:
127,216,159292,1,0,0:0:0:0:
426,345,159454,6,0,L|402:236,1,110
329,292,159778,2,0,L|303:182,1,110
353,57,160103,2,0,L|382:171,1,110
402,237,160427,1,0,0:0:0:0:
220,86,160589,5,0,0:0:0:0:
166,113,160670,1,0,0:0:0:0:
151,171,160751,1,0,0:0:0:0:
93,188,160832,1,0,0:0:0:0:
127,237,160913,1,0,0:0:0:0:
186,227,160994,1,0,0:0:0:0:
215,278,161076,2,0,P|194:331|181:340,1,55
127,237,161238,2,0,P|132:282|139:293,1,55
195,149,161400,2,0,P|198:220|191:230,1,55
152,210,161562,5,0,0:0:0:0:
105,174,161643,1,0,0:0:0:0:
151,122,161724,1,0,0:0:0:0:
104,65,161805,1,0,0:0:0:0:
192,47,161886,5,0,0:0:0:0:
249,29,161967,1,0,0:0:0:0:
284,69,162049,2,0,P|283:123|268:135,1,55
201,106,162211,1,0,0:0:0:0:
199,166,162292,1,0,0:0:0:0:
149,200,162373,2,0,P|197:238|210:238,1,55
256,181,162535,1,0,0:0:0:0:
286,128,162616,1,0,0:0:0:0:
343,108,162697,2,0,P|368:177|363:187,1,55
305,188,162859,5,0,0:0:0:0:
262,231,162940,1,0,0:0:0:0:
301,276,163021,1,0,0:0:0:0:
246,302,163103,1,0,0:0:0:0:
168,243,163184,5,0,0:0:0:0:
183,184,163265,1,0,0:0:0:0:
243,179,163346,2,0,P|238:121|228:112,1,55
182,117,163508,1,0,0:0:0:0:
210,63,163589,1,0,0:0:0:0:
268,78,163670,1,0,0:0:0:0:
312,36,163751,1,0,0:0:0:0:
365,71,163832,2,0,P|368:132|362:138,1,55
308,129,163994,2,0,P|320:183|328:192,1,55
378,196,164157,5,0,0:0:0:0:
355,252,164238,1,0,0:0:0:0:
290,237,164319,1,0,0:0:0:0:
239,279,164400,1,0,0:0:0:0:
217,164,164481,5,0,0:0:0:0:
269,134,164562,1,0,0:0:0:0:
288,188,164643,1,0,0:0:0:0:
345,170,164724,1,0,0:0:0:0:
377,225,164805,2,0,P|347:277|332:279,1,55
300,251,164967,5,0,0:0:0:0:
268,303,165049,1,0,0:0:0:0:
215,249,165130,1,0,0:0:0:0:
202,179,165211,1,0,0:0:0:0:
228,128,165292,6,0,L|280:90,1,55
302,221,165454,2,0,L|294:162,1,55
371,176,165616,2,0,L|393:126,1,55
329,78,165778,5,0,0:0:0:0:
272,95,165859,1,0,0:0:0:0:
279,154,165940,2,0,P|237:195|223:192,1,55
216,122,166103,5,0,0:0:0:0:
163,152,166184,1,0,0:0:0:0:
116,191,166265,2,0,P|133:246|151:253,1,55
187,234,166427,5,0,0:0:0:0:
213,288,166508,1,0,0:0:0:0:
265,258,166589,1,0,0:0:0:0:
252,198,166670,1,0,0:0:0:0:
311,188,166751,5,0,0:0:0:0:
282,134,166832,1,0,0:0:0:0:
330,98,166913,1,0,0:0:0:0:
281,61,166994,1,0,0:0:0:0:
192,80,167076,5,0,0:0:0:0:
150,124,167157,1,0,0:0:0:0:
202,154,167238,2,0,P|201:208|196:214,1,55
107,203,167400,5,0,0:0:0:0:
124,260,167481,1,0,0:0:0:0:
182,245,167562,2,0,P|186:303|182:306,1,55
144,321,167724,5,0,0:0:0:0:
101,277,167805,1,0,0:0:0:0:
128,222,167886,1,0,0:0:0:0:
119,162,167967,1,0,0:0:0:0:
152,103,168049,5,0,0:0:0:0:
203,74,168130,1,0,0:0:0:0:
259,85,168211,1,0,0:0:0:0:
308,119,168292,1,0,0:0:0:0:
279,172,168373,6,0,L|293:228,1,55
372,206,168535,2,0,L|355:259,1,55
311,298,168697,5,0,0:0:0:0:
254,319,168778,1,0,0:0:0:0:
227,264,168859,1,0,0:0:0:0:
171,240,168940,1,0,0:0:0:0:
136,182,169021,2,0,L|168:131,1,55
235,178,169184,2,0,P|240:118|223:99,1,55
164,113,169346,5,0,0:0:0:0:
180,159,169427,1,0,0:0:0:0:
173,236,169508,5,0,0:0:0:0:
228,260,169589,1,0,0:0:0:0:
249,203,169670,1,0,0:0:0:0:
286,137,169751,1,0,0:0:0:0:
339,123,169832,1,0,0:0:0:0:
379,189,169913,1,0,0:0:0:0:
376,249,169994,1,0,0:0:0:0:
320,242,170076,1,0,0:0:0:0:
271,278,170157,1,0,0:0:0:0:
219,246,170238,1,0,0:0:0:0:
208,186,170319,1,0,0:0:0:0:
254,147,170400,1,0,0:0:0:0:
314,152,170481,6,0,L|302:140|299:137|300:172,1,27.5
314,152,170562,2,0,L|315:183,1,27.5
358,180,170643,6,0,L|346:168|343:165|344:197,1,27.5
358,180,170724,2,0,L|360:212,1,27.5
403,206,170805,6,0,L|391:194|388:191|390:227,1,27.5
403,206,170886,2,0,L|405:242,1,27.5
450,263,170967,5,0,0:0:0:0:
404,303,171049,1,0,0:0:0:0:
347,281,171130,2,0,P|299:306|284:300,1,55
234,232,171292,5,0,0:0:0:0:
259,177,171373,1,0,0:0:0:0:
312,204,171454,2,0,P|328:145|323:140,1,55
299,84,171616,5,0,0:0:0:0:
244,57,171697,1,0,0:0:0:0:
193,90,171778,2,0,P|216:140|220:140,1,55
284,150,171940,5,0,0:0:0:0:
312,204,172021,1,0,0:0:0:0:
263,239,172103,1,0,0:0:0:0:
306,282,172184,1,0,0:0:0:0:
171,291,172265,5,0,0:0:0:0:
134,242,172346,1,0,0:0:0:0:
172,195,172427,2,0,P|174:137|170:132,1,55
163,82,172589,5,0,0:0:0:0:
219,61,172670,1,0,0:0:0:0:
253,110,172751,1,0,0:0:0:0:
312,121,172832,1,0,0:0:0:0:
361,155,172913,2,0,P|331:204|323:208,1,55
265,187,173076,2,0,P|263:245|269:253,1,55
317,258,173238,5,0,0:0:0:0:
361,298,173319,1,0,0:0:0:0:
416,273,173400,1,0,0:0:0:0:
415,212,173481,1,0,0:0:0:0:
323,243,173562,5,0,0:0:0:0:
297,188,173643,1,0,0:0:0:0:
255,214,173724,2,0,P|225:157|228:147,1,55
244,97,173886,5,0,0:0:0:0:
289,57,173967,1,0,0:0:0:0:
345,81,174049,2,0,P|331:137|325:144,1,55
273,137,174211,5,0,0:0:0:0:
219,164,174292,1,0,0:0:0:0:
253,213,174373,1,0,0:0:0:0:
197,236,174454,1,0,0:0:0:0:
242,275,174535,5,0,0:0:0:0:
301,283,174616,1,0,0:0:0:0:
321,226,174697,1,0,0:0:0:0:
379,211,174778,1,0,0:0:0:0:
402,163,174859,6,0,P|384:111|373:106,1,55
319,91,175021,2,0,P|321:154|326:158,1,55
366,191,175184,5,0,0:0:0:0:
347,248,175265,1,0,0:0:0:0:
305,291,175346,2,0,P|277:239|281:229,1,55
174,216,175508,5,0,0:0:0:0:
224,183,175589,1,0,0:0:0:0:
188,134,175670,6,0,P|185:74|188:69,1,55
263,103,175832,2,0,L|287:54,1,55
296,186,175994,2,0,L|356:203,1,55
216,264,176157,6,0,L|181:209,1,55
81,233,176319,2,0,L|114:172,1,55
174,139,176481,2,0,L|130:88,1,55
242,172,176643,2,0,L|258:112,1,55
360,143,176805,2,0,L|319:79,1,55
345,259,176967,2,0,L|311:197,1,55
427,337,177130,2,0,L|454:286,1,55
420,204,177292,2,0,L|381:156,1,55
248,41,177454,6,0,L|212:113,1,55
301,100,177616,2,0,L|316:155,1,55
223,166,177778,2,0,L|246:218,1,55
314,280,177940,2,0,L|330:214,1,55
212,285,178103,2,0,L|261:339,1,55
153,208,178265,2,0,L|125:271,1,55
231,215,178427,2,0,L|265:160,1,55
186,134,178589,2,0,L|150:92,1,55
269,63,178751,5,0,0:0:0:0:
376,100,178913,1,0,0:0:0:0:
208,232,179076,1,0,0:0:0:0:
362,176,179238,1,0,0:0:0:0:
306,280,179400,1,0,0:0:0:0:
269,128,179562,1,0,0:0:0:0:
218,213,179724,1,0,0:0:0:0:
389,91,179886,1,0,0:0:0:0:
404,290,180049,5,0,0:0:0:0:
171,153,180211,1,0,0:0:0:0:
413,180,180373,1,0,0:0:0:0:
219,268,180535,1,0,0:0:0:0:
347,133,180697,1,0,0:0:0:0:
119,182,180859,6,0,P|170:148|173:138,1,55
170,85,181021,2,0,P|176:27|168:17,1,55
103,108,181184,2,0,P|106:44|112:39,1,55
260,74,181346,5,0,0:0:0:0:
260,134,181427,1,0,0:0:0:0:
294,183,181508,1,0,0:0:0:0:
259,232,181589,1,0,0:0:0:0:
229,284,181670,2,0,P|282:321|299:314,1,55
336,273,181832,1,0,0:0:0:0:
367,209,181913,1,0,0:0:0:0:
310,163,181994,2,0,P|278:109|282:97,1,55
308,69,182157,5,0,0:0:0:0:
363,92,182238,1,0,0:0:0:0:
380,149,182319,1,0,0:0:0:0:
367,209,182400,1,0,0:0:0:0:
316,242,182481,1,0,0:0:0:0:
256,234,182562,1,0,0:0:0:0:
210,194,182643,2,0,P|170:235|181:260,1,55
209,272,182805,5,0,0:0:0:0:
151,291,182886,1,0,0:0:0:0:
107,249,182967,2,0,P|86:195|89:189,1,55
110,146,183130,5,0,0:0:0:0:
163,118,183211,1,0,0:0:0:0:
179,176,183292,1,0,0:0:0:0:
236,158,183373,1,0,0:0:0:0:
255,100,183454,1,0,0:0:0:0:
282,46,183535,2,0,P|338:49|350:59,1,55
362,101,183697,5,0,0:0:0:0:
313,136,183778,1,0,0:0:0:0:
254,151,183859,2,0,P|257:213|264:219,1,55
218,254,184021,5,0,0:0:0:0:
175,210,184103,1,0,0:0:0:0:
172,149,184184,1,0,0:0:0:0:
193,92,184265,2,0,P|213:38|211:36,1,55
163,31,184427,5,0,0:0:0:0:
106,93,184508,1,0,0:0:0:0:
80,172,184589,2,0,L|103:226,1,55
181,207,184751,2,0,L|162:268,1,55
241,259,184913,2,0,L|257:317,1,55
327,203,185076,2,0,L|318:265,1,55
381,136,185238,2,0,L|409:192,1,55
322,49,185400,2,0,L|301:121,1,55
229,105,185562,2,0,L|258:161,1,55
145,175,185724,2,0,L|126:233,1,55
70,48,185886,2,0,L|115:113,1,55
61,158,186049,5,0,0:0:0:0:
145,175,186130,1,0,0:0:0:0:
200,133,186211,1,0,0:0:0:0:
283,215,186373,6,0,L|314:156,1,55
134,342,186535,5,0,0:0:0:0:
119,289,186616,1,0,0:0:0:0:
98,238,186697,2,0,L|158:202,1,55
220,268,186859,5,0,0:0:0:0:
236,215,186940,1,0,0:0:0:0:
257,164,187021,2,0,L|197:128,1,55
145,210,187184,5,0,0:0:0:0:
130,157,187265,1,0,0:0:0:0:
109,106,187346,2,0,L|169:70,1,55
257,164,187508,5,0,0:0:0:0:
272,111,187589,1,0,0:0:0:0:
293,60,187670,2,0,L|233:24,1,55
412,50,187832,5,0,0:0:0:0:
427,103,187913,1,0,0:0:0:0:
448,154,187994,2,0,L|388:190,1,55
326,124,188156,5,0,0:0:0:0:
310,177,188237,1,0,0:0:0:0:
289,228,188318,2,0,L|349:264,1,55
401,182,188481,5,0,0:0:0:0:
416,235,188562,1,0,0:0:0:0:
437,286,188643,2,0,L|377:322,1,55
289,228,188805,5,0,0:0:0:0:
274,281,188886,1,0,0:0:0:0:
253,332,188967,2,0,L|313:368,1,55
160,252,189130,5,0,0:0:0:0:
124,211,189211,1,0,0:0:0:0:
177,199,189292,2,0,L|156:143,1,55
352,252,189454,5,0,0:0:0:0:
388,211,189535,1,0,0:0:0:0:
335,199,189616,2,0,L|356:143,1,55
160,252,189778,5,0,0:0:0:0:
124,211,189859,1,0,0:0:0:0:
177,199,189940,2,0,L|156:143,1,55
352,252,190103,5,0,0:0:0:0:
388,211,190184,1,0,0:0:0:0:
335,199,190265,2,0,L|356:143,1,55
160,252,190427,5,0,0:0:0:0:
124,211,190508,1,0,0:0:0:0:
177,199,190589,2,0,L|156:143,1,55
352,252,190751,5,0,0:0:0:0:
388,211,190832,1,0,0:0:0:0:
335,199,190913,2,0,L|356:143,1,55
160,252,191076,5,0,0:0:0:0:
124,211,191157,1,0,0:0:0:0:
177,199,191238,2,0,L|156:143,1,55
352,252,191400,5,0,0:0:0:0:
388,211,191481,1,0,0:0:0:0:
335,199,191562,2,0,L|356:143,1,55
225,275,191724,5,0,0:0:0:0:
181,266,191805,1,0,0:0:0:0:
142,245,191886,1,0,0:0:0:0:
126,204,191967,1,0,0:0:0:0:
171,197,192049,5,0,0:0:0:0:
202,256,192130,1,0,0:0:0:0:
183,320,192211,2,0,P|228:357|241:357,1,55
286,230,192373,5,0,0:0:0:0:
330,221,192454,1,0,0:0:0:0:
369,200,192535,1,0,0:0:0:0:
385,159,192616,1,0,0:0:0:0:
340,152,192698,5,0,0:0:0:0:
309,211,192779,1,0,0:0:0:0:
328,275,192860,2,0,P|283:312|270:312,1,55
240,188,193022,5,0,0:0:0:0:
196,179,193103,1,0,0:0:0:0:
157,158,193184,1,0,0:0:0:0:
141,117,193265,1,0,0:0:0:0:
186,110,193347,5,0,0:0:0:0:
217,169,193428,1,0,0:0:0:0:
198,233,193509,2,0,P|243:270|256:270,1,55
320,180,193670,5,0,0:0:0:0:
364,171,193751,1,0,0:0:0:0:
403,150,193832,1,0,0:0:0:0:
419,109,193913,1,0,0:0:0:0:
374,102,193995,5,0,0:0:0:0:
343,161,194076,1,0,0:0:0:0:
362,225,194157,2,0,P|317:262|304:262,1,55
256,199,194319,5,0,0:0:0:0:
212,190,194400,1,0,0:0:0:0:
173,169,194481,1,0,0:0:0:0:
157,128,194562,1,0,0:0:0:0:
202,121,194644,5,0,0:0:0:0:
233,180,194725,1,0,0:0:0:0:
214,244,194806,2,0,P|259:281|272:281,1,55
299,223,194967,5,0,0:0:0:0:
343,214,195048,1,0,0:0:0:0:
382,193,195129,1,0,0:0:0:0:
398,152,195210,1,0,0:0:0:0:
353,145,195292,5,0,0:0:0:0:
322,204,195373,1,0,0:0:0:0:
341,268,195454,2,0,P|296:305|283:305,1,55
251,231,195616,5,0,0:0:0:0:
207,222,195697,1,0,0:0:0:0:
168,201,195778,1,0,0:0:0:0:
152,160,195859,1,0,0:0:0:0:
197,153,195941,5,0,0:0:0:0:
228,212,196022,1,0,0:0:0:0:
209,276,196103,2,0,P|254:313|267:313,1,55
362,75,196265,6,0,L|346:213,1,110
240,124,196589,2,0,P|189:78|176:172,1,165
305,175,196913,5,0,0:0:0:0:
345,213,196994,1,0,0:0:0:0:
389,246,197075,2,0,L|356:308,1,55
228,161,197238,5,0,0:0:0:0:
188,199,197319,1,0,0:0:0:0:
144,232,197400,2,0,L|176:294,1,55
372,176,197562,5,0,0:0:0:0:
412,214,197643,1,0,0:0:0:0:
456,247,197724,2,0,L|423:309,1,55
241,214,197886,5,0,0:0:0:0:
201,252,197967,1,0,0:0:0:0:
157,285,198048,2,0,L|189:347,1,55
377,183,198211,5,0,0:0:0:0:
417,221,198292,1,0,0:0:0:0:
461,254,198373,2,0,L|428:316,1,55
254,205,198535,5,0,0:0:0:0:
214,243,198616,1,0,0:0:0:0:
170,276,198697,2,0,L|202:338,1,55
343,118,198859,5,0,0:0:0:0:
383,156,198940,1,0,0:0:0:0:
427,189,199021,2,0,L|394:251,1,55
228,157,199184,5,0,0:0:0:0:
188,195,199265,1,0,0:0:0:0:
144,228,199346,2,0,L|176:290,1,55
279,220,199508,5,0,0:0:0:0:
332,208,199589,1,0,0:0:0:0:
296,168,199670,2,0,L|345:136,1,55
188,143,199832,5,0,0:0:0:0:
135,131,199913,1,0,0:0:0:0:
171,91,199994,2,0,L|121:59,1,55
266,251,200157,5,0,0:0:0:0:
319,239,200238,1,0,0:0:0:0:
283,199,200319,2,0,L|332:167,1,55
184,148,200481,5,0,0:0:0:0:
131,136,200562,1,0,0:0:0:0:
167,96,200643,2,0,L|117:64,1,55
251,239,200805,5,0,0:0:0:0:
304,227,200886,1,0,0:0:0:0:
268,187,200967,2,0,L|317:155,1,55
184,148,201129,5,0,0:0:0:0:
131,136,201210,1,0,0:0:0:0:
167,96,201291,2,0,L|117:64,1,55
251,239,201454,5,0,0:0:0:0:
304,227,201535,1,0,0:0:0:0:
268,187,201616,2,0,L|317:155,1,55
181,164,201778,5,0,0:0:0:0:
128,152,201859,1,0,0:0:0:0:
164,112,201940,2,0,L|114:80,1,55
280,143,202103,5,0,0:0:0:0:
323,155,202184,1,0,0:0:0:0:
367,153,202265,1,0,0:0:0:0:
400,123,202346,1,0,0:0:0:0:
362,97,202428,5,0,0:0:0:0:
309,137,202509,1,0,0:0:0:0:
298,202,202590,2,0,P|241:216|229:210,1,55
175,140,202751,5,0,0:0:0:0:
132,152,202832,1,0,0:0:0:0:
88,150,202913,1,0,0:0:0:0:
55,120,202994,1,0,0:0:0:0:
93,94,203076,5,0,0:0:0:0:
146,134,203157,1,0,0:0:0:0:
157,199,203238,2,0,P|213:213|225:207,1,55
239,140,203400,5,0,0:0:0:0:
282,152,203481,1,0,0:0:0:0:
326,150,203562,1,0,0:0:0:0:
359,120,203643,1,0,0:0:0:0:
321,94,203725,5,0,0:0:0:0:
268,134,203806,1,0,0:0:0:0:
257,199,203887,2,0,P|200:213|188:207,1,55
203,304,204049,5,0,0:0:0:0:
160,316,204130,1,0,0:0:0:0:
116,314,204211,1,0,0:0:0:0:
83,284,204292,1,0,0:0:0:0:
121,258,204374,5,0,0:0:0:0:
174,298,204455,1,0,0:0:0:0:
185,363,204536,2,0,P|241:377|253:371,1,55
284,245,204697,5,0,0:0:0:0:
327,257,204778,1,0,0:0:0:0:
371,255,204859,1,0,0:0:0:0:
404,225,204940,1,0,0:0:0:0:
366,199,205022,5,0,0:0:0:0:
313,239,205103,1,0,0:0:0:0:
302,304,205184,2,0,P|245:318|233:312,1,55
180,274,205346,5,0,0:0:0:0:
144,247,205427,1,0,0:0:0:0:
119,211,205508,1,0,0:0:0:0:
123,167,205589,1,0,0:0:0:0:
167,181,205671,5,0,0:0:0:0:
167,248,205752,1,0,0:0:0:0:
122,296,205833,2,0,P|145:350|156:356,1,55
244,308,205994,5,0,0:0:0:0:
287,296,206075,1,0,0:0:0:0:
331,298,206156,1,0,0:0:0:0:
364,328,206237,1,0,0:0:0:0:
326,354,206319,5,0,0:0:0:0:
273,314,206400,1,0,0:0:0:0:
262,249,206481,2,0,P|205:236|193:242,1,55
174,292,206643,5,0,0:0:0:0:
88,261,206724,5,0,0:0:0:0:
129,225,206805,1,0,0:0:0:0:
94,162,206886,1,0,0:0:0:0:
127,118,206967,1,0,0:0:0:0:
212,150,207049,1,0,0:0:0:0:
221,95,207130,1,0,0:0:0:0:
272,90,207211,1,0,0:0:0:0:
345,150,207292,5,0,0:0:0:0:
310,206,207373,1,0,0:0:0:0:
342,263,207454,1,0,0:0:0:0:
281,288,207535,1,0,0:0:0:0:
215,282,207616,2,0,P|179:230|183:219,1,55
212,188,207778,5,0,0:0:0:0:
171,136,207859,1,0,0:0:0:0:
231,110,207940,1,0,0:0:0:0:
266,54,208021,2,0,P|309:88|309:97,1,55
337,142,208184,5,0,0:0:0:0:
301,197,208265,1,0,0:0:0:0:
245,160,208346,1,0,0:0:0:0:
211,217,208427,1,0,0:0:0:0:
146,232,208508,1,0,0:0:0:0:
100,279,208589,2,0,P|149:320|155:319,1,55
185,278,208751,5,0,0:0:0:0:
141,228,208832,1,0,0:0:0:0:
155,163,208913,1,0,0:0:0:0:
193,109,208994,1,0,0:0:0:0:
240,156,209076,2,0,P|289:127|293:116,1,55
272,66,209238,5,0,0:0:0:0:
337,76,209319,1,0,0:0:0:0:
374,130,209400,1,0,0:0:0:0:
341,187,209481,1,0,0:0:0:0:
321,249,209562,1,0,0:0:0:0:
260,244,209643,1,0,0:0:0:0:
221,190,209724,1,0,0:0:0:0:
161,217,209805,1,0,0:0:0:0:
104,251,209886,2,0,P|76:197|79:185,1,55
89,141,210049,5,0,0:0:0:0:
154,151,210130,1,0,0:0:0:0:
180,90,210211,1,0,0:0:0:0:
226,136,210292,1,0,0:0:0:0:
291,133,210373,2,0,P|321:184|324:185,1,55
283,230,210535,5,0,0:0:0:0:
230,190,210616,1,0,0:0:0:0:
241,125,210697,1,0,0:0:0:0:
181,96,210778,1,0,0:0:0:0:
127,134,210859,1,0,0:0:0:0:
139,198,210940,1,0,0:0:0:0:
90,242,211021,2,0,P|127:286|129:286,1,55
175,249,211184,5,0,0:0:0:0:
208,191,211265,1,0,0:0:0:0:
272,178,211346,2,0,P|294:124|292:119,1,55
248,85,211508,5,0,0:0:0:0:
295,38,211589,1,0,0:0:0:0:
359,52,211670,2,0,P|372:116|367:125,1,55
328,147,211832,5,0,0:0:0:0:
312,211,211913,1,0,0:0:0:0:
249,189,211994,1,0,0:0:0:0:
189,219,212076,1,0,0:0:0:0:
142,172,212157,2,0,P|81:171|77:172,1,55
43,219,212319,5,0,0:0:0:0:
77,275,212400,1,0,0:0:0:0:
136,245,212481,2,0,P|188:221|195:223,1,55
235,258,212643,5,0,0:0:0:0:
289,294,212724,1,0,0:0:0:0:
346,260,212805,1,0,0:0:0:0:
365,196,212886,1,0,0:0:0:0:
304,170,212967,2,0,P|276:111|281:102,1,55
316,81,213130,5,0,0:0:0:0:
352,136,213211,1,0,0:0:0:0:
339,200,213292,1,0,0:0:0:0:
290,244,213373,1,0,0:0:0:0:
224,247,213454,2,0,P|155:235|150:227,1,55
149,186,213616,5,0,0:0:0:0:
184,130,213697,1,0,0:0:0:0:
176,64,213778,2,0,P|135:21|118:17,1,55
92,68,213940,5,0,0:0:0:0:
122,126,214021,1,0,0:0:0:0:
186,144,214103,1,0,0:0:0:0:
246,117,214184,1,0,0:0:0:0:
234,52,214265,2,0,P|297:33|299:34,1,55
327,74,214427,5,0,0:0:0:0:
319,139,214508,1,0,0:0:0:0:
255,157,214589,1,0,0:0:0:0:
278,218,214670,1,0,0:0:0:0:
218,247,214751,2,0,P|259:296|264:295,1,55
304,284,214913,5,0,0:0:0:0:
352,239,214994,1,0,0:0:0:0:
325,177,215076,2,0,P|294:131|295:124,1,55
338,87,215238,5,0,0:0:0:0:
394,120,215319,1,0,0:0:0:0:
385,185,215400,1,0,0:0:0:0:
403,248,215481,1,0,0:0:0:0:
345,280,215562,1,0,0:0:0:0:
283,255,215643,1,0,0:0:0:0:
261,192,215724,2,0,P|236:143|221:132,1,55
173,163,215886,5,0,0:0:0:0:
186,227,215967,1,0,0:0:0:0:
135,270,216049,2,0,P|172:338|181:340,1,55
208,297,216211,5,0,0:0:0:0:
196,232,216292,2,0,P|188:168|190:165,1,55
223,130,216454,5,0,0:0:0:0:
288,137,216535,1,0,0:0:0:0:
304,200,216616,1,0,0:0:0:0:
240,218,216697,2,0,P|283:277|291:277,1,55
323,266,216859,5,0,0:0:0:0:
302,328,216940,1,0,0:0:0:0:
238,347,217021,2,0,P|187:321|186:317,1,55
136,265,217184,5,0,0:0:0:0:
160,186,217265,1,0,0:0:0:0:
305,71,217670,5,0,0:0:0:0:
242,92,217751,1,0,0:0:0:0:
220,154,217832,1,0,0:0:0:0:
154,144,217913,1,0,0:0:0:0:
97,178,217994,2,0,P|131:240|142:243,1,55
172,199,218157,5,0,0:0:0:0:
128,149,218238,1,0,0:0:0:0:
150,87,218319,1,0,0:0:0:0:
207,55,218400,1,0,0:0:0:0:
243,110,218481,2,0,P|306:107|312:99,1,55
358,132,218643,5,0,0:0:0:0:
385,71,218724,1,0,0:0:0:0:
433,115,218805,2,0,P|444:174|438:181,1,55
386,185,218967,5,0,0:0:0:0:
368,120,219049,1,0,0:0:0:0:
303,132,219130,1,0,0:0:0:0:
254,87,219211,1,0,0:0:0:0:
203,129,219292,2,0,P|215:191|218:193,1,55
270,189,219454,5,0,0:0:0:0:
303,132,219535,1,0,0:0:0:0:
270,74,219616,1,0,0:0:0:0:
323,35,219697,1,0,0:0:0:0:
350,94,219778,2,0,P|343:157|337:162,1,55
289,170,219940,5,0,0:0:0:0:
301,234,220021,1,0,0:0:0:0:
235,223,220103,2,0,P|201:168|205:160,1,55
204,121,220265,5,0,0:0:0:0:
149,157,220346,1,0,0:0:0:0:
130,220,220427,1,0,0:0:0:0:
151,282,220508,1,0,0:0:0:0:
200,325,220589,2,0,P|233:271|229:262,1,55
187,240,220751,5,0,0:0:0:0:
251,224,220832,1,0,0:0:0:0:
306,258,220913,1,0,0:0:0:0:
359,297,220994,1,0,0:0:0:0:
421,274,221076,1,0,0:0:0:0:
436,210,221157,1,0,0:0:0:0:
371,225,221238,2,0,P|336:172|341:163,1,55
373,138,221400,5,0,0:0:0:0:
320,97,221481,1,0,0:0:0:0:
260,124,221562,2,0,P|246:194|227:204,1,55
196,194,221724,5,0,0:0:0:0:
175,131,221805,1,0,0:0:0:0:
194,68,221886,1,0,0:0:0:0:
250,33,221967,1,0,0:0:0:0:
282,72,222049,5,0,0:0:0:0:
258,133,222130,1,0,0:0:0:0:
198,160,222211,1,0,0:0:0:0:
131,170,222292,1,0,0:0:0:0:
81,127,222373,2,0,P|50:172|54:181,1,55
83,227,222535,5,0,0:0:0:0:
142,272,222616,1,0,0:0:0:0:
194,217,222697,1,0,0:0:0:0:
270,212,222778,1,0,0:0:0:0:
316,267,222859,6,0,P|382:236|382:235,1,55
363,201,223021,1,0,0:0:0:0:
296,194,223103,1,0,0:0:0:0:
309,129,223184,1,0,0:0:0:0:
255,89,223265,1,0,0:0:0:0:
189,96,223346,2,0,P|182:169|186:174,1,55
232,173,223508,5,0,0:0:0:0:
192,226,223589,1,0,0:0:0:0:
248,259,223670,1,0,0:0:0:0:
213,314,223751,1,0,0:0:0:0:
162,330,223832,5,0,0:0:0:0:
173,259,223913,1,0,0:0:0:0:
106,233,223994,1,0,0:0:0:0:
118,161,224076,1,0,0:0:0:0:
145,101,224157,6,0,P|116:67|118:41,1,55
174,29,224319,1,0,0:0:0:0:
224,70,224400,1,0,0:0:0:0:
211,134,224481,6,0,P|221:187|228:192,1,55
284,176,224643,1,0,0:0:0:0:
276,241,224724,1,0,0:0:0:0:
224,281,224805,5,0,0:0:0:0:
176,235,224886,1,0,0:0:0:0:
124,276,224967,1,0,0:0:0:0:
94,215,225049,1,0,0:0:0:0:
135,163,225130,5,0,0:0:0:0:
196,199,225211,1,0,0:0:0:0:
223,139,225292,1,0,0:0:0:0:
287,182,225373,1,0,0:0:0:0:
340,130,225454,6,0,P|369:193|368:197,1,55
340,130,225616,2,0,P|373:197|372:201,1,55
287,182,225778,6,0,P|250:245|251:249,1,55
287,182,225940,2,0,P|254:249|255:253,1,55
307,263,226103,5,0,0:0:0:0:
291,327,226184,1,0,0:0:0:0:
226,312,226265,1,0,0:0:0:0:
180,255,226346,1,0,0:0:0:0:
129,297,226427,1,0,0:0:0:0:
99,237,226508,1,0,0:0:0:0:
129,178,226589,1,0,0:0:0:0:
194,172,226670,1,0,0:0:0:0:
238,202,226751,6,0,P|224:262|219:266,1,55
238,202,226913,2,0,P|228:266|223:270,1,55
129,178,227076,6,0,P|135:238|140:242,1,55
129,178,227238,2,0,P|139:242|144:246,1,55
166,318,227400,6,0,L|113:346,1,55
