osu file format v14

[General]
AudioFilename: audio.mp3
AudioLeadIn: 0
PreviewTime: -1
Countdown: 0
SampleSet: Soft
StackLeniency: 0.7
Mode: 0
LetterboxInBreaks: 0
WidescreenStoryboard: 0

[Editor]
DistanceSpacing: 1.3
BeatDivisor: 8
GridSize: 8
TimelineZoom: 1.7

[Metadata]
Title:sink to the deep sea world
TitleUnicode:sink to the deep sea world
Artist:Chroma
ArtistUnicode:黒魔
Creator:DuckRadio
Version:Swallowed by the Ocean Depths
Source:
Tags:sea, world, chroma, duckradio
BeatmapID:1883800
BeatmapSetID:902280

[Difficulty]
HPDrainRate:6
CircleSize:4
OverallDifficulty:10
ApproachRate:9.5
SliderMultiplier:1
SliderTickRate:1

[Events]
//Background and Video events
0,0,"dark_sea.jpg",0,0
//Break Periods
2,38442,77041
//Storyboard Layer 0 (Background)
//Storyboard Layer 1 (Fail)
//Storyboard Layer 2 (Pass)
//Storyboard Layer 3 (Foreground)
//Storyboard Layer 4 (Overlay)
//Storyboard Sound Samples

[TimingPoints]
1026,324.324324324324,4,2,0,40,1,0
6215,-66.6666666666667,4,2,0,40,0,0
21458,-33.3333333333333,4,2,0,40,0,0
21782,-50,4,2,0,40,0,0
30215,-100,4,2,0,40,0,0
30539,-80,4,2,0,40,0,0
30863,-66.6666666666667,4,2,0,40,0,0
31025,-57.1428571428571,4,2,0,40,0,0
77566,-57.1428571428571,4,2,0,40,0,1
87296,-57.1428571428571,4,2,0,40,0,0
87944,-57.1428571428571,4,2,0,40,0,1
97674,-57.1428571428571,4,2,0,40,0,0

[Colours]
Combo1 : 2,153,166
Combo2 : 181,181,242
Combo3 : 83,140,227
Combo4 : 28,66,249
Combo5 : 0,0,255

[HitObjects]
112,177,1026,5,0,0:0:0:0:
136,80,1188,1,0,0:0:0:0:
167,272,1350,1,0,0:0:0:0:
114,185,1512,1,0,0:0:0:0:
272,38,1674,1,0,0:0:0:0:
248,137,1836,1,0,0:0:0:0:
376,73,1998,5,0,0:0:0:0:
391,69,2161,1,0,0:0:0:0:
379,174,2323,1,0,0:0:0:0:
403,75,2485,1,0,0:0:0:0:
413,277,2647,1,0,0:0:0:0:
384,179,2809,1,0,0:0:0:0:
470,346,2971,5,0,0:0:0:0:
455,342,3134,1,0,0:0:0:0:
348,369,3296,1,0,0:0:0:0:
387,188,3458,1,0,0:0:0:0:
198,348,3620,2,0,P|270:334|354:373,1,150,0|0,0:0|0:0,3:0:0:0:
218,227,4269,1,0,0:0:0:0:
197,358,4431,1,0,0:0:0:0:
89,143,4593,1,0,0:0:0:0:
89,350,4755,1,0,0:0:0:0:
59,251,4917,5,0,0:0:0:0:
219,235,5079,1,0,0:0:0:0:
87,133,5242,1,0,0:0:0:0:
60,241,5404,1,0,0:0:0:0:
200,159,5566,1,0,0:0:0:0:
98,138,5728,1,0,0:0:0:0:
186,70,5890,1,0,0:0:0:0:
17,62,6053,5,0,0:0:0:0:
66,71,6134,1,0,0:0:0:0:
110,51,6215,2,0,L|113:13,1,37.5000014305115
255,146,6377,2,0,L|252:108,1,37.5000014305115
373,0,6539,2,0,L|370:38,1,37.5000014305115
352,176,6701,5,0,0:0:0:0:
379,179,6782,1,0,0:0:0:0:
398,197,6863,1,0,0:0:0:0:
425,200,6944,1,0,0:0:0:0:
351,304,7025,2,0,L|356:239,1,37.5000014305115
268,154,7188,2,0,L|265:116,1,37.5000014305115
216,312,7350,6,0,L|183:315,3,18.7500007152558
175,305,7512,2,0,L|171:256,1,37.5000014305115
43,168,7674,2,0,L|39:205,1,37.5000014305115
263,100,7836,1,0,0:0:0:0:
206,103,7917,1,0,0:0:0:0:
150,106,7998,2,0,L|153:68,1,37.5000014305115
48,249,8161,6,0,L|44:211,1,37.5000014305115
266,315,8323,2,0,L|228:311,1,37.5000014305115
270,109,8485,2,0,L|266:146,1,37.5000014305115
282,365,8647,2,0,L|278:327,1,37.5000014305115
402,157,8809,2,0,L|344:164,1,37.5000014305115
158,60,8971,2,0,L|216:67,1,37.5000014305115
420,19,9134,2,0,L|362:26,1,37.5000014305115
249,157,9296,5,0,0:0:0:0:
222,160,9377,1,0,0:0:0:0:
203,178,9458,1,0,0:0:0:0:
176,181,9539,1,0,0:0:0:0:
250,285,9620,2,0,L|245:220,1,37.5000014305115
196,22,9782,2,0,L|201:87,1,37.5000014305115
94,140,9944,6,0,L|62:135,3,18.7500007152558
107,124,10107,2,0,L|105:74,1,37.5000014305115
86,309,10269,2,0,L|88:259,1,37.5000014305115
299,297,10431,2,0,L|250:292,1,37.5000014305115
35,274,10593,2,0,L|72:270,1,37.5000014305115
249,159,10755,6,0,L|246:204,1,37.5000014305115
308,352,10917,2,0,L|305:307,1,37.5000014305115
480,208,11080,2,0,L|440:203,1,37.5000014305115
376,120,11242,1,0,0:0:0:0:
373,95,11323,1,0,0:0:0:0:
406,28,11404,5,0,0:0:0:0:
251,142,11566,2,0,L|294:174,1,37.5000014305115
320,232,11728,1,0,0:0:0:0:
169,117,11890,2,0,L|179:75,1,37.5000014305115
74,50,12053,1,0,0:0:0:0:
74,66,12134,1,0,0:0:0:0:
74,82,12215,2,0,L|80:137,1,56.2500021457673
120,240,12377,1,0,0:0:0:0:
163,18,12539,6,0,L|159:-13,3,18.7500007152558
167,34,12701,2,0,L|164:83,1,37.5000014305115
143,208,12863,2,0,L|138:253,1,37.5000014305115
80,304,13025,1,0,0:0:0:0:
150,190,13188,2,0,L|154:234,1,37.5000014305115
200,360,13350,1,0,0:0:0:0:
348,193,13512,1,0,0:0:0:0:
298,212,13593,1,0,0:0:0:0:
264,252,13674,1,0,0:0:0:0:
415,384,13836,1,0,0:0:0:0:
412,347,13917,1,0,0:0:0:0:
354,287,13998,5,0,0:0:0:0:
451,155,14161,2,0,L|441:209,1,37.5000014305115
473,263,14363,1,0,0:0:0:0:
370,42,14485,2,0,L|379:93,1,37.5000014305115
276,237,14647,1,0,0:0:0:0:
271,221,14728,1,0,0:0:0:0:
266,207,14809,2,0,L|255:154,1,37.5000014305115
271,87,14971,1,0,0:0:0:0:
90,12,15134,6,0,L|58:5,2,18.7500007152558
107,28,15296,2,0,L|113:91,1,37.5000014305115
46,216,15458,2,0,L|93:211,1,37.5000014305115
200,363,15620,1,0,0:0:0:0:
200,348,15701,1,0,0:0:0:0:
201,335,15782,2,0,L|203:284,1,37.5000014305115
131,45,15944,2,0,L|123:94,1,37.5000014305115
219,133,16107,2,0,L|222:201,1,37.5000014305115
303,229,16269,2,0,L|317:295,1,37.5000014305115
277,26,16431,1,0,0:0:0:0:
279,59,16512,1,0,0:0:0:0:
342,128,16593,5,0,0:0:0:0:
508,144,16755,2,0,L|500:201,1,37.5000014305115
462,248,16917,1,0,0:0:0:0:
335,122,17080,2,0,L|327:65,1,37.5000014305115
207,191,17242,1,0,0:0:0:0:
197,176,17323,1,0,0:0:0:0:
190,164,17404,2,0,L|198:107,1,37.5000014305115
168,53,17566,1,0,0:0:0:0:
43,13,17728,6,0,L|15:8,2,18.7500007152558
61,25,17890,2,0,L|66:75,1,37.5000014305115
1,184,18053,2,0,L|42:179,1,37.5000014305115
212,245,18215,1,0,0:0:0:0:
195,247,18296,1,0,0:0:0:0:
178,249,18377,2,0,L|137:254,1,37.5000014305115
77,299,18539,1,0,0:0:0:0:
211,384,18701,2,0,L|215:336,1,37.5000014305115
267,288,18863,1,0,0:0:0:0:
389,359,19025,1,0,0:0:0:0:
391,323,19106,1,0,0:0:0:0:
452,263,19188,5,0,0:0:0:0:
498,65,19350,2,0,L|502:109,1,37.5000014305115
461,173,19512,1,0,0:0:0:0:
364,53,19674,2,0,L|404:49,1,37.5000014305115
327,261,19836,1,0,0:0:0:0:
328,244,19917,1,0,0:0:0:0:
330,229,19998,2,0,L|334:189,1,37.5000014305115
285,125,20161,1,0,0:0:0:0:
280,336,20323,6,0,L|282:365,2,18.7500007152558
276,321,20485,2,0,L|225:315,1,37.5000014305115
129,373,20647,2,0,L|126:325,1,37.5000014305115
9,196,20809,1,0,0:0:0:0:
26,194,20890,1,0,0:0:0:0:
41,192,20971,2,0,L|92:186,1,37.5000014305115
10,337,21134,2,0,L|13:283,1,37.5000014305115
99,73,21296,2,0,L|101:120,1,37.5000014305115
231,328,21458,2,0,P|244:293|262:308,1,75.0000028610231
381,220,21620,2,0,P|368:185|350:200,1,75.0000028610231
427,350,21782,6,0,B|350:331|340:222|457:177|503:263|503:263|504:263|518:191|450:161|444:167|435:171|370:143|379:79|379:79|374:-31|542:2|461:159|379:79|379:79|337:51|275:44|238:74|238:74|139:143|255:236|347:122|238:74|238:74|183:55|106:94|127:168|132:169|138:169|172:254|104:319,1,1500
33,232,24377,5,0,0:0:0:0:
41,368,24539,1,0,0:0:0:0:
128,119,24701,1,0,0:0:0:0:
36,219,24863,1,0,0:0:0:0:
273,70,25025,1,0,0:0:0:0:
143,110,25187,1,0,0:0:0:0:
405,138,25350,1,0,0:0:0:0:
284,74,25512,1,0,0:0:0:0:
465,273,25674,5,0,0:0:0:0:
506,142,25836,1,0,0:0:0:0:
335,346,25998,1,0,0:0:0:0:
456,282,26160,1,0,0:0:0:0:
192,307,26323,1,0,0:0:0:0:
322,344,26485,2,0,L|317:282,1,50
269,66,26647,2,0,L|264:128,1,50
194,290,26809,2,0,L|199:228,1,50
143,63,26971,6,0,B|107:-5|26:13|-5:85|29:159|115:140|115:140|67:196|86:260|93:258|100:258|117:314|117:314|96:423|-35:370|32:235|117:314|117:314|164:357|242:351|241:344|241:337|303:312|357:344|357:344|360:287|410:260|410:260|514:232|536:371|377:380|410:260|410:260|463:159|413:92,1,1500
311,49,29566,5,0,0:0:0:0:
473,16,29728,1,0,0:0:0:0:
209,194,29890,1,0,0:0:0:0:
300,56,30052,1,0,0:0:0:0:
249,367,30215,2,0,L|248:337,1,25
213,210,30377,2,0,L|212:240,1,25
134,354,30539,2,0,L|143:311,1,31.25
149,108,30701,2,0,L|141:150,1,31.25
16,309,30863,6,0,L|54:304,1,37.5000014305115
220,228,31025,2,0,L|177:224,1,43.7500004172325
59,170,31188,5,0,0:0:0:0:
45,84,31269,1,0,0:0:0:0:
121,23,31350,5,0,0:0:0:0:
192,60,31431,1,0,0:0:0:0:
261,122,31512,5,0,0:0:0:0:
276,124,31593,1,0,0:0:0:0:
292,123,31674,1,0,0:0:0:0:
307,119,31755,1,0,0:0:0:0:
398,81,31837,5,0,0:0:0:0:
448,140,31917,1,0,0:0:0:0:
332,189,31999,1,0,0:0:0:0:
325,111,32080,1,0,0:0:0:0:
409,207,32161,5,0,0:0:0:0:
421,218,32323,6,0,L|414:273,1,43.7500004172325
450,333,32485,1,0,0:0:0:0:
321,185,32647,2,0,L|328:240,1,43.7500004172325
212,198,32809,1,0,0:0:0:0:
213,185,32890,1,0,0:0:0:0:
215,173,32971,2,0,L|222:118,1,43.7500004172325
186,58,33133,1,0,0:0:0:0:
105,152,33296,1,0,0:0:0:0:
103,119,33377,1,0,0:0:0:0:
36,41,33458,5,0,0:0:0:0:
55,225,33620,2,0,L|-4:220,1,43.7500004172325
157,301,33782,1,0,0:0:0:0:
176,295,33863,1,0,0:0:0:0:
192,288,33944,2,0,L|225:239,1,43.7500004172325
198,174,34106,1,0,0:0:0:0:
296,352,34269,2,0,L|290:293,1,43.7500004172325
347,250,34431,1,0,0:0:0:0:
431,377,34593,6,0,L|432:343,2,21.8750002086163
455,361,34755,2,0,L|451:303,1,43.7500004172325
352,128,34917,2,0,L|414:118,1,43.7500004172325
461,161,35120,1,0,0:0:0:0:
312,50,35242,2,0,L|250:40,1,43.7500004172325
121,34,35404,1,0,0:0:0:0:
124,49,35485,1,0,0:0:0:0:
127,64,35566,2,0,L|137:126,1,43.7500004172325
71,192,35769,1,0,0:0:0:0:
189,305,35890,6,0,L|214:309,2,21.8750002086163
171,312,36053,2,0,L|174:255,1,43.7500004172325
71,110,36215,2,0,L|122:104,1,43.7500004172325
283,179,36377,1,0,0:0:0:0:
268,176,36458,1,0,0:0:0:0:
253,173,36539,2,0,L|194:161,1,43.7500004172325
459,20,36701,2,0,L|457:74,1,43.7500004172325
350,152,36863,2,0,L|357:205,1,43.7500004172325
279,271,37025,2,0,L|295:322,1,43.7500004172325
345,77,37188,1,0,0:0:0:0:
316,70,37269,1,0,0:0:0:0:
242,131,37350,5,0,0:0:0:0:
158,27,37512,2,0,L|151:83,1,43.7500004172325
81,126,37674,1,0,0:0:0:0:
222,222,37836,1,0,0:0:0:0:
204,220,37917,1,0,0:0:0:0:
186,216,37998,2,0,L|133:210,1,43.7500004172325
32,312,38161,2,0,L|85:306,1,43.7500004172325
80,128,77566,5,0,0:0:0:0:
137,104,77647,1,0,0:0:0:0:
198,113,77728,1,0,0:0:0:0:
247,151,77809,1,0,0:0:0:0:
204,103,77890,5,0,0:0:0:0:
253,141,77971,1,0,0:0:0:0:
314,150,78052,1,0,0:0:0:0:
372,127,78133,1,0,0:0:0:0:
309,141,78215,5,0,0:0:0:0:
365,117,78296,1,0,0:0:0:0:
427,123,78377,1,0,0:0:0:0:
477,162,78458,1,0,0:0:0:0:
429,113,78539,5,0,0:0:0:0:
477,149,78620,1,0,0:0:0:0:
503,206,78701,1,0,0:0:0:0:
494,268,78782,1,0,0:0:0:0:
512,209,78863,5,0,0:0:0:0:
504,268,78944,1,0,0:0:0:0:
468,319,79025,1,0,0:0:0:0:
410,342,79106,1,0,0:0:0:0:
473,329,79188,5,0,0:0:0:0:
417,351,79269,1,0,0:0:0:0:
355,345,79350,1,0,0:0:0:0:
306,307,79431,1,0,0:0:0:0:
361,333,79512,5,0,0:0:0:0:
312,295,79593,1,0,0:0:0:0:
250,289,79674,1,0,0:0:0:0:
194,311,79755,1,0,0:0:0:0:
254,299,79836,5,0,0:0:0:0:
198,321,79917,1,0,0:0:0:0:
136,315,79998,1,0,0:0:0:0:
87,277,80079,1,0,0:0:0:0:
160,224,80161,5,0,0:0:0:0:
160,162,80242,1,0,0:0:0:0:
124,113,80323,1,0,0:0:0:0:
65,95,80404,1,0,0:0:0:0:
174,160,80485,5,0,0:0:0:0:
227,129,80566,1,0,0:0:0:0:
252,73,80647,1,0,0:0:0:0:
237,14,80728,1,0,0:0:0:0:
237,137,80809,5,0,0:0:0:0:
290,167,80890,1,0,0:0:0:0:
351,161,80971,1,0,0:0:0:0:
394,118,81052,1,0,0:0:0:0:
288,180,81134,5,0,0:0:0:0:
288,240,81215,1,0,0:0:0:0:
324,290,81296,1,0,0:0:0:0:
382,306,81377,1,0,0:0:0:0:
279,240,81458,5,0,0:0:0:0:
227,270,81539,1,0,0:0:0:0:
201,326,81620,1,0,0:0:0:0:
216,384,81701,1,0,0:0:0:0:
220,263,81782,5,0,0:0:0:0:
168,232,81863,1,0,0:0:0:0:
106,238,81944,1,0,0:0:0:0:
63,280,82025,1,0,0:0:0:0:
167,223,82107,5,0,0:0:0:0:
167,161,82188,1,0,0:0:0:0:
131,112,82269,1,0,0:0:0:0:
72,94,82350,1,0,0:0:0:0:
181,159,82431,5,0,0:0:0:0:
234,128,82512,1,0,0:0:0:0:
279,6,82593,5,0,0:0:0:0:
317,85,82674,1,0,0:0:0:0:
389,134,82755,5,0,0:0:0:0:
430,196,82836,1,0,0:0:0:0:
427,259,82917,1,0,0:0:0:0:
394,295,82998,1,0,0:0:0:0:
311,247,83080,5,0,0:0:0:0:
305,201,83161,1,0,0:0:0:0:
319,222,83242,1,0,0:0:0:0:
296,225,83323,1,0,0:0:0:0:
272,108,83404,5,0,0:0:0:0:
346,103,83485,1,0,0:0:0:0:
399,137,83566,1,0,0:0:0:0:
413,184,83647,1,0,0:0:0:0:
330,232,83729,5,0,0:0:0:0:
288,214,83810,1,0,0:0:0:0:
313,212,83891,1,0,0:0:0:0:
304,234,83972,1,0,0:0:0:0:
190,196,84052,5,0,0:0:0:0:
223,129,84133,1,0,0:0:0:0:
279,100,84214,1,0,0:0:0:0:
327,112,84295,1,0,0:0:0:0:
327,208,84377,5,0,0:0:0:0:
290,235,84458,1,0,0:0:0:0:
301,212,84539,1,0,0:0:0:0:
316,231,84620,1,0,0:0:0:0:
230,309,84701,5,0,0:0:0:0:
188,246,84782,1,0,0:0:0:0:
191,183,84863,1,0,0:0:0:0:
225,148,84944,1,0,0:0:0:0:
308,196,85026,5,0,0:0:0:0:
313,241,85107,1,0,0:0:0:0:
299,220,85188,1,0,0:0:0:0:
323,217,85269,1,0,0:0:0:0:
348,334,85350,5,0,0:0:0:0:
272,338,85431,1,0,0:0:0:0:
219,304,85512,1,0,0:0:0:0:
206,257,85593,1,0,0:0:0:0:
289,209,85675,5,0,0:0:0:0:
330,228,85756,1,0,0:0:0:0:
305,229,85837,1,0,0:0:0:0:
314,207,85918,1,0,0:0:0:0:
431,245,85998,5,0,0:0:0:0:
396,312,86079,1,0,0:0:0:0:
340,341,86160,1,0,0:0:0:0:
293,329,86241,1,0,0:0:0:0:
293,233,86323,5,0,0:0:0:0:
330,207,86404,1,0,0:0:0:0:
318,229,86485,1,0,0:0:0:0:
304,210,86566,1,0,0:0:0:0:
393,132,86647,5,0,0:0:0:0:
433,196,86728,1,0,0:0:0:0:
430,259,86809,1,0,0:0:0:0:
396,293,86890,1,0,0:0:0:0:
313,246,86972,5,0,0:0:0:0:
309,200,87053,1,0,0:0:0:0:
322,221,87134,1,0,0:0:0:0:
299,224,87215,1,0,0:0:0:0:
265,105,87296,5,0,0:0:0:0:
270,91,87458,5,0,0:0:0:0:
161,90,87539,1,0,0:0:0:0:
275,77,87620,2,0,P|245:72|222:89,1,43.7500004172325
122,180,87782,5,0,0:0:0:0:
158,106,87863,1,0,0:0:0:0:
20,233,87944,5,0,0:0:0:0:
57,282,88025,1,0,0:0:0:0:
114,305,88106,1,0,0:0:0:0:
175,297,88187,1,0,0:0:0:0:
113,291,88269,5,0,0:0:0:0:
174,281,88350,1,0,0:0:0:0:
231,305,88431,1,0,0:0:0:0:
268,354,88512,1,0,0:0:0:0:
237,294,88593,5,0,0:0:0:0:
274,342,88674,1,0,0:0:0:0:
330,366,88755,1,0,0:0:0:0:
391,357,88836,1,0,0:0:0:0:
329,355,88917,5,0,0:0:0:0:
388,346,88998,1,0,0:0:0:0:
438,309,89079,1,0,0:0:0:0:
461,253,89160,1,0,0:0:0:0:
427,307,89242,5,0,0:0:0:0:
448,251,89323,1,0,0:0:0:0:
441,189,89404,1,0,0:0:0:0:
404,141,89485,1,0,0:0:0:0:
449,178,89566,5,0,0:0:0:0:
411,131,89647,1,0,0:0:0:0:
353,106,89728,1,0,0:0:0:0:
293,114,89809,1,0,0:0:0:0:
354,120,89890,5,0,0:0:0:0:
293,130,89971,1,0,0:0:0:0:
232,112,90052,1,0,0:0:0:0:
191,67,90133,1,0,0:0:0:0:
246,104,90215,5,0,0:0:0:0:
201,59,90296,1,0,0:0:0:0:
141,39,90377,1,0,0:0:0:0:
81,53,90458,1,0,0:0:0:0:
136,160,90539,5,0,0:0:0:0:
136,222,90620,1,0,0:0:0:0:
100,271,90701,1,0,0:0:0:0:
41,289,90782,1,0,0:0:0:0:
150,224,90863,5,0,0:0:0:0:
203,255,90944,1,0,0:0:0:0:
228,311,91025,1,0,0:0:0:0:
213,370,91106,1,0,0:0:0:0:
213,247,91187,5,0,0:0:0:0:
266,217,91268,1,0,0:0:0:0:
327,223,91349,1,0,0:0:0:0:
370,266,91430,1,0,0:0:0:0:
264,204,91512,5,0,0:0:0:0:
264,144,91593,1,0,0:0:0:0:
300,94,91674,1,0,0:0:0:0:
358,78,91755,1,0,0:0:0:0:
255,144,91836,5,0,0:0:0:0:
203,114,91917,1,0,0:0:0:0:
177,58,91998,1,0,0:0:0:0:
192,0,92079,1,0,0:0:0:0:
196,121,92160,5,0,0:0:0:0:
144,152,92241,1,0,0:0:0:0:
82,146,92322,1,0,0:0:0:0:
39,104,92403,1,0,0:0:0:0:
143,161,92485,5,0,0:0:0:0:
143,223,92566,1,0,0:0:0:0:
107,272,92647,1,0,0:0:0:0:
48,290,92728,1,0,0:0:0:0:
157,225,92809,5,0,0:0:0:0:
210,256,92890,1,0,0:0:0:0:
255,378,92971,5,0,0:0:0:0:
293,299,93052,1,0,0:0:0:0:
365,250,93133,5,0,0:0:0:0:
406,188,93214,1,0,0:0:0:0:
403,125,93295,1,0,0:0:0:0:
370,89,93376,1,0,0:0:0:0:
287,137,93458,5,0,0:0:0:0:
281,183,93539,1,0,0:0:0:0:
295,162,93620,1,0,0:0:0:0:
272,159,93701,1,0,0:0:0:0:
245,271,93782,5,0,0:0:0:0:
319,276,93863,1,0,0:0:0:0:
372,242,93944,1,0,0:0:0:0:
386,195,94025,1,0,0:0:0:0:
303,147,94107,5,0,0:0:0:0:
261,165,94188,1,0,0:0:0:0:
286,167,94269,1,0,0:0:0:0:
277,145,94350,1,0,0:0:0:0:
163,183,94430,5,0,0:0:0:0:
196,250,94511,1,0,0:0:0:0:
252,279,94592,1,0,0:0:0:0:
300,267,94673,1,0,0:0:0:0:
300,171,94755,5,0,0:0:0:0:
263,144,94836,1,0,0:0:0:0:
274,167,94917,1,0,0:0:0:0:
289,148,94998,1,0,0:0:0:0:
203,70,95079,5,0,0:0:0:0:
161,133,95160,1,0,0:0:0:0:
164,196,95241,1,0,0:0:0:0:
198,231,95322,1,0,0:0:0:0:
281,183,95404,5,0,0:0:0:0:
286,138,95485,1,0,0:0:0:0:
272,159,95566,1,0,0:0:0:0:
296,162,95647,1,0,0:0:0:0:
321,45,95728,5,0,0:0:0:0:
245,41,95809,1,0,0:0:0:0:
192,75,95890,1,0,0:0:0:0:
179,122,95971,1,0,0:0:0:0:
262,170,96053,5,0,0:0:0:0:
303,151,96134,1,0,0:0:0:0:
278,150,96215,1,0,0:0:0:0:
287,172,96296,1,0,0:0:0:0:
404,134,96376,5,0,0:0:0:0:
369,67,96457,1,0,0:0:0:0:
313,38,96538,1,0,0:0:0:0:
266,50,96619,1,0,0:0:0:0:
266,146,96701,5,0,0:0:0:0:
303,172,96782,1,0,0:0:0:0:
291,150,96863,1,0,0:0:0:0:
277,169,96944,1,0,0:0:0:0:
366,247,97025,5,0,0:0:0:0:
406,183,97106,1,0,0:0:0:0:
403,120,97187,1,0,0:0:0:0:
369,86,97268,1,0,0:0:0:0:
286,133,97350,5,0,0:0:0:0:
282,179,97431,1,0,0:0:0:0:
295,158,97512,1,0,0:0:0:0:
272,155,97593,1,0,0:0:0:0:
329,277,97674,5,0,0:0:0:0:
298,327,97755,1,0,0:0:0:0:
356,327,97836,1,0,0:0:0:0:
298,338,97917,1,0,0:0:0:0:
358,338,97998,1,0,0:0:0:0:
297,352,98080,1,0,0:0:0:0:
241,337,98161,1,0,0:0:0:0:
185,357,98242,1,0,0:0:0:0:
24,271,98323,5,0,0:0:0:0:
45,201,98404,1,0,0:0:0:0:
117,183,98485,1,0,0:0:0:0:
41,185,98566,5,0,0:0:0:0:
112,168,98647,1,0,0:0:0:0:
163,221,98728,1,0,0:0:0:0:
119,159,98809,5,0,0:0:0:0:
169,211,98890,1,0,0:0:0:0:
148,282,98971,1,0,0:0:0:0:
179,215,99053,5,0,0:0:0:0:
158,284,99134,1,0,0:0:0:0:
86,301,99215,1,0,0:0:0:0:
160,295,99296,5,0,0:0:0:0:
89,311,99377,1,0,0:0:0:0:
167,306,99458,5,0,0:0:0:0:
229,353,99539,1,0,0:0:0:0:
162,315,99620,5,0,0:0:0:0:
168,239,99701,1,0,0:0:0:0:
237,210,99782,1,0,0:0:0:0:
162,225,99863,5,0,0:0:0:0:
230,196,99944,1,0,0:0:0:0:
290,240,100025,1,0,0:0:0:0:
236,184,100106,5,0,0:0:0:0:
293,229,100187,1,0,0:0:0:0:
284,302,100268,1,0,0:0:0:0:
304,230,100350,5,0,0:0:0:0:
296,302,100431,1,0,0:0:0:0:
226,331,100512,1,0,0:0:0:0:
299,312,100593,5,0,0:0:0:0:
232,341,100674,1,0,0:0:0:0:
308,321,100755,5,0,0:0:0:0:
377,358,100836,1,0,0:0:0:0:
306,331,100917,5,0,0:0:0:0:
264,266,100998,1,0,0:0:0:0:
297,200,101079,1,0,0:0:0:0:
249,259,101160,5,0,0:0:0:0:
282,193,101241,1,0,0:0:0:0:
357,188,101322,1,0,0:0:0:0:
280,182,101403,5,0,0:0:0:0:
352,178,101484,1,0,0:0:0:0:
391,239,101565,1,0,0:0:0:0:
362,172,101647,5,0,0:0:0:0:
401,232,101728,1,0,0:0:0:0:
367,299,101809,1,0,0:0:0:0:
410,237,101890,5,0,0:0:0:0:
378,304,101971,1,0,0:0:0:0:
424,240,102052,5,0,0:0:0:0:
498,223,102133,1,0,0:0:0:0:
