osu file format v14

[General]
AudioFilename: audio.ogg
AudioLeadIn: 0
PreviewTime: 203478
Countdown: 0
SampleSet: Normal
StackLeniency: 0.7
Mode: 3
LetterboxInBreaks: 0
SpecialStyle: 0
WidescreenStoryboard: 1

[Editor]
DistanceSpacing: 1
BeatDivisor: 16
GridSize: 4
TimelineZoom: 2.899999

[Metadata]
Title:lost memory
TitleUnicode:ロスト・メモリー
Artist:Chroma
ArtistUnicode:黒魔
Creator:CuB-03
Version:promises of that forgotten day
Source:
Tags:electronic house chiptune piano japanese instrumental 黒魔 featured artist fa full album 愛を喜ぶ街 ai wo yorokobu machi 10th track tr 10 NOT0021 [KN]CuB-03
BeatmapID:4259014
BeatmapSetID:1999291

[Difficulty]
HPDrainRate:8
CircleSize:7
OverallDifficulty:7
ApproachRate:5
SliderMultiplier:1.4
SliderTickRate:1

[Events]
//Background and Video events
0,0,"Lost memory.png",0,0
//Break Periods
//Storyboard Layer 0 (Background)
//Storyboard Layer 1 (Fail)
//Storyboard Layer 2 (Pass)
//Storyboard Layer 3 (Foreground)
//Storyboard Layer 4 (Overlay)
//Storyboard Sound Samples

[TimingPoints]
978,625,4,1,1,40,1,0
165978,-111.111111111111,4,1,1,40,0,0
166290,-125,4,1,1,40,0,0
166603,-133.333333333333,4,1,1,40,0,0
202228,-100,4,1,1,40,0,0
203165,-333.333333333333,4,1,1,40,0,0
203204,-200,4,1,1,40,0,0
203243,-142.857142857143,4,1,1,40,0,0
203282,-111.111111111111,4,1,1,40,0,0
203321,-90.9090909090909,4,1,1,40,0,0
203360,-76.9230769230769,4,1,1,40,0,0
203399,-66.6666666666667,4,1,1,40,0,0
203438,-58.8235294117647,4,1,1,40,0,0
203478,-100,4,1,1,40,0,0
243165,-333.333333333333,4,1,1,40,0,0
243204,-200,4,1,1,40,0,0
243243,-142.857142857143,4,1,1,40,0,0
243282,-111.111111111111,4,1,1,40,0,0
243321,-90.9090909090909,4,1,1,40,0,0
243360,-76.9230769230769,4,1,1,40,0,0
243399,-66.6666666666667,4,1,1,40,0,0
243438,-58.8235294117647,4,1,1,40,0,0
243478,-100,4,1,1,40,0,1
280978,-100,4,1,1,40,0,0
284532,-105.263157894737,4,1,1,40,0,0
284806,-111.111111111111,4,1,1,40,0,0
284923,-117.647058823529,4,1,1,40,0,0
285040,-125,4,1,1,40,0,0
285196,-129.032258064516,4,1,1,40,0,0
285353,-133.333333333333,4,1,1,40,0,0
285626,-333.333333333333,4,1,1,40,0,0
285704,-200,4,1,1,40,0,0
285743,-142.857142857143,4,1,1,40,0,0
285782,-111.111111111111,4,1,1,40,0,0
285821,-90.9090909090909,4,1,1,40,0,0
285860,-76.9230769230769,4,1,1,40,0,0
285899,-66.6666666666667,4,1,1,40,0,0
285938,-58.8235294117647,4,1,1,40,0,0
285978,-100,4,1,1,40,0,0

[HitObjects]
36,192,978,5,0,0:0:0:0:
256,192,978,128,0,1290:0:0:0:0:
402,192,1290,1,0,0:0:0:0:
109,192,1290,1,0,0:0:0:0:
182,192,1446,1,0,0:0:0:0:
329,192,1446,1,0,0:0:0:0:
36,192,1603,1,0,0:0:0:0:
256,192,1759,128,0,1915:0:0:0:0:
475,192,1759,128,0,1915:0:0:0:0:
402,192,1915,1,0,0:0:0:0:
109,192,1915,1,0,0:0:0:0:
109,192,2071,1,0,0:0:0:0:
329,192,2071,1,0,0:0:0:0:
36,192,2228,1,0,0:0:0:0:
256,192,2228,128,0,2540:0:0:0:0:
402,192,2540,1,0,0:0:0:0:
109,192,2540,1,0,0:0:0:0:
182,192,2696,1,0,0:0:0:0:
329,192,2696,1,0,0:0:0:0:
36,192,2853,1,0,0:0:0:0:
256,192,3009,128,0,3165:0:0:0:0:
475,192,3009,128,0,3165:0:0:0:0:
402,192,3165,1,0,0:0:0:0:
109,192,3165,1,0,0:0:0:0:
109,192,3321,1,0,0:0:0:0:
329,192,3321,1,0,0:0:0:0:
36,192,3478,1,0,0:0:0:0:
256,192,3478,128,0,3790:0:0:0:0:
402,192,3790,1,0,0:0:0:0:
109,192,3790,1,0,0:0:0:0:
182,192,3946,1,0,0:0:0:0:
329,192,3946,1,0,0:0:0:0:
36,192,4103,1,0,0:0:0:0:
256,192,4259,128,0,4415:0:0:0:0:
475,192,4259,128,0,4415:0:0:0:0:
402,192,4415,1,0,0:0:0:0:
109,192,4415,1,0,0:0:0:0:
109,192,4571,1,0,0:0:0:0:
329,192,4571,1,0,0:0:0:0:
256,192,4728,128,0,5040:0:0:0:0:
36,192,4728,1,0,0:0:0:0:
182,192,5040,1,0,0:0:0:0:
329,192,5040,1,0,0:0:0:0:
402,192,5196,1,0,0:0:0:0:
109,192,5196,1,0,0:0:0:0:
36,192,5353,128,0,5509:0:0:0:0:
475,192,5353,128,0,5509:0:0:0:0:
36,192,5665,128,0,5821:0:0:0:0:
475,192,5665,128,0,5821:0:0:0:0:
475,192,5978,1,0,0:0:0:0:
256,192,5978,128,0,6290:0:0:0:0:
109,192,6290,1,0,0:0:0:0:
402,192,6290,1,0,0:0:0:0:
329,192,6446,1,0,0:0:0:0:
182,192,6446,1,0,0:0:0:0:
475,192,6603,1,0,0:0:0:0:
256,192,6759,128,0,6915:0:0:0:0:
36,192,6759,128,0,6915:0:0:0:0:
109,192,6915,1,0,0:0:0:0:
402,192,6915,1,0,0:0:0:0:
402,192,7071,1,0,0:0:0:0:
182,192,7071,1,0,0:0:0:0:
475,192,7228,1,0,0:0:0:0:
256,192,7228,128,0,7540:0:0:0:0:
109,192,7540,1,0,0:0:0:0:
402,192,7540,1,0,0:0:0:0:
329,192,7696,1,0,0:0:0:0:
182,192,7696,1,0,0:0:0:0:
475,192,7853,1,0,0:0:0:0:
256,192,8009,128,0,8165:0:0:0:0:
36,192,8009,128,0,8165:0:0:0:0:
109,192,8165,1,0,0:0:0:0:
402,192,8165,1,0,0:0:0:0:
402,192,8321,1,0,0:0:0:0:
182,192,8321,1,0,0:0:0:0:
475,192,8478,1,0,0:0:0:0:
256,192,8478,128,0,8790:0:0:0:0:
109,192,8790,1,0,0:0:0:0:
402,192,8790,1,0,0:0:0:0:
329,192,8946,1,0,0:0:0:0:
182,192,8946,1,0,0:0:0:0:
475,192,9103,1,0,0:0:0:0:
256,192,9259,128,0,9415:0:0:0:0:
36,192,9259,128,0,9415:0:0:0:0:
109,192,9415,1,0,0:0:0:0:
402,192,9415,1,0,0:0:0:0:
402,192,9571,1,0,0:0:0:0:
182,192,9571,1,0,0:0:0:0:
256,192,9728,128,0,10040:0:0:0:0:
475,192,9728,1,0,0:0:0:0:
329,192,10040,1,0,0:0:0:0:
182,192,10040,1,0,0:0:0:0:
109,192,10196,1,0,0:0:0:0:
402,192,10196,1,0,0:0:0:0:
475,192,10353,128,0,10509:0:0:0:0:
36,192,10353,128,0,10509:0:0:0:0:
475,192,10665,128,0,10821:0:0:0:0:
36,192,10665,128,0,10821:0:0:0:0:
256,192,10978,128,0,11290:0:0:0:0:
36,192,10978,1,0,0:0:0:0:
109,192,11290,1,0,0:0:0:0:
402,192,11290,1,0,0:0:0:0:
329,192,11446,1,0,0:0:0:0:
182,192,11446,1,0,0:0:0:0:
36,192,11603,1,0,0:0:0:0:
475,192,11759,128,0,11915:0:0:0:0:
256,192,11759,128,0,11915:0:0:0:0:
109,192,11915,1,0,0:0:0:0:
402,192,11915,1,0,0:0:0:0:
329,192,12071,1,0,0:0:0:0:
109,192,12071,1,0,0:0:0:0:
256,192,12228,128,0,12540:0:0:0:0:
36,192,12228,1,0,0:0:0:0:
109,192,12540,1,0,0:0:0:0:
402,192,12540,1,0,0:0:0:0:
329,192,12696,1,0,0:0:0:0:
182,192,12696,1,0,0:0:0:0:
36,192,12853,1,0,0:0:0:0:
475,192,13009,128,0,13165:0:0:0:0:
256,192,13009,128,0,13165:0:0:0:0:
109,192,13165,1,0,0:0:0:0:
402,192,13165,1,0,0:0:0:0:
329,192,13321,1,0,0:0:0:0:
109,192,13321,1,0,0:0:0:0:
256,192,13478,128,0,13790:0:0:0:0:
36,192,13478,1,0,0:0:0:0:
109,192,13790,1,0,0:0:0:0:
402,192,13790,1,0,0:0:0:0:
329,192,13946,1,0,0:0:0:0:
182,192,13946,1,0,0:0:0:0:
36,192,14103,1,0,0:0:0:0:
475,192,14259,128,0,14415:0:0:0:0:
256,192,14259,128,0,14415:0:0:0:0:
109,192,14415,1,0,0:0:0:0:
402,192,14415,1,0,0:0:0:0:
329,192,14571,1,0,0:0:0:0:
109,192,14571,1,0,0:0:0:0:
36,192,14728,1,0,0:0:0:0:
256,192,14728,128,0,15040:0:0:0:0:
329,192,15040,1,0,0:0:0:0:
182,192,15040,1,0,0:0:0:0:
109,192,15196,1,0,0:0:0:0:
402,192,15196,1,0,0:0:0:0:
475,192,15353,128,0,15509:0:0:0:0:
36,192,15353,128,0,15509:0:0:0:0:
475,192,15665,128,0,15821:0:0:0:0:
36,192,15665,128,0,15821:0:0:0:0:
256,192,15978,128,0,16290:0:0:0:0:
475,192,15978,1,0,0:0:0:0:
109,192,16290,1,0,0:0:0:0:
402,192,16290,1,0,0:0:0:0:
329,192,16446,1,0,0:0:0:0:
182,192,16446,1,0,0:0:0:0:
475,192,16603,1,0,0:0:0:0:
256,192,16759,128,0,16915:0:0:0:0:
36,192,16759,128,0,16915:0:0:0:0:
109,192,16915,1,0,0:0:0:0:
402,192,16915,1,0,0:0:0:0:
402,192,17071,1,0,0:0:0:0:
182,192,17071,1,0,0:0:0:0:
475,192,17228,1,0,0:0:0:0:
256,192,17228,128,0,17540:0:0:0:0:
109,192,17540,1,0,0:0:0:0:
402,192,17540,1,0,0:0:0:0:
329,192,17696,1,0,0:0:0:0:
182,192,17696,1,0,0:0:0:0:
475,192,17853,1,0,0:0:0:0:
256,192,18009,128,0,18165:0:0:0:0:
36,192,18009,128,0,18165:0:0:0:0:
109,192,18165,1,0,0:0:0:0:
402,192,18165,1,0,0:0:0:0:
402,192,18321,1,0,0:0:0:0:
182,192,18321,1,0,0:0:0:0:
475,192,18478,1,0,0:0:0:0:
256,192,18478,128,0,18790:0:0:0:0:
109,192,18790,1,0,0:0:0:0:
402,192,18790,1,0,0:0:0:0:
329,192,18946,1,0,0:0:0:0:
182,192,18946,1,0,0:0:0:0:
475,192,19103,1,0,0:0:0:0:
256,192,19259,128,0,19415:0:0:0:0:
36,192,19259,128,0,19415:0:0:0:0:
109,192,19415,1,0,0:0:0:0:
402,192,19415,1,0,0:0:0:0:
402,192,19571,1,0,0:0:0:0:
182,192,19571,1,0,0:0:0:0:
256,192,19728,128,0,20040:0:0:0:0:
475,192,19728,1,0,0:0:0:0:
329,192,20040,1,0,0:0:0:0:
182,192,20040,1,0,0:0:0:0:
109,192,20196,1,0,0:0:0:0:
402,192,20196,1,0,0:0:0:0:
36,192,20353,128,0,20821:0:0:0:0:
475,192,20353,128,0,20821:0:0:0:0:
256,192,20353,1,0,0:0:0:0:
182,192,20431,1,0,0:0:0:0:
109,192,20509,1,0,0:0:0:0:
256,192,20587,1,0,0:0:0:0:
402,192,20665,1,0,0:0:0:0:
329,192,20743,1,0,0:0:0:0:
182,192,20821,1,0,0:0:0:0:
475,192,20899,1,0,0:0:0:0:
36,192,20978,5,0,0:0:0:0:
256,192,20978,128,0,21290:0:0:0:0:
109,192,20978,1,0,0:0:0:0:
109,192,21134,1,0,0:0:0:0:
402,192,21290,1,0,0:0:0:0:
109,192,21290,1,0,0:0:0:0:
182,192,21446,1,0,0:0:0:0:
329,192,21446,1,0,0:0:0:0:
109,192,21446,1,0,0:0:0:0:
36,192,21603,1,0,0:0:0:0:
109,192,21603,1,0,0:0:0:0:
256,192,21759,128,0,21915:0:0:0:0:
475,192,21759,128,0,21915:0:0:0:0:
109,192,21759,1,0,0:0:0:0:
402,192,21915,1,0,0:0:0:0:
109,192,21915,1,0,0:0:0:0:
329,192,22071,1,0,0:0:0:0:
109,192,22071,1,0,0:0:0:0:
36,192,22228,1,0,0:0:0:0:
256,192,22228,128,0,22540:0:0:0:0:
109,192,22228,1,0,0:0:0:0:
109,192,22384,1,0,0:0:0:0:
402,192,22540,1,0,0:0:0:0:
109,192,22540,1,0,0:0:0:0:
182,192,22696,1,0,0:0:0:0:
329,192,22696,1,0,0:0:0:0:
109,192,22696,1,0,0:0:0:0:
36,192,22853,1,0,0:0:0:0:
109,192,22853,1,0,0:0:0:0:
256,192,23009,128,0,23165:0:0:0:0:
475,192,23009,128,0,23165:0:0:0:0:
109,192,23009,1,0,0:0:0:0:
402,192,23165,1,0,0:0:0:0:
109,192,23165,1,0,0:0:0:0:
329,192,23321,1,0,0:0:0:0:
109,192,23321,1,0,0:0:0:0:
36,192,23478,1,0,0:0:0:0:
256,192,23478,128,0,23790:0:0:0:0:
109,192,23478,1,0,0:0:0:0:
109,192,23634,1,0,0:0:0:0:
402,192,23790,1,0,0:0:0:0:
109,192,23790,1,0,0:0:0:0:
182,192,23946,1,0,0:0:0:0:
329,192,23946,1,0,0:0:0:0:
109,192,23946,1,0,0:0:0:0:
36,192,24103,1,0,0:0:0:0:
109,192,24103,1,0,0:0:0:0:
256,192,24259,128,0,24415:0:0:0:0:
475,192,24259,128,0,24415:0:0:0:0:
109,192,24259,1,0,0:0:0:0:
402,192,24415,1,0,0:0:0:0:
109,192,24415,1,0,0:0:0:0:
329,192,24571,1,0,0:0:0:0:
109,192,24571,1,0,0:0:0:0:
256,192,24728,128,0,25040:0:0:0:0:
36,192,24728,1,0,0:0:0:0:
109,192,24728,1,0,0:0:0:0:
109,192,24884,1,0,0:0:0:0:
109,192,25040,1,0,0:0:0:0:
329,192,25040,1,0,0:0:0:0:
402,192,25196,1,0,0:0:0:0:
182,192,25196,1,0,0:0:0:0:
109,192,25196,1,0,0:0:0:0:
36,192,25353,128,0,25509:0:0:0:0:
475,192,25353,128,0,25509:0:0:0:0:
329,192,25353,1,0,0:0:0:0:
36,192,25665,128,0,25821:0:0:0:0:
475,192,25665,128,0,25821:0:0:0:0:
329,192,25665,1,0,0:0:0:0:
475,192,25978,5,0,0:0:0:0:
256,192,25978,128,0,26290:0:0:0:0:
402,192,25978,1,0,0:0:0:0:
402,192,26134,1,0,0:0:0:0:
109,192,26290,1,0,0:0:0:0:
402,192,26290,1,0,0:0:0:0:
329,192,26446,1,0,0:0:0:0:
182,192,26446,1,0,0:0:0:0:
402,192,26446,1,0,0:0:0:0:
475,192,26603,1,0,0:0:0:0:
402,192,26603,1,0,0:0:0:0:
256,192,26759,128,0,26915:0:0:0:0:
36,192,26759,128,0,26915:0:0:0:0:
402,192,26759,1,0,0:0:0:0:
109,192,26915,1,0,0:0:0:0:
402,192,26915,1,0,0:0:0:0:
182,192,27071,1,0,0:0:0:0:
402,192,27071,1,0,0:0:0:0:
475,192,27228,1,0,0:0:0:0:
256,192,27228,128,0,27540:0:0:0:0:
402,192,27228,1,0,0:0:0:0:
402,192,27384,1,0,0:0:0:0:
109,192,27540,1,0,0:0:0:0:
402,192,27540,1,0,0:0:0:0:
329,192,27696,1,0,0:0:0:0:
182,192,27696,1,0,0:0:0:0:
402,192,27696,1,0,0:0:0:0:
475,192,27853,1,0,0:0:0:0:
402,192,27853,1,0,0:0:0:0:
256,192,28009,128,0,28165:0:0:0:0:
36,192,28009,128,0,28165:0:0:0:0:
402,192,28009,1,0,0:0:0:0:
109,192,28165,1,0,0:0:0:0:
402,192,28165,1,0,0:0:0:0:
182,192,28321,1,0,0:0:0:0:
402,192,28321,1,0,0:0:0:0:
475,192,28478,1,0,0:0:0:0:
256,192,28478,128,0,28790:0:0:0:0:
402,192,28478,1,0,0:0:0:0:
402,192,28634,1,0,0:0:0:0:
109,192,28790,1,0,0:0:0:0:
402,192,28790,1,0,0:0:0:0:
329,192,28946,1,0,0:0:0:0:
182,192,28946,1,0,0:0:0:0:
402,192,28946,1,0,0:0:0:0:
475,192,29103,1,0,0:0:0:0:
402,192,29103,1,0,0:0:0:0:
256,192,29259,128,0,29415:0:0:0:0:
36,192,29259,128,0,29415:0:0:0:0:
402,192,29259,1,0,0:0:0:0:
109,192,29415,1,0,0:0:0:0:
402,192,29415,1,0,0:0:0:0:
182,192,29571,1,0,0:0:0:0:
402,192,29571,1,0,0:0:0:0:
256,192,29728,128,0,30040:0:0:0:0:
475,192,29728,1,0,0:0:0:0:
402,192,29728,1,0,0:0:0:0:
402,192,29884,1,0,0:0:0:0:
402,192,30040,1,0,0:0:0:0:
182,192,30040,1,0,0:0:0:0:
109,192,30196,1,0,0:0:0:0:
329,192,30196,1,0,0:0:0:0:
402,192,30196,1,0,0:0:0:0:
475,192,30353,128,0,30509:0:0:0:0:
36,192,30353,128,0,30509:0:0:0:0:
182,192,30353,1,0,0:0:0:0:
475,192,30665,128,0,30821:0:0:0:0:
36,192,30665,128,0,30821:0:0:0:0:
182,192,30665,1,0,0:0:0:0:
256,192,30978,128,0,31290:0:0:0:0:
36,192,30978,1,0,0:0:0:0:
109,192,30978,1,0,0:0:0:0:
109,192,31134,1,0,0:0:0:0:
109,192,31290,1,0,0:0:0:0:
402,192,31290,1,0,0:0:0:0:
329,192,31446,1,0,0:0:0:0:
182,192,31446,1,0,0:0:0:0:
109,192,31446,1,0,0:0:0:0:
36,192,31603,1,0,0:0:0:0:
109,192,31603,1,0,0:0:0:0:
475,192,31759,128,0,31915:0:0:0:0:
256,192,31759,128,0,31915:0:0:0:0:
109,192,31759,1,0,0:0:0:0:
402,192,31915,1,0,0:0:0:0:
109,192,31915,1,0,0:0:0:0:
329,192,32071,1,0,0:0:0:0:
109,192,32071,1,0,0:0:0:0:
256,192,32228,128,0,32540:0:0:0:0:
36,192,32228,1,0,0:0:0:0:
109,192,32228,1,0,0:0:0:0:
109,192,32384,1,0,0:0:0:0:
109,192,32540,1,0,0:0:0:0:
402,192,32540,1,0,0:0:0:0:
329,192,32696,1,0,0:0:0:0:
182,192,32696,1,0,0:0:0:0:
109,192,32696,1,0,0:0:0:0:
36,192,32853,1,0,0:0:0:0:
109,192,32853,1,0,0:0:0:0:
475,192,33009,128,0,33165:0:0:0:0:
256,192,33009,128,0,33165:0:0:0:0:
109,192,33009,1,0,0:0:0:0:
402,192,33165,1,0,0:0:0:0:
109,192,33165,1,0,0:0:0:0:
329,192,33321,1,0,0:0:0:0:
109,192,33321,1,0,0:0:0:0:
256,192,33478,128,0,33790:0:0:0:0:
36,192,33478,1,0,0:0:0:0:
109,192,33478,1,0,0:0:0:0:
109,192,33634,1,0,0:0:0:0:
109,192,33790,1,0,0:0:0:0:
402,192,33790,1,0,0:0:0:0:
329,192,33946,1,0,0:0:0:0:
182,192,33946,1,0,0:0:0:0:
109,192,33946,1,0,0:0:0:0:
36,192,34103,1,0,0:0:0:0:
109,192,34103,1,0,0:0:0:0:
475,192,34259,128,0,34415:0:0:0:0:
256,192,34259,128,0,34415:0:0:0:0:
109,192,34259,1,0,0:0:0:0:
402,192,34415,1,0,0:0:0:0:
109,192,34415,1,0,0:0:0:0:
329,192,34571,1,0,0:0:0:0:
109,192,34571,1,0,0:0:0:0:
36,192,34728,1,0,0:0:0:0:
256,192,34728,128,0,35040:0:0:0:0:
109,192,34728,1,0,0:0:0:0:
109,192,34884,1,0,0:0:0:0:
329,192,35040,1,0,0:0:0:0:
109,192,35040,1,0,0:0:0:0:
182,192,35196,1,0,0:0:0:0:
402,192,35196,1,0,0:0:0:0:
109,192,35196,1,0,0:0:0:0:
475,192,35353,128,0,35509:0:0:0:0:
36,192,35353,128,0,35509:0:0:0:0:
329,192,35353,1,0,0:0:0:0:
475,192,35665,128,0,35821:0:0:0:0:
36,192,35665,128,0,35821:0:0:0:0:
329,192,35665,1,0,0:0:0:0:
475,192,35978,5,0,0:0:0:0:
256,192,35978,128,0,36290:0:0:0:0:
402,192,35978,1,0,0:0:0:0:
402,192,36134,1,0,0:0:0:0:
109,192,36290,1,0,0:0:0:0:
402,192,36290,1,0,0:0:0:0:
329,192,36446,1,0,0:0:0:0:
182,192,36446,1,0,0:0:0:0:
402,192,36446,1,0,0:0:0:0:
475,192,36603,1,0,0:0:0:0:
402,192,36603,1,0,0:0:0:0:
256,192,36759,128,0,36915:0:0:0:0:
36,192,36759,128,0,36915:0:0:0:0:
402,192,36759,1,0,0:0:0:0:
109,192,36915,1,0,0:0:0:0:
402,192,36915,1,0,0:0:0:0:
182,192,37071,1,0,0:0:0:0:
402,192,37071,1,0,0:0:0:0:
475,192,37228,1,0,0:0:0:0:
256,192,37228,128,0,37540:0:0:0:0:
402,192,37228,1,0,0:0:0:0:
402,192,37384,1,0,0:0:0:0:
109,192,37540,1,0,0:0:0:0:
402,192,37540,1,0,0:0:0:0:
329,192,37696,1,0,0:0:0:0:
182,192,37696,1,0,0:0:0:0:
402,192,37696,1,0,0:0:0:0:
475,192,37853,1,0,0:0:0:0:
402,192,37853,1,0,0:0:0:0:
256,192,38009,128,0,38165:0:0:0:0:
36,192,38009,128,0,38165:0:0:0:0:
402,192,38009,1,0,0:0:0:0:
109,192,38165,1,0,0:0:0:0:
402,192,38165,1,0,0:0:0:0:
182,192,38321,1,0,0:0:0:0:
402,192,38321,1,0,0:0:0:0:
475,192,38478,1,0,0:0:0:0:
256,192,38478,128,0,38790:0:0:0:0:
402,192,38478,1,0,0:0:0:0:
402,192,38634,1,0,0:0:0:0:
109,192,38790,1,0,0:0:0:0:
402,192,38790,1,0,0:0:0:0:
329,192,38946,1,0,0:0:0:0:
182,192,38946,1,0,0:0:0:0:
402,192,38946,1,0,0:0:0:0:
475,192,39103,1,0,0:0:0:0:
402,192,39103,1,0,0:0:0:0:
256,192,39259,128,0,39415:0:0:0:0:
36,192,39259,128,0,39415:0:0:0:0:
402,192,39259,1,0,0:0:0:0:
109,192,39415,1,0,0:0:0:0:
402,192,39415,1,0,0:0:0:0:
182,192,39571,1,0,0:0:0:0:
402,192,39571,1,0,0:0:0:0:
256,192,39728,128,0,40040:0:0:0:0:
475,192,39728,1,0,0:0:0:0:
402,192,39728,1,0,0:0:0:0:
402,192,39884,1,0,0:0:0:0:
402,192,40040,1,0,0:0:0:0:
182,192,40040,1,0,0:0:0:0:
109,192,40196,1,0,0:0:0:0:
329,192,40196,1,0,0:0:0:0:
402,192,40196,1,0,0:0:0:0:
36,192,40353,128,0,40821:0:0:0:0:
475,192,40353,128,0,40821:0:0:0:0:
256,192,40353,1,0,0:0:0:0:
182,192,40431,1,0,0:0:0:0:
109,192,40509,1,0,0:0:0:0:
256,192,40587,1,0,0:0:0:0:
402,192,40665,1,0,0:0:0:0:
329,192,40743,1,0,0:0:0:0:
182,192,40821,1,0,0:0:0:0:
475,192,40899,1,0,0:0:0:0:
36,192,40978,5,0,0:0:0:0:
256,192,40978,128,0,41290:0:0:0:0:
109,192,40978,1,0,0:0:0:0:
402,192,40978,1,0,0:0:0:0:
109,192,41134,1,0,0:0:0:0:
402,192,41290,1,0,0:0:0:0:
109,192,41290,1,0,0:0:0:0:
475,192,41342,1,0,0:0:0:0:
182,192,41446,1,0,0:0:0:0:
329,192,41446,1,0,0:0:0:0:
109,192,41446,1,0,0:0:0:0:
36,192,41603,1,0,0:0:0:0:
109,192,41603,1,0,0:0:0:0:
256,192,41603,1,0,0:0:0:0:
402,192,41603,1,0,0:0:0:0:
256,192,41759,128,0,41915:0:0:0:0:
475,192,41759,128,0,41915:0:0:0:0:
109,192,41759,1,0,0:0:0:0:
109,192,41915,1,0,0:0:0:0:
402,192,41915,128,0,42071:0:0:0:0:
329,192,42071,1,0,0:0:0:0:
109,192,42071,1,0,0:0:0:0:
475,192,42071,1,0,0:0:0:0:
36,192,42228,1,0,0:0:0:0:
256,192,42228,128,0,42540:0:0:0:0:
109,192,42228,1,0,0:0:0:0:
109,192,42384,1,0,0:0:0:0:
402,192,42540,1,0,0:0:0:0:
109,192,42540,1,0,0:0:0:0:
475,192,42540,1,0,0:0:0:0:
329,192,42540,1,0,0:0:0:0:
182,192,42696,1,0,0:0:0:0:
329,192,42696,1,0,0:0:0:0:
109,192,42696,1,0,0:0:0:0:
36,192,42853,1,0,0:0:0:0:
109,192,42853,1,0,0:0:0:0:
256,192,42853,1,0,0:0:0:0:
402,192,42853,1,0,0:0:0:0:
256,192,43009,128,0,43165:0:0:0:0:
475,192,43009,128,0,43165:0:0:0:0:
109,192,43009,1,0,0:0:0:0:
402,192,43165,1,0,0:0:0:0:
109,192,43165,1,0,0:0:0:0:
475,192,43269,1,0,0:0:0:0:
109,192,43321,1,0,0:0:0:0:
402,192,43321,128,0,43478:0:0:0:0:
329,192,43373,1,0,0:0:0:0:
36,192,43478,1,0,0:0:0:0:
256,192,43478,128,0,43790:0:0:0:0:
109,192,43478,1,0,0:0:0:0:
475,192,43478,1,0,0:0:0:0:
109,192,43634,1,0,0:0:0:0:
402,192,43790,1,0,0:0:0:0:
109,192,43790,1,0,0:0:0:0:
475,192,43842,1,0,0:0:0:0:
182,192,43946,1,0,0:0:0:0:
329,192,43946,1,0,0:0:0:0:
109,192,43946,1,0,0:0:0:0:
36,192,44103,1,0,0:0:0:0:
109,192,44103,1,0,0:0:0:0:
256,192,44103,1,0,0:0:0:0:
402,192,44103,1,0,0:0:0:0:
256,192,44259,128,0,44415:0:0:0:0:
475,192,44259,128,0,44415:0:0:0:0:
109,192,44259,1,0,0:0:0:0:
109,192,44415,1,0,0:0:0:0:
402,192,44415,128,0,44571:0:0:0:0:
329,192,44571,1,0,0:0:0:0:
109,192,44571,1,0,0:0:0:0:
475,192,44571,1,0,0:0:0:0:
256,192,44728,128,0,45040:0:0:0:0:
36,192,44728,1,0,0:0:0:0:
109,192,44728,1,0,0:0:0:0:
109,192,44884,1,0,0:0:0:0:
109,192,45040,1,0,0:0:0:0:
402,192,45040,1,0,0:0:0:0:
329,192,45040,1,0,0:0:0:0:
475,192,45040,1,0,0:0:0:0:
402,192,45196,1,0,0:0:0:0:
182,192,45196,1,0,0:0:0:0:
109,192,45196,1,0,0:0:0:0:
36,192,45353,128,0,45509:0:0:0:0:
475,192,45353,128,0,45509:0:0:0:0:
329,192,45353,1,0,0:0:0:0:
256,192,45353,1,0,0:0:0:0:
182,192,45353,1,0,0:0:0:0:
109,192,45509,1,0,0:0:0:0:
36,192,45665,128,0,45821:0:0:0:0:
475,192,45665,128,0,45821:0:0:0:0:
329,192,45665,1,0,0:0:0:0:
256,192,45769,1,0,0:0:0:0:
182,192,45873,128,0,45978:0:0:0:0:
475,192,45978,5,0,0:0:0:0:
402,192,45978,1,0,0:0:0:0:
256,192,45978,128,0,46290:0:0:0:0:
109,192,45978,1,0,0:0:0:0:
402,192,46134,1,0,0:0:0:0:
109,192,46290,1,0,0:0:0:0:
402,192,46290,1,0,0:0:0:0:
36,192,46342,1,0,0:0:0:0:
329,192,46446,1,0,0:0:0:0:
182,192,46446,1,0,0:0:0:0:
402,192,46446,1,0,0:0:0:0:
475,192,46603,1,0,0:0:0:0:
402,192,46603,1,0,0:0:0:0:
256,192,46603,1,0,0:0:0:0:
109,192,46603,1,0,0:0:0:0:
256,192,46759,128,0,46915:0:0:0:0:
36,192,46759,128,0,46915:0:0:0:0:
402,192,46759,1,0,0:0:0:0:
402,192,46915,1,0,0:0:0:0:
109,192,46915,128,0,47071:0:0:0:0:
182,192,47071,1,0,0:0:0:0:
402,192,47071,1,0,0:0:0:0:
36,192,47071,1,0,0:0:0:0:
475,192,47228,1,0,0:0:0:0:
256,192,47228,128,0,47540:0:0:0:0:
402,192,47228,1,0,0:0:0:0:
402,192,47384,1,0,0:0:0:0:
109,192,47540,1,0,0:0:0:0:
402,192,47540,1,0,0:0:0:0:
36,192,47540,1,0,0:0:0:0:
182,192,47540,1,0,0:0:0:0:
329,192,47696,1,0,0:0:0:0:
182,192,47696,1,0,0:0:0:0:
402,192,47696,1,0,0:0:0:0:
475,192,47853,1,0,0:0:0:0:
402,192,47853,1,0,0:0:0:0:
256,192,47853,1,0,0:0:0:0:
109,192,47853,1,0,0:0:0:0:
256,192,48009,128,0,48165:0:0:0:0:
36,192,48009,128,0,48165:0:0:0:0:
402,192,48009,1,0,0:0:0:0:
109,192,48165,1,0,0:0:0:0:
402,192,48165,1,0,0:0:0:0:
36,192,48269,1,0,0:0:0:0:
402,192,48321,1,0,0:0:0:0:
109,192,48321,128,0,48478:0:0:0:0:
182,192,48373,1,0,0:0:0:0:
475,192,48478,1,0,0:0:0:0:
256,192,48478,128,0,48790:0:0:0:0:
402,192,48478,1,0,0:0:0:0:
36,192,48478,1,0,0:0:0:0:
402,192,48634,1,0,0:0:0:0:
109,192,48790,1,0,0:0:0:0:
402,192,48790,1,0,0:0:0:0:
36,192,48842,1,0,0:0:0:0:
329,192,48946,1,0,0:0:0:0:
182,192,48946,1,0,0:0:0:0:
402,192,48946,1,0,0:0:0:0:
475,192,49103,1,0,0:0:0:0:
402,192,49103,1,0,0:0:0:0:
256,192,49103,1,0,0:0:0:0:
109,192,49103,1,0,0:0:0:0:
256,192,49259,128,0,49415:0:0:0:0:
36,192,49259,128,0,49415:0:0:0:0:
402,192,49259,1,0,0:0:0:0:
402,192,49415,1,0,0:0:0:0:
109,192,49415,128,0,49571:0:0:0:0:
182,192,49571,1,0,0:0:0:0:
402,192,49571,1,0,0:0:0:0:
36,192,49571,1,0,0:0:0:0:
256,192,49728,128,0,50040:0:0:0:0:
475,192,49728,1,0,0:0:0:0:
402,192,49728,1,0,0:0:0:0:
402,192,49884,1,0,0:0:0:0:
402,192,50040,1,0,0:0:0:0:
109,192,50040,1,0,0:0:0:0:
182,192,50040,1,0,0:0:0:0:
36,192,50040,1,0,0:0:0:0:
109,192,50196,1,0,0:0:0:0:
329,192,50196,1,0,0:0:0:0:
402,192,50196,1,0,0:0:0:0:
475,192,50353,128,0,50509:0:0:0:0:
36,192,50353,128,0,50509:0:0:0:0:
182,192,50353,1,0,0:0:0:0:
256,192,50353,1,0,0:0:0:0:
329,192,50353,1,0,0:0:0:0:
402,192,50509,1,0,0:0:0:0:
475,192,50665,128,0,50821:0:0:0:0:
36,192,50665,128,0,50821:0:0:0:0:
182,192,50665,1,0,0:0:0:0:
256,192,50769,1,0,0:0:0:0:
329,192,50873,128,0,50978:0:0:0:0:
36,192,50978,5,0,0:0:0:0:
109,192,50978,1,0,0:0:0:0:
256,192,50978,128,0,51290:0:0:0:0:
402,192,50978,1,0,0:0:0:0:
109,192,51134,1,0,0:0:0:0:
402,192,51290,1,0,0:0:0:0:
109,192,51290,1,0,0:0:0:0:
475,192,51342,1,0,0:0:0:0:
182,192,51446,1,0,0:0:0:0:
329,192,51446,1,0,0:0:0:0:
109,192,51446,1,0,0:0:0:0:
36,192,51603,1,0,0:0:0:0:
109,192,51603,1,0,0:0:0:0:
256,192,51603,1,0,0:0:0:0:
402,192,51603,1,0,0:0:0:0:
256,192,51759,128,0,51915:0:0:0:0:
475,192,51759,128,0,51915:0:0:0:0:
109,192,51759,1,0,0:0:0:0:
109,192,51915,1,0,0:0:0:0:
402,192,51915,128,0,52071:0:0:0:0:
329,192,52071,1,0,0:0:0:0:
109,192,52071,1,0,0:0:0:0:
475,192,52071,1,0,0:0:0:0:
36,192,52228,1,0,0:0:0:0:
256,192,52228,128,0,52540:0:0:0:0:
109,192,52228,1,0,0:0:0:0:
109,192,52384,1,0,0:0:0:0:
402,192,52540,1,0,0:0:0:0:
109,192,52540,1,0,0:0:0:0:
475,192,52540,1,0,0:0:0:0:
329,192,52540,1,0,0:0:0:0:
182,192,52696,1,0,0:0:0:0:
329,192,52696,1,0,0:0:0:0:
109,192,52696,1,0,0:0:0:0:
36,192,52853,1,0,0:0:0:0:
109,192,52853,1,0,0:0:0:0:
256,192,52853,1,0,0:0:0:0:
402,192,52853,1,0,0:0:0:0:
256,192,53009,128,0,53165:0:0:0:0:
475,192,53009,128,0,53165:0:0:0:0:
109,192,53009,1,0,0:0:0:0:
402,192,53165,1,0,0:0:0:0:
109,192,53165,1,0,0:0:0:0:
475,192,53269,1,0,0:0:0:0:
109,192,53321,1,0,0:0:0:0:
402,192,53321,128,0,53478:0:0:0:0:
329,192,53373,1,0,0:0:0:0:
36,192,53478,1,0,0:0:0:0:
256,192,53478,128,0,53790:0:0:0:0:
109,192,53478,1,0,0:0:0:0:
475,192,53478,1,0,0:0:0:0:
109,192,53634,1,0,0:0:0:0:
402,192,53790,1,0,0:0:0:0:
109,192,53790,1,0,0:0:0:0:
475,192,53842,1,0,0:0:0:0:
182,192,53946,1,0,0:0:0:0:
329,192,53946,1,0,0:0:0:0:
109,192,53946,1,0,0:0:0:0:
36,192,54103,1,0,0:0:0:0:
109,192,54103,1,0,0:0:0:0:
256,192,54103,1,0,0:0:0:0:
402,192,54103,1,0,0:0:0:0:
256,192,54259,128,0,54415:0:0:0:0:
475,192,54259,128,0,54415:0:0:0:0:
109,192,54259,1,0,0:0:0:0:
109,192,54415,1,0,0:0:0:0:
402,192,54415,128,0,54571:0:0:0:0:
329,192,54571,1,0,0:0:0:0:
109,192,54571,1,0,0:0:0:0:
475,192,54571,1,0,0:0:0:0:
256,192,54728,128,0,55040:0:0:0:0:
36,192,54728,1,0,0:0:0:0:
109,192,54728,1,0,0:0:0:0:
109,192,54884,1,0,0:0:0:0:
109,192,55040,1,0,0:0:0:0:
402,192,55040,1,0,0:0:0:0:
329,192,55040,1,0,0:0:0:0:
475,192,55040,1,0,0:0:0:0:
402,192,55196,1,0,0:0:0:0:
182,192,55196,1,0,0:0:0:0:
109,192,55196,1,0,0:0:0:0:
36,192,55353,128,0,55509:0:0:0:0:
475,192,55353,128,0,55509:0:0:0:0:
329,192,55353,1,0,0:0:0:0:
256,192,55353,1,0,0:0:0:0:
182,192,55353,1,0,0:0:0:0:
109,192,55509,1,0,0:0:0:0:
36,192,55665,128,0,55821:0:0:0:0:
475,192,55665,128,0,55821:0:0:0:0:
329,192,55665,1,0,0:0:0:0:
256,192,55769,1,0,0:0:0:0:
182,192,55873,128,0,55978:0:0:0:0:
475,192,55978,5,0,0:0:0:0:
256,192,55978,128,0,56290:0:0:0:0:
402,192,55978,1,0,0:0:0:0:
109,192,55978,1,0,0:0:0:0:
402,192,56134,1,0,0:0:0:0:
109,192,56290,1,0,0:0:0:0:
402,192,56290,1,0,0:0:0:0:
36,192,56342,1,0,0:0:0:0:
329,192,56446,1,0,0:0:0:0:
182,192,56446,1,0,0:0:0:0:
402,192,56446,1,0,0:0:0:0:
475,192,56603,1,0,0:0:0:0:
402,192,56603,1,0,0:0:0:0:
256,192,56603,1,0,0:0:0:0:
109,192,56603,1,0,0:0:0:0:
256,192,56759,128,0,56915:0:0:0:0:
36,192,56759,128,0,56915:0:0:0:0:
402,192,56759,1,0,0:0:0:0:
402,192,56915,1,0,0:0:0:0:
109,192,56915,128,0,57071:0:0:0:0:
182,192,57071,1,0,0:0:0:0:
402,192,57071,1,0,0:0:0:0:
36,192,57071,1,0,0:0:0:0:
475,192,57228,1,0,0:0:0:0:
256,192,57228,128,0,57540:0:0:0:0:
402,192,57228,1,0,0:0:0:0:
402,192,57384,1,0,0:0:0:0:
109,192,57540,1,0,0:0:0:0:
402,192,57540,1,0,0:0:0:0:
36,192,57540,1,0,0:0:0:0:
182,192,57540,1,0,0:0:0:0:
329,192,57696,1,0,0:0:0:0:
182,192,57696,1,0,0:0:0:0:
402,192,57696,1,0,0:0:0:0:
475,192,57853,1,0,0:0:0:0:
402,192,57853,1,0,0:0:0:0:
256,192,57853,1,0,0:0:0:0:
109,192,57853,1,0,0:0:0:0:
256,192,58009,128,0,58165:0:0:0:0:
36,192,58009,128,0,58165:0:0:0:0:
402,192,58009,1,0,0:0:0:0:
109,192,58165,1,0,0:0:0:0:
402,192,58165,1,0,0:0:0:0:
36,192,58269,1,0,0:0:0:0:
402,192,58321,1,0,0:0:0:0:
109,192,58321,128,0,58478:0:0:0:0:
182,192,58373,1,0,0:0:0:0:
475,192,58478,1,0,0:0:0:0:
256,192,58478,128,0,58790:0:0:0:0:
402,192,58478,1,0,0:0:0:0:
36,192,58478,1,0,0:0:0:0:
402,192,58634,1,0,0:0:0:0:
109,192,58790,1,0,0:0:0:0:
402,192,58790,1,0,0:0:0:0:
36,192,58842,1,0,0:0:0:0:
329,192,58946,1,0,0:0:0:0:
182,192,58946,1,0,0:0:0:0:
402,192,58946,1,0,0:0:0:0:
475,192,59103,1,0,0:0:0:0:
402,192,59103,1,0,0:0:0:0:
256,192,59103,1,0,0:0:0:0:
109,192,59103,1,0,0:0:0:0:
256,192,59259,128,0,59415:0:0:0:0:
36,192,59259,128,0,59415:0:0:0:0:
402,192,59259,1,0,0:0:0:0:
402,192,59415,1,0,0:0:0:0:
109,192,59415,128,0,59571:0:0:0:0:
182,192,59571,1,0,0:0:0:0:
402,192,59571,1,0,0:0:0:0:
36,192,59571,1,0,0:0:0:0:
256,192,59728,128,0,60040:0:0:0:0:
475,192,59728,1,0,0:0:0:0:
402,192,59728,1,0,0:0:0:0:
402,192,59884,1,0,0:0:0:0:
402,192,60040,1,0,0:0:0:0:
109,192,60040,1,0,0:0:0:0:
182,192,60040,1,0,0:0:0:0:
36,192,60040,1,0,0:0:0:0:
109,192,60196,1,0,0:0:0:0:
329,192,60196,1,0,0:0:0:0:
402,192,60196,1,0,0:0:0:0:
36,192,60353,128,0,60821:0:0:0:0:
475,192,60353,128,0,60821:0:0:0:0:
329,192,60353,1,0,0:0:0:0:
256,192,60353,1,0,0:0:0:0:
182,192,60431,1,0,0:0:0:0:
109,192,60509,1,0,0:0:0:0:
256,192,60587,1,0,0:0:0:0:
402,192,60665,1,0,0:0:0:0:
329,192,60743,1,0,0:0:0:0:
182,192,60821,1,0,0:0:0:0:
475,192,60899,1,0,0:0:0:0:
182,192,60978,128,0,61212:0:0:0:0:
256,192,60978,128,0,61134:0:0:0:0:
329,192,60978,128,0,61212:0:0:0:0:
402,192,63165,1,0,0:0:0:0:
109,192,63165,1,0,0:0:0:0:
182,192,63165,1,0,0:0:0:0:
475,192,63165,1,0,0:0:0:0:
36,192,63269,1,0,0:0:0:0:
109,192,63321,1,0,0:0:0:0:
329,192,63321,128,0,63478:0:0:0:0:
402,192,63373,1,0,0:0:0:0:
36,192,63478,1,0,0:0:0:0:
256,192,63478,128,0,63790:0:0:0:0:
109,192,63478,1,0,0:0:0:0:
475,192,63478,128,0,63712:0:0:0:0:
109,192,63634,1,0,0:0:0:0:
402,192,63790,1,0,0:0:0:0:
109,192,63790,1,0,0:0:0:0:
36,192,63790,1,0,0:0:0:0:
475,192,63829,1,0,0:0:0:0:
182,192,63868,1,0,0:0:0:0:
256,192,63907,1,0,0:0:0:0:
329,192,63946,1,0,0:0:0:0:
109,192,63946,1,0,0:0:0:0:
36,192,63985,1,0,0:0:0:0:
475,192,64024,1,0,0:0:0:0:
402,192,64063,1,0,0:0:0:0:
109,192,64103,1,0,0:0:0:0:
256,192,64103,1,0,0:0:0:0:
329,192,64103,1,0,0:0:0:0:
36,192,64103,1,0,0:0:0:0:
256,192,64259,128,0,64415:0:0:0:0:
475,192,64259,128,0,64415:0:0:0:0:
109,192,64259,1,0,0:0:0:0:
109,192,64415,1,0,0:0:0:0:
402,192,64415,128,0,64571:0:0:0:0:
329,192,64571,1,0,0:0:0:0:
109,192,64571,1,0,0:0:0:0:
475,192,64571,1,0,0:0:0:0:
256,192,64728,128,0,65040:0:0:0:0:
36,192,64728,1,0,0:0:0:0:
109,192,64728,1,0,0:0:0:0:
109,192,64884,1,0,0:0:0:0:
109,192,65040,1,0,0:0:0:0:
402,192,65040,1,0,0:0:0:0:
329,192,65040,1,0,0:0:0:0:
475,192,65040,1,0,0:0:0:0:
402,192,65196,1,0,0:0:0:0:
182,192,65196,1,0,0:0:0:0:
109,192,65196,1,0,0:0:0:0:
36,192,65353,128,0,65509:0:0:0:0:
475,192,65353,128,0,65509:0:0:0:0:
329,192,65353,1,0,0:0:0:0:
256,192,65353,1,0,0:0:0:0:
182,192,65353,1,0,0:0:0:0:
109,192,65509,1,0,0:0:0:0:
36,192,65665,128,0,65821:0:0:0:0:
475,192,65665,128,0,65821:0:0:0:0:
329,192,65665,1,0,0:0:0:0:
256,192,65769,1,0,0:0:0:0:
182,192,65873,128,0,65978:0:0:0:0:
475,192,65978,5,0,0:0:0:0:
256,192,65978,128,0,66290:0:0:0:0:
109,192,65978,1,0,0:0:0:0:
402,192,65978,1,0,0:0:0:0:
402,192,66134,1,0,0:0:0:0:
402,192,66290,1,0,0:0:0:0:
109,192,66290,1,0,0:0:0:0:
36,192,66342,1,0,0:0:0:0:
402,192,66446,1,0,0:0:0:0:
182,192,66446,1,0,0:0:0:0:
329,192,66446,1,0,0:0:0:0:
256,192,66603,1,0,0:0:0:0:
109,192,66603,1,0,0:0:0:0:
475,192,66603,1,0,0:0:0:0:
402,192,66603,1,0,0:0:0:0:
402,192,66759,1,0,0:0:0:0:
36,192,66759,128,0,66915:0:0:0:0:
256,192,66759,128,0,66915:0:0:0:0:
109,192,66915,128,0,67071:0:0:0:0:
402,192,66915,1,0,0:0:0:0:
402,192,67071,1,0,0:0:0:0:
36,192,67071,1,0,0:0:0:0:
182,192,67071,1,0,0:0:0:0:
402,192,67228,1,0,0:0:0:0:
256,192,67228,128,0,67540:0:0:0:0:
475,192,67228,1,0,0:0:0:0:
402,192,67384,1,0,0:0:0:0:
36,192,67540,1,0,0:0:0:0:
182,192,67540,1,0,0:0:0:0:
109,192,67540,1,0,0:0:0:0:
402,192,67540,1,0,0:0:0:0:
402,192,67696,1,0,0:0:0:0:
182,192,67696,1,0,0:0:0:0:
329,192,67696,1,0,0:0:0:0:
256,192,67853,1,0,0:0:0:0:
109,192,67853,1,0,0:0:0:0:
475,192,67853,1,0,0:0:0:0:
402,192,67853,1,0,0:0:0:0:
402,192,68009,1,0,0:0:0:0:
36,192,68009,128,0,68165:0:0:0:0:
256,192,68009,128,0,68165:0:0:0:0:
402,192,68165,1,0,0:0:0:0:
109,192,68165,1,0,0:0:0:0:
36,192,68269,1,0,0:0:0:0:
109,192,68321,128,0,68478:0:0:0:0:
402,192,68321,1,0,0:0:0:0:
182,192,68373,1,0,0:0:0:0:
402,192,68478,1,0,0:0:0:0:
36,192,68478,1,0,0:0:0:0:
475,192,68478,1,0,0:0:0:0:
256,192,68478,128,0,68790:0:0:0:0:
402,192,68634,1,0,0:0:0:0:
402,192,68790,1,0,0:0:0:0:
109,192,68790,1,0,0:0:0:0:
36,192,68842,1,0,0:0:0:0:
402,192,68946,1,0,0:0:0:0:
182,192,68946,1,0,0:0:0:0:
329,192,68946,1,0,0:0:0:0:
256,192,69103,1,0,0:0:0:0:
109,192,69103,1,0,0:0:0:0:
475,192,69103,1,0,0:0:0:0:
402,192,69103,1,0,0:0:0:0:
402,192,69259,1,0,0:0:0:0:
36,192,69259,128,0,69415:0:0:0:0:
256,192,69259,128,0,69415:0:0:0:0:
109,192,69415,128,0,69571:0:0:0:0:
402,192,69415,1,0,0:0:0:0:
402,192,69571,1,0,0:0:0:0:
36,192,69571,1,0,0:0:0:0:
182,192,69571,1,0,0:0:0:0:
402,192,69728,1,0,0:0:0:0:
475,192,69728,1,0,0:0:0:0:
256,192,69728,128,0,70040:0:0:0:0:
402,192,69884,1,0,0:0:0:0:
182,192,70040,1,0,0:0:0:0:
36,192,70040,1,0,0:0:0:0:
402,192,70040,1,0,0:0:0:0:
109,192,70040,1,0,0:0:0:0:
402,192,70196,1,0,0:0:0:0:
329,192,70196,1,0,0:0:0:0:
109,192,70196,1,0,0:0:0:0:
256,192,70353,1,0,0:0:0:0:
329,192,70353,1,0,0:0:0:0:
182,192,70353,1,0,0:0:0:0:
475,192,70353,128,0,70509:0:0:0:0:
36,192,70353,128,0,70509:0:0:0:0:
402,192,70509,1,0,0:0:0:0:
182,192,70665,1,0,0:0:0:0:
36,192,70665,128,0,70821:0:0:0:0:
475,192,70665,128,0,70821:0:0:0:0:
256,192,70769,1,0,0:0:0:0:
329,192,70873,128,0,70978:0:0:0:0:
36,192,70978,5,0,0:0:0:0:
402,192,70978,1,0,0:0:0:0:
109,192,70978,1,0,0:0:0:0:
256,192,70978,128,0,71290:0:0:0:0:
109,192,71134,1,0,0:0:0:0:
109,192,71290,1,0,0:0:0:0:
475,192,71290,1,0,0:0:0:0:
329,192,71342,1,0,0:0:0:0:
182,192,71394,1,0,0:0:0:0:
109,192,71446,1,0,0:0:0:0:
402,192,71446,1,0,0:0:0:0:
36,192,71446,1,0,0:0:0:0:
329,192,71524,1,0,0:0:0:0:
256,192,71603,1,0,0:0:0:0:
475,192,71603,1,0,0:0:0:0:
36,192,71603,1,0,0:0:0:0:
109,192,71603,1,0,0:0:0:0:
109,192,71759,1,0,0:0:0:0:
475,192,71759,128,0,71915:0:0:0:0:
256,192,71759,128,0,71915:0:0:0:0:
402,192,71915,128,0,72071:0:0:0:0:
109,192,71915,1,0,0:0:0:0:
109,192,72071,1,0,0:0:0:0:
475,192,72071,1,0,0:0:0:0:
329,192,72071,1,0,0:0:0:0:
109,192,72228,1,0,0:0:0:0:
256,192,72228,128,0,72540:0:0:0:0:
36,192,72228,1,0,0:0:0:0:
109,192,72384,1,0,0:0:0:0:
475,192,72540,1,0,0:0:0:0:
329,192,72540,1,0,0:0:0:0:
402,192,72540,1,0,0:0:0:0:
109,192,72540,1,0,0:0:0:0:
109,192,72696,1,0,0:0:0:0:
329,192,72696,1,0,0:0:0:0:
182,192,72696,1,0,0:0:0:0:
256,192,72853,1,0,0:0:0:0:
402,192,72853,1,0,0:0:0:0:
36,192,72853,1,0,0:0:0:0:
109,192,72853,1,0,0:0:0:0:
109,192,73009,1,0,0:0:0:0:
475,192,73009,128,0,73165:0:0:0:0:
256,192,73009,128,0,73165:0:0:0:0:
109,192,73165,1,0,0:0:0:0:
402,192,73165,1,0,0:0:0:0:
475,192,73269,1,0,0:0:0:0:
402,192,73321,128,0,73478:0:0:0:0:
109,192,73321,1,0,0:0:0:0:
329,192,73373,1,0,0:0:0:0:
109,192,73478,1,0,0:0:0:0:
475,192,73478,1,0,0:0:0:0:
36,192,73478,1,0,0:0:0:0:
256,192,73478,128,0,73790:0:0:0:0:
109,192,73634,1,0,0:0:0:0:
109,192,73790,1,0,0:0:0:0:
402,192,73790,1,0,0:0:0:0:
475,192,73842,1,0,0:0:0:0:
109,192,73946,1,0,0:0:0:0:
329,192,73946,1,0,0:0:0:0:
182,192,73946,1,0,0:0:0:0:
256,192,74103,1,0,0:0:0:0:
402,192,74103,1,0,0:0:0:0:
36,192,74103,1,0,0:0:0:0:
109,192,74103,1,0,0:0:0:0:
109,192,74259,1,0,0:0:0:0:
475,192,74259,128,0,74415:0:0:0:0:
256,192,74259,128,0,74415:0:0:0:0:
402,192,74415,128,0,74571:0:0:0:0:
109,192,74415,1,0,0:0:0:0:
109,192,74571,1,0,0:0:0:0:
475,192,74571,1,0,0:0:0:0:
329,192,74571,1,0,0:0:0:0:
109,192,74728,1,0,0:0:0:0:
36,192,74728,1,0,0:0:0:0:
256,192,74728,128,0,75040:0:0:0:0:
109,192,74884,1,0,0:0:0:0:
329,192,75040,1,0,0:0:0:0:
475,192,75040,1,0,0:0:0:0:
109,192,75040,1,0,0:0:0:0:
402,192,75040,1,0,0:0:0:0:
109,192,75196,1,0,0:0:0:0:
182,192,75196,1,0,0:0:0:0:
402,192,75196,1,0,0:0:0:0:
256,192,75353,1,0,0:0:0:0:
182,192,75353,1,0,0:0:0:0:
329,192,75353,1,0,0:0:0:0:
36,192,75353,128,0,75509:0:0:0:0:
475,192,75353,128,0,75509:0:0:0:0:
109,192,75509,1,0,0:0:0:0:
329,192,75665,1,0,0:0:0:0:
475,192,75665,128,0,75821:0:0:0:0:
36,192,75665,128,0,75821:0:0:0:0:
256,192,75769,1,0,0:0:0:0:
182,192,75873,128,0,75978:0:0:0:0:
475,192,75978,5,0,0:0:0:0:
109,192,75978,1,0,0:0:0:0:
256,192,75978,128,0,76290:0:0:0:0:
402,192,75978,1,0,0:0:0:0:
402,192,76134,1,0,0:0:0:0:
402,192,76290,1,0,0:0:0:0:
109,192,76290,1,0,0:0:0:0:
36,192,76342,1,0,0:0:0:0:
402,192,76446,1,0,0:0:0:0:
182,192,76446,1,0,0:0:0:0:
329,192,76446,1,0,0:0:0:0:
256,192,76603,1,0,0:0:0:0:
109,192,76603,1,0,0:0:0:0:
475,192,76603,1,0,0:0:0:0:
402,192,76603,1,0,0:0:0:0:
402,192,76759,1,0,0:0:0:0:
36,192,76759,128,0,76915:0:0:0:0:
256,192,76759,128,0,76915:0:0:0:0:
109,192,76915,128,0,77071:0:0:0:0:
402,192,76915,1,0,0:0:0:0:
402,192,77071,1,0,0:0:0:0:
36,192,77071,1,0,0:0:0:0:
182,192,77071,1,0,0:0:0:0:
402,192,77228,1,0,0:0:0:0:
256,192,77228,128,0,77540:0:0:0:0:
475,192,77228,1,0,0:0:0:0:
402,192,77384,1,0,0:0:0:0:
36,192,77540,1,0,0:0:0:0:
182,192,77540,1,0,0:0:0:0:
109,192,77540,1,0,0:0:0:0:
402,192,77540,1,0,0:0:0:0:
402,192,77696,1,0,0:0:0:0:
182,192,77696,1,0,0:0:0:0:
329,192,77696,1,0,0:0:0:0:
256,192,77853,1,0,0:0:0:0:
109,192,77853,1,0,0:0:0:0:
475,192,77853,1,0,0:0:0:0:
402,192,77853,1,0,0:0:0:0:
402,192,78009,1,0,0:0:0:0:
36,192,78009,128,0,78165:0:0:0:0:
256,192,78009,128,0,78165:0:0:0:0:
402,192,78165,1,0,0:0:0:0:
109,192,78165,1,0,0:0:0:0:
36,192,78269,1,0,0:0:0:0:
109,192,78321,128,0,78478:0:0:0:0:
402,192,78321,1,0,0:0:0:0:
182,192,78373,1,0,0:0:0:0:
402,192,78478,1,0,0:0:0:0:
36,192,78478,1,0,0:0:0:0:
475,192,78478,1,0,0:0:0:0:
256,192,78478,128,0,78790:0:0:0:0:
402,192,78634,1,0,0:0:0:0:
402,192,78790,1,0,0:0:0:0:
109,192,78790,1,0,0:0:0:0:
36,192,78842,1,0,0:0:0:0:
402,192,78946,1,0,0:0:0:0:
182,192,78946,1,0,0:0:0:0:
329,192,78946,1,0,0:0:0:0:
256,192,79103,1,0,0:0:0:0:
109,192,79103,1,0,0:0:0:0:
475,192,79103,1,0,0:0:0:0:
402,192,79103,1,0,0:0:0:0:
402,192,79259,1,0,0:0:0:0:
36,192,79259,128,0,79415:0:0:0:0:
256,192,79259,128,0,79415:0:0:0:0:
109,192,79415,128,0,79571:0:0:0:0:
402,192,79415,1,0,0:0:0:0:
402,192,79571,1,0,0:0:0:0:
36,192,79571,1,0,0:0:0:0:
182,192,79571,1,0,0:0:0:0:
402,192,79728,1,0,0:0:0:0:
475,192,79728,1,0,0:0:0:0:
256,192,79728,128,0,80040:0:0:0:0:
402,192,79884,1,0,0:0:0:0:
182,192,80040,1,0,0:0:0:0:
36,192,80040,1,0,0:0:0:0:
402,192,80040,1,0,0:0:0:0:
109,192,80040,1,0,0:0:0:0:
402,192,80196,1,0,0:0:0:0:
329,192,80196,1,0,0:0:0:0:
109,192,80196,1,0,0:0:0:0:
329,192,80353,1,0,0:0:0:0:
256,192,80353,1,0,0:0:0:0:
36,192,80353,128,0,80821:0:0:0:0:
475,192,80353,128,0,80821:0:0:0:0:
182,192,80431,1,0,0:0:0:0:
109,192,80509,1,0,0:0:0:0:
256,192,80587,1,0,0:0:0:0:
402,192,80665,1,0,0:0:0:0:
329,192,80717,1,0,0:0:0:0:
256,192,80769,1,0,0:0:0:0:
182,192,80821,1,0,0:0:0:0:
109,192,80873,1,0,0:0:0:0:
475,192,80925,1,0,0:0:0:0:
329,192,80978,1,0,0:0:0:0:
36,192,80978,128,0,81290:0:0:0:0:
256,192,80978,1,0,0:0:0:0:
329,192,81290,1,0,0:0:0:0:
256,192,81342,1,0,0:0:0:0:
182,192,81394,1,0,0:0:0:0:
475,192,81446,1,0,0:0:0:0:
402,192,81498,1,0,0:0:0:0:
329,192,81550,1,0,0:0:0:0:
256,192,81603,1,0,0:0:0:0:
36,192,81603,128,0,81915:0:0:0:0:
182,192,81681,1,0,0:0:0:0:
109,192,81759,1,0,0:0:0:0:
475,192,81837,1,0,0:0:0:0:
402,192,81915,1,0,0:0:0:0:
256,192,81915,1,0,0:0:0:0:
182,192,82071,1,0,0:0:0:0:
475,192,82228,1,0,0:0:0:0:
36,192,82228,128,0,82540:0:0:0:0:
109,192,82228,1,0,0:0:0:0:
329,192,82332,1,0,0:0:0:0:
256,192,82436,1,0,0:0:0:0:
402,192,82540,1,0,0:0:0:0:
109,192,82540,1,0,0:0:0:0:
475,192,82696,1,0,0:0:0:0:
329,192,82853,1,0,0:0:0:0:
36,192,82853,128,0,83165:0:0:0:0:
182,192,82853,1,0,0:0:0:0:
109,192,83009,1,0,0:0:0:0:
182,192,83048,1,0,0:0:0:0:
256,192,83087,1,0,0:0:0:0:
329,192,83126,1,0,0:0:0:0:
402,192,83165,1,0,0:0:0:0:
475,192,83165,1,0,0:0:0:0:
402,192,83321,1,0,0:0:0:0:
329,192,83360,1,0,0:0:0:0:
256,192,83399,1,0,0:0:0:0:
182,192,83438,1,0,0:0:0:0:
109,192,83478,1,0,0:0:0:0:
36,192,83478,128,0,83790:0:0:0:0:
475,192,83478,1,0,0:0:0:0:
329,192,83582,1,0,0:0:0:0:
256,192,83686,1,0,0:0:0:0:
402,192,83790,1,0,0:0:0:0:
109,192,83790,1,0,0:0:0:0:
475,192,83946,1,0,0:0:0:0:
109,192,84103,1,0,0:0:0:0:
36,192,84103,128,0,84415:0:0:0:0:
256,192,84103,1,0,0:0:0:0:
329,192,84311,1,0,0:0:0:0:
256,192,84519,1,0,0:0:0:0:
182,192,84623,1,0,0:0:0:0:
36,192,84728,128,0,85040:0:0:0:0:
109,192,84728,1,0,0:0:0:0:
475,192,84780,1,0,0:0:0:0:
402,192,84832,1,0,0:0:0:0:
329,192,84884,1,0,0:0:0:0:
256,192,84936,1,0,0:0:0:0:
182,192,84988,1,0,0:0:0:0:
402,192,85040,1,0,0:0:0:0:
109,192,85118,1,0,0:0:0:0:
475,192,85196,1,0,0:0:0:0:
256,192,85274,1,0,0:0:0:0:
329,192,85353,1,0,0:0:0:0:
36,192,85353,128,0,85665:0:0:0:0:
182,192,85353,1,0,0:0:0:0:
109,192,85509,1,0,0:0:0:0:
402,192,85665,1,0,0:0:0:0:
182,192,85665,1,0,0:0:0:0:
329,192,85978,1,0,0:0:0:0:
36,192,85978,128,0,86290:0:0:0:0:
256,192,85978,1,0,0:0:0:0:
329,192,86290,1,0,0:0:0:0:
256,192,86342,1,0,0:0:0:0:
182,192,86394,1,0,0:0:0:0:
475,192,86446,1,0,0:0:0:0:
402,192,86498,1,0,0:0:0:0:
329,192,86550,1,0,0:0:0:0:
256,192,86603,1,0,0:0:0:0:
36,192,86603,128,0,86915:0:0:0:0:
182,192,86681,1,0,0:0:0:0:
109,192,86759,1,0,0:0:0:0:
475,192,86837,1,0,0:0:0:0:
402,192,86915,1,0,0:0:0:0:
256,192,86915,1,0,0:0:0:0:
182,192,87071,1,0,0:0:0:0:
475,192,87228,1,0,0:0:0:0:
36,192,87228,128,0,87540:0:0:0:0:
109,192,87228,1,0,0:0:0:0:
329,192,87332,1,0,0:0:0:0:
256,192,87436,1,0,0:0:0:0:
402,192,87540,1,0,0:0:0:0:
109,192,87540,1,0,0:0:0:0:
475,192,87696,1,0,0:0:0:0:
36,192,87853,128,0,88165:0:0:0:0:
329,192,87853,1,0,0:0:0:0:
182,192,87853,1,0,0:0:0:0:
109,192,88009,1,0,0:0:0:0:
182,192,88048,1,0,0:0:0:0:
256,192,88087,1,0,0:0:0:0:
329,192,88126,1,0,0:0:0:0:
402,192,88165,1,0,0:0:0:0:
475,192,88165,1,0,0:0:0:0:
475,192,88321,1,0,0:0:0:0:
329,192,88360,1,0,0:0:0:0:
256,192,88399,1,0,0:0:0:0:
182,192,88438,1,0,0:0:0:0:
402,192,88478,1,0,0:0:0:0:
36,192,88478,128,0,88790:0:0:0:0:
109,192,88478,128,0,88790:0:0:0:0:
475,192,88634,1,0,0:0:0:0:
402,192,88790,1,0,0:0:0:0:
329,192,88790,1,0,0:0:0:0:
256,192,88946,1,0,0:0:0:0:
402,192,88946,128,0,89259:0:0:0:0:
475,192,88946,128,0,89259:0:0:0:0:
36,192,89103,1,0,0:0:0:0:
182,192,89259,1,0,0:0:0:0:
109,192,89259,1,0,0:0:0:0:
256,192,89415,1,0,0:0:0:0:
109,192,89415,128,0,89728:0:0:0:0:
36,192,89415,128,0,89728:0:0:0:0:
475,192,89571,1,0,0:0:0:0:
329,192,89728,1,0,0:0:0:0:
402,192,89728,1,0,0:0:0:0:
402,192,89884,128,0,90196:0:0:0:0:
475,192,89884,128,0,90196:0:0:0:0:
256,192,89884,1,0,0:0:0:0:
36,192,90040,1,0,0:0:0:0:
256,192,90196,1,0,0:0:0:0:
329,192,90196,128,0,90353:0:0:0:0:
36,192,90353,128,0,90509:0:0:0:0:
256,192,90353,128,0,90392:0:0:0:0:
402,192,90457,1,0,0:0:0:0:
182,192,90509,128,0,90665:0:0:0:0:
256,192,90509,128,0,90587:0:0:0:0:
109,192,90561,1,0,0:0:0:0:
475,192,90665,128,0,90821:0:0:0:0:
256,192,90665,128,0,90782:0:0:0:0:
329,192,90821,128,0,90978:0:0:0:0:
256,192,90821,128,0,90978:0:0:0:0:
182,192,90978,1,0,0:0:0:0:
475,192,90978,128,0,91290:0:0:0:0:
109,192,90978,1,0,0:0:0:0:
182,192,91290,1,0,0:0:0:0:
256,192,91342,1,0,0:0:0:0:
329,192,91394,1,0,0:0:0:0:
36,192,91446,1,0,0:0:0:0:
109,192,91498,1,0,0:0:0:0:
182,192,91550,1,0,0:0:0:0:
256,192,91603,1,0,0:0:0:0:
475,192,91603,128,0,91915:0:0:0:0:
329,192,91681,1,0,0:0:0:0:
402,192,91759,1,0,0:0:0:0:
36,192,91837,1,0,0:0:0:0:
109,192,91915,1,0,0:0:0:0:
256,192,91915,1,0,0:0:0:0:
329,192,92071,1,0,0:0:0:0:
36,192,92228,1,0,0:0:0:0:
475,192,92228,128,0,92540:0:0:0:0:
402,192,92228,1,0,0:0:0:0:
182,192,92332,1,0,0:0:0:0:
256,192,92436,1,0,0:0:0:0:
109,192,92540,1,0,0:0:0:0:
402,192,92540,1,0,0:0:0:0:
36,192,92696,1,0,0:0:0:0:
182,192,92853,1,0,0:0:0:0:
475,192,92853,128,0,93165:0:0:0:0:
329,192,92853,1,0,0:0:0:0:
402,192,93009,1,0,0:0:0:0:
329,192,93048,1,0,0:0:0:0:
256,192,93087,1,0,0:0:0:0:
182,192,93126,1,0,0:0:0:0:
109,192,93165,1,0,0:0:0:0:
36,192,93165,1,0,0:0:0:0:
109,192,93321,1,0,0:0:0:0:
182,192,93360,1,0,0:0:0:0:
256,192,93399,1,0,0:0:0:0:
329,192,93438,1,0,0:0:0:0:
402,192,93478,1,0,0:0:0:0:
475,192,93478,128,0,93790:0:0:0:0:
36,192,93478,1,0,0:0:0:0:
182,192,93582,1,0,0:0:0:0:
256,192,93686,1,0,0:0:0:0:
109,192,93790,1,0,0:0:0:0:
402,192,93790,1,0,0:0:0:0:
36,192,93946,1,0,0:0:0:0:
402,192,94103,1,0,0:0:0:0:
475,192,94103,128,0,94415:0:0:0:0:
256,192,94103,1,0,0:0:0:0:
182,192,94311,1,0,0:0:0:0:
256,192,94519,1,0,0:0:0:0:
329,192,94623,1,0,0:0:0:0:
475,192,94728,128,0,95040:0:0:0:0:
402,192,94728,1,0,0:0:0:0:
36,192,94780,1,0,0:0:0:0:
109,192,94832,1,0,0:0:0:0:
182,192,94884,1,0,0:0:0:0:
256,192,94936,1,0,0:0:0:0:
329,192,94988,1,0,0:0:0:0:
109,192,95040,1,0,0:0:0:0:
402,192,95118,1,0,0:0:0:0:
36,192,95196,1,0,0:0:0:0:
256,192,95274,1,0,0:0:0:0:
182,192,95353,1,0,0:0:0:0:
475,192,95353,128,0,95665:0:0:0:0:
329,192,95353,1,0,0:0:0:0:
402,192,95509,1,0,0:0:0:0:
109,192,95665,1,0,0:0:0:0:
329,192,95665,1,0,0:0:0:0:
182,192,95978,1,0,0:0:0:0:
475,192,95978,128,0,96290:0:0:0:0:
256,192,95978,1,0,0:0:0:0:
182,192,96290,1,0,0:0:0:0:
256,192,96342,1,0,0:0:0:0:
329,192,96394,1,0,0:0:0:0:
36,192,96446,1,0,0:0:0:0:
109,192,96498,1,0,0:0:0:0:
182,192,96550,1,0,0:0:0:0:
256,192,96603,1,0,0:0:0:0:
475,192,96603,128,0,96915:0:0:0:0:
329,192,96681,1,0,0:0:0:0:
402,192,96759,1,0,0:0:0:0:
36,192,96837,1,0,0:0:0:0:
109,192,96915,1,0,0:0:0:0:
256,192,96915,1,0,0:0:0:0:
329,192,97071,1,0,0:0:0:0:
36,192,97228,1,0,0:0:0:0:
475,192,97228,128,0,97540:0:0:0:0:
402,192,97228,1,0,0:0:0:0:
182,192,97332,1,0,0:0:0:0:
256,192,97436,1,0,0:0:0:0:
109,192,97540,1,0,0:0:0:0:
402,192,97540,1,0,0:0:0:0:
36,192,97696,1,0,0:0:0:0:
475,192,97853,128,0,98165:0:0:0:0:
182,192,97853,1,0,0:0:0:0:
329,192,97853,1,0,0:0:0:0:
402,192,98009,1,0,0:0:0:0:
329,192,98048,1,0,0:0:0:0:
256,192,98087,1,0,0:0:0:0:
182,192,98126,1,0,0:0:0:0:
109,192,98165,1,0,0:0:0:0:
36,192,98165,1,0,0:0:0:0:
36,192,98321,1,0,0:0:0:0:
182,192,98360,1,0,0:0:0:0:
256,192,98399,1,0,0:0:0:0:
329,192,98438,1,0,0:0:0:0:
109,192,98478,1,0,0:0:0:0:
475,192,98478,128,0,98790:0:0:0:0:
402,192,98478,128,0,98790:0:0:0:0:
36,192,98634,1,0,0:0:0:0:
109,192,98790,1,0,0:0:0:0:
182,192,98790,1,0,0:0:0:0:
256,192,98946,1,0,0:0:0:0:
109,192,98946,128,0,99259:0:0:0:0:
36,192,98946,128,0,99259:0:0:0:0:
475,192,99103,1,0,0:0:0:0:
329,192,99259,1,0,0:0:0:0:
402,192,99259,1,0,0:0:0:0:
256,192,99415,1,0,0:0:0:0:
402,192,99415,128,0,99728:0:0:0:0:
475,192,99415,128,0,99728:0:0:0:0:
36,192,99571,1,0,0:0:0:0:
182,192,99728,1,0,0:0:0:0:
109,192,99728,1,0,0:0:0:0:
109,192,99884,128,0,100196:0:0:0:0:
36,192,99884,128,0,100196:0:0:0:0:
256,192,99884,1,0,0:0:0:0:
475,192,100040,1,0,0:0:0:0:
256,192,100196,1,0,0:0:0:0:
182,192,100196,128,0,100353:0:0:0:0:
475,192,100353,128,0,100509:0:0:0:0:
256,192,100353,128,0,100392:0:0:0:0:
109,192,100457,1,0,0:0:0:0:
329,192,100509,128,0,100665:0:0:0:0:
256,192,100509,128,0,100587:0:0:0:0:
402,192,100561,1,0,0:0:0:0:
36,192,100665,128,0,100821:0:0:0:0:
256,192,100665,128,0,100782:0:0:0:0:
182,192,100821,128,0,100978:0:0:0:0:
256,192,100821,128,0,100978:0:0:0:0:
475,192,100899,1,0,0:0:0:0:
402,192,100938,1,0,0:0:0:0:
36,192,100978,128,0,101290:0:0:0:0:
109,192,100978,128,0,101056:0:0:0:0:
329,192,100978,1,0,0:0:0:0:
475,192,101134,128,0,101212:0:0:0:0:
329,192,101290,1,0,0:0:0:0:
402,192,101290,128,0,101368:0:0:0:0:
256,192,101342,1,0,0:0:0:0:
182,192,101394,1,0,0:0:0:0:
475,192,101446,1,0,0:0:0:0:
109,192,101446,128,0,101524:0:0:0:0:
402,192,101498,1,0,0:0:0:0:
329,192,101550,1,0,0:0:0:0:
36,192,101603,128,0,101915:0:0:0:0:
256,192,101603,1,0,0:0:0:0:
182,192,101681,1,0,0:0:0:0:
109,192,101759,1,0,0:0:0:0:
329,192,101759,128,0,101837:0:0:0:0:
475,192,101837,1,0,0:0:0:0:
256,192,101915,1,0,0:0:0:0:
402,192,101915,1,0,0:0:0:0:
182,192,102071,1,0,0:0:0:0:
109,192,102071,128,0,102149:0:0:0:0:
36,192,102228,128,0,102540:0:0:0:0:
475,192,102228,1,0,0:0:0:0:
402,192,102228,128,0,102306:0:0:0:0:
109,192,102228,1,0,0:0:0:0:
329,192,102332,1,0,0:0:0:0:
182,192,102384,128,0,102462:0:0:0:0:
256,192,102436,1,0,0:0:0:0:
402,192,102540,1,0,0:0:0:0:
109,192,102540,128,0,102618:0:0:0:0:
475,192,102696,1,0,0:0:0:0:
256,192,102696,128,0,102774:0:0:0:0:
36,192,102853,128,0,103165:0:0:0:0:
329,192,102853,1,0,0:0:0:0:
402,192,102853,128,0,102931:0:0:0:0:
182,192,102853,1,0,0:0:0:0:
109,192,103009,1,0,0:0:0:0:
182,192,103048,1,0,0:0:0:0:
256,192,103087,1,0,0:0:0:0:
329,192,103126,1,0,0:0:0:0:
475,192,103165,1,0,0:0:0:0:
402,192,103165,1,0,0:0:0:0:
402,192,103321,1,0,0:0:0:0:
329,192,103360,1,0,0:0:0:0:
256,192,103399,1,0,0:0:0:0:
182,192,103438,1,0,0:0:0:0:
36,192,103478,128,0,103790:0:0:0:0:
402,192,103478,1,0,0:0:0:0:
109,192,103478,128,0,103556:0:0:0:0:
475,192,103478,1,0,0:0:0:0:
329,192,103582,1,0,0:0:0:0:
475,192,103634,128,0,103712:0:0:0:0:
256,192,103686,1,0,0:0:0:0:
109,192,103790,1,0,0:0:0:0:
402,192,103790,1,0,0:0:0:0:
182,192,103790,128,0,103868:0:0:0:0:
475,192,103946,1,0,0:0:0:0:
329,192,103946,128,0,104024:0:0:0:0:
36,192,104103,128,0,104415:0:0:0:0:
109,192,104103,1,0,0:0:0:0:
256,192,104103,1,0,0:0:0:0:
475,192,104259,128,0,104337:0:0:0:0:
329,192,104311,1,0,0:0:0:0:
256,192,104519,1,0,0:0:0:0:
402,192,104571,128,0,104649:0:0:0:0:
182,192,104623,1,0,0:0:0:0:
36,192,104728,128,0,105040:0:0:0:0:
256,192,104728,128,0,104806:0:0:0:0:
109,192,104728,1,0,0:0:0:0:
475,192,104780,1,0,0:0:0:0:
402,192,104832,1,0,0:0:0:0:
329,192,104884,1,0,0:0:0:0:
109,192,104884,128,0,104962:0:0:0:0:
256,192,104936,1,0,0:0:0:0:
182,192,104988,1,0,0:0:0:0:
402,192,105040,1,0,0:0:0:0:
329,192,105040,128,0,105118:0:0:0:0:
109,192,105118,1,0,0:0:0:0:
475,192,105196,1,0,0:0:0:0:
182,192,105196,128,0,105274:0:0:0:0:
256,192,105274,1,0,0:0:0:0:
36,192,105353,128,0,105665:0:0:0:0:
329,192,105353,1,0,0:0:0:0:
402,192,105353,128,0,105431:0:0:0:0:
182,192,105353,1,0,0:0:0:0:
109,192,105509,1,0,0:0:0:0:
182,192,105665,1,0,0:0:0:0:
402,192,105665,1,0,0:0:0:0:
36,192,105978,128,0,106290:0:0:0:0:
329,192,105978,1,0,0:0:0:0:
475,192,105978,128,0,106056:0:0:0:0:
256,192,105978,1,0,0:0:0:0:
109,192,106134,128,0,106212:0:0:0:0:
329,192,106290,1,0,0:0:0:0:
402,192,106290,128,0,106368:0:0:0:0:
256,192,106342,1,0,0:0:0:0:
182,192,106394,1,0,0:0:0:0:
475,192,106446,1,0,0:0:0:0:
109,192,106446,128,0,106524:0:0:0:0:
402,192,106498,1,0,0:0:0:0:
329,192,106550,1,0,0:0:0:0:
36,192,106603,128,0,106915:0:0:0:0:
256,192,106603,1,0,0:0:0:0:
182,192,106681,1,0,0:0:0:0:
109,192,106759,1,0,0:0:0:0:
329,192,106759,128,0,106837:0:0:0:0:
475,192,106837,1,0,0:0:0:0:
256,192,106915,1,0,0:0:0:0:
402,192,106915,1,0,0:0:0:0:
182,192,107071,1,0,0:0:0:0:
109,192,107071,128,0,107149:0:0:0:0:
36,192,107228,128,0,107540:0:0:0:0:
475,192,107228,1,0,0:0:0:0:
402,192,107228,128,0,107306:0:0:0:0:
109,192,107228,1,0,0:0:0:0:
329,192,107332,1,0,0:0:0:0:
182,192,107384,128,0,107462:0:0:0:0:
256,192,107436,1,0,0:0:0:0:
402,192,107540,1,0,0:0:0:0:
109,192,107540,128,0,107618:0:0:0:0:
475,192,107696,1,0,0:0:0:0:
256,192,107696,128,0,107774:0:0:0:0:
329,192,107853,1,0,0:0:0:0:
36,192,107853,128,0,108165:0:0:0:0:
182,192,107853,128,0,107931:0:0:0:0:
402,192,107853,1,0,0:0:0:0:
109,192,108009,1,0,0:0:0:0:
182,192,108048,1,0,0:0:0:0:
256,192,108087,1,0,0:0:0:0:
329,192,108126,1,0,0:0:0:0:
475,192,108165,1,0,0:0:0:0:
402,192,108165,1,0,0:0:0:0:
475,192,108321,1,0,0:0:0:0:
329,192,108360,1,0,0:0:0:0:
256,192,108399,1,0,0:0:0:0:
182,192,108438,1,0,0:0:0:0:
109,192,108478,128,0,108790:0:0:0:0:
36,192,108478,128,0,108790:0:0:0:0:
402,192,108478,128,0,108556:0:0:0:0:
329,192,108478,1,0,0:0:0:0:
475,192,108634,1,0,0:0:0:0:
256,192,108634,128,0,108712:0:0:0:0:
402,192,108790,1,0,0:0:0:0:
329,192,108790,128,0,108868:0:0:0:0:
475,192,108946,128,0,109259:0:0:0:0:
402,192,108946,128,0,109259:0:0:0:0:
256,192,108946,1,0,0:0:0:0:
109,192,108946,128,0,109024:0:0:0:0:
329,192,108985,128,0,109103:0:0:0:0:
36,192,109103,1,0,0:0:0:0:
109,192,109259,1,0,0:0:0:0:
182,192,109259,128,0,109337:0:0:0:0:
36,192,109415,128,0,109728:0:0:0:0:
109,192,109415,128,0,109728:0:0:0:0:
329,192,109415,1,0,0:0:0:0:
256,192,109415,128,0,109493:0:0:0:0:
475,192,109571,1,0,0:0:0:0:
182,192,109571,128,0,109649:0:0:0:0:
402,192,109728,1,0,0:0:0:0:
329,192,109728,128,0,109806:0:0:0:0:
256,192,109884,1,0,0:0:0:0:
475,192,109884,128,0,110196:0:0:0:0:
402,192,109884,128,0,110196:0:0:0:0:
36,192,109884,128,0,109962:0:0:0:0:
109,192,110040,1,0,0:0:0:0:
182,192,110040,128,0,110118:0:0:0:0:
329,192,110196,128,0,110353:0:0:0:0:
256,192,110196,128,0,110274:0:0:0:0:
256,192,110353,128,0,110431:0:0:0:0:
36,192,110353,128,0,110509:0:0:0:0:
109,192,110353,1,0,0:0:0:0:
402,192,110457,1,0,0:0:0:0:
256,192,110509,128,0,110587:0:0:0:0:
182,192,110509,128,0,110665:0:0:0:0:
109,192,110561,1,0,0:0:0:0:
256,192,110665,128,0,110782:0:0:0:0:
475,192,110665,128,0,110821:0:0:0:0:
402,192,110665,1,0,0:0:0:0:
256,192,110821,128,0,110978:0:0:0:0:
329,192,110821,128,0,110978:0:0:0:0:
109,192,110821,1,0,0:0:0:0:
182,192,110978,1,0,0:0:0:0:
402,192,110978,128,0,111056:0:0:0:0:
475,192,110978,128,0,111290:0:0:0:0:
36,192,111134,128,0,111212:0:0:0:0:
109,192,111290,128,0,111368:0:0:0:0:
182,192,111290,1,0,0:0:0:0:
256,192,111342,1,0,0:0:0:0:
329,192,111394,1,0,0:0:0:0:
402,192,111446,128,0,111524:0:0:0:0:
36,192,111446,1,0,0:0:0:0:
109,192,111498,1,0,0:0:0:0:
182,192,111550,1,0,0:0:0:0:
256,192,111603,1,0,0:0:0:0:
475,192,111603,128,0,111915:0:0:0:0:
329,192,111681,1,0,0:0:0:0:
182,192,111759,128,0,111837:0:0:0:0:
402,192,111759,1,0,0:0:0:0:
36,192,111837,1,0,0:0:0:0:
109,192,111915,1,0,0:0:0:0:
256,192,111915,1,0,0:0:0:0:
402,192,112071,128,0,112149:0:0:0:0:
329,192,112071,1,0,0:0:0:0:
109,192,112228,128,0,112306:0:0:0:0:
36,192,112228,1,0,0:0:0:0:
475,192,112228,128,0,112540:0:0:0:0:
402,192,112228,1,0,0:0:0:0:
182,192,112332,1,0,0:0:0:0:
329,192,112384,128,0,112462:0:0:0:0:
256,192,112436,1,0,0:0:0:0:
402,192,112540,128,0,112618:0:0:0:0:
109,192,112540,1,0,0:0:0:0:
256,192,112696,128,0,112774:0:0:0:0:
36,192,112696,1,0,0:0:0:0:
109,192,112853,128,0,112931:0:0:0:0:
182,192,112853,1,0,0:0:0:0:
475,192,112853,128,0,113165:0:0:0:0:
329,192,112853,1,0,0:0:0:0:
402,192,113009,1,0,0:0:0:0:
329,192,113048,1,0,0:0:0:0:
256,192,113087,1,0,0:0:0:0:
182,192,113126,1,0,0:0:0:0:
109,192,113165,1,0,0:0:0:0:
36,192,113165,1,0,0:0:0:0:
109,192,113321,1,0,0:0:0:0:
182,192,113360,1,0,0:0:0:0:
256,192,113399,1,0,0:0:0:0:
329,192,113438,1,0,0:0:0:0:
402,192,113478,128,0,113556:0:0:0:0:
109,192,113478,1,0,0:0:0:0:
475,192,113478,128,0,113790:0:0:0:0:
36,192,113478,1,0,0:0:0:0:
182,192,113582,1,0,0:0:0:0:
36,192,113634,128,0,113712:0:0:0:0:
256,192,113686,1,0,0:0:0:0:
329,192,113790,128,0,113868:0:0:0:0:
109,192,113790,1,0,0:0:0:0:
402,192,113790,1,0,0:0:0:0:
182,192,113946,128,0,114024:0:0:0:0:
36,192,113946,1,0,0:0:0:0:
402,192,114103,1,0,0:0:0:0:
475,192,114103,128,0,114415:0:0:0:0:
256,192,114103,1,0,0:0:0:0:
36,192,114259,128,0,114337:0:0:0:0:
182,192,114311,1,0,0:0:0:0:
256,192,114519,1,0,0:0:0:0:
109,192,114571,128,0,114649:0:0:0:0:
329,192,114623,1,0,0:0:0:0:
256,192,114728,128,0,114806:0:0:0:0:
475,192,114728,128,0,115040:0:0:0:0:
402,192,114728,1,0,0:0:0:0:
36,192,114780,1,0,0:0:0:0:
109,192,114832,1,0,0:0:0:0:
402,192,114884,128,0,114962:0:0:0:0:
182,192,114884,1,0,0:0:0:0:
256,192,114936,1,0,0:0:0:0:
329,192,114988,1,0,0:0:0:0:
182,192,115040,128,0,115118:0:0:0:0:
109,192,115040,1,0,0:0:0:0:
402,192,115118,1,0,0:0:0:0:
329,192,115196,128,0,115274:0:0:0:0:
36,192,115196,1,0,0:0:0:0:
256,192,115274,1,0,0:0:0:0:
109,192,115353,128,0,115431:0:0:0:0:
182,192,115353,1,0,0:0:0:0:
475,192,115353,128,0,115665:0:0:0:0:
329,192,115353,1,0,0:0:0:0:
402,192,115509,1,0,0:0:0:0:
109,192,115665,1,0,0:0:0:0:
329,192,115665,1,0,0:0:0:0:
36,192,115978,128,0,116056:0:0:0:0:
182,192,115978,1,0,0:0:0:0:
475,192,115978,128,0,116290:0:0:0:0:
256,192,115978,1,0,0:0:0:0:
402,192,116134,128,0,116212:0:0:0:0:
109,192,116290,128,0,116368:0:0:0:0:
182,192,116290,1,0,0:0:0:0:
256,192,116342,1,0,0:0:0:0:
329,192,116394,1,0,0:0:0:0:
402,192,116446,128,0,116524:0:0:0:0:
36,192,116446,1,0,0:0:0:0:
109,192,116498,1,0,0:0:0:0:
182,192,116550,1,0,0:0:0:0:
256,192,116603,1,0,0:0:0:0:
475,192,116603,128,0,116915:0:0:0:0:
329,192,116681,1,0,0:0:0:0:
182,192,116759,128,0,116837:0:0:0:0:
402,192,116759,1,0,0:0:0:0:
36,192,116837,1,0,0:0:0:0:
109,192,116915,1,0,0:0:0:0:
256,192,116915,1,0,0:0:0:0:
402,192,117071,128,0,117149:0:0:0:0:
329,192,117071,1,0,0:0:0:0:
109,192,117228,128,0,117306:0:0:0:0:
36,192,117228,1,0,0:0:0:0:
475,192,117228,128,0,117540:0:0:0:0:
402,192,117228,1,0,0:0:0:0:
182,192,117332,1,0,0:0:0:0:
329,192,117384,128,0,117462:0:0:0:0:
256,192,117436,1,0,0:0:0:0:
402,192,117540,128,0,117618:0:0:0:0:
109,192,117540,1,0,0:0:0:0:
256,192,117696,128,0,117774:0:0:0:0:
36,192,117696,1,0,0:0:0:0:
329,192,117853,128,0,117931:0:0:0:0:
475,192,117853,128,0,118165:0:0:0:0:
182,192,117853,1,0,0:0:0:0:
109,192,117853,1,0,0:0:0:0:
402,192,118009,1,0,0:0:0:0:
329,192,118048,1,0,0:0:0:0:
256,192,118087,1,0,0:0:0:0:
182,192,118126,1,0,0:0:0:0:
109,192,118165,1,0,0:0:0:0:
36,192,118165,1,0,0:0:0:0:
36,192,118321,1,0,0:0:0:0:
182,192,118360,1,0,0:0:0:0:
256,192,118399,1,0,0:0:0:0:
329,192,118438,1,0,0:0:0:0:
109,192,118478,128,0,118556:0:0:0:0:
475,192,118478,128,0,118790:0:0:0:0:
256,192,118634,128,0,118712:0:0:0:0:
182,192,118790,128,0,118868:0:0:0:0:
402,192,118946,128,0,119024:0:0:0:0:
109,192,118985,128,0,119103:0:0:0:0:
36,192,119103,128,0,119415:0:0:0:0:
475,192,119103,1,0,0:0:0:0:
329,192,119259,128,0,119337:0:0:0:0:
256,192,119415,128,0,119493:0:0:0:0:
329,192,119571,128,0,119649:0:0:0:0:
475,192,119728,128,0,120040:0:0:0:0:
182,192,119728,128,0,119806:0:0:0:0:
36,192,119884,128,0,119962:0:0:0:0:
402,192,120040,128,0,120118:0:0:0:0:
256,192,120196,128,0,120274:0:0:0:0:
36,192,120353,128,0,120665:0:0:0:0:
256,192,120353,128,0,120431:0:0:0:0:
109,192,120509,1,0,0:0:0:0:
182,192,120665,1,0,0:0:0:0:
329,192,120821,1,0,0:0:0:0:
402,192,120978,1,0,0:0:0:0:
475,192,120978,128,0,121212:0:0:0:0:
36,192,121603,128,0,121759:0:0:0:0:
475,192,122228,128,0,122306:0:0:0:0:
36,192,123478,5,0,0:0:0:0:
109,192,123478,1,0,0:0:0:0:
256,192,123478,128,0,123790:0:0:0:0:
402,192,123478,1,0,0:0:0:0:
109,192,123634,1,0,0:0:0:0:
402,192,123790,1,0,0:0:0:0:
109,192,123790,1,0,0:0:0:0:
475,192,123842,1,0,0:0:0:0:
182,192,123946,1,0,0:0:0:0:
329,192,123946,1,0,0:0:0:0:
109,192,123946,1,0,0:0:0:0:
36,192,124103,1,0,0:0:0:0:
109,192,124103,1,0,0:0:0:0:
256,192,124103,1,0,0:0:0:0:
402,192,124103,1,0,0:0:0:0:
256,192,124259,128,0,124415:0:0:0:0:
475,192,124259,128,0,124415:0:0:0:0:
109,192,124259,1,0,0:0:0:0:
329,192,124415,1,0,0:0:0:0:
109,192,124415,1,0,0:0:0:0:
402,192,124415,128,0,124571:0:0:0:0:
182,192,124415,128,0,124571:0:0:0:0:
36,192,124571,1,0,0:0:0:0:
109,192,124571,1,0,0:0:0:0:
475,192,124571,1,0,0:0:0:0:
182,192,124728,1,0,0:0:0:0:
256,192,124728,128,0,125040:0:0:0:0:
109,192,124728,1,0,0:0:0:0:
109,192,124884,1,0,0:0:0:0:
402,192,124884,128,0,125040:0:0:0:0:
36,192,125040,1,0,0:0:0:0:
109,192,125040,1,0,0:0:0:0:
475,192,125040,1,0,0:0:0:0:
329,192,125040,1,0,0:0:0:0:
182,192,125196,1,0,0:0:0:0:
329,192,125196,1,0,0:0:0:0:
109,192,125196,1,0,0:0:0:0:
109,192,125353,1,0,0:0:0:0:
256,192,125353,1,0,0:0:0:0:
402,192,125353,1,0,0:0:0:0:
475,192,125353,128,0,125665:0:0:0:0:
256,192,125509,128,0,125665:0:0:0:0:
329,192,125509,128,0,125665:0:0:0:0:
109,192,125509,1,0,0:0:0:0:
402,192,125665,1,0,0:0:0:0:
109,192,125665,1,0,0:0:0:0:
475,192,125769,1,0,0:0:0:0:
109,192,125821,1,0,0:0:0:0:
402,192,125821,128,0,125978:0:0:0:0:
329,192,125873,1,0,0:0:0:0:
36,192,125978,1,0,0:0:0:0:
256,192,125978,128,0,126290:0:0:0:0:
109,192,125978,1,0,0:0:0:0:
475,192,125978,1,0,0:0:0:0:
109,192,126134,1,0,0:0:0:0:
402,192,126290,1,0,0:0:0:0:
109,192,126290,1,0,0:0:0:0:
475,192,126342,1,0,0:0:0:0:
182,192,126446,1,0,0:0:0:0:
329,192,126446,1,0,0:0:0:0:
109,192,126446,1,0,0:0:0:0:
36,192,126603,1,0,0:0:0:0:
109,192,126603,1,0,0:0:0:0:
256,192,126603,1,0,0:0:0:0:
402,192,126603,1,0,0:0:0:0:
256,192,126759,128,0,126915:0:0:0:0:
475,192,126759,128,0,126915:0:0:0:0:
109,192,126759,1,0,0:0:0:0:
329,192,126915,1,0,0:0:0:0:
109,192,126915,1,0,0:0:0:0:
402,192,126915,128,0,127071:0:0:0:0:
182,192,126915,128,0,127071:0:0:0:0:
36,192,127071,1,0,0:0:0:0:
109,192,127071,1,0,0:0:0:0:
475,192,127071,1,0,0:0:0:0:
256,192,127228,128,0,127540:0:0:0:0:
182,192,127228,1,0,0:0:0:0:
109,192,127228,1,0,0:0:0:0:
109,192,127384,1,0,0:0:0:0:
402,192,127384,128,0,127540:0:0:0:0:
109,192,127540,1,0,0:0:0:0:
36,192,127540,1,0,0:0:0:0:
329,192,127540,1,0,0:0:0:0:
475,192,127540,1,0,0:0:0:0:
402,192,127696,1,0,0:0:0:0:
109,192,127696,1,0,0:0:0:0:
182,192,127696,1,0,0:0:0:0:
36,192,127853,128,0,128009:0:0:0:0:
475,192,127853,128,0,128009:0:0:0:0:
329,192,127853,1,0,0:0:0:0:
256,192,127853,1,0,0:0:0:0:
182,192,127853,1,0,0:0:0:0:
109,192,128009,128,0,128165:0:0:0:0:
36,192,128165,128,0,128321:0:0:0:0:
475,192,128165,128,0,128321:0:0:0:0:
329,192,128165,1,0,0:0:0:0:
256,192,128269,1,0,0:0:0:0:
182,192,128373,128,0,128478:0:0:0:0:
475,192,128478,5,0,0:0:0:0:
256,192,128478,128,0,128790:0:0:0:0:
402,192,128478,1,0,0:0:0:0:
109,192,128478,1,0,0:0:0:0:
402,192,128634,1,0,0:0:0:0:
109,192,128790,1,0,0:0:0:0:
402,192,128790,1,0,0:0:0:0:
36,192,128842,1,0,0:0:0:0:
329,192,128946,1,0,0:0:0:0:
182,192,128946,1,0,0:0:0:0:
402,192,128946,1,0,0:0:0:0:
475,192,129103,1,0,0:0:0:0:
402,192,129103,1,0,0:0:0:0:
256,192,129103,1,0,0:0:0:0:
109,192,129103,1,0,0:0:0:0:
256,192,129259,128,0,129415:0:0:0:0:
36,192,129259,128,0,129415:0:0:0:0:
402,192,129259,1,0,0:0:0:0:
182,192,129415,1,0,0:0:0:0:
402,192,129415,1,0,0:0:0:0:
109,192,129415,128,0,129571:0:0:0:0:
329,192,129415,128,0,129571:0:0:0:0:
475,192,129571,1,0,0:0:0:0:
402,192,129571,1,0,0:0:0:0:
36,192,129571,1,0,0:0:0:0:
329,192,129728,1,0,0:0:0:0:
256,192,129728,128,0,130040:0:0:0:0:
402,192,129728,1,0,0:0:0:0:
402,192,129884,1,0,0:0:0:0:
109,192,129884,128,0,130040:0:0:0:0:
475,192,130040,1,0,0:0:0:0:
402,192,130040,1,0,0:0:0:0:
36,192,130040,1,0,0:0:0:0:
182,192,130040,1,0,0:0:0:0:
329,192,130196,1,0,0:0:0:0:
182,192,130196,1,0,0:0:0:0:
402,192,130196,1,0,0:0:0:0:
402,192,130353,1,0,0:0:0:0:
256,192,130353,1,0,0:0:0:0:
109,192,130353,1,0,0:0:0:0:
36,192,130353,128,0,130665:0:0:0:0:
256,192,130509,128,0,130665:0:0:0:0:
182,192,130509,128,0,130665:0:0:0:0:
402,192,130509,1,0,0:0:0:0:
109,192,130665,1,0,0:0:0:0:
402,192,130665,1,0,0:0:0:0:
36,192,130769,1,0,0:0:0:0:
402,192,130821,1,0,0:0:0:0:
109,192,130821,128,0,130978:0:0:0:0:
182,192,130873,1,0,0:0:0:0:
475,192,130978,1,0,0:0:0:0:
256,192,130978,128,0,131290:0:0:0:0:
402,192,130978,1,0,0:0:0:0:
36,192,130978,1,0,0:0:0:0:
402,192,131134,1,0,0:0:0:0:
109,192,131290,1,0,0:0:0:0:
402,192,131290,1,0,0:0:0:0:
36,192,131342,1,0,0:0:0:0:
329,192,131446,1,0,0:0:0:0:
182,192,131446,1,0,0:0:0:0:
402,192,131446,1,0,0:0:0:0:
475,192,131603,1,0,0:0:0:0:
402,192,131603,1,0,0:0:0:0:
256,192,131603,1,0,0:0:0:0:
109,192,131603,1,0,0:0:0:0:
256,192,131759,128,0,131915:0:0:0:0:
36,192,131759,128,0,131915:0:0:0:0:
402,192,131759,1,0,0:0:0:0:
182,192,131915,1,0,0:0:0:0:
402,192,131915,1,0,0:0:0:0:
109,192,131915,128,0,132071:0:0:0:0:
329,192,131915,128,0,132071:0:0:0:0:
475,192,132071,1,0,0:0:0:0:
402,192,132071,1,0,0:0:0:0:
36,192,132071,1,0,0:0:0:0:
256,192,132228,128,0,132540:0:0:0:0:
329,192,132228,1,0,0:0:0:0:
402,192,132228,1,0,0:0:0:0:
402,192,132384,1,0,0:0:0:0:
109,192,132384,128,0,132540:0:0:0:0:
402,192,132540,1,0,0:0:0:0:
475,192,132540,1,0,0:0:0:0:
182,192,132540,1,0,0:0:0:0:
36,192,132540,1,0,0:0:0:0:
109,192,132696,1,0,0:0:0:0:
329,192,132696,1,0,0:0:0:0:
402,192,132696,1,0,0:0:0:0:
475,192,132853,128,0,133009:0:0:0:0:
36,192,132853,128,0,133009:0:0:0:0:
182,192,132853,1,0,0:0:0:0:
256,192,132853,1,0,0:0:0:0:
329,192,132853,1,0,0:0:0:0:
402,192,133009,128,0,133165:0:0:0:0:
475,192,133165,128,0,133321:0:0:0:0:
36,192,133165,128,0,133321:0:0:0:0:
182,192,133165,1,0,0:0:0:0:
256,192,133269,1,0,0:0:0:0:
329,192,133373,128,0,133478:0:0:0:0:
36,192,133478,5,0,0:0:0:0:
256,192,133478,128,0,133790:0:0:0:0:
109,192,133478,1,0,0:0:0:0:
402,192,133478,1,0,0:0:0:0:
109,192,133634,1,0,0:0:0:0:
402,192,133790,1,0,0:0:0:0:
109,192,133790,1,0,0:0:0:0:
475,192,133842,1,0,0:0:0:0:
182,192,133946,1,0,0:0:0:0:
329,192,133946,1,0,0:0:0:0:
109,192,133946,1,0,0:0:0:0:
36,192,134103,1,0,0:0:0:0:
109,192,134103,1,0,0:0:0:0:
256,192,134103,1,0,0:0:0:0:
402,192,134103,1,0,0:0:0:0:
256,192,134259,128,0,134415:0:0:0:0:
475,192,134259,128,0,134415:0:0:0:0:
109,192,134259,1,0,0:0:0:0:
329,192,134415,1,0,0:0:0:0:
109,192,134415,1,0,0:0:0:0:
402,192,134415,128,0,134571:0:0:0:0:
182,192,134415,128,0,134571:0:0:0:0:
36,192,134571,1,0,0:0:0:0:
109,192,134571,1,0,0:0:0:0:
475,192,134571,1,0,0:0:0:0:
182,192,134728,1,0,0:0:0:0:
256,192,134728,128,0,135040:0:0:0:0:
109,192,134728,1,0,0:0:0:0:
109,192,134884,1,0,0:0:0:0:
402,192,134884,128,0,135040:0:0:0:0:
36,192,135040,1,0,0:0:0:0:
109,192,135040,1,0,0:0:0:0:
475,192,135040,1,0,0:0:0:0:
329,192,135040,1,0,0:0:0:0:
182,192,135196,1,0,0:0:0:0:
329,192,135196,1,0,0:0:0:0:
109,192,135196,1,0,0:0:0:0:
109,192,135353,1,0,0:0:0:0:
256,192,135353,1,0,0:0:0:0:
402,192,135353,1,0,0:0:0:0:
475,192,135353,128,0,135665:0:0:0:0:
256,192,135509,128,0,135665:0:0:0:0:
329,192,135509,128,0,135665:0:0:0:0:
109,192,135509,1,0,0:0:0:0:
402,192,135665,1,0,0:0:0:0:
109,192,135665,1,0,0:0:0:0:
475,192,135769,1,0,0:0:0:0:
109,192,135821,1,0,0:0:0:0:
402,192,135821,128,0,135978:0:0:0:0:
329,192,135873,1,0,0:0:0:0:
36,192,135978,1,0,0:0:0:0:
256,192,135978,128,0,136290:0:0:0:0:
109,192,135978,1,0,0:0:0:0:
475,192,135978,1,0,0:0:0:0:
109,192,136134,1,0,0:0:0:0:
402,192,136290,1,0,0:0:0:0:
109,192,136290,1,0,0:0:0:0:
475,192,136342,1,0,0:0:0:0:
182,192,136446,1,0,0:0:0:0:
329,192,136446,1,0,0:0:0:0:
109,192,136446,1,0,0:0:0:0:
36,192,136603,1,0,0:0:0:0:
109,192,136603,1,0,0:0:0:0:
256,192,136603,1,0,0:0:0:0:
402,192,136603,1,0,0:0:0:0:
256,192,136759,128,0,136915:0:0:0:0:
475,192,136759,128,0,136915:0:0:0:0:
109,192,136759,1,0,0:0:0:0:
329,192,136915,1,0,0:0:0:0:
109,192,136915,1,0,0:0:0:0:
402,192,136915,128,0,137071:0:0:0:0:
182,192,136915,128,0,137071:0:0:0:0:
36,192,137071,1,0,0:0:0:0:
109,192,137071,1,0,0:0:0:0:
475,192,137071,1,0,0:0:0:0:
256,192,137228,128,0,137540:0:0:0:0:
182,192,137228,1,0,0:0:0:0:
109,192,137228,1,0,0:0:0:0:
109,192,137384,1,0,0:0:0:0:
402,192,137384,128,0,137540:0:0:0:0:
109,192,137540,1,0,0:0:0:0:
36,192,137540,1,0,0:0:0:0:
329,192,137540,1,0,0:0:0:0:
475,192,137540,1,0,0:0:0:0:
402,192,137696,1,0,0:0:0:0:
182,192,137696,1,0,0:0:0:0:
109,192,137696,1,0,0:0:0:0:
36,192,137853,128,0,138009:0:0:0:0:
475,192,137853,128,0,138009:0:0:0:0:
329,192,137853,1,0,0:0:0:0:
256,192,137853,1,0,0:0:0:0:
182,192,137853,1,0,0:0:0:0:
109,192,138009,128,0,138165:0:0:0:0:
36,192,138165,128,0,138321:0:0:0:0:
475,192,138165,128,0,138321:0:0:0:0:
329,192,138165,1,0,0:0:0:0:
256,192,138269,1,0,0:0:0:0:
182,192,138373,128,0,138478:0:0:0:0:
475,192,138478,5,0,0:0:0:0:
402,192,138478,1,0,0:0:0:0:
256,192,138478,128,0,138790:0:0:0:0:
109,192,138478,1,0,0:0:0:0:
402,192,138634,1,0,0:0:0:0:
109,192,138790,1,0,0:0:0:0:
402,192,138790,1,0,0:0:0:0:
36,192,138842,1,0,0:0:0:0:
329,192,138946,1,0,0:0:0:0:
182,192,138946,1,0,0:0:0:0:
402,192,138946,1,0,0:0:0:0:
475,192,139103,1,0,0:0:0:0:
402,192,139103,1,0,0:0:0:0:
256,192,139103,1,0,0:0:0:0:
109,192,139103,1,0,0:0:0:0:
256,192,139259,128,0,139415:0:0:0:0:
36,192,139259,128,0,139415:0:0:0:0:
402,192,139259,1,0,0:0:0:0:
182,192,139415,1,0,0:0:0:0:
402,192,139415,1,0,0:0:0:0:
109,192,139415,128,0,139571:0:0:0:0:
329,192,139415,128,0,139571:0:0:0:0:
475,192,139571,1,0,0:0:0:0:
402,192,139571,1,0,0:0:0:0:
36,192,139571,1,0,0:0:0:0:
329,192,139728,1,0,0:0:0:0:
256,192,139728,128,0,140040:0:0:0:0:
402,192,139728,1,0,0:0:0:0:
402,192,139884,1,0,0:0:0:0:
109,192,139884,128,0,140040:0:0:0:0:
475,192,140040,1,0,0:0:0:0:
402,192,140040,1,0,0:0:0:0:
36,192,140040,1,0,0:0:0:0:
182,192,140040,1,0,0:0:0:0:
329,192,140196,1,0,0:0:0:0:
182,192,140196,1,0,0:0:0:0:
402,192,140196,1,0,0:0:0:0:
402,192,140353,1,0,0:0:0:0:
256,192,140353,1,0,0:0:0:0:
109,192,140353,1,0,0:0:0:0:
36,192,140353,128,0,140665:0:0:0:0:
256,192,140509,128,0,140665:0:0:0:0:
182,192,140509,128,0,140665:0:0:0:0:
402,192,140509,1,0,0:0:0:0:
109,192,140665,1,0,0:0:0:0:
402,192,140665,1,0,0:0:0:0:
36,192,140769,1,0,0:0:0:0:
402,192,140821,1,0,0:0:0:0:
109,192,140821,128,0,140978:0:0:0:0:
182,192,140873,1,0,0:0:0:0:
475,192,140978,1,0,0:0:0:0:
256,192,140978,128,0,141290:0:0:0:0:
402,192,140978,1,0,0:0:0:0:
36,192,140978,1,0,0:0:0:0:
402,192,141134,1,0,0:0:0:0:
109,192,141290,1,0,0:0:0:0:
402,192,141290,1,0,0:0:0:0:
36,192,141342,1,0,0:0:0:0:
329,192,141446,1,0,0:0:0:0:
182,192,141446,1,0,0:0:0:0:
402,192,141446,1,0,0:0:0:0:
475,192,141603,1,0,0:0:0:0:
402,192,141603,1,0,0:0:0:0:
256,192,141603,1,0,0:0:0:0:
109,192,141603,1,0,0:0:0:0:
256,192,141759,128,0,141915:0:0:0:0:
36,192,141759,128,0,141915:0:0:0:0:
402,192,141759,1,0,0:0:0:0:
182,192,141915,1,0,0:0:0:0:
402,192,141915,1,0,0:0:0:0:
109,192,141915,128,0,142071:0:0:0:0:
329,192,141915,128,0,142071:0:0:0:0:
475,192,142071,1,0,0:0:0:0:
402,192,142071,1,0,0:0:0:0:
36,192,142071,1,0,0:0:0:0:
256,192,142228,128,0,142540:0:0:0:0:
329,192,142228,1,0,0:0:0:0:
402,192,142228,1,0,0:0:0:0:
402,192,142384,1,0,0:0:0:0:
109,192,142384,128,0,142540:0:0:0:0:
402,192,142540,1,0,0:0:0:0:
475,192,142540,1,0,0:0:0:0:
182,192,142540,1,0,0:0:0:0:
36,192,142540,1,0,0:0:0:0:
109,192,142696,1,0,0:0:0:0:
329,192,142696,1,0,0:0:0:0:
402,192,142696,1,0,0:0:0:0:
36,192,142853,128,0,143321:0:0:0:0:
475,192,142853,128,0,143321:0:0:0:0:
329,192,142853,1,0,0:0:0:0:
256,192,142853,128,0,143009:0:0:0:0:
182,192,142931,1,0,0:0:0:0:
109,192,143009,128,0,143165:0:0:0:0:
256,192,143087,1,0,0:0:0:0:
402,192,143165,128,0,143321:0:0:0:0:
329,192,143243,1,0,0:0:0:0:
182,192,143321,128,0,143478:0:0:0:0:
475,192,143399,1,0,0:0:0:0:
109,192,143478,128,0,143712:0:0:0:0:
256,192,143478,128,0,143634:0:0:0:0:
402,192,143478,128,0,143712:0:0:0:0:
109,192,145665,1,0,0:0:0:0:
182,192,145665,1,0,0:0:0:0:
402,192,145665,1,0,0:0:0:0:
475,192,145665,1,0,0:0:0:0:
36,192,145769,1,0,0:0:0:0:
329,192,145821,128,0,145978:0:0:0:0:
109,192,145821,1,0,0:0:0:0:
182,192,145821,1,0,0:0:0:0:
402,192,145873,1,0,0:0:0:0:
109,192,145978,1,0,0:0:0:0:
475,192,145978,1,0,0:0:0:0:
36,192,145978,1,0,0:0:0:0:
256,192,145978,128,0,146290:0:0:0:0:
109,192,146134,1,0,0:0:0:0:
109,192,146290,1,0,0:0:0:0:
402,192,146290,1,0,0:0:0:0:
36,192,146290,1,0,0:0:0:0:
475,192,146342,1,0,0:0:0:0:
182,192,146368,1,0,0:0:0:0:
256,192,146407,1,0,0:0:0:0:
329,192,146446,1,0,0:0:0:0:
109,192,146446,1,0,0:0:0:0:
36,192,146485,1,0,0:0:0:0:
475,192,146524,1,0,0:0:0:0:
402,192,146563,1,0,0:0:0:0:
256,192,146603,1,0,0:0:0:0:
329,192,146603,1,0,0:0:0:0:
36,192,146603,1,0,0:0:0:0:
109,192,146603,1,0,0:0:0:0:
109,192,146759,1,0,0:0:0:0:
475,192,146759,128,0,146915:0:0:0:0:
256,192,146759,128,0,146915:0:0:0:0:
402,192,146915,128,0,147071:0:0:0:0:
182,192,146915,128,0,147071:0:0:0:0:
329,192,146915,1,0,0:0:0:0:
109,192,146915,1,0,0:0:0:0:
109,192,147071,1,0,0:0:0:0:
475,192,147071,1,0,0:0:0:0:
36,192,147071,1,0,0:0:0:0:
109,192,147228,1,0,0:0:0:0:
182,192,147228,1,0,0:0:0:0:
256,192,147228,128,0,147540:0:0:0:0:
402,192,147384,128,0,147540:0:0:0:0:
109,192,147384,1,0,0:0:0:0:
475,192,147384,1,0,0:0:0:0:
329,192,147540,1,0,0:0:0:0:
475,192,147540,1,0,0:0:0:0:
109,192,147540,1,0,0:0:0:0:
36,192,147540,1,0,0:0:0:0:
109,192,147696,1,0,0:0:0:0:
182,192,147696,1,0,0:0:0:0:
402,192,147696,1,0,0:0:0:0:
256,192,147853,1,0,0:0:0:0:
182,192,147853,1,0,0:0:0:0:
329,192,147853,1,0,0:0:0:0:
36,192,147853,128,0,148009:0:0:0:0:
475,192,147853,128,0,148009:0:0:0:0:
109,192,148009,128,0,148165:0:0:0:0:
402,192,148061,1,0,0:0:0:0:
475,192,148165,128,0,148321:0:0:0:0:
36,192,148165,128,0,148321:0:0:0:0:
329,192,148165,128,0,148478:0:0:0:0:
182,192,148321,128,0,148478:0:0:0:0:
475,192,148478,5,0,0:0:0:0:
109,192,148478,1,0,0:0:0:0:
402,192,148478,1,0,0:0:0:0:
256,192,148478,128,0,148790:0:0:0:0:
402,192,148634,1,0,0:0:0:0:
402,192,148790,1,0,0:0:0:0:
109,192,148790,1,0,0:0:0:0:
36,192,148842,1,0,0:0:0:0:
402,192,148946,1,0,0:0:0:0:
182,192,148946,1,0,0:0:0:0:
329,192,148946,1,0,0:0:0:0:
256,192,149103,1,0,0:0:0:0:
109,192,149103,1,0,0:0:0:0:
475,192,149103,1,0,0:0:0:0:
402,192,149103,1,0,0:0:0:0:
402,192,149259,1,0,0:0:0:0:
36,192,149259,128,0,149415:0:0:0:0:
256,192,149259,128,0,149415:0:0:0:0:
109,192,149415,128,0,149571:0:0:0:0:
329,192,149415,128,0,149571:0:0:0:0:
182,192,149415,1,0,0:0:0:0:
402,192,149415,1,0,0:0:0:0:
402,192,149571,1,0,0:0:0:0:
36,192,149571,1,0,0:0:0:0:
475,192,149571,1,0,0:0:0:0:
402,192,149728,1,0,0:0:0:0:
256,192,149728,128,0,150040:0:0:0:0:
329,192,149728,1,0,0:0:0:0:
109,192,149884,128,0,150040:0:0:0:0:
402,192,149884,1,0,0:0:0:0:
36,192,149884,1,0,0:0:0:0:
36,192,150040,1,0,0:0:0:0:
182,192,150040,1,0,0:0:0:0:
475,192,150040,1,0,0:0:0:0:
402,192,150040,1,0,0:0:0:0:
402,192,150196,1,0,0:0:0:0:
182,192,150196,1,0,0:0:0:0:
329,192,150196,1,0,0:0:0:0:
109,192,150353,1,0,0:0:0:0:
36,192,150353,128,0,150665:0:0:0:0:
402,192,150353,1,0,0:0:0:0:
256,192,150353,1,0,0:0:0:0:
402,192,150509,1,0,0:0:0:0:
182,192,150509,128,0,150665:0:0:0:0:
256,192,150509,128,0,150665:0:0:0:0:
402,192,150665,1,0,0:0:0:0:
109,192,150665,1,0,0:0:0:0:
329,192,150665,128,0,150978:0:0:0:0:
36,192,150769,1,0,0:0:0:0:
109,192,150821,128,0,150978:0:0:0:0:
402,192,150821,1,0,0:0:0:0:
182,192,150873,1,0,0:0:0:0:
402,192,150978,1,0,0:0:0:0:
36,192,150978,1,0,0:0:0:0:
475,192,150978,1,0,0:0:0:0:
256,192,150978,128,0,151290:0:0:0:0:
402,192,151134,1,0,0:0:0:0:
329,192,151186,1,0,0:0:0:0:
182,192,151238,1,0,0:0:0:0:
402,192,151290,1,0,0:0:0:0:
109,192,151290,1,0,0:0:0:0:
36,192,151342,1,0,0:0:0:0:
402,192,151446,1,0,0:0:0:0:
182,192,151446,1,0,0:0:0:0:
329,192,151446,1,0,0:0:0:0:
256,192,151603,1,0,0:0:0:0:
109,192,151603,1,0,0:0:0:0:
475,192,151603,1,0,0:0:0:0:
402,192,151603,1,0,0:0:0:0:
402,192,151759,1,0,0:0:0:0:
36,192,151759,128,0,151915:0:0:0:0:
256,192,151759,128,0,151915:0:0:0:0:
109,192,151915,128,0,152071:0:0:0:0:
329,192,151915,128,0,152071:0:0:0:0:
182,192,151915,1,0,0:0:0:0:
402,192,151915,1,0,0:0:0:0:
402,192,152071,1,0,0:0:0:0:
36,192,152071,1,0,0:0:0:0:
475,192,152071,1,0,0:0:0:0:
402,192,152228,1,0,0:0:0:0:
329,192,152228,1,0,0:0:0:0:
256,192,152228,128,0,152540:0:0:0:0:
109,192,152384,128,0,152540:0:0:0:0:
402,192,152384,1,0,0:0:0:0:
36,192,152384,1,0,0:0:0:0:
182,192,152540,1,0,0:0:0:0:
36,192,152540,1,0,0:0:0:0:
402,192,152540,1,0,0:0:0:0:
475,192,152540,1,0,0:0:0:0:
402,192,152696,1,0,0:0:0:0:
329,192,152696,1,0,0:0:0:0:
109,192,152696,1,0,0:0:0:0:
256,192,152853,1,0,0:0:0:0:
329,192,152853,1,0,0:0:0:0:
182,192,152853,1,0,0:0:0:0:
475,192,152853,128,0,153009:0:0:0:0:
36,192,152853,128,0,153009:0:0:0:0:
402,192,153009,128,0,153165:0:0:0:0:
182,192,153061,1,0,0:0:0:0:
109,192,153165,1,0,0:0:0:0:
36,192,153165,128,0,153321:0:0:0:0:
475,192,153165,128,0,153321:0:0:0:0:
182,192,153321,128,0,153478:0:0:0:0:
36,192,153478,5,0,0:0:0:0:
402,192,153478,1,0,0:0:0:0:
109,192,153478,1,0,0:0:0:0:
256,192,153478,128,0,153790:0:0:0:0:
109,192,153634,1,0,0:0:0:0:
109,192,153790,1,0,0:0:0:0:
475,192,153790,1,0,0:0:0:0:
329,192,153842,1,0,0:0:0:0:
182,192,153894,1,0,0:0:0:0:
109,192,153946,1,0,0:0:0:0:
402,192,153946,1,0,0:0:0:0:
36,192,153946,1,0,0:0:0:0:
329,192,154024,1,0,0:0:0:0:
256,192,154103,1,0,0:0:0:0:
475,192,154103,1,0,0:0:0:0:
36,192,154103,1,0,0:0:0:0:
109,192,154103,1,0,0:0:0:0:
109,192,154259,1,0,0:0:0:0:
475,192,154259,128,0,154415:0:0:0:0:
256,192,154259,128,0,154415:0:0:0:0:
402,192,154415,128,0,154571:0:0:0:0:
182,192,154415,128,0,154571:0:0:0:0:
329,192,154415,1,0,0:0:0:0:
109,192,154415,1,0,0:0:0:0:
109,192,154571,1,0,0:0:0:0:
475,192,154571,1,0,0:0:0:0:
36,192,154571,1,0,0:0:0:0:
109,192,154728,1,0,0:0:0:0:
256,192,154728,128,0,155040:0:0:0:0:
182,192,154728,1,0,0:0:0:0:
402,192,154884,128,0,155040:0:0:0:0:
109,192,154884,1,0,0:0:0:0:
475,192,154884,1,0,0:0:0:0:
475,192,155040,1,0,0:0:0:0:
329,192,155040,1,0,0:0:0:0:
36,192,155040,1,0,0:0:0:0:
109,192,155040,1,0,0:0:0:0:
109,192,155196,1,0,0:0:0:0:
329,192,155196,1,0,0:0:0:0:
182,192,155196,1,0,0:0:0:0:
402,192,155353,1,0,0:0:0:0:
475,192,155353,128,0,155665:0:0:0:0:
109,192,155353,1,0,0:0:0:0:
256,192,155353,1,0,0:0:0:0:
109,192,155509,1,0,0:0:0:0:
329,192,155509,128,0,155665:0:0:0:0:
256,192,155509,128,0,155665:0:0:0:0:
109,192,155665,1,0,0:0:0:0:
402,192,155665,1,0,0:0:0:0:
182,192,155665,128,0,155978:0:0:0:0:
475,192,155769,1,0,0:0:0:0:
402,192,155821,128,0,155978:0:0:0:0:
109,192,155821,1,0,0:0:0:0:
329,192,155873,1,0,0:0:0:0:
109,192,155978,1,0,0:0:0:0:
475,192,155978,1,0,0:0:0:0:
36,192,155978,1,0,0:0:0:0:
256,192,155978,128,0,156290:0:0:0:0:
109,192,156134,1,0,0:0:0:0:
109,192,156290,1,0,0:0:0:0:
402,192,156290,1,0,0:0:0:0:
475,192,156342,1,0,0:0:0:0:
109,192,156446,1,0,0:0:0:0:
329,192,156446,1,0,0:0:0:0:
182,192,156446,1,0,0:0:0:0:
256,192,156603,1,0,0:0:0:0:
402,192,156603,1,0,0:0:0:0:
36,192,156603,1,0,0:0:0:0:
109,192,156603,1,0,0:0:0:0:
109,192,156759,1,0,0:0:0:0:
475,192,156759,128,0,156915:0:0:0:0:
256,192,156759,128,0,156915:0:0:0:0:
402,192,156915,128,0,157071:0:0:0:0:
182,192,156915,128,0,157071:0:0:0:0:
329,192,156915,1,0,0:0:0:0:
109,192,156915,1,0,0:0:0:0:
109,192,157071,1,0,0:0:0:0:
475,192,157071,1,0,0:0:0:0:
36,192,157071,1,0,0:0:0:0:
109,192,157228,1,0,0:0:0:0:
182,192,157228,1,0,0:0:0:0:
256,192,157228,128,0,157540:0:0:0:0:
402,192,157384,128,0,157540:0:0:0:0:
109,192,157384,1,0,0:0:0:0:
475,192,157384,1,0,0:0:0:0:
329,192,157540,1,0,0:0:0:0:
475,192,157540,1,0,0:0:0:0:
109,192,157540,1,0,0:0:0:0:
36,192,157540,1,0,0:0:0:0:
109,192,157696,1,0,0:0:0:0:
182,192,157696,1,0,0:0:0:0:
402,192,157696,1,0,0:0:0:0:
256,192,157853,1,0,0:0:0:0:
182,192,157853,1,0,0:0:0:0:
329,192,157853,1,0,0:0:0:0:
36,192,157853,128,0,158009:0:0:0:0:
475,192,157853,128,0,158009:0:0:0:0:
109,192,158009,128,0,158165:0:0:0:0:
402,192,158061,1,0,0:0:0:0:
475,192,158165,128,0,158321:0:0:0:0:
36,192,158165,128,0,158321:0:0:0:0:
329,192,158165,128,0,158478:0:0:0:0:
182,192,158321,128,0,158478:0:0:0:0:
475,192,158478,5,0,0:0:0:0:
109,192,158478,1,0,0:0:0:0:
256,192,158478,128,0,158790:0:0:0:0:
402,192,158478,1,0,0:0:0:0:
402,192,158634,1,0,0:0:0:0:
402,192,158790,1,0,0:0:0:0:
109,192,158790,1,0,0:0:0:0:
36,192,158842,1,0,0:0:0:0:
402,192,158946,1,0,0:0:0:0:
182,192,158946,1,0,0:0:0:0:
329,192,158946,1,0,0:0:0:0:
256,192,159103,1,0,0:0:0:0:
109,192,159103,1,0,0:0:0:0:
475,192,159103,1,0,0:0:0:0:
402,192,159103,1,0,0:0:0:0:
402,192,159259,1,0,0:0:0:0:
36,192,159259,128,0,159415:0:0:0:0:
256,192,159259,128,0,159415:0:0:0:0:
109,192,159415,128,0,159571:0:0:0:0:
329,192,159415,128,0,159571:0:0:0:0:
182,192,159415,1,0,0:0:0:0:
402,192,159415,1,0,0:0:0:0:
402,192,159571,1,0,0:0:0:0:
36,192,159571,1,0,0:0:0:0:
475,192,159571,1,0,0:0:0:0:
402,192,159728,1,0,0:0:0:0:
256,192,159728,128,0,160040:0:0:0:0:
329,192,159728,1,0,0:0:0:0:
109,192,159884,128,0,160040:0:0:0:0:
402,192,159884,1,0,0:0:0:0:
36,192,159884,1,0,0:0:0:0:
36,192,160040,1,0,0:0:0:0:
182,192,160040,1,0,0:0:0:0:
475,192,160040,1,0,0:0:0:0:
402,192,160040,1,0,0:0:0:0:
402,192,160196,1,0,0:0:0:0:
182,192,160196,1,0,0:0:0:0:
329,192,160196,1,0,0:0:0:0:
109,192,160353,1,0,0:0:0:0:
36,192,160353,128,0,160665:0:0:0:0:
402,192,160353,1,0,0:0:0:0:
256,192,160353,1,0,0:0:0:0:
402,192,160509,1,0,0:0:0:0:
182,192,160509,128,0,160665:0:0:0:0:
256,192,160509,128,0,160665:0:0:0:0:
402,192,160665,1,0,0:0:0:0:
109,192,160665,1,0,0:0:0:0:
329,192,160665,128,0,160978:0:0:0:0:
36,192,160769,1,0,0:0:0:0:
109,192,160821,128,0,160978:0:0:0:0:
402,192,160821,1,0,0:0:0:0:
182,192,160873,1,0,0:0:0:0:
402,192,160978,1,0,0:0:0:0:
36,192,160978,1,0,0:0:0:0:
475,192,160978,1,0,0:0:0:0:
256,192,160978,128,0,161290:0:0:0:0:
402,192,161134,1,0,0:0:0:0:
329,192,161186,1,0,0:0:0:0:
182,192,161238,1,0,0:0:0:0:
402,192,161290,1,0,0:0:0:0:
109,192,161290,1,0,0:0:0:0:
36,192,161342,1,0,0:0:0:0:
402,192,161446,1,0,0:0:0:0:
182,192,161446,1,0,0:0:0:0:
329,192,161446,1,0,0:0:0:0:
256,192,161603,1,0,0:0:0:0:
109,192,161603,1,0,0:0:0:0:
475,192,161603,1,0,0:0:0:0:
402,192,161603,1,0,0:0:0:0:
402,192,161759,1,0,0:0:0:0:
36,192,161759,128,0,161915:0:0:0:0:
256,192,161759,128,0,161915:0:0:0:0:
109,192,161915,128,0,162071:0:0:0:0:
329,192,161915,128,0,162071:0:0:0:0:
182,192,161915,1,0,0:0:0:0:
402,192,161915,1,0,0:0:0:0:
402,192,162071,1,0,0:0:0:0:
36,192,162071,1,0,0:0:0:0:
475,192,162071,1,0,0:0:0:0:
402,192,162228,1,0,0:0:0:0:
329,192,162228,1,0,0:0:0:0:
256,192,162228,128,0,162540:0:0:0:0:
109,192,162384,128,0,162540:0:0:0:0:
402,192,162384,1,0,0:0:0:0:
36,192,162384,1,0,0:0:0:0:
182,192,162540,1,0,0:0:0:0:
36,192,162540,1,0,0:0:0:0:
402,192,162540,1,0,0:0:0:0:
475,192,162540,1,0,0:0:0:0:
402,192,162696,1,0,0:0:0:0:
329,192,162696,1,0,0:0:0:0:
109,192,162696,1,0,0:0:0:0:
36,192,162853,128,0,163321:0:0:0:0:
475,192,162853,128,0,163321:0:0:0:0:
329,192,162853,1,0,0:0:0:0:
256,192,162853,128,0,163009:0:0:0:0:
182,192,162931,1,0,0:0:0:0:
109,192,163009,128,0,163165:0:0:0:0:
256,192,163087,1,0,0:0:0:0:
402,192,163165,128,0,163321:0:0:0:0:
329,192,163243,1,0,0:0:0:0:
256,192,163321,128,0,164024:0:0:0:0:
109,192,163321,1,0,0:0:0:0:
182,192,163321,1,0,0:0:0:0:
475,192,163790,1,0,0:0:0:0:
402,192,163868,1,0,0:0:0:0:
329,192,163946,1,0,0:0:0:0:
182,192,164024,1,0,0:0:0:0:
402,192,164103,1,0,0:0:0:0:
36,192,164103,128,0,164259:0:0:0:0:
109,192,164181,1,0,0:0:0:0:
402,192,164259,1,0,0:0:0:0:
109,192,164337,1,0,0:0:0:0:
182,192,164415,1,0,0:0:0:0:
475,192,164493,1,0,0:0:0:0:
182,192,164571,1,0,0:0:0:0:
475,192,164649,1,0,0:0:0:0:
329,192,164728,1,0,0:0:0:0:
36,192,164728,128,0,164884:0:0:0:0:
256,192,164806,1,0,0:0:0:0:
329,192,164884,1,0,0:0:0:0:
256,192,164962,1,0,0:0:0:0:
109,192,165040,1,0,0:0:0:0:
402,192,165118,1,0,0:0:0:0:
109,192,165196,1,0,0:0:0:0:
402,192,165274,1,0,0:0:0:0:
36,192,165353,128,0,165509:0:0:0:0:
475,192,165665,1,0,0:0:0:0:
402,192,165743,1,0,0:0:0:0:
329,192,165821,1,0,0:0:0:0:
182,192,165899,1,0,0:0:0:0:
36,192,165978,128,0,166134:0:0:0:0:
475,192,166290,1,0,0:0:0:0:
402,192,166368,1,0,0:0:0:0:
329,192,166446,1,0,0:0:0:0:
182,192,166524,1,0,0:0:0:0:
36,192,166603,128,0,166759:0:0:0:0:
256,192,166603,128,0,168478:0:0:0:0:
402,192,166603,128,0,173478:0:0:0:0:
475,192,166603,128,0,168478:0:0:0:0:
36,192,167228,128,0,167306:0:0:0:0:
329,192,168556,128,0,173478:0:0:0:0:
475,192,168556,128,0,173478:0:0:0:0:
109,192,168556,128,0,178478:0:0:0:0:
36,192,173556,128,0,178478:0:0:0:0:
256,192,173556,128,0,183478:0:0:0:0:
402,192,173556,128,0,178478:0:0:0:0:
182,192,178556,128,0,188478:0:0:0:0:
109,192,178556,128,0,183478:0:0:0:0:
402,192,178556,128,0,183478:0:0:0:0:
475,192,178556,128,0,183478:0:0:0:0:
36,192,183556,128,0,188478:0:0:0:0:
256,192,183556,128,0,188478:0:0:0:0:
329,192,183556,128,0,188478:0:0:0:0:
402,192,183556,128,0,193478:0:0:0:0:
109,192,188556,128,0,193478:0:0:0:0:
182,192,188556,128,0,193478:0:0:0:0:
329,192,188556,128,0,198478:0:0:0:0:
475,192,188556,128,0,193478:0:0:0:0:
256,192,193556,128,0,198478:0:0:0:0:
402,192,193556,128,0,198478:0:0:0:0:
109,192,193556,128,0,198478:0:0:0:0:
36,192,193556,128,0,203165:0:0:0:0:
182,192,198556,128,0,203165:0:0:0:0:
329,192,198556,128,0,203165:0:0:0:0:
475,192,198556,128,0,203165:0:0:0:0:
109,192,198556,128,0,203165:0:0:0:0:
402,192,200978,128,0,203165:0:0:0:0:
256,192,203165,128,0,203478:0:0:0:0:
109,192,203478,1,0,0:0:0:0:
36,192,203478,1,0,0:0:0:0:
475,192,203478,1,0,0:0:0:0:
402,192,203634,1,0,0:0:0:0:
329,192,203634,128,0,204103:0:0:0:0:
182,192,203634,1,0,0:0:0:0:
109,192,203712,1,0,0:0:0:0:
402,192,203790,1,0,0:0:0:0:
36,192,203790,1,0,0:0:0:0:
402,192,203946,1,0,0:0:0:0:
182,192,203946,1,0,0:0:0:0:
36,192,204103,1,0,0:0:0:0:
109,192,204103,1,0,0:0:0:0:
182,192,204103,1,0,0:0:0:0:
402,192,204259,1,0,0:0:0:0:
329,192,204259,128,0,204728:0:0:0:0:
475,192,204259,1,0,0:0:0:0:
402,192,204415,1,0,0:0:0:0:
256,192,204415,1,0,0:0:0:0:
402,192,204571,1,0,0:0:0:0:
182,192,204571,1,0,0:0:0:0:
36,192,204728,1,0,0:0:0:0:
109,192,204728,1,0,0:0:0:0:
475,192,204728,1,0,0:0:0:0:
402,192,204884,1,0,0:0:0:0:
329,192,204884,128,0,205353:0:0:0:0:
256,192,204884,1,0,0:0:0:0:
402,192,205040,1,0,0:0:0:0:
182,192,205040,1,0,0:0:0:0:
109,192,205118,1,0,0:0:0:0:
402,192,205196,1,0,0:0:0:0:
182,192,205196,1,0,0:0:0:0:
36,192,205353,1,0,0:0:0:0:
109,192,205353,1,0,0:0:0:0:
256,192,205353,1,0,0:0:0:0:
402,192,205509,1,0,0:0:0:0:
329,192,205509,128,0,205978:0:0:0:0:
182,192,205509,1,0,0:0:0:0:
402,192,205665,1,0,0:0:0:0:
36,192,205665,128,0,205978:0:0:0:0:
402,192,205821,1,0,0:0:0:0:
256,192,205978,1,0,0:0:0:0:
475,192,205978,1,0,0:0:0:0:
109,192,205978,1,0,0:0:0:0:
182,192,206134,1,0,0:0:0:0:
109,192,206134,128,0,206603:0:0:0:0:
475,192,206134,1,0,0:0:0:0:
402,192,206212,1,0,0:0:0:0:
182,192,206290,1,0,0:0:0:0:
329,192,206290,1,0,0:0:0:0:
182,192,206446,1,0,0:0:0:0:
36,192,206446,1,0,0:0:0:0:
256,192,206603,1,0,0:0:0:0:
475,192,206603,1,0,0:0:0:0:
329,192,206603,1,0,0:0:0:0:
182,192,206759,1,0,0:0:0:0:
109,192,206759,128,0,207228:0:0:0:0:
402,192,206759,1,0,0:0:0:0:
182,192,206915,1,0,0:0:0:0:
329,192,206915,1,0,0:0:0:0:
182,192,207071,1,0,0:0:0:0:
36,192,207071,1,0,0:0:0:0:
256,192,207228,1,0,0:0:0:0:
475,192,207228,1,0,0:0:0:0:
402,192,207228,1,0,0:0:0:0:
182,192,207384,1,0,0:0:0:0:
109,192,207384,128,0,207853:0:0:0:0:
36,192,207384,1,0,0:0:0:0:
182,192,207540,1,0,0:0:0:0:
402,192,207540,1,0,0:0:0:0:
329,192,207618,1,0,0:0:0:0:
182,192,207696,1,0,0:0:0:0:
402,192,207696,1,0,0:0:0:0:
256,192,207853,1,0,0:0:0:0:
475,192,207853,1,0,0:0:0:0:
36,192,207853,1,0,0:0:0:0:
182,192,208009,1,0,0:0:0:0:
109,192,208009,128,0,208478:0:0:0:0:
402,192,208009,1,0,0:0:0:0:
182,192,208165,1,0,0:0:0:0:
475,192,208165,128,0,208478:0:0:0:0:
182,192,208321,1,0,0:0:0:0:
36,192,208478,1,0,0:0:0:0:
402,192,208478,1,0,0:0:0:0:
256,192,208478,1,0,0:0:0:0:
329,192,208634,1,0,0:0:0:0:
475,192,208634,128,0,209103:0:0:0:0:
182,192,208634,1,0,0:0:0:0:
109,192,208712,1,0,0:0:0:0:
329,192,208790,1,0,0:0:0:0:
36,192,208790,1,0,0:0:0:0:
329,192,208946,1,0,0:0:0:0:
256,192,208946,1,0,0:0:0:0:
36,192,209103,1,0,0:0:0:0:
402,192,209103,1,0,0:0:0:0:
109,192,209103,1,0,0:0:0:0:
329,192,209259,1,0,0:0:0:0:
475,192,209259,128,0,209728:0:0:0:0:
182,192,209259,1,0,0:0:0:0:
329,192,209415,1,0,0:0:0:0:
256,192,209415,1,0,0:0:0:0:
329,192,209571,1,0,0:0:0:0:
182,192,209571,1,0,0:0:0:0:
36,192,209728,1,0,0:0:0:0:
402,192,209728,1,0,0:0:0:0:
256,192,209728,1,0,0:0:0:0:
329,192,209884,1,0,0:0:0:0:
475,192,209884,128,0,210353:0:0:0:0:
182,192,209884,1,0,0:0:0:0:
109,192,209962,1,0,0:0:0:0:
329,192,210040,1,0,0:0:0:0:
36,192,210040,1,0,0:0:0:0:
329,192,210196,1,0,0:0:0:0:
256,192,210196,1,0,0:0:0:0:
36,192,210353,1,0,0:0:0:0:
402,192,210353,1,0,0:0:0:0:
109,192,210353,1,0,0:0:0:0:
329,192,210509,1,0,0:0:0:0:
475,192,210509,128,0,210978:0:0:0:0:
182,192,210509,1,0,0:0:0:0:
256,192,210665,1,0,0:0:0:0:
329,192,210665,1,0,0:0:0:0:
182,192,210821,1,0,0:0:0:0:
329,192,210821,1,0,0:0:0:0:
109,192,210978,1,0,0:0:0:0:
256,192,210978,1,0,0:0:0:0:
402,192,210978,128,0,211134:0:0:0:0:
36,192,211134,1,0,0:0:0:0:
329,192,211134,1,0,0:0:0:0:
182,192,211134,128,0,211603:0:0:0:0:
256,192,211212,1,0,0:0:0:0:
36,192,211290,1,0,0:0:0:0:
475,192,211290,1,0,0:0:0:0:
36,192,211446,1,0,0:0:0:0:
402,192,211446,128,0,211603:0:0:0:0:
109,192,211446,1,0,0:0:0:0:
256,192,211603,1,0,0:0:0:0:
475,192,211603,1,0,0:0:0:0:
329,192,211603,1,0,0:0:0:0:
36,192,211759,1,0,0:0:0:0:
182,192,211759,128,0,212228:0:0:0:0:
329,192,211759,1,0,0:0:0:0:
36,192,211915,1,0,0:0:0:0:
402,192,211915,128,0,212071:0:0:0:0:
256,192,211915,1,0,0:0:0:0:
36,192,212071,1,0,0:0:0:0:
475,192,212071,1,0,0:0:0:0:
402,192,212228,1,0,0:0:0:0:
256,192,212228,1,0,0:0:0:0:
109,192,212228,1,0,0:0:0:0:
36,192,212384,1,0,0:0:0:0:
182,192,212384,128,0,212853:0:0:0:0:
402,192,212384,128,0,212540:0:0:0:0:
329,192,212462,1,0,0:0:0:0:
36,192,212540,1,0,0:0:0:0:
256,192,212540,1,0,0:0:0:0:
36,192,212696,1,0,0:0:0:0:
109,192,212696,1,0,0:0:0:0:
475,192,212853,1,0,0:0:0:0:
329,192,212853,1,0,0:0:0:0:
402,192,212853,128,0,213009:0:0:0:0:
256,192,212931,1,0,0:0:0:0:
36,192,213009,1,0,0:0:0:0:
182,192,213009,128,0,213478:0:0:0:0:
109,192,213009,1,0,0:0:0:0:
36,192,213165,1,0,0:0:0:0:
329,192,213165,1,0,0:0:0:0:
402,192,213243,1,0,0:0:0:0:
36,192,213321,1,0,0:0:0:0:
329,192,213321,1,0,0:0:0:0:
109,192,213478,1,0,0:0:0:0:
256,192,213478,1,0,0:0:0:0:
475,192,213478,1,0,0:0:0:0:
402,192,213634,1,0,0:0:0:0:
329,192,213634,128,0,214103:0:0:0:0:
182,192,213634,1,0,0:0:0:0:
109,192,213712,1,0,0:0:0:0:
402,192,213790,1,0,0:0:0:0:
36,192,213790,1,0,0:0:0:0:
402,192,213946,1,0,0:0:0:0:
182,192,213946,1,0,0:0:0:0:
36,192,214103,1,0,0:0:0:0:
109,192,214103,1,0,0:0:0:0:
182,192,214103,1,0,0:0:0:0:
402,192,214259,1,0,0:0:0:0:
329,192,214259,128,0,214728:0:0:0:0:
475,192,214259,1,0,0:0:0:0:
402,192,214415,1,0,0:0:0:0:
256,192,214415,1,0,0:0:0:0:
402,192,214571,1,0,0:0:0:0:
182,192,214571,1,0,0:0:0:0:
36,192,214728,1,0,0:0:0:0:
109,192,214728,1,0,0:0:0:0:
475,192,214728,1,0,0:0:0:0:
402,192,214884,1,0,0:0:0:0:
329,192,214884,128,0,215353:0:0:0:0:
256,192,214884,1,0,0:0:0:0:
402,192,215040,1,0,0:0:0:0:
182,192,215040,1,0,0:0:0:0:
109,192,215118,1,0,0:0:0:0:
402,192,215196,1,0,0:0:0:0:
182,192,215196,1,0,0:0:0:0:
36,192,215353,1,0,0:0:0:0:
109,192,215353,1,0,0:0:0:0:
256,192,215353,1,0,0:0:0:0:
402,192,215509,1,0,0:0:0:0:
329,192,215509,128,0,215978:0:0:0:0:
182,192,215509,1,0,0:0:0:0:
402,192,215665,1,0,0:0:0:0:
36,192,215665,128,0,215978:0:0:0:0:
402,192,215821,1,0,0:0:0:0:
256,192,215978,1,0,0:0:0:0:
475,192,215978,1,0,0:0:0:0:
109,192,215978,1,0,0:0:0:0:
182,192,216134,1,0,0:0:0:0:
109,192,216134,128,0,216603:0:0:0:0:
475,192,216134,1,0,0:0:0:0:
402,192,216212,1,0,0:0:0:0:
182,192,216290,1,0,0:0:0:0:
329,192,216290,1,0,0:0:0:0:
182,192,216446,1,0,0:0:0:0:
36,192,216446,1,0,0:0:0:0:
256,192,216603,1,0,0:0:0:0:
475,192,216603,1,0,0:0:0:0:
329,192,216603,1,0,0:0:0:0:
182,192,216759,1,0,0:0:0:0:
109,192,216759,128,0,217228:0:0:0:0:
402,192,216759,1,0,0:0:0:0:
182,192,216915,1,0,0:0:0:0:
329,192,216915,1,0,0:0:0:0:
182,192,217071,1,0,0:0:0:0:
36,192,217071,1,0,0:0:0:0:
256,192,217228,1,0,0:0:0:0:
475,192,217228,1,0,0:0:0:0:
402,192,217228,1,0,0:0:0:0:
182,192,217384,1,0,0:0:0:0:
109,192,217384,128,0,217853:0:0:0:0:
36,192,217384,1,0,0:0:0:0:
182,192,217540,1,0,0:0:0:0:
402,192,217540,1,0,0:0:0:0:
329,192,217618,1,0,0:0:0:0:
182,192,217696,1,0,0:0:0:0:
402,192,217696,1,0,0:0:0:0:
256,192,217853,1,0,0:0:0:0:
475,192,217853,1,0,0:0:0:0:
36,192,217853,1,0,0:0:0:0:
182,192,218009,1,0,0:0:0:0:
109,192,218009,128,0,218478:0:0:0:0:
402,192,218009,1,0,0:0:0:0:
182,192,218165,1,0,0:0:0:0:
475,192,218165,128,0,218478:0:0:0:0:
182,192,218321,1,0,0:0:0:0:
36,192,218478,1,0,0:0:0:0:
402,192,218478,1,0,0:0:0:0:
256,192,218478,1,0,0:0:0:0:
329,192,218634,1,0,0:0:0:0:
475,192,218634,128,0,219103:0:0:0:0:
182,192,218634,1,0,0:0:0:0:
109,192,218712,1,0,0:0:0:0:
329,192,218790,1,0,0:0:0:0:
36,192,218790,1,0,0:0:0:0:
329,192,218946,1,0,0:0:0:0:
256,192,218946,1,0,0:0:0:0:
36,192,219103,1,0,0:0:0:0:
402,192,219103,1,0,0:0:0:0:
109,192,219103,1,0,0:0:0:0:
329,192,219259,1,0,0:0:0:0:
475,192,219259,128,0,219728:0:0:0:0:
182,192,219259,1,0,0:0:0:0:
329,192,219415,1,0,0:0:0:0:
256,192,219415,1,0,0:0:0:0:
329,192,219571,1,0,0:0:0:0:
182,192,219571,1,0,0:0:0:0:
36,192,219728,1,0,0:0:0:0:
402,192,219728,1,0,0:0:0:0:
256,192,219728,1,0,0:0:0:0:
329,192,219884,1,0,0:0:0:0:
475,192,219884,128,0,220353:0:0:0:0:
182,192,219884,1,0,0:0:0:0:
109,192,219962,1,0,0:0:0:0:
329,192,220040,1,0,0:0:0:0:
36,192,220040,1,0,0:0:0:0:
329,192,220196,1,0,0:0:0:0:
182,192,220196,1,0,0:0:0:0:
36,192,220353,1,0,0:0:0:0:
402,192,220353,1,0,0:0:0:0:
109,192,220353,1,0,0:0:0:0:
329,192,220509,1,0,0:0:0:0:
475,192,220509,128,0,220978:0:0:0:0:
182,192,220509,1,0,0:0:0:0:
256,192,220665,1,0,0:0:0:0:
329,192,220665,1,0,0:0:0:0:
182,192,220821,1,0,0:0:0:0:
329,192,220821,1,0,0:0:0:0:
109,192,220978,1,0,0:0:0:0:
256,192,220978,1,0,0:0:0:0:
402,192,220978,128,0,221134:0:0:0:0:
36,192,221134,1,0,0:0:0:0:
182,192,221134,128,0,221603:0:0:0:0:
329,192,221134,1,0,0:0:0:0:
256,192,221212,1,0,0:0:0:0:
36,192,221290,1,0,0:0:0:0:
475,192,221290,1,0,0:0:0:0:
36,192,221446,1,0,0:0:0:0:
402,192,221446,128,0,221603:0:0:0:0:
109,192,221446,1,0,0:0:0:0:
475,192,221603,1,0,0:0:0:0:
256,192,221603,1,0,0:0:0:0:
329,192,221603,1,0,0:0:0:0:
36,192,221759,1,0,0:0:0:0:
182,192,221759,128,0,222228:0:0:0:0:
329,192,221759,1,0,0:0:0:0:
36,192,221915,1,0,0:0:0:0:
402,192,221915,128,0,222071:0:0:0:0:
256,192,221915,1,0,0:0:0:0:
36,192,222071,1,0,0:0:0:0:
475,192,222071,1,0,0:0:0:0:
402,192,222228,1,0,0:0:0:0:
256,192,222228,1,0,0:0:0:0:
109,192,222228,1,0,0:0:0:0:
36,192,222384,1,0,0:0:0:0:
182,192,222384,128,0,222853:0:0:0:0:
402,192,222384,128,0,222540:0:0:0:0:
329,192,222462,1,0,0:0:0:0:
36,192,222540,1,0,0:0:0:0:
256,192,222540,1,0,0:0:0:0:
36,192,222696,1,0,0:0:0:0:
109,192,222696,1,0,0:0:0:0:
475,192,222853,1,0,0:0:0:0:
402,192,222853,128,0,223009:0:0:0:0:
329,192,222853,1,0,0:0:0:0:
256,192,222931,1,0,0:0:0:0:
36,192,223009,1,0,0:0:0:0:
182,192,223009,128,0,223478:0:0:0:0:
109,192,223009,1,0,0:0:0:0:
36,192,223165,1,0,0:0:0:0:
329,192,223165,1,0,0:0:0:0:
402,192,223243,1,0,0:0:0:0:
36,192,223321,1,0,0:0:0:0:
329,192,223321,1,0,0:0:0:0:
109,192,223478,1,0,0:0:0:0:
256,192,223478,1,0,0:0:0:0:
475,192,223478,1,0,0:0:0:0:
402,192,223634,1,0,0:0:0:0:
329,192,223634,128,0,224103:0:0:0:0:
182,192,223634,1,0,0:0:0:0:
109,192,223712,1,0,0:0:0:0:
402,192,223790,1,0,0:0:0:0:
36,192,223790,1,0,0:0:0:0:
402,192,223946,1,0,0:0:0:0:
182,192,223946,1,0,0:0:0:0:
36,192,224103,1,0,0:0:0:0:
109,192,224103,1,0,0:0:0:0:
182,192,224103,1,0,0:0:0:0:
256,192,224103,1,0,0:0:0:0:
402,192,224259,1,0,0:0:0:0:
329,192,224259,128,0,224728:0:0:0:0:
475,192,224259,1,0,0:0:0:0:
402,192,224415,1,0,0:0:0:0:
256,192,224415,1,0,0:0:0:0:
402,192,224571,1,0,0:0:0:0:
182,192,224571,1,0,0:0:0:0:
36,192,224728,1,0,0:0:0:0:
109,192,224728,1,0,0:0:0:0:
475,192,224728,1,0,0:0:0:0:
402,192,224884,1,0,0:0:0:0:
329,192,224884,128,0,225353:0:0:0:0:
256,192,224884,1,0,0:0:0:0:
402,192,225040,1,0,0:0:0:0:
182,192,225040,1,0,0:0:0:0:
109,192,225118,1,0,0:0:0:0:
402,192,225196,1,0,0:0:0:0:
182,192,225196,1,0,0:0:0:0:
36,192,225353,1,0,0:0:0:0:
109,192,225353,1,0,0:0:0:0:
256,192,225353,1,0,0:0:0:0:
475,192,225353,1,0,0:0:0:0:
402,192,225509,1,0,0:0:0:0:
329,192,225509,128,0,225978:0:0:0:0:
182,192,225509,1,0,0:0:0:0:
402,192,225665,1,0,0:0:0:0:
36,192,225665,128,0,225978:0:0:0:0:
402,192,225821,1,0,0:0:0:0:
256,192,225978,1,0,0:0:0:0:
475,192,225978,1,0,0:0:0:0:
109,192,225978,1,0,0:0:0:0:
182,192,226134,1,0,0:0:0:0:
109,192,226134,128,0,226603:0:0:0:0:
475,192,226134,1,0,0:0:0:0:
402,192,226212,1,0,0:0:0:0:
182,192,226290,1,0,0:0:0:0:
329,192,226290,1,0,0:0:0:0:
182,192,226446,1,0,0:0:0:0:
36,192,226446,1,0,0:0:0:0:
256,192,226603,1,0,0:0:0:0:
475,192,226603,1,0,0:0:0:0:
329,192,226603,1,0,0:0:0:0:
36,192,226603,1,0,0:0:0:0:
182,192,226759,1,0,0:0:0:0:
109,192,226759,128,0,227228:0:0:0:0:
402,192,226759,1,0,0:0:0:0:
182,192,226915,1,0,0:0:0:0:
329,192,226915,1,0,0:0:0:0:
182,192,227071,1,0,0:0:0:0:
36,192,227071,1,0,0:0:0:0:
256,192,227228,1,0,0:0:0:0:
475,192,227228,1,0,0:0:0:0:
402,192,227228,1,0,0:0:0:0:
182,192,227384,1,0,0:0:0:0:
109,192,227384,128,0,227853:0:0:0:0:
36,192,227384,1,0,0:0:0:0:
182,192,227540,1,0,0:0:0:0:
402,192,227540,1,0,0:0:0:0:
329,192,227618,1,0,0:0:0:0:
182,192,227696,1,0,0:0:0:0:
402,192,227696,1,0,0:0:0:0:
256,192,227853,1,0,0:0:0:0:
475,192,227853,1,0,0:0:0:0:
36,192,227853,1,0,0:0:0:0:
329,192,227853,1,0,0:0:0:0:
182,192,228009,1,0,0:0:0:0:
109,192,228009,128,0,228478:0:0:0:0:
402,192,228009,1,0,0:0:0:0:
182,192,228165,1,0,0:0:0:0:
475,192,228165,128,0,228478:0:0:0:0:
182,192,228321,1,0,0:0:0:0:
36,192,228478,1,0,0:0:0:0:
402,192,228478,1,0,0:0:0:0:
256,192,228478,1,0,0:0:0:0:
329,192,228634,1,0,0:0:0:0:
475,192,228634,128,0,229103:0:0:0:0:
182,192,228634,1,0,0:0:0:0:
109,192,228712,1,0,0:0:0:0:
329,192,228790,1,0,0:0:0:0:
36,192,228790,1,0,0:0:0:0:
329,192,228946,1,0,0:0:0:0:
256,192,228946,1,0,0:0:0:0:
36,192,229103,1,0,0:0:0:0:
402,192,229103,1,0,0:0:0:0:
109,192,229103,1,0,0:0:0:0:
182,192,229103,1,0,0:0:0:0:
329,192,229259,1,0,0:0:0:0:
475,192,229259,128,0,229728:0:0:0:0:
182,192,229259,1,0,0:0:0:0:
329,192,229415,1,0,0:0:0:0:
256,192,229415,1,0,0:0:0:0:
329,192,229571,1,0,0:0:0:0:
182,192,229571,1,0,0:0:0:0:
36,192,229728,1,0,0:0:0:0:
402,192,229728,1,0,0:0:0:0:
256,192,229728,1,0,0:0:0:0:
329,192,229884,1,0,0:0:0:0:
475,192,229884,128,0,230353:0:0:0:0:
182,192,229884,1,0,0:0:0:0:
109,192,229962,1,0,0:0:0:0:
329,192,230040,1,0,0:0:0:0:
36,192,230040,1,0,0:0:0:0:
329,192,230196,1,0,0:0:0:0:
256,192,230196,1,0,0:0:0:0:
36,192,230353,1,0,0:0:0:0:
402,192,230353,1,0,0:0:0:0:
109,192,230353,1,0,0:0:0:0:
256,192,230353,1,0,0:0:0:0:
329,192,230509,1,0,0:0:0:0:
475,192,230509,128,0,230978:0:0:0:0:
182,192,230509,1,0,0:0:0:0:
256,192,230665,1,0,0:0:0:0:
329,192,230665,1,0,0:0:0:0:
182,192,230821,1,0,0:0:0:0:
329,192,230821,1,0,0:0:0:0:
402,192,230978,128,0,231134:0:0:0:0:
256,192,230978,1,0,0:0:0:0:
109,192,230978,1,0,0:0:0:0:
329,192,231134,1,0,0:0:0:0:
182,192,231134,128,0,231603:0:0:0:0:
36,192,231134,1,0,0:0:0:0:
256,192,231212,1,0,0:0:0:0:
475,192,231290,1,0,0:0:0:0:
36,192,231290,1,0,0:0:0:0:
109,192,231446,1,0,0:0:0:0:
402,192,231446,128,0,231603:0:0:0:0:
36,192,231446,1,0,0:0:0:0:
329,192,231603,1,0,0:0:0:0:
256,192,231603,1,0,0:0:0:0:
475,192,231603,1,0,0:0:0:0:
109,192,231603,1,0,0:0:0:0:
329,192,231759,1,0,0:0:0:0:
182,192,231759,128,0,232228:0:0:0:0:
36,192,231759,1,0,0:0:0:0:
256,192,231915,1,0,0:0:0:0:
402,192,231915,128,0,232071:0:0:0:0:
36,192,231915,1,0,0:0:0:0:
475,192,232071,1,0,0:0:0:0:
36,192,232071,1,0,0:0:0:0:
109,192,232228,1,0,0:0:0:0:
256,192,232228,1,0,0:0:0:0:
402,192,232228,1,0,0:0:0:0:
402,192,232384,128,0,232540:0:0:0:0:
36,192,232384,1,0,0:0:0:0:
182,192,232384,128,0,232853:0:0:0:0:
329,192,232462,1,0,0:0:0:0:
256,192,232540,1,0,0:0:0:0:
36,192,232540,1,0,0:0:0:0:
109,192,232696,1,0,0:0:0:0:
36,192,232696,1,0,0:0:0:0:
402,192,232853,128,0,233009:0:0:0:0:
256,192,232853,1,0,0:0:0:0:
475,192,232853,1,0,0:0:0:0:
109,192,232853,1,0,0:0:0:0:
329,192,232931,1,0,0:0:0:0:
256,192,233009,1,0,0:0:0:0:
182,192,233009,128,0,233478:0:0:0:0:
36,192,233009,1,0,0:0:0:0:
329,192,233165,1,0,0:0:0:0:
36,192,233165,1,0,0:0:0:0:
402,192,233243,1,0,0:0:0:0:
329,192,233321,1,0,0:0:0:0:
36,192,233321,1,0,0:0:0:0:
109,192,233478,1,0,0:0:0:0:
256,192,233478,1,0,0:0:0:0:
475,192,233478,1,0,0:0:0:0:
329,192,233634,128,0,234142:0:0:0:0:
182,192,233634,1,0,0:0:0:0:
402,192,233634,128,0,233712:0:0:0:0:
109,192,233712,1,0,0:0:0:0:
36,192,233790,1,0,0:0:0:0:
402,192,233790,128,0,233868:0:0:0:0:
182,192,233946,1,0,0:0:0:0:
402,192,233946,128,0,234024:0:0:0:0:
36,192,234103,1,0,0:0:0:0:
109,192,234103,1,0,0:0:0:0:
182,192,234103,1,0,0:0:0:0:
256,192,234103,1,0,0:0:0:0:
329,192,234259,128,0,234767:0:0:0:0:
475,192,234259,1,0,0:0:0:0:
402,192,234259,128,0,234337:0:0:0:0:
256,192,234415,1,0,0:0:0:0:
402,192,234415,128,0,234493:0:0:0:0:
182,192,234571,1,0,0:0:0:0:
402,192,234571,128,0,234649:0:0:0:0:
36,192,234728,1,0,0:0:0:0:
109,192,234728,1,0,0:0:0:0:
475,192,234728,1,0,0:0:0:0:
329,192,234884,128,0,235392:0:0:0:0:
256,192,234884,1,0,0:0:0:0:
402,192,234884,128,0,234962:0:0:0:0:
182,192,235040,1,0,0:0:0:0:
402,192,235040,128,0,235118:0:0:0:0:
109,192,235118,1,0,0:0:0:0:
182,192,235196,1,0,0:0:0:0:
402,192,235196,128,0,235274:0:0:0:0:
36,192,235353,1,0,0:0:0:0:
109,192,235353,1,0,0:0:0:0:
256,192,235353,1,0,0:0:0:0:
475,192,235353,1,0,0:0:0:0:
329,192,235509,128,0,236017:0:0:0:0:
182,192,235509,1,0,0:0:0:0:
402,192,235509,128,0,235587:0:0:0:0:
36,192,235665,128,0,235978:0:0:0:0:
402,192,235665,128,0,235743:0:0:0:0:
402,192,235821,128,0,235899:0:0:0:0:
256,192,235978,1,0,0:0:0:0:
475,192,235978,1,0,0:0:0:0:
109,192,235978,1,0,0:0:0:0:
109,192,236134,128,0,236681:0:0:0:0:
475,192,236134,1,0,0:0:0:0:
182,192,236134,128,0,236212:0:0:0:0:
402,192,236212,1,0,0:0:0:0:
329,192,236290,1,0,0:0:0:0:
182,192,236290,128,0,236368:0:0:0:0:
36,192,236446,1,0,0:0:0:0:
182,192,236446,128,0,236524:0:0:0:0:
256,192,236603,1,0,0:0:0:0:
475,192,236603,1,0,0:0:0:0:
329,192,236603,1,0,0:0:0:0:
36,192,236603,1,0,0:0:0:0:
109,192,236759,128,0,237306:0:0:0:0:
402,192,236759,1,0,0:0:0:0:
182,192,236759,128,0,236837:0:0:0:0:
329,192,236915,1,0,0:0:0:0:
182,192,236915,128,0,236993:0:0:0:0:
36,192,237071,1,0,0:0:0:0:
182,192,237071,128,0,237149:0:0:0:0:
256,192,237228,1,0,0:0:0:0:
475,192,237228,1,0,0:0:0:0:
402,192,237228,1,0,0:0:0:0:
109,192,237384,128,0,237931:0:0:0:0:
36,192,237384,1,0,0:0:0:0:
182,192,237384,128,0,237462:0:0:0:0:
329,192,237540,1,0,0:0:0:0:
182,192,237540,128,0,237618:0:0:0:0:
256,192,237618,1,0,0:0:0:0:
402,192,237696,1,0,0:0:0:0:
182,192,237696,128,0,237774:0:0:0:0:
256,192,237853,1,0,0:0:0:0:
475,192,237853,1,0,0:0:0:0:
36,192,237853,1,0,0:0:0:0:
329,192,237853,1,0,0:0:0:0:
109,192,238009,128,0,238556:0:0:0:0:
402,192,238009,1,0,0:0:0:0:
182,192,238009,128,0,238087:0:0:0:0:
475,192,238165,128,0,238478:0:0:0:0:
182,192,238165,128,0,238243:0:0:0:0:
182,192,238321,128,0,238399:0:0:0:0:
36,192,238478,1,0,0:0:0:0:
402,192,238478,1,0,0:0:0:0:
256,192,238478,1,0,0:0:0:0:
475,192,238634,128,0,239181:0:0:0:0:
182,192,238634,1,0,0:0:0:0:
329,192,238634,128,0,238712:0:0:0:0:
109,192,238712,1,0,0:0:0:0:
36,192,238790,1,0,0:0:0:0:
329,192,238790,128,0,238868:0:0:0:0:
256,192,238946,1,0,0:0:0:0:
329,192,238946,128,0,239024:0:0:0:0:
36,192,239103,1,0,0:0:0:0:
402,192,239103,1,0,0:0:0:0:
109,192,239103,1,0,0:0:0:0:
182,192,239103,1,0,0:0:0:0:
475,192,239259,128,0,239845:0:0:0:0:
182,192,239259,1,0,0:0:0:0:
329,192,239259,128,0,239337:0:0:0:0:
256,192,239415,1,0,0:0:0:0:
329,192,239415,128,0,239493:0:0:0:0:
182,192,239571,1,0,0:0:0:0:
329,192,239571,128,0,239649:0:0:0:0:
36,192,239728,1,0,0:0:0:0:
402,192,239728,1,0,0:0:0:0:
256,192,239728,1,0,0:0:0:0:
475,192,239884,128,0,240470:0:0:0:0:
182,192,239884,1,0,0:0:0:0:
329,192,239884,128,0,240001:0:0:0:0:
109,192,239962,1,0,0:0:0:0:
36,192,240040,1,0,0:0:0:0:
329,192,240040,128,0,240157:0:0:0:0:
256,192,240196,1,0,0:0:0:0:
329,192,240196,128,0,240313:0:0:0:0:
36,192,240353,1,0,0:0:0:0:
402,192,240353,1,0,0:0:0:0:
109,192,240353,1,0,0:0:0:0:
256,192,240353,1,0,0:0:0:0:
475,192,240509,128,0,240978:0:0:0:0:
182,192,240509,1,0,0:0:0:0:
329,192,240509,128,0,240626:0:0:0:0:
256,192,240665,1,0,0:0:0:0:
329,192,240665,128,0,240782:0:0:0:0:
182,192,240821,1,0,0:0:0:0:
329,192,240821,128,0,240938:0:0:0:0:
256,192,240978,1,0,0:0:0:0:
36,192,240978,1,0,0:0:0:0:
109,192,240978,128,0,241134:0:0:0:0:
182,192,241134,128,0,241837:0:0:0:0:
402,192,241134,128,0,242149:0:0:0:0:
256,192,241212,128,0,241759:0:0:0:0:
109,192,241290,128,0,242149:0:0:0:0:
475,192,241446,128,0,242228:0:0:0:0:
36,192,241603,128,0,241993:0:0:0:0:
329,192,241759,128,0,242228:0:0:0:0:
256,192,241837,128,0,242149:0:0:0:0:
182,192,241915,128,0,242228:0:0:0:0:
36,192,242071,128,0,242228:0:0:0:0:
109,192,242228,128,0,243165:0:0:0:0:
256,192,242228,1,0,0:0:0:0:
402,192,242228,128,0,243165:0:0:0:0:
256,192,243165,128,0,243478:0:0:0:0:
329,192,243478,1,0,0:0:0:0:
109,192,243478,1,0,0:0:0:0:
475,192,243478,1,0,0:0:0:0:
182,192,243478,1,0,0:0:0:0:
36,192,243478,1,0,0:0:0:0:
402,192,243634,128,0,244103:0:0:0:0:
109,192,243790,128,0,244103:0:0:0:0:
36,192,243790,1,0,0:0:0:0:
256,192,243946,1,0,0:0:0:0:
329,192,244103,128,0,244415:0:0:0:0:
182,192,244103,1,0,0:0:0:0:
256,192,244103,1,0,0:0:0:0:
36,192,244103,1,0,0:0:0:0:
475,192,244103,1,0,0:0:0:0:
402,192,244259,128,0,244728:0:0:0:0:
475,192,244415,128,0,244728:0:0:0:0:
109,192,244415,1,0,0:0:0:0:
182,192,244571,1,0,0:0:0:0:
36,192,244728,128,0,245196:0:0:0:0:
182,192,244728,1,0,0:0:0:0:
329,192,244728,1,0,0:0:0:0:
109,192,244728,128,0,245040:0:0:0:0:
402,192,244884,128,0,245353:0:0:0:0:
475,192,245040,1,0,0:0:0:0:
256,192,245040,1,0,0:0:0:0:
109,192,245196,1,0,0:0:0:0:
109,192,245353,128,0,246134:0:0:0:0:
182,192,245353,1,0,0:0:0:0:
36,192,245353,1,0,0:0:0:0:
329,192,245353,128,0,245509:0:0:0:0:
475,192,245353,128,0,245665:0:0:0:0:
402,192,245509,128,0,245978:0:0:0:0:
329,192,245665,1,0,0:0:0:0:
36,192,245665,128,0,245821:0:0:0:0:
256,192,245821,1,0,0:0:0:0:
256,192,245978,128,0,246446:0:0:0:0:
36,192,245978,1,0,0:0:0:0:
329,192,245978,128,0,246134:0:0:0:0:
475,192,245978,128,0,246290:0:0:0:0:
182,192,246134,128,0,246603:0:0:0:0:
402,192,246290,128,0,246603:0:0:0:0:
36,192,246290,128,0,246446:0:0:0:0:
475,192,246446,1,0,0:0:0:0:
329,192,246603,128,0,247384:0:0:0:0:
36,192,246603,1,0,0:0:0:0:
256,192,246603,128,0,246759:0:0:0:0:
475,192,246603,128,0,246915:0:0:0:0:
109,192,246603,128,0,246915:0:0:0:0:
182,192,246759,128,0,247228:0:0:0:0:
256,192,246915,1,0,0:0:0:0:
36,192,246915,128,0,247071:0:0:0:0:
402,192,247071,1,0,0:0:0:0:
402,192,247228,128,0,247696:0:0:0:0:
36,192,247228,128,0,247540:0:0:0:0:
256,192,247228,128,0,247540:0:0:0:0:
475,192,247228,128,0,247384:0:0:0:0:
182,192,247384,128,0,247853:0:0:0:0:
109,192,247540,128,0,248009:0:0:0:0:
475,192,247540,128,0,247696:0:0:0:0:
256,192,247696,1,0,0:0:0:0:
475,192,247853,128,0,248009:0:0:0:0:
256,192,247853,128,0,248165:0:0:0:0:
329,192,247853,128,0,248165:0:0:0:0:
402,192,247853,128,0,248009:0:0:0:0:
36,192,247853,128,0,248165:0:0:0:0:
182,192,248009,128,0,248478:0:0:0:0:
402,192,248165,128,0,248790:0:0:0:0:
109,192,248165,128,0,248321:0:0:0:0:
475,192,248165,128,0,248478:0:0:0:0:
256,192,248321,1,0,0:0:0:0:
329,192,248478,1,0,0:0:0:0:
109,192,248478,128,0,248634:0:0:0:0:
256,192,248478,128,0,248790:0:0:0:0:
36,192,248478,1,0,0:0:0:0:
475,192,248634,128,0,249103:0:0:0:0:
109,192,248790,128,0,249103:0:0:0:0:
329,192,248790,128,0,248946:0:0:0:0:
182,192,248946,1,0,0:0:0:0:
402,192,249103,128,0,249415:0:0:0:0:
256,192,249103,1,0,0:0:0:0:
329,192,249103,128,0,249415:0:0:0:0:
182,192,249103,128,0,249415:0:0:0:0:
36,192,249103,128,0,249259:0:0:0:0:
475,192,249259,128,0,249728:0:0:0:0:
256,192,249415,128,0,252228:0:0:0:0:
109,192,249415,128,0,249571:0:0:0:0:
402,192,249571,1,0,0:0:0:0:
329,192,249728,1,0,0:0:0:0:
109,192,249728,1,0,0:0:0:0:
402,192,249728,128,0,249884:0:0:0:0:
36,192,249728,128,0,250040:0:0:0:0:
475,192,249884,128,0,250353:0:0:0:0:
182,192,250040,1,0,0:0:0:0:
329,192,250040,128,0,250196:0:0:0:0:
36,192,250196,1,0,0:0:0:0:
329,192,250353,1,0,0:0:0:0:
182,192,250353,1,0,0:0:0:0:
109,192,250353,1,0,0:0:0:0:
402,192,250353,1,0,0:0:0:0:
36,192,250353,128,0,250509:0:0:0:0:
475,192,250509,128,0,250978:0:0:0:0:
109,192,250665,1,0,0:0:0:0:
402,192,250665,128,0,250821:0:0:0:0:
182,192,250821,1,0,0:0:0:0:
182,192,250978,1,0,0:0:0:0:
402,192,250978,1,0,0:0:0:0:
36,192,250978,1,0,0:0:0:0:
329,192,250978,128,0,251134:0:0:0:0:
109,192,251134,128,0,251603:0:0:0:0:
182,192,251290,1,0,0:0:0:0:
475,192,251290,128,0,251446:0:0:0:0:
329,192,251446,1,0,0:0:0:0:
329,192,251603,1,0,0:0:0:0:
36,192,251603,1,0,0:0:0:0:
402,192,251603,1,0,0:0:0:0:
475,192,251603,1,0,0:0:0:0:
182,192,251603,128,0,251759:0:0:0:0:
109,192,251759,128,0,252228:0:0:0:0:
402,192,251759,1,0,0:0:0:0:
182,192,251915,1,0,0:0:0:0:
402,192,251915,128,0,252071:0:0:0:0:
475,192,252071,1,0,0:0:0:0:
182,192,252228,1,0,0:0:0:0:
36,192,252228,1,0,0:0:0:0:
475,192,252228,1,0,0:0:0:0:
329,192,252228,128,0,252384:0:0:0:0:
109,192,252384,128,0,252853:0:0:0:0:
402,192,252384,1,0,0:0:0:0:
329,192,252540,1,0,0:0:0:0:
402,192,252540,128,0,252696:0:0:0:0:
256,192,252696,1,0,0:0:0:0:
329,192,252853,1,0,0:0:0:0:
475,192,252853,1,0,0:0:0:0:
182,192,252853,1,0,0:0:0:0:
36,192,252853,128,0,253009:0:0:0:0:
256,192,252853,1,0,0:0:0:0:
402,192,252931,1,0,0:0:0:0:
109,192,253009,128,0,253478:0:0:0:0:
329,192,253009,1,0,0:0:0:0:
475,192,253165,1,0,0:0:0:0:
256,192,253165,128,0,253321:0:0:0:0:
402,192,253243,1,0,0:0:0:0:
36,192,253321,1,0,0:0:0:0:
475,192,253321,1,0,0:0:0:0:
402,192,253478,1,0,0:0:0:0:
36,192,253478,1,0,0:0:0:0:
182,192,253478,1,0,0:0:0:0:
329,192,253478,1,0,0:0:0:0:
182,192,253634,128,0,254103:0:0:0:0:
256,192,253790,128,0,254103:0:0:0:0:
329,192,253790,1,0,0:0:0:0:
109,192,253946,1,0,0:0:0:0:
329,192,254103,128,0,254415:0:0:0:0:
402,192,254103,1,0,0:0:0:0:
36,192,254103,1,0,0:0:0:0:
109,192,254103,1,0,0:0:0:0:
475,192,254103,1,0,0:0:0:0:
182,192,254259,128,0,254728:0:0:0:0:
109,192,254415,128,0,254728:0:0:0:0:
475,192,254415,1,0,0:0:0:0:
256,192,254571,1,0,0:0:0:0:
36,192,254728,128,0,255196:0:0:0:0:
402,192,254728,1,0,0:0:0:0:
256,192,254728,1,0,0:0:0:0:
475,192,254728,128,0,254884:0:0:0:0:
182,192,254884,128,0,255353:0:0:0:0:
256,192,255040,1,0,0:0:0:0:
329,192,255040,1,0,0:0:0:0:
475,192,255196,1,0,0:0:0:0:
109,192,255353,128,0,255821:0:0:0:0:
36,192,255353,1,0,0:0:0:0:
475,192,255353,1,0,0:0:0:0:
256,192,255353,128,0,255509:0:0:0:0:
402,192,255353,128,0,255509:0:0:0:0:
182,192,255509,128,0,255978:0:0:0:0:
402,192,255665,1,0,0:0:0:0:
329,192,255665,128,0,255821:0:0:0:0:
256,192,255821,1,0,0:0:0:0:
256,192,255978,128,0,256446:0:0:0:0:
36,192,255978,1,0,0:0:0:0:
109,192,255978,128,0,256290:0:0:0:0:
329,192,255978,128,0,256134:0:0:0:0:
475,192,256134,128,0,256603:0:0:0:0:
182,192,256290,1,0,0:0:0:0:
402,192,256290,128,0,256446:0:0:0:0:
36,192,256446,1,0,0:0:0:0:
329,192,256603,128,0,257071:0:0:0:0:
109,192,256603,128,0,256915:0:0:0:0:
36,192,256603,128,0,256759:0:0:0:0:
402,192,256603,128,0,256759:0:0:0:0:
256,192,256603,128,0,256759:0:0:0:0:
475,192,256759,128,0,257228:0:0:0:0:
182,192,256915,128,0,257228:0:0:0:0:
36,192,256915,128,0,257071:0:0:0:0:
402,192,257071,1,0,0:0:0:0:
402,192,257228,128,0,257696:0:0:0:0:
109,192,257228,128,0,257384:0:0:0:0:
329,192,257228,128,0,257540:0:0:0:0:
256,192,257228,128,0,257696:0:0:0:0:
475,192,257384,128,0,257853:0:0:0:0:
182,192,257540,128,0,257696:0:0:0:0:
36,192,257540,128,0,258009:0:0:0:0:
329,192,257696,1,0,0:0:0:0:
109,192,257853,128,0,258165:0:0:0:0:
329,192,257853,128,0,258165:0:0:0:0:
256,192,257853,128,0,258165:0:0:0:0:
402,192,257853,128,0,258009:0:0:0:0:
182,192,257853,128,0,258009:0:0:0:0:
475,192,258009,128,0,258478:0:0:0:0:
402,192,258165,128,0,258790:0:0:0:0:
36,192,258165,128,0,258478:0:0:0:0:
182,192,258165,128,0,258321:0:0:0:0:
256,192,258321,1,0,0:0:0:0:
182,192,258478,1,0,0:0:0:0:
109,192,258478,128,0,258790:0:0:0:0:
256,192,258478,128,0,258790:0:0:0:0:
329,192,258478,1,0,0:0:0:0:
36,192,258634,128,0,259103:0:0:0:0:
475,192,258790,128,0,259103:0:0:0:0:
182,192,258790,128,0,258946:0:0:0:0:
109,192,258946,1,0,0:0:0:0:
182,192,259103,128,0,259415:0:0:0:0:
256,192,259103,1,0,0:0:0:0:
402,192,259103,128,0,259415:0:0:0:0:
109,192,259103,128,0,259259:0:0:0:0:
329,192,259103,128,0,259259:0:0:0:0:
36,192,259259,128,0,259728:0:0:0:0:
256,192,259415,128,0,262228:0:0:0:0:
475,192,259415,128,0,259571:0:0:0:0:
182,192,259571,1,0,0:0:0:0:
329,192,259728,1,0,0:0:0:0:
475,192,259728,1,0,0:0:0:0:
182,192,259728,1,0,0:0:0:0:
402,192,259728,128,0,259884:0:0:0:0:
36,192,259884,128,0,260353:0:0:0:0:
329,192,260040,1,0,0:0:0:0:
182,192,260040,128,0,260196:0:0:0:0:
475,192,260196,1,0,0:0:0:0:
329,192,260353,1,0,0:0:0:0:
109,192,260353,1,0,0:0:0:0:
182,192,260353,1,0,0:0:0:0:
402,192,260353,1,0,0:0:0:0:
475,192,260353,128,0,260509:0:0:0:0:
36,192,260509,128,0,260978:0:0:0:0:
182,192,260665,1,0,0:0:0:0:
329,192,260665,128,0,260821:0:0:0:0:
402,192,260821,1,0,0:0:0:0:
329,192,260978,1,0,0:0:0:0:
402,192,260978,1,0,0:0:0:0:
475,192,260978,1,0,0:0:0:0:
109,192,260978,128,0,261134:0:0:0:0:
475,192,261134,128,0,261603:0:0:0:0:
182,192,261290,1,0,0:0:0:0:
36,192,261290,128,0,261446:0:0:0:0:
329,192,261446,1,0,0:0:0:0:
109,192,261603,1,0,0:0:0:0:
36,192,261603,1,0,0:0:0:0:
402,192,261603,1,0,0:0:0:0:
182,192,261603,1,0,0:0:0:0:
329,192,261603,128,0,261759:0:0:0:0:
475,192,261759,128,0,262228:0:0:0:0:
329,192,261915,1,0,0:0:0:0:
182,192,261915,128,0,262071:0:0:0:0:
109,192,262071,1,0,0:0:0:0:
109,192,262228,1,0,0:0:0:0:
402,192,262228,128,0,262384:0:0:0:0:
36,192,262228,1,0,0:0:0:0:
182,192,262228,1,0,0:0:0:0:
329,192,262384,128,0,262540:0:0:0:0:
182,192,262436,1,0,0:0:0:0:
475,192,262436,1,0,0:0:0:0:
256,192,262540,128,0,262696:0:0:0:0:
109,192,262644,1,0,0:0:0:0:
402,192,262644,1,0,0:0:0:0:
36,192,262696,128,0,262853:0:0:0:0:
109,192,262853,128,0,264103:0:0:0:0:
182,192,262853,128,0,264103:0:0:0:0:
402,192,262853,128,0,264103:0:0:0:0:
475,192,262853,128,0,264024:0:0:0:0:
329,192,262853,1,0,0:0:0:0:
36,192,263790,128,0,263946:0:0:0:0:
329,192,263790,1,0,0:0:0:0:
256,192,264103,128,0,264259:0:0:0:0:
36,192,264103,128,0,264259:0:0:0:0:
329,192,264103,1,0,0:0:0:0:
475,192,264103,1,0,0:0:0:0:
109,192,264259,128,0,264571:0:0:0:0:
182,192,264259,1,0,0:0:0:0:
329,192,264337,1,0,0:0:0:0:
36,192,264415,128,0,264571:0:0:0:0:
475,192,264415,1,0,0:0:0:0:
402,192,264493,1,0,0:0:0:0:
256,192,264571,1,0,0:0:0:0:
182,192,264571,1,0,0:0:0:0:
329,192,264649,1,0,0:0:0:0:
36,192,264728,128,0,265353:0:0:0:0:
256,192,264728,128,0,264884:0:0:0:0:
475,192,264728,1,0,0:0:0:0:
109,192,264884,128,0,265196:0:0:0:0:
402,192,264884,1,0,0:0:0:0:
182,192,264962,1,0,0:0:0:0:
256,192,265040,1,0,0:0:0:0:
475,192,265040,1,0,0:0:0:0:
402,192,265118,1,0,0:0:0:0:
329,192,265196,1,0,0:0:0:0:
182,192,265196,1,0,0:0:0:0:
109,192,265274,1,0,0:0:0:0:
182,192,265353,128,0,265978:0:0:0:0:
256,192,265353,128,0,265509:0:0:0:0:
475,192,265353,1,0,0:0:0:0:
402,192,265353,1,0,0:0:0:0:
109,192,265509,128,0,265821:0:0:0:0:
36,192,265509,1,0,0:0:0:0:
329,192,265587,1,0,0:0:0:0:
475,192,265665,1,0,0:0:0:0:
36,192,265665,1,0,0:0:0:0:
402,192,265743,1,0,0:0:0:0:
475,192,265821,1,0,0:0:0:0:
256,192,265821,1,0,0:0:0:0:
109,192,265899,1,0,0:0:0:0:
36,192,265978,1,0,0:0:0:0:
256,192,265978,128,0,266603:0:0:0:0:
329,192,265978,128,0,266134:0:0:0:0:
182,192,266134,128,0,266446:0:0:0:0:
475,192,266134,1,0,0:0:0:0:
402,192,266212,1,0,0:0:0:0:
329,192,266290,1,0,0:0:0:0:
109,192,266290,1,0,0:0:0:0:
36,192,266368,1,0,0:0:0:0:
475,192,266446,1,0,0:0:0:0:
109,192,266446,1,0,0:0:0:0:
182,192,266524,1,0,0:0:0:0:
402,192,266603,128,0,267228:0:0:0:0:
329,192,266603,128,0,266759:0:0:0:0:
36,192,266603,1,0,0:0:0:0:
475,192,266603,1,0,0:0:0:0:
182,192,266759,128,0,267071:0:0:0:0:
256,192,266759,1,0,0:0:0:0:
109,192,266837,1,0,0:0:0:0:
36,192,266915,1,0,0:0:0:0:
475,192,266915,1,0,0:0:0:0:
329,192,266993,1,0,0:0:0:0:
256,192,267071,1,0,0:0:0:0:
109,192,267071,1,0,0:0:0:0:
36,192,267149,1,0,0:0:0:0:
475,192,267228,128,0,267853:0:0:0:0:
329,192,267228,128,0,267384:0:0:0:0:
182,192,267228,1,0,0:0:0:0:
182,192,267384,128,0,267696:0:0:0:0:
402,192,267384,1,0,0:0:0:0:
256,192,267462,1,0,0:0:0:0:
329,192,267540,1,0,0:0:0:0:
109,192,267540,1,0,0:0:0:0:
36,192,267618,1,0,0:0:0:0:
256,192,267696,1,0,0:0:0:0:
402,192,267696,1,0,0:0:0:0:
182,192,267774,1,0,0:0:0:0:
36,192,267853,128,0,268165:0:0:0:0:
329,192,267853,128,0,268009:0:0:0:0:
109,192,267853,1,0,0:0:0:0:
402,192,267853,1,0,0:0:0:0:
475,192,267931,1,0,0:0:0:0:
182,192,268009,128,0,268321:0:0:0:0:
256,192,268009,1,0,0:0:0:0:
329,192,268087,1,0,0:0:0:0:
475,192,268165,128,0,268790:0:0:0:0:
402,192,268165,1,0,0:0:0:0:
109,192,268165,1,0,0:0:0:0:
256,192,268243,1,0,0:0:0:0:
36,192,268321,1,0,0:0:0:0:
329,192,268321,1,0,0:0:0:0:
402,192,268399,1,0,0:0:0:0:
36,192,268478,128,0,268634:0:0:0:0:
256,192,268478,1,0,0:0:0:0:
109,192,268478,1,0,0:0:0:0:
402,192,268634,128,0,268946:0:0:0:0:
182,192,268634,1,0,0:0:0:0:
256,192,268712,1,0,0:0:0:0:
109,192,268790,128,0,269103:0:0:0:0:
329,192,268790,1,0,0:0:0:0:
182,192,268868,1,0,0:0:0:0:
475,192,268946,1,0,0:0:0:0:
36,192,268946,1,0,0:0:0:0:
256,192,269024,1,0,0:0:0:0:
329,192,269103,128,0,269415:0:0:0:0:
36,192,269103,128,0,269259:0:0:0:0:
182,192,269103,1,0,0:0:0:0:
402,192,269103,1,0,0:0:0:0:
402,192,269259,128,0,269571:0:0:0:0:
475,192,269259,1,0,0:0:0:0:
182,192,269337,1,0,0:0:0:0:
256,192,269415,128,0,272228:0:0:0:0:
36,192,269415,1,0,0:0:0:0:
109,192,269519,1,0,0:0:0:0:
182,192,269571,1,0,0:0:0:0:
475,192,269623,1,0,0:0:0:0:
36,192,269728,128,0,269884:0:0:0:0:
109,192,269728,1,0,0:0:0:0:
329,192,269728,1,0,0:0:0:0:
182,192,269832,1,0,0:0:0:0:
402,192,269884,128,0,270196:0:0:0:0:
475,192,269936,1,0,0:0:0:0:
329,192,270040,1,0,0:0:0:0:
36,192,270040,1,0,0:0:0:0:
109,192,270144,1,0,0:0:0:0:
475,192,270196,1,0,0:0:0:0:
182,192,270248,1,0,0:0:0:0:
36,192,270353,128,0,270509:0:0:0:0:
329,192,270353,1,0,0:0:0:0:
475,192,270353,1,0,0:0:0:0:
402,192,270353,1,0,0:0:0:0:
109,192,270457,1,0,0:0:0:0:
402,192,270509,128,0,270821:0:0:0:0:
182,192,270561,1,0,0:0:0:0:
329,192,270665,1,0,0:0:0:0:
475,192,270665,1,0,0:0:0:0:
109,192,270769,1,0,0:0:0:0:
36,192,270821,1,0,0:0:0:0:
329,192,270873,1,0,0:0:0:0:
475,192,270978,128,0,271134:0:0:0:0:
182,192,270978,1,0,0:0:0:0:
36,192,270978,1,0,0:0:0:0:
402,192,271082,1,0,0:0:0:0:
109,192,271134,128,0,271603:0:0:0:0:
329,192,271186,1,0,0:0:0:0:
36,192,271290,1,0,0:0:0:0:
475,192,271290,1,0,0:0:0:0:
182,192,271394,1,0,0:0:0:0:
329,192,271498,1,0,0:0:0:0:
475,192,271603,128,0,271759:0:0:0:0:
36,192,271603,1,0,0:0:0:0:
182,192,271603,1,0,0:0:0:0:
402,192,271603,1,0,0:0:0:0:
329,192,271707,1,0,0:0:0:0:
109,192,271759,128,0,272228:0:0:0:0:
182,192,271811,1,0,0:0:0:0:
36,192,271915,1,0,0:0:0:0:
475,192,271915,1,0,0:0:0:0:
329,192,272019,1,0,0:0:0:0:
36,192,272123,1,0,0:0:0:0:
329,192,272228,128,0,272384:0:0:0:0:
182,192,272228,1,0,0:0:0:0:
402,192,272228,1,0,0:0:0:0:
36,192,272384,128,0,272696:0:0:0:0:
256,192,272384,128,0,272540:0:0:0:0:
182,192,272540,1,0,0:0:0:0:
475,192,272540,128,0,272696:0:0:0:0:
109,192,272696,128,0,272853:0:0:0:0:
329,192,272853,128,0,273009:0:0:0:0:
402,192,272853,1,0,0:0:0:0:
475,192,272853,1,0,0:0:0:0:
36,192,272853,1,0,0:0:0:0:
36,192,273009,128,0,273321:0:0:0:0:
182,192,273009,128,0,273165:0:0:0:0:
402,192,273165,128,0,273321:0:0:0:0:
329,192,273165,1,0,0:0:0:0:
109,192,273321,128,0,273478:0:0:0:0:
256,192,273478,128,0,273634:0:0:0:0:
475,192,273478,1,0,0:0:0:0:
36,192,273478,1,0,0:0:0:0:
402,192,273634,128,0,273946:0:0:0:0:
182,192,273634,1,0,0:0:0:0:
329,192,273634,1,0,0:0:0:0:
109,192,273712,1,0,0:0:0:0:
475,192,273790,128,0,273946:0:0:0:0:
36,192,273790,1,0,0:0:0:0:
256,192,273868,1,0,0:0:0:0:
329,192,273946,1,0,0:0:0:0:
182,192,273946,1,0,0:0:0:0:
402,192,274024,1,0,0:0:0:0:
256,192,274103,128,0,274259:0:0:0:0:
475,192,274103,128,0,274259:0:0:0:0:
109,192,274103,1,0,0:0:0:0:
36,192,274103,1,0,0:0:0:0:
402,192,274259,128,0,274571:0:0:0:0:
329,192,274259,1,0,0:0:0:0:
182,192,274337,1,0,0:0:0:0:
475,192,274415,128,0,274571:0:0:0:0:
36,192,274415,1,0,0:0:0:0:
109,192,274493,1,0,0:0:0:0:
256,192,274571,1,0,0:0:0:0:
329,192,274571,1,0,0:0:0:0:
182,192,274649,1,0,0:0:0:0:
475,192,274728,128,0,275353:0:0:0:0:
256,192,274728,128,0,274884:0:0:0:0:
36,192,274728,1,0,0:0:0:0:
402,192,274884,128,0,275196:0:0:0:0:
109,192,274884,1,0,0:0:0:0:
329,192,274962,1,0,0:0:0:0:
256,192,275040,1,0,0:0:0:0:
36,192,275040,1,0,0:0:0:0:
109,192,275118,1,0,0:0:0:0:
182,192,275196,1,0,0:0:0:0:
329,192,275196,1,0,0:0:0:0:
402,192,275274,1,0,0:0:0:0:
329,192,275353,128,0,275978:0:0:0:0:
256,192,275353,128,0,275509:0:0:0:0:
36,192,275353,1,0,0:0:0:0:
109,192,275353,1,0,0:0:0:0:
402,192,275509,128,0,275821:0:0:0:0:
475,192,275509,1,0,0:0:0:0:
182,192,275587,1,0,0:0:0:0:
36,192,275665,1,0,0:0:0:0:
475,192,275665,1,0,0:0:0:0:
109,192,275743,1,0,0:0:0:0:
36,192,275821,1,0,0:0:0:0:
256,192,275821,1,0,0:0:0:0:
402,192,275899,1,0,0:0:0:0:
475,192,275978,1,0,0:0:0:0:
256,192,275978,128,0,276603:0:0:0:0:
182,192,275978,128,0,276134:0:0:0:0:
329,192,276134,128,0,276446:0:0:0:0:
36,192,276134,1,0,0:0:0:0:
109,192,276212,1,0,0:0:0:0:
182,192,276290,1,0,0:0:0:0:
402,192,276290,1,0,0:0:0:0:
475,192,276368,1,0,0:0:0:0:
36,192,276446,1,0,0:0:0:0:
402,192,276446,1,0,0:0:0:0:
329,192,276524,1,0,0:0:0:0:
109,192,276603,128,0,277228:0:0:0:0:
182,192,276603,128,0,276759:0:0:0:0:
475,192,276603,1,0,0:0:0:0:
36,192,276603,1,0,0:0:0:0:
329,192,276759,128,0,277071:0:0:0:0:
256,192,276759,1,0,0:0:0:0:
402,192,276837,1,0,0:0:0:0:
475,192,276915,1,0,0:0:0:0:
36,192,276915,1,0,0:0:0:0:
182,192,276993,1,0,0:0:0:0:
256,192,277071,1,0,0:0:0:0:
402,192,277071,1,0,0:0:0:0:
475,192,277149,1,0,0:0:0:0:
36,192,277228,128,0,277853:0:0:0:0:
182,192,277228,128,0,277384:0:0:0:0:
329,192,277228,1,0,0:0:0:0:
329,192,277384,128,0,277696:0:0:0:0:
109,192,277384,1,0,0:0:0:0:
256,192,277462,1,0,0:0:0:0:
182,192,277540,1,0,0:0:0:0:
402,192,277540,1,0,0:0:0:0:
475,192,277618,1,0,0:0:0:0:
256,192,277696,1,0,0:0:0:0:
109,192,277696,1,0,0:0:0:0:
329,192,277774,1,0,0:0:0:0:
475,192,277853,128,0,278165:0:0:0:0:
182,192,277853,128,0,278009:0:0:0:0:
402,192,277853,1,0,0:0:0:0:
109,192,277853,1,0,0:0:0:0:
36,192,277931,1,0,0:0:0:0:
329,192,278009,128,0,278321:0:0:0:0:
256,192,278009,1,0,0:0:0:0:
182,192,278087,1,0,0:0:0:0:
36,192,278165,128,0,278790:0:0:0:0:
109,192,278165,1,0,0:0:0:0:
402,192,278165,1,0,0:0:0:0:
256,192,278243,1,0,0:0:0:0:
475,192,278321,1,0,0:0:0:0:
182,192,278321,1,0,0:0:0:0:
109,192,278399,1,0,0:0:0:0:
475,192,278478,128,0,278634:0:0:0:0:
256,192,278478,1,0,0:0:0:0:
402,192,278478,1,0,0:0:0:0:
109,192,278634,128,0,278946:0:0:0:0:
329,192,278634,1,0,0:0:0:0:
256,192,278712,1,0,0:0:0:0:
402,192,278790,128,0,279103:0:0:0:0:
182,192,278790,1,0,0:0:0:0:
329,192,278868,1,0,0:0:0:0:
36,192,278946,1,0,0:0:0:0:
475,192,278946,1,0,0:0:0:0:
256,192,279024,1,0,0:0:0:0:
182,192,279103,128,0,279415:0:0:0:0:
475,192,279103,128,0,279259:0:0:0:0:
329,192,279103,1,0,0:0:0:0:
109,192,279103,1,0,0:0:0:0:
109,192,279259,128,0,279571:0:0:0:0:
36,192,279259,1,0,0:0:0:0:
329,192,279337,1,0,0:0:0:0:
256,192,279415,128,0,280978:0:0:0:0:
475,192,279415,1,0,0:0:0:0:
402,192,279519,1,0,0:0:0:0:
329,192,279571,1,0,0:0:0:0:
36,192,279623,1,0,0:0:0:0:
475,192,279728,128,0,279884:0:0:0:0:
402,192,279728,1,0,0:0:0:0:
182,192,279728,1,0,0:0:0:0:
329,192,279832,1,0,0:0:0:0:
109,192,279884,128,0,280196:0:0:0:0:
36,192,279936,1,0,0:0:0:0:
182,192,280040,1,0,0:0:0:0:
475,192,280040,1,0,0:0:0:0:
402,192,280144,1,0,0:0:0:0:
36,192,280196,1,0,0:0:0:0:
329,192,280248,1,0,0:0:0:0:
475,192,280353,128,0,280509:0:0:0:0:
182,192,280353,1,0,0:0:0:0:
36,192,280353,1,0,0:0:0:0:
109,192,280353,1,0,0:0:0:0:
402,192,280457,1,0,0:0:0:0:
109,192,280509,128,0,280821:0:0:0:0:
329,192,280561,1,0,0:0:0:0:
182,192,280665,1,0,0:0:0:0:
36,192,280665,1,0,0:0:0:0:
402,192,280769,1,0,0:0:0:0:
475,192,280821,1,0,0:0:0:0:
182,192,280873,1,0,0:0:0:0:
109,192,280978,1,0,0:0:0:0:
475,192,280978,1,0,0:0:0:0:
329,192,280978,128,0,281134:0:0:0:0:
36,192,281134,128,0,282228:0:0:0:0:
402,192,281134,1,0,0:0:0:0:
256,192,281173,1,0,0:0:0:0:
182,192,281212,1,0,0:0:0:0:
109,192,281251,1,0,0:0:0:0:
475,192,281290,1,0,0:0:0:0:
402,192,281342,1,0,0:0:0:0:
329,192,281394,1,0,0:0:0:0:
256,192,281446,1,0,0:0:0:0:
475,192,281446,1,0,0:0:0:0:
109,192,281603,1,0,0:0:0:0:
182,192,281603,1,0,0:0:0:0:
256,192,281759,1,0,0:0:0:0:
329,192,281798,1,0,0:0:0:0:
402,192,281837,1,0,0:0:0:0:
475,192,281876,1,0,0:0:0:0:
109,192,281915,1,0,0:0:0:0:
182,192,281967,1,0,0:0:0:0:
256,192,282019,1,0,0:0:0:0:
329,192,282071,1,0,0:0:0:0:
109,192,282071,1,0,0:0:0:0:
182,192,282228,1,0,0:0:0:0:
329,192,282228,128,0,283061:0:0:0:0:
402,192,282228,128,0,283217:0:0:0:0:
475,192,282228,128,0,283360:0:0:0:0:
36,192,282644,128,0,283790:0:0:0:0:
109,192,282774,128,0,285626:0:0:0:0:
182,192,282905,128,0,283790:0:0:0:0:
256,192,283061,128,0,283634:0:0:0:0:
329,192,283217,128,0,283790:0:0:0:0:
402,192,283360,128,0,285626:0:0:0:0:
475,192,283582,128,0,283790:0:0:0:0:
256,192,283790,128,0,284532:0:0:0:0:
475,192,283985,128,0,285626:0:0:0:0:
182,192,283985,128,0,285626:0:0:0:0:
36,192,283985,128,0,285626:0:0:0:0:
329,192,283985,128,0,285626:0:0:0:0:
256,192,284688,128,0,285040:0:0:0:0:
256,192,285157,128,0,285548:0:0:0:0:
256,192,285626,128,0,285978:0:0:0:0:
109,192,285978,128,0,286056:0:0:0:0:
36,192,285978,128,0,286290:0:0:0:0:
402,192,285978,128,0,286134:0:0:0:0:
475,192,286134,128,0,286212:0:0:0:0:
329,192,286134,1,0,0:0:0:0:
402,192,286290,128,0,286368:0:0:0:0:
256,192,286290,1,0,0:0:0:0:
329,192,286290,128,0,286446:0:0:0:0:
109,192,286446,128,0,286524:0:0:0:0:
182,192,286446,1,0,0:0:0:0:
36,192,286603,128,0,286915:0:0:0:0:
475,192,286603,1,0,0:0:0:0:
256,192,286603,128,0,286759:0:0:0:0:
329,192,286759,128,0,286837:0:0:0:0:
402,192,286759,1,0,0:0:0:0:
475,192,286915,1,0,0:0:0:0:
182,192,286915,128,0,287071:0:0:0:0:
109,192,287071,128,0,287149:0:0:0:0:
256,192,287071,1,0,0:0:0:0:
329,192,287110,1,0,0:0:0:0:
402,192,287228,128,0,287306:0:0:0:0:
36,192,287228,128,0,287540:0:0:0:0:
475,192,287228,128,0,287384:0:0:0:0:
182,192,287384,128,0,287462:0:0:0:0:
329,192,287384,1,0,0:0:0:0:
109,192,287540,128,0,287618:0:0:0:0:
402,192,287540,128,0,287696:0:0:0:0:
256,192,287696,128,0,287774:0:0:0:0:
182,192,287696,1,0,0:0:0:0:
402,192,287853,128,0,287931:0:0:0:0:
36,192,287853,128,0,288165:0:0:0:0:
475,192,287853,128,0,288009:0:0:0:0:
329,192,288009,1,0,0:0:0:0:
256,192,288009,1,0,0:0:0:0:
182,192,288165,128,0,288478:0:0:0:0:
109,192,288165,128,0,288321:0:0:0:0:
402,192,288165,1,0,0:0:0:0:
475,192,288321,1,0,0:0:0:0:
109,192,288478,128,0,288556:0:0:0:0:
36,192,288478,128,0,288790:0:0:0:0:
256,192,288478,128,0,288634:0:0:0:0:
475,192,288634,128,0,288712:0:0:0:0:
329,192,288634,1,0,0:0:0:0:
182,192,288790,128,0,288868:0:0:0:0:
402,192,288790,128,0,288946:0:0:0:0:
256,192,288790,1,0,0:0:0:0:
329,192,288946,128,0,289024:0:0:0:0:
475,192,288946,1,0,0:0:0:0:
36,192,289103,128,0,289415:0:0:0:0:
182,192,289103,1,0,0:0:0:0:
109,192,289103,128,0,289259:0:0:0:0:
475,192,289259,128,0,289337:0:0:0:0:
256,192,289259,1,0,0:0:0:0:
329,192,289415,1,0,0:0:0:0:
182,192,289415,128,0,289571:0:0:0:0:
402,192,289571,128,0,289649:0:0:0:0:
475,192,289571,1,0,0:0:0:0:
109,192,289610,1,0,0:0:0:0:
256,192,289728,128,0,289806:0:0:0:0:
36,192,289728,128,0,290040:0:0:0:0:
329,192,289728,128,0,289884:0:0:0:0:
109,192,289884,128,0,289962:0:0:0:0:
182,192,289884,1,0,0:0:0:0:
329,192,290040,128,0,290118:0:0:0:0:
402,192,290040,128,0,290196:0:0:0:0:
182,192,290196,128,0,290274:0:0:0:0:
256,192,290196,1,0,0:0:0:0:
402,192,290353,128,0,290431:0:0:0:0:
36,192,290353,128,0,290665:0:0:0:0:
475,192,290353,128,0,290509:0:0:0:0:
329,192,290509,1,0,0:0:0:0:
256,192,290509,1,0,0:0:0:0:
182,192,290665,128,0,290978:0:0:0:0:
109,192,290665,128,0,290821:0:0:0:0:
402,192,290665,1,0,0:0:0:0:
329,192,290821,1,0,0:0:0:0:
36,192,290978,128,0,291290:0:0:0:0:
256,192,290978,128,0,291134:0:0:0:0:
475,192,290978,128,0,291056:0:0:0:0:
109,192,291134,128,0,291212:0:0:0:0:
329,192,291134,1,0,0:0:0:0:
402,192,291290,128,0,291368:0:0:0:0:
182,192,291290,128,0,291446:0:0:0:0:
475,192,291290,1,0,0:0:0:0:
109,192,291446,128,0,291524:0:0:0:0:
329,192,291446,1,0,0:0:0:0:
36,192,291603,128,0,291915:0:0:0:0:
256,192,291603,1,0,0:0:0:0:
475,192,291603,128,0,291759:0:0:0:0:
329,192,291759,128,0,291837:0:0:0:0:
109,192,291759,1,0,0:0:0:0:
402,192,291915,128,0,292071:0:0:0:0:
475,192,291915,1,0,0:0:0:0:
109,192,292071,128,0,292149:0:0:0:0:
329,192,292071,1,0,0:0:0:0:
182,192,292110,1,0,0:0:0:0:
402,192,292228,128,0,292306:0:0:0:0:
36,192,292228,128,0,292540:0:0:0:0:
256,192,292228,128,0,292384:0:0:0:0:
182,192,292384,128,0,292462:0:0:0:0:
475,192,292384,1,0,0:0:0:0:
109,192,292540,128,0,292618:0:0:0:0:
402,192,292540,128,0,292696:0:0:0:0:
256,192,292696,128,0,292774:0:0:0:0:
475,192,292696,1,0,0:0:0:0:
182,192,292853,128,0,292931:0:0:0:0:
36,192,292853,128,0,293165:0:0:0:0:
329,192,292853,128,0,293009:0:0:0:0:
475,192,293009,1,0,0:0:0:0:
109,192,293009,1,0,0:0:0:0:
182,192,293165,128,0,293478:0:0:0:0:
256,192,293165,128,0,293321:0:0:0:0:
402,192,293165,1,0,0:0:0:0:
109,192,293321,1,0,0:0:0:0:
36,192,293478,128,0,293634:0:0:0:0:
402,192,293478,1,0,0:0:0:0:
475,192,293478,128,0,293556:0:0:0:0:
182,192,293634,1,0,0:0:0:0:
256,192,293634,128,0,293712:0:0:0:0:
36,192,293790,1,0,0:0:0:0:
329,192,293790,128,0,293868:0:0:0:0:
109,192,293946,128,0,294024:0:0:0:0:
475,192,293946,128,0,294103:0:0:0:0:
402,192,293985,128,0,294103:0:0:0:0:
256,192,294103,1,0,0:0:0:0:
36,192,294103,1,0,0:0:0:0:
329,192,294103,1,0,0:0:0:0:
109,192,294259,1,0,0:0:0:0:
182,192,294259,128,0,294337:0:0:0:0:
36,192,294415,128,0,294571:0:0:0:0:
256,192,294415,128,0,294493:0:0:0:0:
329,192,294571,1,0,0:0:0:0:
182,192,294571,128,0,294649:0:0:0:0:
475,192,294610,1,0,0:0:0:0:
109,192,294728,1,0,0:0:0:0:
329,192,294728,128,0,294806:0:0:0:0:
475,192,294884,128,0,295040:0:0:0:0:
256,192,294884,1,0,0:0:0:0:
36,192,294884,128,0,294962:0:0:0:0:
329,192,295040,1,0,0:0:0:0:
182,192,295040,128,0,295118:0:0:0:0:
109,192,295040,1,0,0:0:0:0:
402,192,295196,1,0,0:0:0:0:
256,192,295196,128,0,295274:0:0:0:0:
36,192,295353,128,0,295509:0:0:0:0:
256,192,295353,128,0,295431:0:0:0:0:
182,192,295509,128,0,295665:0:0:0:0:
256,192,295509,128,0,295587:0:0:0:0:
475,192,295665,128,0,295821:0:0:0:0:
256,192,295665,128,0,295782:0:0:0:0:
109,192,295665,1,0,0:0:0:0:
329,192,295821,128,0,295978:0:0:0:0:
256,192,295821,128,0,295978:0:0:0:0:
36,192,295821,1,0,0:0:0:0:
402,192,295978,128,0,296056:0:0:0:0:
475,192,295978,128,0,296290:0:0:0:0:
109,192,295978,128,0,296134:0:0:0:0:
36,192,296134,128,0,296212:0:0:0:0:
182,192,296134,1,0,0:0:0:0:
109,192,296290,128,0,296368:0:0:0:0:
256,192,296290,1,0,0:0:0:0:
182,192,296290,128,0,296446:0:0:0:0:
402,192,296446,128,0,296524:0:0:0:0:
329,192,296446,1,0,0:0:0:0:
475,192,296603,128,0,296915:0:0:0:0:
36,192,296603,1,0,0:0:0:0:
256,192,296603,128,0,296759:0:0:0:0:
182,192,296759,128,0,296837:0:0:0:0:
109,192,296759,1,0,0:0:0:0:
36,192,296915,1,0,0:0:0:0:
329,192,296915,128,0,297071:0:0:0:0:
402,192,297071,128,0,297149:0:0:0:0:
256,192,297071,1,0,0:0:0:0:
182,192,297110,1,0,0:0:0:0:
109,192,297228,128,0,297306:0:0:0:0:
475,192,297228,128,0,297540:0:0:0:0:
36,192,297228,128,0,297384:0:0:0:0:
329,192,297384,128,0,297462:0:0:0:0:
182,192,297384,1,0,0:0:0:0:
402,192,297540,128,0,297618:0:0:0:0:
109,192,297540,128,0,297696:0:0:0:0:
256,192,297696,128,0,297774:0:0:0:0:
329,192,297696,1,0,0:0:0:0:
109,192,297853,128,0,297931:0:0:0:0:
475,192,297853,128,0,298165:0:0:0:0:
36,192,297853,128,0,298009:0:0:0:0:
182,192,298009,1,0,0:0:0:0:
256,192,298009,1,0,0:0:0:0:
329,192,298165,128,0,298478:0:0:0:0:
402,192,298165,128,0,298321:0:0:0:0:
109,192,298165,1,0,0:0:0:0:
36,192,298321,1,0,0:0:0:0:
402,192,298478,128,0,298556:0:0:0:0:
475,192,298478,128,0,298790:0:0:0:0:
256,192,298478,128,0,298634:0:0:0:0:
36,192,298634,128,0,298712:0:0:0:0:
182,192,298634,1,0,0:0:0:0:
329,192,298790,128,0,298868:0:0:0:0:
109,192,298790,128,0,298946:0:0:0:0:
256,192,298790,1,0,0:0:0:0:
182,192,298946,128,0,299024:0:0:0:0:
36,192,298946,1,0,0:0:0:0:
475,192,299103,128,0,299415:0:0:0:0:
329,192,299103,1,0,0:0:0:0:
402,192,299103,128,0,299259:0:0:0:0:
36,192,299259,128,0,299337:0:0:0:0:
256,192,299259,1,0,0:0:0:0:
182,192,299415,1,0,0:0:0:0:
329,192,299415,128,0,299571:0:0:0:0:
109,192,299571,128,0,299649:0:0:0:0:
36,192,299571,1,0,0:0:0:0:
402,192,299610,1,0,0:0:0:0:
256,192,299728,128,0,299806:0:0:0:0:
475,192,299728,128,0,300040:0:0:0:0:
182,192,299728,128,0,299884:0:0:0:0:
402,192,299884,128,0,299962:0:0:0:0:
329,192,299884,1,0,0:0:0:0:
182,192,300040,128,0,300118:0:0:0:0:
109,192,300040,128,0,300196:0:0:0:0:
329,192,300196,128,0,300274:0:0:0:0:
256,192,300196,1,0,0:0:0:0:
109,192,300353,128,0,300431:0:0:0:0:
475,192,300353,128,0,300665:0:0:0:0:
36,192,300353,128,0,300509:0:0:0:0:
182,192,300509,1,0,0:0:0:0:
256,192,300509,1,0,0:0:0:0:
329,192,300665,128,0,300978:0:0:0:0:
402,192,300665,128,0,300821:0:0:0:0:
109,192,300665,1,0,0:0:0:0:
182,192,300821,1,0,0:0:0:0:
475,192,300978,128,0,301290:0:0:0:0:
256,192,300978,128,0,301134:0:0:0:0:
36,192,300978,128,0,301056:0:0:0:0:
402,192,301134,128,0,301212:0:0:0:0:
182,192,301134,1,0,0:0:0:0:
329,192,301290,128,0,301446:0:0:0:0:
109,192,301290,128,0,301368:0:0:0:0:
36,192,301290,1,0,0:0:0:0:
402,192,301446,128,0,301524:0:0:0:0:
182,192,301446,1,0,0:0:0:0:
475,192,301603,128,0,301915:0:0:0:0:
256,192,301603,1,0,0:0:0:0:
36,192,301603,128,0,301759:0:0:0:0:
182,192,301759,128,0,301837:0:0:0:0:
402,192,301759,1,0,0:0:0:0:
109,192,301915,128,0,302071:0:0:0:0:
36,192,301915,1,0,0:0:0:0:
402,192,302071,128,0,302149:0:0:0:0:
182,192,302071,1,0,0:0:0:0:
329,192,302110,1,0,0:0:0:0:
109,192,302228,128,0,302306:0:0:0:0:
475,192,302228,128,0,302540:0:0:0:0:
256,192,302228,128,0,302384:0:0:0:0:
329,192,302384,128,0,302462:0:0:0:0:
36,192,302384,1,0,0:0:0:0:
402,192,302540,128,0,302618:0:0:0:0:
109,192,302540,128,0,302696:0:0:0:0:
256,192,302696,128,0,302774:0:0:0:0:
36,192,302696,1,0,0:0:0:0:
329,192,302853,128,0,302931:0:0:0:0:
475,192,302853,128,0,303165:0:0:0:0:
182,192,302853,128,0,303009:0:0:0:0:
36,192,303009,1,0,0:0:0:0:
402,192,303009,1,0,0:0:0:0:
329,192,303165,128,0,303478:0:0:0:0:
256,192,303165,128,0,303321:0:0:0:0:
109,192,303165,1,0,0:0:0:0:
402,192,303321,1,0,0:0:0:0:
475,192,303478,128,0,303634:0:0:0:0:
109,192,303478,1,0,0:0:0:0:
36,192,303478,128,0,303556:0:0:0:0:
329,192,303634,1,0,0:0:0:0:
256,192,303634,128,0,303712:0:0:0:0:
475,192,303790,1,0,0:0:0:0:
182,192,303790,128,0,303868:0:0:0:0:
402,192,303946,128,0,304024:0:0:0:0:
36,192,303946,128,0,304103:0:0:0:0:
109,192,303985,128,0,304103:0:0:0:0:
256,192,304103,1,0,0:0:0:0:
475,192,304103,1,0,0:0:0:0:
182,192,304103,1,0,0:0:0:0:
402,192,304259,1,0,0:0:0:0:
329,192,304259,128,0,304337:0:0:0:0:
475,192,304415,128,0,304571:0:0:0:0:
256,192,304415,128,0,304493:0:0:0:0:
182,192,304571,1,0,0:0:0:0:
329,192,304571,128,0,304649:0:0:0:0:
36,192,304610,1,0,0:0:0:0:
402,192,304728,1,0,0:0:0:0:
182,192,304728,128,0,304806:0:0:0:0:
36,192,304884,128,0,305040:0:0:0:0:
256,192,304884,1,0,0:0:0:0:
475,192,304884,128,0,304962:0:0:0:0:
182,192,305040,1,0,0:0:0:0:
329,192,305040,128,0,305118:0:0:0:0:
402,192,305040,1,0,0:0:0:0:
109,192,305196,1,0,0:0:0:0:
256,192,305196,128,0,305274:0:0:0:0:
475,192,305353,128,0,305509:0:0:0:0:
256,192,305353,128,0,305431:0:0:0:0:
329,192,305509,128,0,305665:0:0:0:0:
256,192,305509,128,0,305587:0:0:0:0:
36,192,305665,128,0,305821:0:0:0:0:
256,192,305665,128,0,305782:0:0:0:0:
402,192,305665,1,0,0:0:0:0:
182,192,305821,128,0,305978:0:0:0:0:
256,192,305821,128,0,305978:0:0:0:0:
475,192,305821,1,0,0:0:0:0:
402,192,305978,128,0,306134:0:0:0:0:
36,192,305978,128,0,306290:0:0:0:0:
109,192,305978,128,0,306056:0:0:0:0:
329,192,306134,1,0,0:0:0:0:
475,192,306134,128,0,306212:0:0:0:0:
329,192,306290,128,0,306446:0:0:0:0:
256,192,306290,1,0,0:0:0:0:
402,192,306290,128,0,306368:0:0:0:0:
182,192,306446,1,0,0:0:0:0:
109,192,306446,128,0,306524:0:0:0:0:
256,192,306603,128,0,306759:0:0:0:0:
475,192,306603,1,0,0:0:0:0:
36,192,306603,128,0,306915:0:0:0:0:
402,192,306759,1,0,0:0:0:0:
329,192,306759,128,0,306837:0:0:0:0:
182,192,306915,128,0,307071:0:0:0:0:
475,192,306915,1,0,0:0:0:0:
256,192,307071,1,0,0:0:0:0:
109,192,307071,128,0,307149:0:0:0:0:
329,192,307110,1,0,0:0:0:0:
475,192,307228,128,0,307384:0:0:0:0:
36,192,307228,128,0,307540:0:0:0:0:
402,192,307228,128,0,307306:0:0:0:0:
329,192,307384,1,0,0:0:0:0:
182,192,307384,128,0,307462:0:0:0:0:
402,192,307540,128,0,307696:0:0:0:0:
109,192,307540,128,0,307618:0:0:0:0:
182,192,307696,1,0,0:0:0:0:
256,192,307696,128,0,307774:0:0:0:0:
475,192,307853,128,0,308009:0:0:0:0:
36,192,307853,128,0,308165:0:0:0:0:
402,192,307853,128,0,307931:0:0:0:0:
256,192,308009,1,0,0:0:0:0:
329,192,308009,1,0,0:0:0:0:
109,192,308165,128,0,308321:0:0:0:0:
182,192,308165,128,0,308478:0:0:0:0:
402,192,308165,1,0,0:0:0:0:
475,192,308321,1,0,0:0:0:0:
256,192,308478,128,0,308634:0:0:0:0:
36,192,308478,128,0,308751:0:0:0:0:
109,192,308478,128,0,308556:0:0:0:0:
329,192,308634,1,0,0:0:0:0:
475,192,308634,128,0,308712:0:0:0:0:
402,192,308790,128,0,308946:0:0:0:0:
182,192,308790,128,0,308868:0:0:0:0:
256,192,308790,1,0,0:0:0:0:
475,192,308946,1,0,0:0:0:0:
329,192,308946,128,0,309024:0:0:0:0:
109,192,309103,128,0,309259:0:0:0:0:
182,192,309103,1,0,0:0:0:0:
36,192,309103,128,0,309376:0:0:0:0:
256,192,309259,1,0,0:0:0:0:
475,192,309259,128,0,309337:0:0:0:0:
182,192,309415,128,0,309571:0:0:0:0:
329,192,309415,1,0,0:0:0:0:
475,192,309571,1,0,0:0:0:0:
402,192,309571,128,0,309649:0:0:0:0:
109,192,309610,1,0,0:0:0:0:
329,192,309728,128,0,309884:0:0:0:0:
36,192,309728,128,0,310001:0:0:0:0:
256,192,309728,128,0,309806:0:0:0:0:
182,192,309884,1,0,0:0:0:0:
109,192,309884,128,0,309962:0:0:0:0:
402,192,310040,128,0,310196:0:0:0:0:
329,192,310040,128,0,310118:0:0:0:0:
256,192,310196,1,0,0:0:0:0:
182,192,310196,128,0,310274:0:0:0:0:
475,192,310353,128,0,310509:0:0:0:0:
36,192,310353,128,0,310626:0:0:0:0:
402,192,310353,128,0,310431:0:0:0:0:
256,192,310509,1,0,0:0:0:0:
329,192,310509,1,0,0:0:0:0:
109,192,310665,128,0,310821:0:0:0:0:
182,192,310665,128,0,310978:0:0:0:0:
402,192,310665,1,0,0:0:0:0:
329,192,310821,1,0,0:0:0:0:
256,192,310978,128,0,311134:0:0:0:0:
36,192,310978,128,0,311212:0:0:0:0:
475,192,310978,128,0,311056:0:0:0:0:
329,192,311134,1,0,0:0:0:0:
109,192,311134,128,0,311212:0:0:0:0:
182,192,311290,128,0,311446:0:0:0:0:
402,192,311290,128,0,311368:0:0:0:0:
475,192,311290,1,0,0:0:0:0:
329,192,311446,1,0,0:0:0:0:
109,192,311446,128,0,311524:0:0:0:0:
475,192,311603,128,0,311759:0:0:0:0:
256,192,311603,1,0,0:0:0:0:
36,192,311603,128,0,311837:0:0:0:0:
109,192,311759,1,0,0:0:0:0:
329,192,311759,128,0,311837:0:0:0:0:
402,192,311915,128,0,312071:0:0:0:0:
475,192,311915,1,0,0:0:0:0:
329,192,312071,1,0,0:0:0:0:
109,192,312071,128,0,312149:0:0:0:0:
182,192,312110,1,0,0:0:0:0:
256,192,312228,128,0,312384:0:0:0:0:
36,192,312228,128,0,312462:0:0:0:0:
402,192,312228,128,0,312306:0:0:0:0:
475,192,312384,1,0,0:0:0:0:
182,192,312384,128,0,312462:0:0:0:0:
402,192,312540,128,0,312696:0:0:0:0:
109,192,312540,128,0,312618:0:0:0:0:
475,192,312696,1,0,0:0:0:0:
256,192,312696,128,0,312774:0:0:0:0:
329,192,312853,128,0,313009:0:0:0:0:
36,192,312853,128,0,313087:0:0:0:0:
182,192,312853,128,0,312931:0:0:0:0:
109,192,313009,1,0,0:0:0:0:
475,192,313009,1,0,0:0:0:0:
256,192,313165,128,0,313321:0:0:0:0:
182,192,313165,128,0,313478:0:0:0:0:
402,192,313165,1,0,0:0:0:0:
109,192,313321,1,0,0:0:0:0:
475,192,313478,128,0,313556:0:0:0:0:
402,192,313478,1,0,0:0:0:0:
36,192,313478,128,0,313634:0:0:0:0:
256,192,313634,128,0,313712:0:0:0:0:
182,192,313634,1,0,0:0:0:0:
329,192,313790,128,0,313868:0:0:0:0:
36,192,313790,1,0,0:0:0:0:
475,192,313946,128,0,314103:0:0:0:0:
109,192,313946,128,0,314024:0:0:0:0:
402,192,313985,128,0,314103:0:0:0:0:
329,192,314103,1,0,0:0:0:0:
36,192,314103,1,0,0:0:0:0:
256,192,314103,1,0,0:0:0:0:
182,192,314259,128,0,314337:0:0:0:0:
109,192,314259,1,0,0:0:0:0:
256,192,314415,128,0,314493:0:0:0:0:
36,192,314415,128,0,314571:0:0:0:0:
182,192,314571,128,0,314649:0:0:0:0:
329,192,314571,1,0,0:0:0:0:
475,192,314610,1,0,0:0:0:0:
329,192,314728,128,0,314806:0:0:0:0:
109,192,314728,1,0,0:0:0:0:
36,192,314884,128,0,314962:0:0:0:0:
256,192,314884,1,0,0:0:0:0:
475,192,314884,128,0,315040:0:0:0:0:
109,192,315040,1,0,0:0:0:0:
182,192,315040,128,0,315118:0:0:0:0:
329,192,315040,1,0,0:0:0:0:
256,192,315196,128,0,315274:0:0:0:0:
402,192,315196,1,0,0:0:0:0:
256,192,315353,128,0,315431:0:0:0:0:
36,192,315353,128,0,315509:0:0:0:0:
256,192,315509,128,0,315587:0:0:0:0:
182,192,315509,128,0,315665:0:0:0:0:
109,192,315665,1,0,0:0:0:0:
256,192,315665,128,0,315782:0:0:0:0:
475,192,315665,128,0,315821:0:0:0:0:
36,192,315821,1,0,0:0:0:0:
256,192,315821,128,0,315978:0:0:0:0:
329,192,315821,128,0,315978:0:0:0:0:
402,192,315978,128,0,316056:0:0:0:0:
475,192,315978,128,0,316212:0:0:0:0:
109,192,315978,128,0,316134:0:0:0:0:
36,192,316134,128,0,316212:0:0:0:0:
182,192,316134,1,0,0:0:0:0:
109,192,316290,128,0,316368:0:0:0:0:
256,192,316290,1,0,0:0:0:0:
182,192,316290,128,0,316446:0:0:0:0:
402,192,316446,128,0,316524:0:0:0:0:
329,192,316446,1,0,0:0:0:0:
475,192,316603,128,0,316837:0:0:0:0:
36,192,316603,1,0,0:0:0:0:
256,192,316603,128,0,316759:0:0:0:0:
182,192,316759,128,0,316837:0:0:0:0:
109,192,316759,1,0,0:0:0:0:
36,192,316915,1,0,0:0:0:0:
329,192,316915,128,0,317071:0:0:0:0:
402,192,317071,128,0,317149:0:0:0:0:
256,192,317071,1,0,0:0:0:0:
109,192,317228,128,0,317306:0:0:0:0:
475,192,317228,128,0,317462:0:0:0:0:
36,192,317228,128,0,317384:0:0:0:0:
329,192,317384,128,0,317462:0:0:0:0:
182,192,317384,1,0,0:0:0:0:
402,192,317540,128,0,317618:0:0:0:0:
109,192,317540,128,0,317696:0:0:0:0:
256,192,317696,128,0,317774:0:0:0:0:
329,192,317696,1,0,0:0:0:0:
109,192,317853,128,0,317931:0:0:0:0:
475,192,317853,128,0,318087:0:0:0:0:
36,192,317853,128,0,318009:0:0:0:0:
182,192,318009,1,0,0:0:0:0:
256,192,318009,1,0,0:0:0:0:
329,192,318165,128,0,318399:0:0:0:0:
402,192,318165,128,0,318321:0:0:0:0:
109,192,318165,1,0,0:0:0:0:
36,192,318321,1,0,0:0:0:0:
475,192,318478,128,0,318673:0:0:0:0:
256,192,318478,128,0,318634:0:0:0:0:
402,192,318478,1,0,0:0:0:0:
36,192,318634,1,0,0:0:0:0:
109,192,318790,128,0,318946:0:0:0:0:
329,192,318790,1,0,0:0:0:0:
182,192,318946,1,0,0:0:0:0:
475,192,319103,128,0,319298:0:0:0:0:
329,192,319103,1,0,0:0:0:0:
402,192,319103,128,0,319259:0:0:0:0:
36,192,319259,1,0,0:0:0:0:
182,192,319415,1,0,0:0:0:0:
329,192,319415,128,0,319571:0:0:0:0:
109,192,319571,1,0,0:0:0:0:
475,192,319728,128,0,319923:0:0:0:0:
182,192,319728,128,0,319884:0:0:0:0:
256,192,319728,1,0,0:0:0:0:
402,192,319884,1,0,0:0:0:0:
109,192,320040,128,0,320196:0:0:0:0:
182,192,320040,1,0,0:0:0:0:
329,192,320196,1,0,0:0:0:0:
475,192,320353,128,0,320548:0:0:0:0:
36,192,320353,128,0,320509:0:0:0:0:
109,192,320353,1,0,0:0:0:0:
256,192,320509,1,0,0:0:0:0:
329,192,320665,128,0,320860:0:0:0:0:
402,192,320665,128,0,320821:0:0:0:0:
182,192,320821,1,0,0:0:0:0:
475,192,320978,128,0,321134:0:0:0:0:
256,192,320978,128,0,321134:0:0:0:0:
36,192,320978,1,0,0:0:0:0:
402,192,321134,1,0,0:0:0:0:
329,192,321290,128,0,321446:0:0:0:0:
109,192,321290,1,0,0:0:0:0:
402,192,321446,1,0,0:0:0:0:
475,192,321603,128,0,321759:0:0:0:0:
256,192,321603,1,0,0:0:0:0:
36,192,321603,128,0,321759:0:0:0:0:
182,192,321759,1,0,0:0:0:0:
109,192,321915,128,0,322071:0:0:0:0:
329,192,321915,1,0,0:0:0:0:
402,192,322071,1,0,0:0:0:0:
475,192,322228,128,0,322384:0:0:0:0:
256,192,322228,128,0,322384:0:0:0:0:
109,192,322228,1,0,0:0:0:0:
329,192,322384,1,0,0:0:0:0:
109,192,322540,128,0,322696:0:0:0:0:
402,192,322540,1,0,0:0:0:0:
256,192,322696,1,0,0:0:0:0:
475,192,322853,128,0,323009:0:0:0:0:
182,192,322853,128,0,323009:0:0:0:0:
329,192,322853,1,0,0:0:0:0:
36,192,323009,1,0,0:0:0:0:
329,192,323165,128,0,323321:0:0:0:0:
256,192,323165,128,0,323321:0:0:0:0:
402,192,323321,1,0,0:0:0:0:
329,192,323478,1,0,0:0:0:0:
36,192,323478,1,0,0:0:0:0:
475,192,323478,128,0,323634:0:0:0:0:
402,192,323634,1,0,0:0:0:0:
36,192,323790,1,0,0:0:0:0:
329,192,323790,1,0,0:0:0:0:
109,192,323946,1,0,0:0:0:0:
402,192,323946,1,0,0:0:0:0:
36,192,323946,128,0,324103:0:0:0:0:
182,192,324103,1,0,0:0:0:0:
475,192,324259,1,0,0:0:0:0:
402,192,324259,1,0,0:0:0:0:
329,192,324415,1,0,0:0:0:0:
182,192,324415,1,0,0:0:0:0:
475,192,324415,128,0,324571:0:0:0:0:
256,192,324571,1,0,0:0:0:0:
36,192,324728,1,0,0:0:0:0:
329,192,324728,1,0,0:0:0:0:
402,192,324884,1,0,0:0:0:0:
36,192,324884,128,0,325040:0:0:0:0:
182,192,324884,1,0,0:0:0:0:
109,192,324884,1,0,0:0:0:0:
329,192,325040,1,0,0:0:0:0:
182,192,325196,1,0,0:0:0:0:
402,192,325196,1,0,0:0:0:0:
475,192,325353,1,0,0:0:0:0:
36,192,325353,128,0,325509:0:0:0:0:
109,192,325353,1,0,0:0:0:0:
256,192,325353,128,0,325431:0:0:0:0:
256,192,325509,128,0,325587:0:0:0:0:
182,192,325509,128,0,325665:0:0:0:0:
329,192,325665,128,0,325821:0:0:0:0:
256,192,325665,128,0,325782:0:0:0:0:
475,192,325821,128,0,325978:0:0:0:0:
256,192,325821,128,0,325978:0:0:0:0:
36,192,325978,128,0,326290:0:0:0:0:
329,192,325978,1,0,0:0:0:0:
402,192,326134,1,0,0:0:0:0:
329,192,326290,1,0,0:0:0:0:
402,192,326446,1,0,0:0:0:0:
36,192,326603,128,0,326915:0:0:0:0:
182,192,326603,1,0,0:0:0:0:
109,192,326759,1,0,0:0:0:0:
182,192,326915,1,0,0:0:0:0:
109,192,327071,1,0,0:0:0:0:
36,192,327228,128,0,327501:0:0:0:0:
329,192,327228,1,0,0:0:0:0:
402,192,327384,1,0,0:0:0:0:
329,192,327540,1,0,0:0:0:0:
402,192,327696,1,0,0:0:0:0:
36,192,327853,128,0,328126:0:0:0:0:
182,192,327853,1,0,0:0:0:0:
109,192,328009,1,0,0:0:0:0:
182,192,328165,1,0,0:0:0:0:
256,192,328321,1,0,0:0:0:0:
36,192,328478,128,0,328712:0:0:0:0:
329,192,328478,1,0,0:0:0:0:
402,192,328634,1,0,0:0:0:0:
329,192,328790,1,0,0:0:0:0:
402,192,328946,1,0,0:0:0:0:
36,192,329103,128,0,329337:0:0:0:0:
182,192,329103,1,0,0:0:0:0:
109,192,329259,1,0,0:0:0:0:
182,192,329415,1,0,0:0:0:0:
109,192,329571,1,0,0:0:0:0:
36,192,329728,128,0,329923:0:0:0:0:
329,192,329728,1,0,0:0:0:0:
402,192,329884,1,0,0:0:0:0:
329,192,330040,1,0,0:0:0:0:
402,192,330196,1,0,0:0:0:0:
36,192,330353,128,0,330548:0:0:0:0:
182,192,330353,1,0,0:0:0:0:
109,192,330509,1,0,0:0:0:0:
182,192,330665,1,0,0:0:0:0:
256,192,330821,1,0,0:0:0:0:
36,192,330978,128,0,331134:0:0:0:0:
329,192,330978,1,0,0:0:0:0:
402,192,331134,1,0,0:0:0:0:
329,192,331290,1,0,0:0:0:0:
402,192,331446,1,0,0:0:0:0:
36,192,331603,128,0,331759:0:0:0:0:
182,192,331603,1,0,0:0:0:0:
109,192,331759,1,0,0:0:0:0:
182,192,331915,1,0,0:0:0:0:
109,192,332071,1,0,0:0:0:0:
36,192,332228,128,0,332345:0:0:0:0:
329,192,332228,1,0,0:0:0:0:
402,192,332384,1,0,0:0:0:0:
329,192,332540,1,0,0:0:0:0:
402,192,332696,1,0,0:0:0:0:
36,192,332853,128,0,332970:0:0:0:0:
182,192,332853,1,0,0:0:0:0:
109,192,333009,1,0,0:0:0:0:
182,192,333165,1,0,0:0:0:0:
402,192,333321,1,0,0:0:0:0:
256,192,333478,1,0,0:0:0:0:
329,192,333478,1,0,0:0:0:0:
256,192,333634,1,0,0:0:0:0:
402,192,333634,1,0,0:0:0:0:
256,192,333790,1,0,0:0:0:0:
329,192,333790,1,0,0:0:0:0:
256,192,333946,1,0,0:0:0:0:
109,192,333946,1,0,0:0:0:0:
182,192,334103,1,0,0:0:0:0:
256,192,334103,1,0,0:0:0:0:
109,192,334259,1,0,0:0:0:0:
256,192,334259,1,0,0:0:0:0:
182,192,334415,1,0,0:0:0:0:
256,192,334415,1,0,0:0:0:0:
402,192,334571,1,0,0:0:0:0:
256,192,334571,1,0,0:0:0:0:
256,192,334728,128,0,334780:0:0:0:0:
329,192,334728,1,0,0:0:0:0:
256,192,334884,128,0,334936:0:0:0:0:
402,192,334884,1,0,0:0:0:0:
256,192,335040,128,0,335118:0:0:0:0:
329,192,335040,1,0,0:0:0:0:
256,192,335196,128,0,335274:0:0:0:0:
109,192,335196,1,0,0:0:0:0:
256,192,335353,128,0,335457:0:0:0:0:
36,192,335353,1,0,0:0:0:0:
256,192,335509,128,0,335613:0:0:0:0:
182,192,335509,1,0,0:0:0:0:
256,192,335665,128,0,335782:0:0:0:0:
329,192,335665,1,0,0:0:0:0:
256,192,335821,128,0,335978:0:0:0:0:
475,192,335821,1,0,0:0:0:0:
329,192,335978,1,0,0:0:0:0:
402,192,336134,1,0,0:0:0:0:
475,192,336290,1,0,0:0:0:0:
402,192,336446,1,0,0:0:0:0:
182,192,336603,1,0,0:0:0:0:
109,192,336759,1,0,0:0:0:0:
36,192,336915,1,0,0:0:0:0:
109,192,337071,1,0,0:0:0:0:
329,192,337228,1,0,0:0:0:0:
402,192,337384,1,0,0:0:0:0:
475,192,337540,1,0,0:0:0:0:
402,192,337696,1,0,0:0:0:0:
182,192,337853,1,0,0:0:0:0:
109,192,338009,1,0,0:0:0:0:
36,192,338165,1,0,0:0:0:0:
475,192,338321,1,0,0:0:0:0:
329,192,338478,1,0,0:0:0:0:
402,192,338634,1,0,0:0:0:0:
475,192,338790,1,0,0:0:0:0:
402,192,338946,1,0,0:0:0:0:
182,192,339103,1,0,0:0:0:0:
109,192,339259,1,0,0:0:0:0:
36,192,339415,1,0,0:0:0:0:
109,192,339571,1,0,0:0:0:0:
329,192,339728,1,0,0:0:0:0:
402,192,339884,1,0,0:0:0:0:
475,192,340040,1,0,0:0:0:0:
402,192,340196,1,0,0:0:0:0:
182,192,340353,1,0,0:0:0:0:
109,192,340509,1,0,0:0:0:0:
36,192,340665,1,0,0:0:0:0:
475,192,340821,1,0,0:0:0:0:
329,192,340978,1,0,0:0:0:0:
402,192,341134,1,0,0:0:0:0:
475,192,341290,1,0,0:0:0:0:
402,192,341446,1,0,0:0:0:0:
182,192,341603,1,0,0:0:0:0:
109,192,341759,1,0,0:0:0:0:
36,192,341915,1,0,0:0:0:0:
109,192,342071,1,0,0:0:0:0:
329,192,342228,1,0,0:0:0:0:
402,192,342384,1,0,0:0:0:0:
475,192,342540,1,0,0:0:0:0:
402,192,342696,1,0,0:0:0:0:
182,192,342853,1,0,0:0:0:0:
109,192,343009,1,0,0:0:0:0:
36,192,343165,1,0,0:0:0:0:
475,192,343321,1,0,0:0:0:0:
329,192,343478,1,0,0:0:0:0:
256,192,343478,1,0,0:0:0:0:
402,192,343634,1,0,0:0:0:0:
256,192,343634,1,0,0:0:0:0:
475,192,343790,1,0,0:0:0:0:
256,192,343790,1,0,0:0:0:0:
36,192,343946,1,0,0:0:0:0:
256,192,343946,1,0,0:0:0:0:
182,192,344103,1,0,0:0:0:0:
256,192,344103,1,0,0:0:0:0:
109,192,344259,1,0,0:0:0:0:
256,192,344259,1,0,0:0:0:0:
36,192,344415,1,0,0:0:0:0:
256,192,344415,1,0,0:0:0:0:
475,192,344571,1,0,0:0:0:0:
256,192,344571,1,0,0:0:0:0:
329,192,344728,1,0,0:0:0:0:
256,192,344728,128,0,344780:0:0:0:0:
402,192,344884,1,0,0:0:0:0:
256,192,344884,128,0,344936:0:0:0:0:
475,192,345040,1,0,0:0:0:0:
256,192,345040,128,0,345118:0:0:0:0:
109,192,345196,1,0,0:0:0:0:
256,192,345196,128,0,345274:0:0:0:0:
36,192,345353,1,0,0:0:0:0:
256,192,345353,128,0,345457:0:0:0:0:
182,192,345509,1,0,0:0:0:0:
256,192,345509,128,0,345613:0:0:0:0:
329,192,345665,1,0,0:0:0:0:
256,192,345665,128,0,345782:0:0:0:0:
475,192,345821,1,0,0:0:0:0:
256,192,345821,128,0,345978:0:0:0:0:
