osu file format v14

[General]
AudioFilename: audio.ogg
AudioLeadIn: 0
PreviewTime: 14705
Countdown: 0
SampleSet: Normal
StackLeniency: 0.7
Mode: 3
LetterboxInBreaks: 0
SpecialStyle: 0
WidescreenStoryboard: 0

[Editor]
Bookmarks: 71556
DistanceSpacing: 0.1
BeatDivisor: 6
GridSize: 32
TimelineZoom: 2.7

[Metadata]
Title:good morning my dearest robot
TitleUnicode:グッド・モーニング・マイ・ディアレスト・ロボット
Artist:Chroma
ArtistUnicode:黒魔
Creator:Silicosis 2
Version:wake up, my dearest robot | insane
Source:
Tags:electronic house chiptune instrumental full album 愛を喜ぶ街 ai wo yorokobu machi 1st track tr 01 not records CuB-03 a city that rejoices in love
BeatmapID:4305513
BeatmapSetID:2059915

[Difficulty]
HPDrainRate:7.5
CircleSize:7
OverallDifficulty:7.2
ApproachRate:5
SliderMultiplier:1.4
SliderTickRate:1

[Events]
//Background and Video events
0,0,"goodmorningmydearestrobot.png",0,0
//Break Periods
//Storyboard Layer 0 (Background)
//Storyboard Layer 1 (Fail)
//Storyboard Layer 2 (Pass)
//Storyboard Layer 3 (Foreground)
//Storyboard Layer 4 (Overlay)
//Storyboard Sound Samples

[TimingPoints]
991,428.571428571429,4,1,1,30,1,0
96991,-100,4,1,1,30,0,1
110700,-100,4,1,1,30,0,0
110705,-100,4,1,1,30,0,1
124414,-100,4,1,1,30,0,0
124419,-100,4,1,1,30,0,1
138128,-100,4,1,1,30,0,0
138133,-100,4,1,1,30,0,1
151848,-100,4,1,1,30,0,0

[HitObjects]
36,192,991,5,0,0:0:0:0:
256,192,1276,1,0,0:0:0:0:
256,192,1562,1,0,0:0:0:0:
475,192,1848,1,0,0:0:0:0:
256,192,2133,1,0,0:0:0:0:
256,192,2419,1,0,0:0:0:0:
36,192,2705,128,0,2848:0:0:0:0:
256,192,2991,1,0,0:0:0:0:
256,192,3276,1,0,0:0:0:0:
475,192,3562,128,0,3705:0:0:0:0:
256,192,3848,1,0,0:0:0:0:
256,192,4133,1,0,0:0:0:0:
109,192,4419,1,0,0:0:0:0:
36,192,4419,128,0,4562:0:0:0:0:
256,192,4705,128,0,4848:0:0:0:0:
36,192,4848,1,0,0:0:0:0:
256,192,4991,128,0,5133:0:0:0:0:
402,192,5276,1,0,0:0:0:0:
475,192,5276,128,0,5419:0:0:0:0:
256,192,5562,128,0,5705:0:0:0:0:
475,192,5705,1,0,0:0:0:0:
256,192,5848,128,0,5991:0:0:0:0:
182,192,6133,1,0,0:0:0:0:
36,192,6133,128,0,6276:0:0:0:0:
256,192,6419,128,0,6562:0:0:0:0:
36,192,6562,1,0,0:0:0:0:
256,192,6705,128,0,6848:0:0:0:0:
329,192,6991,1,0,0:0:0:0:
475,192,6991,128,0,7133:0:0:0:0:
256,192,7276,128,0,7419:0:0:0:0:
475,192,7419,1,0,0:0:0:0:
256,192,7562,128,0,7705:0:0:0:0:
109,192,7848,1,0,0:0:0:0:
36,192,7848,128,0,7991:0:0:0:0:
256,192,8133,128,0,8276:0:0:0:0:
36,192,8276,1,0,0:0:0:0:
256,192,8419,128,0,8562:0:0:0:0:
402,192,8705,1,0,0:0:0:0:
475,192,8705,128,0,8848:0:0:0:0:
256,192,8991,128,0,9133:0:0:0:0:
475,192,9133,1,0,0:0:0:0:
256,192,9276,128,0,9419:0:0:0:0:
182,192,9562,1,0,0:0:0:0:
36,192,9562,128,0,9705:0:0:0:0:
256,192,9848,128,0,9991:0:0:0:0:
36,192,9991,1,0,0:0:0:0:
256,192,10133,128,0,10276:0:0:0:0:
402,192,10419,1,0,0:0:0:0:
475,192,10419,128,0,10562:0:0:0:0:
256,192,10705,128,0,10848:0:0:0:0:
475,192,10848,1,0,0:0:0:0:
256,192,10991,128,0,11133:0:0:0:0:
109,192,11276,1,0,0:0:0:0:
36,192,11276,128,0,11419:0:0:0:0:
256,192,11562,128,0,11705:0:0:0:0:
36,192,11705,1,0,0:0:0:0:
256,192,11848,128,0,11991:0:0:0:0:
402,192,12133,1,0,0:0:0:0:
475,192,12133,128,0,12276:0:0:0:0:
256,192,12419,128,0,12562:0:0:0:0:
475,192,12562,1,0,0:0:0:0:
256,192,12705,128,0,12848:0:0:0:0:
36,192,12991,128,0,13133:0:0:0:0:
182,192,12991,128,0,14133:0:0:0:0:
256,192,13276,128,0,13419:0:0:0:0:
36,192,13419,1,0,0:0:0:0:
256,192,13562,128,0,13705:0:0:0:0:
329,192,13848,1,0,0:0:0:0:
475,192,13848,128,0,13991:0:0:0:0:
402,192,14133,1,0,0:0:0:0:
256,192,14133,1,0,0:0:0:0:
36,192,14133,1,0,0:0:0:0:
109,192,14419,1,0,0:0:0:0:
109,192,14562,1,0,0:0:0:0:
182,192,14705,128,0,14848:0:0:0:0:
475,192,14705,128,0,21562:0:0:0:0:
36,192,14705,1,0,0:0:0:0:
329,192,14705,1,0,0:0:0:0:
402,192,14848,128,0,14991:0:0:0:0:
256,192,14991,128,0,15133:0:0:0:0:
109,192,14991,1,0,0:0:0:0:
329,192,15133,128,0,15276:0:0:0:0:
256,192,15276,128,0,15419:0:0:0:0:
36,192,15276,1,0,0:0:0:0:
182,192,15419,128,0,15562:0:0:0:0:
402,192,15562,128,0,15705:0:0:0:0:
329,192,15562,1,0,0:0:0:0:
109,192,15705,128,0,15848:0:0:0:0:
256,192,15848,128,0,15991:0:0:0:0:
329,192,15848,1,0,0:0:0:0:
36,192,15991,128,0,16133:0:0:0:0:
256,192,16133,128,0,16276:0:0:0:0:
402,192,16133,1,0,0:0:0:0:
109,192,16276,128,0,16419:0:0:0:0:
329,192,16419,128,0,16562:0:0:0:0:
36,192,16419,1,0,0:0:0:0:
182,192,16562,128,0,16705:0:0:0:0:
256,192,16705,128,0,16848:0:0:0:0:
402,192,16705,1,0,0:0:0:0:
36,192,16848,128,0,16991:0:0:0:0:
256,192,16991,128,0,17133:0:0:0:0:
329,192,16991,1,0,0:0:0:0:
109,192,17133,128,0,17276:0:0:0:0:
182,192,17276,128,0,17419:0:0:0:0:
36,192,17276,1,0,0:0:0:0:
402,192,17419,128,0,17562:0:0:0:0:
256,192,17562,128,0,17705:0:0:0:0:
329,192,17562,1,0,0:0:0:0:
109,192,17705,128,0,17848:0:0:0:0:
256,192,17848,128,0,17991:0:0:0:0:
36,192,17848,1,0,0:0:0:0:
402,192,17991,128,0,18133:0:0:0:0:
182,192,18133,128,0,18276:0:0:0:0:
36,192,18133,128,0,21562:0:0:0:0:
256,192,18419,128,0,18562:0:0:0:0:
256,192,18705,128,0,18848:0:0:0:0:
402,192,18991,128,0,19133:0:0:0:0:
109,192,18991,1,0,0:0:0:0:
256,192,19276,128,0,19419:0:0:0:0:
256,192,19562,128,0,19705:0:0:0:0:
182,192,19848,128,0,19991:0:0:0:0:
329,192,19848,1,0,0:0:0:0:
256,192,20133,128,0,20276:0:0:0:0:
256,192,20419,128,0,20562:0:0:0:0:
402,192,20705,128,0,20848:0:0:0:0:
109,192,20705,1,0,0:0:0:0:
256,192,20991,128,0,21133:0:0:0:0:
256,192,21276,128,0,21419:0:0:0:0:
182,192,21562,128,0,24991:0:0:0:0:
109,192,21562,128,0,21705:0:0:0:0:
256,192,21848,128,0,21991:0:0:0:0:
256,192,22133,128,0,22276:0:0:0:0:
36,192,22419,128,0,23276:0:0:0:0:
329,192,22419,1,0,0:0:0:0:
475,192,22419,128,0,22562:0:0:0:0:
256,192,22705,128,0,22848:0:0:0:0:
256,192,22991,128,0,23133:0:0:0:0:
402,192,23276,128,0,24133:0:0:0:0:
109,192,23276,128,0,23419:0:0:0:0:
329,192,23276,1,0,0:0:0:0:
256,192,23562,128,0,23705:0:0:0:0:
256,192,23848,128,0,23991:0:0:0:0:
475,192,24133,128,0,24991:0:0:0:0:
329,192,24133,128,0,24276:0:0:0:0:
36,192,24133,1,0,0:0:0:0:
256,192,24419,128,0,24562:0:0:0:0:
256,192,24705,128,0,24848:0:0:0:0:
329,192,24991,128,0,26705:0:0:0:0:
109,192,24991,128,0,26705:0:0:0:0:
36,192,24991,128,0,25133:0:0:0:0:
256,192,25276,128,0,25419:0:0:0:0:
256,192,25562,128,0,25705:0:0:0:0:
475,192,25848,128,0,25991:0:0:0:0:
182,192,25848,1,0,0:0:0:0:
256,192,26133,128,0,26276:0:0:0:0:
256,192,26419,128,0,26562:0:0:0:0:
36,192,26705,128,0,28419:0:0:0:0:
475,192,26705,128,0,26848:0:0:0:0:
182,192,26705,1,0,0:0:0:0:
256,192,26991,128,0,27133:0:0:0:0:
256,192,27276,128,0,27419:0:0:0:0:
182,192,27562,128,0,27705:0:0:0:0:
402,192,27562,1,0,0:0:0:0:
256,192,27848,128,0,27991:0:0:0:0:
256,192,28133,128,0,28419:0:0:0:0:
475,192,28419,128,0,35276:0:0:0:0:
182,192,28419,1,0,0:0:0:0:
109,192,28419,128,0,28562:0:0:0:0:
402,192,28419,1,0,0:0:0:0:
329,192,28562,128,0,28705:0:0:0:0:
256,192,28705,128,0,28848:0:0:0:0:
36,192,28705,1,0,0:0:0:0:
109,192,28848,128,0,28991:0:0:0:0:
256,192,28991,128,0,29133:0:0:0:0:
182,192,28991,1,0,0:0:0:0:
329,192,29133,128,0,29276:0:0:0:0:
109,192,29276,128,0,29419:0:0:0:0:
36,192,29276,1,0,0:0:0:0:
402,192,29419,128,0,29562:0:0:0:0:
256,192,29562,128,0,29705:0:0:0:0:
36,192,29562,1,0,0:0:0:0:
329,192,29705,128,0,29848:0:0:0:0:
256,192,29848,128,0,29991:0:0:0:0:
182,192,29848,1,0,0:0:0:0:
402,192,29991,128,0,30133:0:0:0:0:
109,192,30133,128,0,30276:0:0:0:0:
182,192,30133,1,0,0:0:0:0:
329,192,30276,128,0,30419:0:0:0:0:
256,192,30419,128,0,30562:0:0:0:0:
36,192,30419,1,0,0:0:0:0:
402,192,30562,128,0,30705:0:0:0:0:
256,192,30705,128,0,30848:0:0:0:0:
109,192,30705,1,0,0:0:0:0:
182,192,30848,128,0,30991:0:0:0:0:
36,192,30991,128,0,31133:0:0:0:0:
329,192,30991,1,0,0:0:0:0:
109,192,31133,128,0,31276:0:0:0:0:
256,192,31276,128,0,31419:0:0:0:0:
402,192,31276,1,0,0:0:0:0:
182,192,31419,128,0,31562:0:0:0:0:
256,192,31562,128,0,31705:0:0:0:0:
109,192,31562,1,0,0:0:0:0:
329,192,31705,128,0,31848:0:0:0:0:
109,192,31848,128,0,35276:0:0:0:0:
36,192,31848,128,0,31991:0:0:0:0:
256,192,32133,128,0,32276:0:0:0:0:
256,192,32419,128,0,32562:0:0:0:0:
402,192,32705,128,0,32848:0:0:0:0:
182,192,32705,1,0,0:0:0:0:
256,192,32991,128,0,33133:0:0:0:0:
256,192,33276,128,0,33419:0:0:0:0:
36,192,33562,128,0,33705:0:0:0:0:
329,192,33562,1,0,0:0:0:0:
256,192,33848,128,0,33991:0:0:0:0:
256,192,34133,128,0,34276:0:0:0:0:
402,192,34419,128,0,34562:0:0:0:0:
182,192,34419,1,0,0:0:0:0:
256,192,34705,128,0,34848:0:0:0:0:
256,192,34991,128,0,35133:0:0:0:0:
36,192,35276,128,0,35419:0:0:0:0:
182,192,35276,128,0,38705:0:0:0:0:
256,192,35562,128,0,35705:0:0:0:0:
256,192,35848,128,0,35991:0:0:0:0:
475,192,36133,128,0,36276:0:0:0:0:
402,192,36133,128,0,36991:0:0:0:0:
36,192,36133,1,0,0:0:0:0:
256,192,36419,128,0,36562:0:0:0:0:
256,192,36705,128,0,36848:0:0:0:0:
109,192,36991,128,0,37848:0:0:0:0:
36,192,36991,128,0,37133:0:0:0:0:
475,192,36991,1,0,0:0:0:0:
256,192,37276,128,0,37419:0:0:0:0:
256,192,37562,128,0,37705:0:0:0:0:
36,192,37848,128,0,38705:0:0:0:0:
475,192,37848,128,0,37991:0:0:0:0:
402,192,37848,1,0,0:0:0:0:
256,192,38133,128,0,38276:0:0:0:0:
256,192,38419,128,0,38562:0:0:0:0:
109,192,38705,128,0,40419:0:0:0:0:
402,192,38705,128,0,38848:0:0:0:0:
329,192,38705,128,0,40419:0:0:0:0:
256,192,38991,128,0,39133:0:0:0:0:
256,192,39276,128,0,39419:0:0:0:0:
182,192,39562,128,0,39705:0:0:0:0:
475,192,39562,1,0,0:0:0:0:
256,192,39848,128,0,39991:0:0:0:0:
256,192,40133,128,0,40276:0:0:0:0:
36,192,40419,128,0,41848:0:0:0:0:
402,192,40419,128,0,40562:0:0:0:0:
475,192,40419,1,0,0:0:0:0:
256,192,40705,128,0,40848:0:0:0:0:
256,192,40991,128,0,41133:0:0:0:0:
182,192,41276,128,0,41419:0:0:0:0:
475,192,41276,1,0,0:0:0:0:
256,192,41562,128,0,41848:0:0:0:0:
402,192,41848,1,0,0:0:0:0:
402,192,41991,1,0,0:0:0:0:
109,192,42133,1,0,0:0:0:0:
475,192,42133,1,0,0:0:0:0:
36,192,42133,128,0,42276:0:0:0:0:
182,192,42276,1,0,0:0:0:0:
256,192,42419,128,0,42562:0:0:0:0:
402,192,42419,1,0,0:0:0:0:
36,192,42562,1,0,0:0:0:0:
256,192,42705,128,0,42848:0:0:0:0:
109,192,42848,1,0,0:0:0:0:
182,192,42848,1,0,0:0:0:0:
329,192,42991,1,0,0:0:0:0:
475,192,42991,128,0,43133:0:0:0:0:
402,192,42991,1,0,0:0:0:0:
36,192,43133,1,0,0:0:0:0:
109,192,43133,1,0,0:0:0:0:
256,192,43276,128,0,43419:0:0:0:0:
402,192,43348,1,0,0:0:0:0:
475,192,43419,1,0,0:0:0:0:
256,192,43562,128,0,43705:0:0:0:0:
182,192,43705,1,0,0:0:0:0:
109,192,43705,1,0,0:0:0:0:
475,192,43848,1,0,0:0:0:0:
36,192,43848,128,0,43991:0:0:0:0:
329,192,43848,1,0,0:0:0:0:
402,192,43991,1,0,0:0:0:0:
182,192,44133,1,0,0:0:0:0:
256,192,44133,128,0,44276:0:0:0:0:
36,192,44276,1,0,0:0:0:0:
256,192,44419,128,0,44562:0:0:0:0:
329,192,44562,1,0,0:0:0:0:
109,192,44562,1,0,0:0:0:0:
182,192,44705,1,0,0:0:0:0:
475,192,44705,128,0,44848:0:0:0:0:
402,192,44705,1,0,0:0:0:0:
109,192,44776,1,0,0:0:0:0:
36,192,44848,1,0,0:0:0:0:
182,192,44991,1,0,0:0:0:0:
256,192,44991,128,0,45133:0:0:0:0:
475,192,45133,1,0,0:0:0:0:
256,192,45276,128,0,45419:0:0:0:0:
329,192,45419,1,0,0:0:0:0:
402,192,45491,1,0,0:0:0:0:
36,192,45562,128,0,45705:0:0:0:0:
475,192,45562,1,0,0:0:0:0:
182,192,45562,1,0,0:0:0:0:
329,192,45705,1,0,0:0:0:0:
109,192,45848,1,0,0:0:0:0:
256,192,45848,128,0,45991:0:0:0:0:
36,192,45991,1,0,0:0:0:0:
256,192,46133,128,0,46276:0:0:0:0:
182,192,46276,1,0,0:0:0:0:
329,192,46276,1,0,0:0:0:0:
475,192,46419,128,0,46562:0:0:0:0:
109,192,46419,1,0,0:0:0:0:
36,192,46419,1,0,0:0:0:0:
402,192,46562,1,0,0:0:0:0:
256,192,46705,128,0,46848:0:0:0:0:
109,192,46776,1,0,0:0:0:0:
36,192,46848,1,0,0:0:0:0:
475,192,46848,1,0,0:0:0:0:
256,192,46991,128,0,47133:0:0:0:0:
329,192,47133,1,0,0:0:0:0:
402,192,47133,1,0,0:0:0:0:
36,192,47276,128,0,47419:0:0:0:0:
109,192,47276,1,0,0:0:0:0:
475,192,47276,1,0,0:0:0:0:
182,192,47419,1,0,0:0:0:0:
475,192,47562,1,0,0:0:0:0:
256,192,47562,128,0,47705:0:0:0:0:
36,192,47705,1,0,0:0:0:0:
256,192,47848,128,0,47991:0:0:0:0:
109,192,47991,1,0,0:0:0:0:
402,192,47991,1,0,0:0:0:0:
182,192,48133,1,0,0:0:0:0:
475,192,48133,128,0,48276:0:0:0:0:
36,192,48133,1,0,0:0:0:0:
256,192,48205,1,0,0:0:0:0:
329,192,48276,1,0,0:0:0:0:
402,192,48324,1,0,0:0:0:0:
475,192,48371,1,0,0:0:0:0:
256,192,48419,128,0,48562:0:0:0:0:
36,192,48491,1,0,0:0:0:0:
109,192,48562,1,0,0:0:0:0:
182,192,48633,1,0,0:0:0:0:
256,192,48705,128,0,48848:0:0:0:0:
329,192,48776,1,0,0:0:0:0:
402,192,48848,1,0,0:0:0:0:
475,192,48919,1,0,0:0:0:0:
182,192,48991,1,0,0:0:0:0:
36,192,48991,128,0,49133:0:0:0:0:
109,192,48991,1,0,0:0:0:0:
329,192,49133,128,0,49276:0:0:0:0:
109,192,49276,1,0,0:0:0:0:
256,192,49276,128,0,49419:0:0:0:0:
475,192,49419,128,0,49562:0:0:0:0:
256,192,49562,128,0,49705:0:0:0:0:
36,192,49705,1,0,0:0:0:0:
329,192,49705,128,0,49848:0:0:0:0:
475,192,49848,128,0,49991:0:0:0:0:
182,192,49848,1,0,0:0:0:0:
109,192,49848,1,0,0:0:0:0:
329,192,49991,1,0,0:0:0:0:
36,192,49991,128,0,50133:0:0:0:0:
256,192,50133,128,0,50276:0:0:0:0:
402,192,50205,1,0,0:0:0:0:
475,192,50276,1,0,0:0:0:0:
109,192,50276,128,0,50419:0:0:0:0:
256,192,50419,128,0,50562:0:0:0:0:
402,192,50562,1,0,0:0:0:0:
329,192,50562,128,0,50705:0:0:0:0:
475,192,50705,1,0,0:0:0:0:
36,192,50705,128,0,50848:0:0:0:0:
182,192,50705,1,0,0:0:0:0:
109,192,50848,128,0,50991:0:0:0:0:
329,192,50991,1,0,0:0:0:0:
256,192,50991,128,0,51133:0:0:0:0:
475,192,51133,128,0,51276:0:0:0:0:
256,192,51276,128,0,51419:0:0:0:0:
329,192,51419,1,0,0:0:0:0:
182,192,51419,128,0,51562:0:0:0:0:
402,192,51562,1,0,0:0:0:0:
475,192,51562,128,0,51705:0:0:0:0:
36,192,51562,1,0,0:0:0:0:
109,192,51633,1,0,0:0:0:0:
329,192,51705,1,0,0:0:0:0:
182,192,51705,128,0,51848:0:0:0:0:
402,192,51848,1,0,0:0:0:0:
256,192,51848,128,0,51991:0:0:0:0:
36,192,51991,128,0,52133:0:0:0:0:
256,192,52133,128,0,52276:0:0:0:0:
182,192,52276,128,0,52419:0:0:0:0:
109,192,52348,1,0,0:0:0:0:
36,192,52419,128,0,52562:0:0:0:0:
475,192,52419,1,0,0:0:0:0:
329,192,52419,1,0,0:0:0:0:
182,192,52562,1,0,0:0:0:0:
402,192,52705,1,0,0:0:0:0:
256,192,52705,128,0,52848:0:0:0:0:
109,192,52848,1,0,0:0:0:0:
256,192,52991,128,0,53133:0:0:0:0:
329,192,53133,1,0,0:0:0:0:
182,192,53133,1,0,0:0:0:0:
475,192,53276,128,0,53419:0:0:0:0:
402,192,53276,1,0,0:0:0:0:
36,192,53276,1,0,0:0:0:0:
109,192,53419,1,0,0:0:0:0:
256,192,53562,128,0,53705:0:0:0:0:
402,192,53633,1,0,0:0:0:0:
475,192,53705,1,0,0:0:0:0:
36,192,53705,1,0,0:0:0:0:
256,192,53848,128,0,53991:0:0:0:0:
182,192,53991,1,0,0:0:0:0:
109,192,53991,1,0,0:0:0:0:
36,192,54133,128,0,54276:0:0:0:0:
402,192,54133,1,0,0:0:0:0:
475,192,54133,1,0,0:0:0:0:
182,192,54276,1,0,0:0:0:0:
36,192,54419,1,0,0:0:0:0:
256,192,54419,128,0,54562:0:0:0:0:
475,192,54562,1,0,0:0:0:0:
256,192,54705,128,0,54848:0:0:0:0:
402,192,54848,1,0,0:0:0:0:
109,192,54848,1,0,0:0:0:0:
182,192,54991,1,0,0:0:0:0:
475,192,54991,128,0,55133:0:0:0:0:
36,192,54991,1,0,0:0:0:0:
256,192,55062,1,0,0:0:0:0:
329,192,55133,1,0,0:0:0:0:
402,192,55181,1,0,0:0:0:0:
475,192,55229,1,0,0:0:0:0:
256,192,55276,128,0,55419:0:0:0:0:
36,192,55348,1,0,0:0:0:0:
109,192,55419,1,0,0:0:0:0:
182,192,55491,1,0,0:0:0:0:
256,192,55562,128,0,55705:0:0:0:0:
329,192,55633,1,0,0:0:0:0:
402,192,55705,1,0,0:0:0:0:
475,192,55776,1,0,0:0:0:0:
36,192,55848,128,0,55991:0:0:0:0:
329,192,55848,1,0,0:0:0:0:
109,192,55848,1,0,0:0:0:0:
182,192,55991,1,0,0:0:0:0:
402,192,56133,1,0,0:0:0:0:
256,192,56133,128,0,56276:0:0:0:0:
475,192,56276,1,0,0:0:0:0:
36,192,56276,1,0,0:0:0:0:
109,192,56348,1,0,0:0:0:0:
256,192,56419,128,0,56562:0:0:0:0:
182,192,56419,1,0,0:0:0:0:
329,192,56562,1,0,0:0:0:0:
475,192,56705,128,0,56848:0:0:0:0:
402,192,56705,1,0,0:0:0:0:
182,192,56705,1,0,0:0:0:0:
109,192,56848,1,0,0:0:0:0:
36,192,56848,1,0,0:0:0:0:
256,192,56991,128,0,57133:0:0:0:0:
182,192,56991,1,0,0:0:0:0:
475,192,57133,1,0,0:0:0:0:
256,192,57276,128,0,57419:0:0:0:0:
329,192,57276,1,0,0:0:0:0:
109,192,57419,1,0,0:0:0:0:
36,192,57562,128,0,57705:0:0:0:0:
475,192,57562,1,0,0:0:0:0:
182,192,57562,1,0,0:0:0:0:
402,192,57705,1,0,0:0:0:0:
182,192,57848,1,0,0:0:0:0:
256,192,57848,128,0,57991:0:0:0:0:
402,192,57991,1,0,0:0:0:0:
36,192,57991,1,0,0:0:0:0:
256,192,58133,128,0,58276:0:0:0:0:
329,192,58276,1,0,0:0:0:0:
109,192,58276,1,0,0:0:0:0:
182,192,58419,1,0,0:0:0:0:
475,192,58419,128,0,58562:0:0:0:0:
402,192,58419,1,0,0:0:0:0:
36,192,58562,1,0,0:0:0:0:
109,192,58705,1,0,0:0:0:0:
256,192,58705,128,0,58848:0:0:0:0:
182,192,58776,1,0,0:0:0:0:
475,192,58848,1,0,0:0:0:0:
256,192,58991,128,0,59133:0:0:0:0:
329,192,58991,1,0,0:0:0:0:
109,192,59133,1,0,0:0:0:0:
36,192,59276,128,0,59419:0:0:0:0:
475,192,59276,1,0,0:0:0:0:
182,192,59276,1,0,0:0:0:0:
329,192,59419,1,0,0:0:0:0:
109,192,59562,1,0,0:0:0:0:
256,192,59562,128,0,59705:0:0:0:0:
402,192,59705,1,0,0:0:0:0:
36,192,59705,1,0,0:0:0:0:
256,192,59848,128,0,59991:0:0:0:0:
182,192,59991,1,0,0:0:0:0:
329,192,59991,1,0,0:0:0:0:
109,192,60062,1,0,0:0:0:0:
475,192,60133,128,0,60276:0:0:0:0:
36,192,60133,1,0,0:0:0:0:
402,192,60133,1,0,0:0:0:0:
329,192,60205,1,0,0:0:0:0:
182,192,60276,1,0,0:0:0:0:
256,192,60419,128,0,60562:0:0:0:0:
402,192,60419,1,0,0:0:0:0:
36,192,60562,1,0,0:0:0:0:
475,192,60562,1,0,0:0:0:0:
109,192,60633,1,0,0:0:0:0:
256,192,60705,128,0,60848:0:0:0:0:
182,192,60705,1,0,0:0:0:0:
402,192,60848,1,0,0:0:0:0:
36,192,60991,128,0,61133:0:0:0:0:
109,192,60991,1,0,0:0:0:0:
329,192,60991,1,0,0:0:0:0:
182,192,61133,1,0,0:0:0:0:
475,192,61276,1,0,0:0:0:0:
256,192,61276,128,0,61419:0:0:0:0:
329,192,61419,1,0,0:0:0:0:
36,192,61419,1,0,0:0:0:0:
256,192,61562,128,0,61705:0:0:0:0:
182,192,61705,1,0,0:0:0:0:
402,192,61705,1,0,0:0:0:0:
109,192,61848,1,0,0:0:0:0:
475,192,61848,128,0,61991:0:0:0:0:
36,192,61848,1,0,0:0:0:0:
329,192,61919,1,0,0:0:0:0:
182,192,61991,1,0,0:0:0:0:
109,192,62038,1,0,0:0:0:0:
36,192,62086,1,0,0:0:0:0:
256,192,62133,128,0,62276:0:0:0:0:
475,192,62205,1,0,0:0:0:0:
402,192,62276,1,0,0:0:0:0:
329,192,62348,1,0,0:0:0:0:
256,192,62419,128,0,62562:0:0:0:0:
182,192,62491,1,0,0:0:0:0:
109,192,62562,128,0,62705:0:0:0:0:
475,192,62705,1,0,0:0:0:0:
36,192,62705,128,0,62848:0:0:0:0:
402,192,62705,1,0,0:0:0:0:
329,192,62848,128,0,62991:0:0:0:0:
109,192,62991,1,0,0:0:0:0:
256,192,62991,128,0,63133:0:0:0:0:
36,192,63133,1,0,0:0:0:0:
475,192,63133,128,0,63276:0:0:0:0:
182,192,63205,1,0,0:0:0:0:
256,192,63276,128,0,63419:0:0:0:0:
329,192,63419,128,0,63562:0:0:0:0:
475,192,63562,128,0,63705:0:0:0:0:
109,192,63562,1,0,0:0:0:0:
36,192,63562,1,0,0:0:0:0:
402,192,63705,1,0,0:0:0:0:
182,192,63705,128,0,63848:0:0:0:0:
329,192,63848,1,0,0:0:0:0:
256,192,63848,128,0,63991:0:0:0:0:
36,192,63991,128,0,64133:0:0:0:0:
256,192,64133,128,0,64276:0:0:0:0:
109,192,64133,1,0,0:0:0:0:
329,192,64276,128,0,64419:0:0:0:0:
475,192,64419,1,0,0:0:0:0:
36,192,64419,128,0,64562:0:0:0:0:
182,192,64419,1,0,0:0:0:0:
109,192,64562,128,0,64705:0:0:0:0:
329,192,64705,1,0,0:0:0:0:
256,192,64705,128,0,64848:0:0:0:0:
475,192,64848,128,0,64991:0:0:0:0:
182,192,64848,1,0,0:0:0:0:
256,192,64991,128,0,65133:0:0:0:0:
402,192,65133,1,0,0:0:0:0:
182,192,65133,128,0,65276:0:0:0:0:
329,192,65276,1,0,0:0:0:0:
475,192,65276,128,0,65419:0:0:0:0:
36,192,65276,1,0,0:0:0:0:
109,192,65419,128,0,65562:0:0:0:0:
402,192,65562,1,0,0:0:0:0:
256,192,65562,128,0,65705:0:0:0:0:
329,192,65633,1,0,0:0:0:0:
36,192,65705,128,0,65848:0:0:0:0:
256,192,65848,128,0,65991:0:0:0:0:
402,192,65848,1,0,0:0:0:0:
182,192,65991,128,0,66133:0:0:0:0:
36,192,66133,128,0,66276:0:0:0:0:
475,192,66133,1,0,0:0:0:0:
329,192,66133,1,0,0:0:0:0:
109,192,66276,1,0,0:0:0:0:
402,192,66419,1,0,0:0:0:0:
256,192,66419,128,0,66562:0:0:0:0:
475,192,66562,1,0,0:0:0:0:
36,192,66562,1,0,0:0:0:0:
256,192,66705,128,0,66848:0:0:0:0:
329,192,66848,1,0,0:0:0:0:
182,192,66848,1,0,0:0:0:0:
402,192,66919,1,0,0:0:0:0:
475,192,66991,128,0,67133:0:0:0:0:
36,192,66991,1,0,0:0:0:0:
109,192,66991,1,0,0:0:0:0:
182,192,67062,1,0,0:0:0:0:
329,192,67133,1,0,0:0:0:0:
256,192,67276,128,0,67419:0:0:0:0:
402,192,67276,1,0,0:0:0:0:
475,192,67419,1,0,0:0:0:0:
36,192,67419,1,0,0:0:0:0:
329,192,67491,1,0,0:0:0:0:
256,192,67562,128,0,67705:0:0:0:0:
109,192,67562,1,0,0:0:0:0:
182,192,67705,1,0,0:0:0:0:
36,192,67848,128,0,67991:0:0:0:0:
109,192,67848,1,0,0:0:0:0:
475,192,67848,1,0,0:0:0:0:
329,192,67991,1,0,0:0:0:0:
36,192,68133,1,0,0:0:0:0:
256,192,68133,128,0,68276:0:0:0:0:
182,192,68276,1,0,0:0:0:0:
475,192,68276,1,0,0:0:0:0:
256,192,68419,128,0,68562:0:0:0:0:
402,192,68562,1,0,0:0:0:0:
109,192,68562,1,0,0:0:0:0:
182,192,68705,1,0,0:0:0:0:
475,192,68705,128,0,68848:0:0:0:0:
36,192,68705,1,0,0:0:0:0:
256,192,68776,1,0,0:0:0:0:
329,192,68848,1,0,0:0:0:0:
402,192,68895,1,0,0:0:0:0:
475,192,68943,1,0,0:0:0:0:
256,192,68991,128,0,69133:0:0:0:0:
36,192,69062,1,0,0:0:0:0:
109,192,69133,1,0,0:0:0:0:
182,192,69205,1,0,0:0:0:0:
256,192,69276,128,0,69419:0:0:0:0:
329,192,69348,1,0,0:0:0:0:
402,192,69419,128,0,69562:0:0:0:0:
475,192,69562,1,0,0:0:0:0:
329,192,69562,1,0,0:0:0:0:
36,192,69562,128,0,69705:0:0:0:0:
109,192,69705,128,0,69848:0:0:0:0:
256,192,69848,128,0,69991:0:0:0:0:
36,192,69991,1,0,0:0:0:0:
475,192,69991,128,0,70133:0:0:0:0:
402,192,70062,1,0,0:0:0:0:
256,192,70133,128,0,70276:0:0:0:0:
36,192,70276,128,0,70419:0:0:0:0:
329,192,70276,1,0,0:0:0:0:
182,192,70419,1,0,0:0:0:0:
109,192,70419,1,0,0:0:0:0:
475,192,70419,128,0,70562:0:0:0:0:
36,192,70562,128,0,70705:0:0:0:0:
402,192,70562,1,0,0:0:0:0:
256,192,70705,128,0,70848:0:0:0:0:
109,192,70705,128,0,70848:0:0:0:0:
475,192,70848,1,0,0:0:0:0:
182,192,70848,128,0,70991:0:0:0:0:
256,192,70991,128,0,71133:0:0:0:0:
329,192,70991,128,0,71133:0:0:0:0:
182,192,71133,1,0,0:0:0:0:
402,192,71276,1,0,0:0:0:0:
475,192,71276,1,0,0:0:0:0:
36,192,71276,128,0,71419:0:0:0:0:
109,192,71419,1,0,0:0:0:0:
256,192,71562,128,0,71705:0:0:0:0:
36,192,71705,1,0,0:0:0:0:
329,192,71705,1,0,0:0:0:0:
109,192,71776,1,0,0:0:0:0:
256,192,71848,128,0,71991:0:0:0:0:
329,192,71991,128,0,72133:0:0:0:0:
182,192,71991,1,0,0:0:0:0:
36,192,72133,1,0,0:0:0:0:
475,192,72133,1,0,0:0:0:0:
402,192,72133,128,0,72276:0:0:0:0:
329,192,72276,128,0,72419:0:0:0:0:
182,192,72276,1,0,0:0:0:0:
36,192,72419,128,0,72562:0:0:0:0:
256,192,72419,128,0,72562:0:0:0:0:
475,192,72562,1,0,0:0:0:0:
182,192,72562,128,0,72705:0:0:0:0:
256,192,72705,128,0,72848:0:0:0:0:
109,192,72705,128,0,72848:0:0:0:0:
329,192,72848,1,0,0:0:0:0:
402,192,72991,1,0,0:0:0:0:
475,192,72991,1,0,0:0:0:0:
36,192,72991,128,0,73133:0:0:0:0:
182,192,73133,1,0,0:0:0:0:
256,192,73276,128,0,73419:0:0:0:0:
36,192,73419,1,0,0:0:0:0:
475,192,73419,1,0,0:0:0:0:
402,192,73491,1,0,0:0:0:0:
256,192,73562,128,0,73705:0:0:0:0:
329,192,73705,1,0,0:0:0:0:
36,192,73705,128,0,73848:0:0:0:0:
182,192,73848,1,0,0:0:0:0:
109,192,73848,1,0,0:0:0:0:
475,192,73848,128,0,73991:0:0:0:0:
402,192,73991,1,0,0:0:0:0:
36,192,73991,128,0,74133:0:0:0:0:
256,192,74133,128,0,74276:0:0:0:0:
109,192,74133,128,0,74276:0:0:0:0:
475,192,74276,1,0,0:0:0:0:
182,192,74276,128,0,74419:0:0:0:0:
256,192,74419,128,0,74562:0:0:0:0:
329,192,74419,128,0,74562:0:0:0:0:
109,192,74562,1,0,0:0:0:0:
475,192,74705,1,0,0:0:0:0:
182,192,74705,1,0,0:0:0:0:
36,192,74705,128,0,74848:0:0:0:0:
402,192,74848,1,0,0:0:0:0:
256,192,74991,128,0,75133:0:0:0:0:
36,192,75133,1,0,0:0:0:0:
475,192,75133,1,0,0:0:0:0:
109,192,75205,1,0,0:0:0:0:
256,192,75276,128,0,75419:0:0:0:0:
329,192,75419,128,0,75562:0:0:0:0:
182,192,75419,1,0,0:0:0:0:
109,192,75562,1,0,0:0:0:0:
475,192,75562,1,0,0:0:0:0:
402,192,75562,128,0,75705:0:0:0:0:
329,192,75705,128,0,75848:0:0:0:0:
36,192,75705,1,0,0:0:0:0:
256,192,75848,128,0,75991:0:0:0:0:
182,192,75848,1,0,0:0:0:0:
109,192,75919,1,0,0:0:0:0:
402,192,75991,1,0,0:0:0:0:
329,192,76062,1,0,0:0:0:0:
256,192,76133,128,0,76276:0:0:0:0:
182,192,76205,1,0,0:0:0:0:
109,192,76276,1,0,0:0:0:0:
36,192,76419,128,0,76562:0:0:0:0:
475,192,76419,1,0,0:0:0:0:
329,192,76419,1,0,0:0:0:0:
402,192,76562,128,0,76705:0:0:0:0:
256,192,76705,128,0,76848:0:0:0:0:
475,192,76848,1,0,0:0:0:0:
36,192,76848,128,0,76991:0:0:0:0:
182,192,76919,1,0,0:0:0:0:
256,192,76991,128,0,77133:0:0:0:0:
329,192,77133,128,0,77276:0:0:0:0:
109,192,77133,1,0,0:0:0:0:
36,192,77276,1,0,0:0:0:0:
402,192,77276,128,0,77419:0:0:0:0:
475,192,77276,1,0,0:0:0:0:
329,192,77419,128,0,77562:0:0:0:0:
109,192,77419,1,0,0:0:0:0:
256,192,77562,128,0,77705:0:0:0:0:
182,192,77562,128,0,77705:0:0:0:0:
36,192,77705,1,0,0:0:0:0:
109,192,77705,128,0,77848:0:0:0:0:
256,192,77848,128,0,77991:0:0:0:0:
475,192,77848,128,0,77991:0:0:0:0:
402,192,77991,128,0,78133:0:0:0:0:
475,192,78133,1,0,0:0:0:0:
36,192,78133,128,0,78276:0:0:0:0:
109,192,78133,1,0,0:0:0:0:
182,192,78276,128,0,78419:0:0:0:0:
256,192,78419,128,0,78562:0:0:0:0:
36,192,78562,1,0,0:0:0:0:
475,192,78562,128,0,78705:0:0:0:0:
329,192,78633,1,0,0:0:0:0:
256,192,78705,128,0,78848:0:0:0:0:
109,192,78848,128,0,78991:0:0:0:0:
402,192,78848,1,0,0:0:0:0:
475,192,78991,128,0,79133:0:0:0:0:
182,192,78991,1,0,0:0:0:0:
36,192,78991,1,0,0:0:0:0:
109,192,79133,128,0,79276:0:0:0:0:
329,192,79133,1,0,0:0:0:0:
256,192,79276,128,0,79419:0:0:0:0:
36,192,79276,128,0,79419:0:0:0:0:
475,192,79419,128,0,79562:0:0:0:0:
182,192,79419,1,0,0:0:0:0:
256,192,79562,128,0,79705:0:0:0:0:
402,192,79562,128,0,79705:0:0:0:0:
182,192,79705,128,0,79848:0:0:0:0:
109,192,79848,1,0,0:0:0:0:
329,192,79848,1,0,0:0:0:0:
36,192,79848,128,0,79991:0:0:0:0:
475,192,79991,1,0,0:0:0:0:
256,192,80133,128,0,80276:0:0:0:0:
36,192,80276,1,0,0:0:0:0:
329,192,80276,1,0,0:0:0:0:
182,192,80348,1,0,0:0:0:0:
256,192,80419,128,0,80562:0:0:0:0:
329,192,80562,128,0,80705:0:0:0:0:
109,192,80562,1,0,0:0:0:0:
182,192,80705,1,0,0:0:0:0:
475,192,80705,1,0,0:0:0:0:
402,192,80705,128,0,80848:0:0:0:0:
329,192,80848,128,0,80991:0:0:0:0:
36,192,80848,1,0,0:0:0:0:
256,192,80991,128,0,81133:0:0:0:0:
109,192,80991,128,0,81133:0:0:0:0:
475,192,81133,1,0,0:0:0:0:
36,192,81133,128,0,81276:0:0:0:0:
256,192,81276,128,0,81419:0:0:0:0:
329,192,81276,128,0,81419:0:0:0:0:
109,192,81419,1,0,0:0:0:0:
475,192,81562,128,0,82705:0:0:0:0:
402,192,81562,1,0,0:0:0:0:
36,192,81562,128,0,81705:0:0:0:0:
182,192,81705,1,0,0:0:0:0:
256,192,81848,128,0,81991:0:0:0:0:
36,192,81991,1,0,0:0:0:0:
402,192,81991,1,0,0:0:0:0:
182,192,82062,1,0,0:0:0:0:
256,192,82133,128,0,82276:0:0:0:0:
109,192,82276,128,0,82419:0:0:0:0:
182,192,82276,1,0,0:0:0:0:
36,192,82419,1,0,0:0:0:0:
402,192,82419,128,0,82562:0:0:0:0:
182,192,82562,1,0,0:0:0:0:
109,192,82562,128,0,82705:0:0:0:0:
402,192,82705,1,0,0:0:0:0:
329,192,82705,1,0,0:0:0:0:
36,192,82848,1,0,0:0:0:0:
329,192,82991,1,0,0:0:0:0:
256,192,82991,1,0,0:0:0:0:
402,192,82991,1,0,0:0:0:0:
402,192,83276,1,0,0:0:0:0:
109,192,83276,1,0,0:0:0:0:
36,192,83276,1,0,0:0:0:0:
256,192,83562,128,0,83705:0:0:0:0:
329,192,83562,1,0,0:0:0:0:
182,192,83633,1,0,0:0:0:0:
109,192,83705,1,0,0:0:0:0:
36,192,83776,1,0,0:0:0:0:
256,192,83848,128,0,83991:0:0:0:0:
475,192,83991,1,0,0:0:0:0:
329,192,84133,1,0,0:0:0:0:
182,192,84133,1,0,0:0:0:0:
402,192,84181,1,0,0:0:0:0:
475,192,84229,1,0,0:0:0:0:
36,192,84276,1,0,0:0:0:0:
109,192,84324,1,0,0:0:0:0:
182,192,84371,1,0,0:0:0:0:
256,192,84419,128,0,84562:0:0:0:0:
475,192,84514,1,0,0:0:0:0:
109,192,84610,1,0,0:0:0:0:
256,192,84705,128,0,84848:0:0:0:0:
36,192,84705,1,0,0:0:0:0:
402,192,84705,1,0,0:0:0:0:
329,192,84848,1,0,0:0:0:0:
475,192,84991,1,0,0:0:0:0:
109,192,84991,1,0,0:0:0:0:
36,192,84991,1,0,0:0:0:0:
256,192,85276,128,0,85419:0:0:0:0:
182,192,85276,1,0,0:0:0:0:
329,192,85348,1,0,0:0:0:0:
402,192,85419,1,0,0:0:0:0:
475,192,85491,1,0,0:0:0:0:
256,192,85562,128,0,85705:0:0:0:0:
36,192,85705,1,0,0:0:0:0:
329,192,85848,1,0,0:0:0:0:
182,192,85848,1,0,0:0:0:0:
109,192,85895,1,0,0:0:0:0:
36,192,85943,1,0,0:0:0:0:
475,192,85991,1,0,0:0:0:0:
402,192,86038,1,0,0:0:0:0:
329,192,86086,1,0,0:0:0:0:
256,192,86133,128,0,86276:0:0:0:0:
36,192,86229,1,0,0:0:0:0:
402,192,86324,1,0,0:0:0:0:
256,192,86419,128,0,86562:0:0:0:0:
475,192,86419,1,0,0:0:0:0:
109,192,86419,1,0,0:0:0:0:
182,192,86562,1,0,0:0:0:0:
402,192,86705,1,0,0:0:0:0:
36,192,86705,1,0,0:0:0:0:
329,192,86705,1,0,0:0:0:0:
256,192,86991,128,0,87133:0:0:0:0:
475,192,86991,1,0,0:0:0:0:
329,192,87062,1,0,0:0:0:0:
182,192,87133,1,0,0:0:0:0:
36,192,87205,1,0,0:0:0:0:
256,192,87276,128,0,87419:0:0:0:0:
475,192,87419,1,0,0:0:0:0:
402,192,87562,1,0,0:0:0:0:
36,192,87562,1,0,0:0:0:0:
329,192,87610,1,0,0:0:0:0:
182,192,87657,1,0,0:0:0:0:
109,192,87705,1,0,0:0:0:0:
475,192,87752,1,0,0:0:0:0:
329,192,87800,1,0,0:0:0:0:
256,192,87848,128,0,87991:0:0:0:0:
182,192,87943,1,0,0:0:0:0:
109,192,88038,1,0,0:0:0:0:
256,192,88133,128,0,88276:0:0:0:0:
36,192,88133,1,0,0:0:0:0:
402,192,88133,1,0,0:0:0:0:
329,192,88276,1,0,0:0:0:0:
475,192,88419,1,0,0:0:0:0:
182,192,88419,1,0,0:0:0:0:
109,192,88419,1,0,0:0:0:0:
256,192,88705,128,0,88848:0:0:0:0:
36,192,88705,1,0,0:0:0:0:
182,192,88776,1,0,0:0:0:0:
329,192,88848,1,0,0:0:0:0:
475,192,88919,1,0,0:0:0:0:
256,192,88991,128,0,89133:0:0:0:0:
36,192,89133,1,0,0:0:0:0:
475,192,89276,1,0,0:0:0:0:
109,192,89276,1,0,0:0:0:0:
182,192,89324,1,0,0:0:0:0:
329,192,89371,1,0,0:0:0:0:
402,192,89419,1,0,0:0:0:0:
36,192,89467,1,0,0:0:0:0:
182,192,89514,1,0,0:0:0:0:
256,192,89562,128,0,89705:0:0:0:0:
329,192,89657,1,0,0:0:0:0:
402,192,89752,1,0,0:0:0:0:
256,192,89848,128,0,89991:0:0:0:0:
475,192,89848,1,0,0:0:0:0:
109,192,89848,1,0,0:0:0:0:
182,192,89991,1,0,0:0:0:0:
36,192,90133,1,0,0:0:0:0:
475,192,90133,1,0,0:0:0:0:
402,192,90133,1,0,0:0:0:0:
109,192,90181,1,0,0:0:0:0:
182,192,90229,1,0,0:0:0:0:
256,192,90276,1,0,0:0:0:0:
329,192,90324,1,0,0:0:0:0:
402,192,90371,1,0,0:0:0:0:
475,192,90419,1,0,0:0:0:0:
329,192,90514,1,0,0:0:0:0:
182,192,90610,1,0,0:0:0:0:
109,192,90705,1,0,0:0:0:0:
36,192,90705,1,0,0:0:0:0:
329,192,90848,1,0,0:0:0:0:
36,192,90991,1,0,0:0:0:0:
475,192,90991,1,0,0:0:0:0:
109,192,90991,1,0,0:0:0:0:
402,192,91038,1,0,0:0:0:0:
329,192,91086,1,0,0:0:0:0:
256,192,91133,1,0,0:0:0:0:
182,192,91181,1,0,0:0:0:0:
109,192,91229,1,0,0:0:0:0:
36,192,91276,1,0,0:0:0:0:
182,192,91371,1,0,0:0:0:0:
329,192,91467,1,0,0:0:0:0:
475,192,91562,1,0,0:0:0:0:
402,192,91562,1,0,0:0:0:0:
182,192,91705,1,0,0:0:0:0:
36,192,91848,1,0,0:0:0:0:
475,192,91848,1,0,0:0:0:0:
402,192,91848,1,0,0:0:0:0:
109,192,91895,1,0,0:0:0:0:
182,192,91943,1,0,0:0:0:0:
256,192,91991,1,0,0:0:0:0:
329,192,92038,1,0,0:0:0:0:
402,192,92086,1,0,0:0:0:0:
475,192,92133,1,0,0:0:0:0:
109,192,92229,1,0,0:0:0:0:
329,192,92324,1,0,0:0:0:0:
36,192,92419,1,0,0:0:0:0:
182,192,92419,1,0,0:0:0:0:
256,192,92562,1,0,0:0:0:0:
36,192,92705,1,0,0:0:0:0:
475,192,92705,1,0,0:0:0:0:
109,192,92705,1,0,0:0:0:0:
402,192,92752,1,0,0:0:0:0:
329,192,92800,1,0,0:0:0:0:
256,192,92848,1,0,0:0:0:0:
182,192,92895,1,0,0:0:0:0:
109,192,92943,1,0,0:0:0:0:
36,192,92991,1,0,0:0:0:0:
402,192,93086,1,0,0:0:0:0:
182,192,93181,1,0,0:0:0:0:
475,192,93276,1,0,0:0:0:0:
329,192,93276,1,0,0:0:0:0:
256,192,93419,1,0,0:0:0:0:
402,192,93562,1,0,0:0:0:0:
475,192,93562,1,0,0:0:0:0:
329,192,93610,1,0,0:0:0:0:
182,192,93657,1,0,0:0:0:0:
109,192,93705,1,0,0:0:0:0:
36,192,93752,1,0,0:0:0:0:
402,192,93800,1,0,0:0:0:0:
329,192,93848,1,0,0:0:0:0:
256,192,93848,1,0,0:0:0:0:
182,192,93943,1,0,0:0:0:0:
109,192,94038,1,0,0:0:0:0:
36,192,94133,1,0,0:0:0:0:
475,192,94133,1,0,0:0:0:0:
402,192,94181,1,0,0:0:0:0:
329,192,94229,1,0,0:0:0:0:
256,192,94276,1,0,0:0:0:0:
182,192,94324,1,0,0:0:0:0:
109,192,94371,1,0,0:0:0:0:
475,192,94419,1,0,0:0:0:0:
36,192,94419,1,0,0:0:0:0:
329,192,94514,1,0,0:0:0:0:
256,192,94610,1,0,0:0:0:0:
36,192,94705,1,0,0:0:0:0:
475,192,94705,1,0,0:0:0:0:
109,192,94752,1,0,0:0:0:0:
182,192,94800,1,0,0:0:0:0:
256,192,94848,1,0,0:0:0:0:
329,192,94895,1,0,0:0:0:0:
402,192,94943,1,0,0:0:0:0:
109,192,94991,1,0,0:0:0:0:
475,192,94991,1,0,0:0:0:0:
36,192,95086,1,0,0:0:0:0:
329,192,95181,1,0,0:0:0:0:
182,192,95276,5,0,0:0:0:0:
475,192,95276,1,0,0:0:0:0:
402,192,95276,1,0,0:0:0:0:
182,192,95419,1,0,0:0:0:0:
36,192,95419,1,0,0:0:0:0:
109,192,95562,1,0,0:0:0:0:
329,192,95562,1,0,0:0:0:0:
475,192,95562,1,0,0:0:0:0:
109,192,95705,1,0,0:0:0:0:
256,192,95705,1,0,0:0:0:0:
36,192,95848,1,0,0:0:0:0:
475,192,95848,1,0,0:0:0:0:
329,192,95848,1,0,0:0:0:0:
475,192,95991,1,0,0:0:0:0:
109,192,95991,1,0,0:0:0:0:
256,192,96133,1,0,0:0:0:0:
329,192,96133,1,0,0:0:0:0:
402,192,96133,1,0,0:0:0:0:
36,192,96205,1,0,0:0:0:0:
109,192,96276,1,0,0:0:0:0:
182,192,96348,1,0,0:0:0:0:
329,192,96419,1,0,0:0:0:0:
402,192,96491,1,0,0:0:0:0:
475,192,96562,128,0,96705:0:0:0:0:
109,192,96705,1,0,0:0:0:0:
109,192,96848,1,0,0:0:0:0:
475,192,96991,128,0,97133:0:0:0:0:
182,192,96991,1,0,0:0:0:0:
329,192,96991,1,0,0:0:0:0:
256,192,96991,128,0,97133:0:0:0:0:
36,192,97133,128,0,97276:0:0:0:0:
109,192,97133,128,0,97276:0:0:0:0:
402,192,97276,128,0,97419:0:0:0:0:
329,192,97419,128,0,97562:0:0:0:0:
256,192,97419,128,0,97562:0:0:0:0:
36,192,97562,128,0,97705:0:0:0:0:
109,192,97562,128,0,97705:0:0:0:0:
402,192,97705,128,0,97848:0:0:0:0:
329,192,97848,128,0,98133:0:0:0:0:
256,192,97848,1,0,0:0:0:0:
182,192,97848,128,0,98133:0:0:0:0:
36,192,98133,128,0,98419:0:0:0:0:
109,192,98133,128,0,98419:0:0:0:0:
402,192,98419,128,0,98705:0:0:0:0:
475,192,98705,128,0,98848:0:0:0:0:
182,192,98705,1,0,0:0:0:0:
256,192,98705,128,0,98848:0:0:0:0:
36,192,98848,128,0,98991:0:0:0:0:
109,192,98848,128,0,98991:0:0:0:0:
402,192,98991,128,0,99133:0:0:0:0:
329,192,99133,128,0,99276:0:0:0:0:
256,192,99133,128,0,99276:0:0:0:0:
36,192,99276,128,0,99419:0:0:0:0:
109,192,99276,128,0,99419:0:0:0:0:
402,192,99419,128,0,99562:0:0:0:0:
329,192,99562,128,0,99848:0:0:0:0:
475,192,99562,1,0,0:0:0:0:
182,192,99562,128,0,99848:0:0:0:0:
36,192,99848,128,0,100133:0:0:0:0:
109,192,99848,128,0,100133:0:0:0:0:
402,192,100133,128,0,100419:0:0:0:0:
36,192,100419,128,0,100562:0:0:0:0:
182,192,100419,1,0,0:0:0:0:
256,192,100419,128,0,100562:0:0:0:0:
475,192,100562,128,0,100705:0:0:0:0:
402,192,100562,128,0,100705:0:0:0:0:
109,192,100705,128,0,100848:0:0:0:0:
182,192,100848,128,0,100991:0:0:0:0:
256,192,100848,128,0,100991:0:0:0:0:
475,192,100991,128,0,101133:0:0:0:0:
402,192,100991,128,0,101133:0:0:0:0:
109,192,101133,128,0,101276:0:0:0:0:
182,192,101276,128,0,101562:0:0:0:0:
36,192,101276,1,0,0:0:0:0:
329,192,101276,128,0,101562:0:0:0:0:
475,192,101562,128,0,101848:0:0:0:0:
402,192,101562,128,0,101848:0:0:0:0:
109,192,101848,128,0,102133:0:0:0:0:
36,192,102133,128,0,102276:0:0:0:0:
329,192,102133,1,0,0:0:0:0:
256,192,102133,128,0,102276:0:0:0:0:
475,192,102276,128,0,102419:0:0:0:0:
402,192,102276,128,0,102419:0:0:0:0:
109,192,102419,128,0,102562:0:0:0:0:
182,192,102562,128,0,102705:0:0:0:0:
256,192,102562,128,0,102705:0:0:0:0:
475,192,102705,128,0,102848:0:0:0:0:
402,192,102705,128,0,102848:0:0:0:0:
109,192,102848,128,0,102991:0:0:0:0:
182,192,102991,128,0,103133:0:0:0:0:
36,192,102991,1,0,0:0:0:0:
329,192,102991,128,0,103133:0:0:0:0:
256,192,103133,128,0,103276:0:0:0:0:
402,192,103133,128,0,103276:0:0:0:0:
475,192,103276,128,0,103419:0:0:0:0:
36,192,103276,128,0,103419:0:0:0:0:
329,192,103419,128,0,103562:0:0:0:0:
182,192,103562,128,0,103705:0:0:0:0:
109,192,103705,128,0,103848:0:0:0:0:
475,192,103848,128,0,103991:0:0:0:0:
329,192,103848,1,0,0:0:0:0:
256,192,103848,128,0,103991:0:0:0:0:
36,192,103991,128,0,104133:0:0:0:0:
109,192,103991,128,0,104133:0:0:0:0:
402,192,104133,128,0,104276:0:0:0:0:
329,192,104276,128,0,104419:0:0:0:0:
256,192,104276,128,0,104419:0:0:0:0:
36,192,104419,128,0,104562:0:0:0:0:
109,192,104419,128,0,104562:0:0:0:0:
402,192,104562,128,0,104705:0:0:0:0:
329,192,104705,128,0,104991:0:0:0:0:
256,192,104705,1,0,0:0:0:0:
182,192,104705,128,0,104991:0:0:0:0:
36,192,104991,128,0,105276:0:0:0:0:
109,192,104991,128,0,105276:0:0:0:0:
402,192,105276,128,0,105562:0:0:0:0:
475,192,105562,128,0,105705:0:0:0:0:
182,192,105562,1,0,0:0:0:0:
256,192,105562,128,0,105705:0:0:0:0:
36,192,105705,128,0,105848:0:0:0:0:
109,192,105705,128,0,105848:0:0:0:0:
402,192,105848,128,0,105991:0:0:0:0:
329,192,105991,128,0,106133:0:0:0:0:
256,192,105991,128,0,106133:0:0:0:0:
36,192,106133,128,0,106276:0:0:0:0:
109,192,106133,128,0,106276:0:0:0:0:
402,192,106276,128,0,106419:0:0:0:0:
329,192,106419,128,0,106705:0:0:0:0:
475,192,106419,1,0,0:0:0:0:
182,192,106419,128,0,106705:0:0:0:0:
36,192,106705,128,0,106991:0:0:0:0:
109,192,106705,128,0,106991:0:0:0:0:
402,192,106991,128,0,107276:0:0:0:0:
36,192,107276,128,0,107419:0:0:0:0:
182,192,107276,1,0,0:0:0:0:
256,192,107276,128,0,107419:0:0:0:0:
475,192,107419,128,0,107562:0:0:0:0:
402,192,107419,128,0,107562:0:0:0:0:
109,192,107562,128,0,107705:0:0:0:0:
182,192,107705,128,0,107848:0:0:0:0:
256,192,107705,128,0,107848:0:0:0:0:
475,192,107848,128,0,107991:0:0:0:0:
402,192,107848,128,0,107991:0:0:0:0:
109,192,107991,128,0,108133:0:0:0:0:
182,192,108133,128,0,108419:0:0:0:0:
36,192,108133,1,0,0:0:0:0:
329,192,108133,128,0,108419:0:0:0:0:
475,192,108419,128,0,108705:0:0:0:0:
402,192,108419,128,0,108705:0:0:0:0:
109,192,108705,128,0,108991:0:0:0:0:
36,192,108991,128,0,109133:0:0:0:0:
256,192,108991,128,0,109562:0:0:0:0:
329,192,108991,128,0,109133:0:0:0:0:
475,192,109133,128,0,109276:0:0:0:0:
402,192,109133,128,0,109276:0:0:0:0:
109,192,109276,128,0,109419:0:0:0:0:
182,192,109419,128,0,109562:0:0:0:0:
329,192,109419,128,0,109562:0:0:0:0:
475,192,109562,128,0,109633:0:0:0:0:
402,192,109562,128,0,109633:0:0:0:0:
475,192,109705,128,0,109776:0:0:0:0:
402,192,109705,128,0,109776:0:0:0:0:
182,192,109848,128,0,110705:0:0:0:0:
109,192,109848,1,0,0:0:0:0:
256,192,109848,1,0,0:0:0:0:
329,192,109848,1,0,0:0:0:0:
36,192,109919,1,0,0:0:0:0:
475,192,109991,1,0,0:0:0:0:
402,192,110062,1,0,0:0:0:0:
329,192,110133,1,0,0:0:0:0:
256,192,110276,1,0,0:0:0:0:
109,192,110419,1,0,0:0:0:0:
36,192,110562,1,0,0:0:0:0:
475,192,110705,128,0,110848:0:0:0:0:
402,192,110705,1,0,0:0:0:0:
329,192,110705,1,0,0:0:0:0:
256,192,110705,128,0,110848:0:0:0:0:
36,192,110848,128,0,110991:0:0:0:0:
109,192,110848,128,0,110991:0:0:0:0:
329,192,110991,128,0,111133:0:0:0:0:
182,192,110991,128,0,111133:0:0:0:0:
402,192,111133,128,0,111276:0:0:0:0:
475,192,111133,128,0,111276:0:0:0:0:
36,192,111276,128,0,111419:0:0:0:0:
109,192,111276,128,0,111419:0:0:0:0:
402,192,111419,128,0,111562:0:0:0:0:
256,192,111419,128,0,111562:0:0:0:0:
329,192,111562,128,0,111848:0:0:0:0:
182,192,111562,128,0,112419:0:0:0:0:
36,192,111562,1,0,0:0:0:0:
36,192,111848,128,0,112133:0:0:0:0:
109,192,111848,128,0,112133:0:0:0:0:
402,192,112133,128,0,112419:0:0:0:0:
475,192,112419,128,0,112562:0:0:0:0:
256,192,112419,1,0,0:0:0:0:
329,192,112419,128,0,112562:0:0:0:0:
36,192,112562,128,0,112705:0:0:0:0:
109,192,112562,128,0,112705:0:0:0:0:
329,192,112705,128,0,112848:0:0:0:0:
182,192,112705,128,0,112848:0:0:0:0:
402,192,112848,128,0,112991:0:0:0:0:
475,192,112848,128,0,112991:0:0:0:0:
36,192,112991,128,0,113133:0:0:0:0:
109,192,112991,128,0,113133:0:0:0:0:
402,192,113133,128,0,113276:0:0:0:0:
256,192,113133,128,0,113276:0:0:0:0:
329,192,113276,128,0,113562:0:0:0:0:
182,192,113276,128,0,114133:0:0:0:0:
36,192,113276,1,0,0:0:0:0:
36,192,113562,128,0,113848:0:0:0:0:
109,192,113562,128,0,113848:0:0:0:0:
402,192,113848,128,0,114133:0:0:0:0:
36,192,114133,128,0,114276:0:0:0:0:
109,192,114133,1,0,0:0:0:0:
256,192,114133,128,0,114276:0:0:0:0:
475,192,114276,128,0,114419:0:0:0:0:
402,192,114276,128,0,114419:0:0:0:0:
182,192,114419,128,0,114562:0:0:0:0:
329,192,114419,128,0,114562:0:0:0:0:
109,192,114562,128,0,114705:0:0:0:0:
36,192,114562,128,0,114705:0:0:0:0:
475,192,114705,128,0,114848:0:0:0:0:
402,192,114705,128,0,114848:0:0:0:0:
109,192,114848,128,0,114991:0:0:0:0:
256,192,114848,128,0,114991:0:0:0:0:
182,192,114991,128,0,115276:0:0:0:0:
36,192,114991,1,0,0:0:0:0:
329,192,114991,128,0,115562:0:0:0:0:
475,192,115276,128,0,115562:0:0:0:0:
402,192,115276,128,0,115562:0:0:0:0:
109,192,115562,128,0,115848:0:0:0:0:
182,192,115562,128,0,115848:0:0:0:0:
36,192,115848,128,0,115991:0:0:0:0:
256,192,115848,128,0,115991:0:0:0:0:
329,192,115848,1,0,0:0:0:0:
475,192,115991,128,0,116133:0:0:0:0:
402,192,115991,128,0,116133:0:0:0:0:
109,192,116133,128,0,116276:0:0:0:0:
329,192,116133,128,0,116276:0:0:0:0:
182,192,116276,128,0,116419:0:0:0:0:
256,192,116276,128,0,116419:0:0:0:0:
475,192,116419,128,0,116562:0:0:0:0:
402,192,116419,128,0,116562:0:0:0:0:
109,192,116562,128,0,116705:0:0:0:0:
36,192,116562,128,0,116705:0:0:0:0:
182,192,116705,128,0,116848:0:0:0:0:
329,192,116705,128,0,117562:0:0:0:0:
402,192,116705,1,0,0:0:0:0:
256,192,116848,128,0,116991:0:0:0:0:
475,192,116991,128,0,117133:0:0:0:0:
36,192,116991,128,0,117133:0:0:0:0:
109,192,117133,128,0,117276:0:0:0:0:
182,192,117276,128,0,117419:0:0:0:0:
402,192,117419,128,0,117562:0:0:0:0:
475,192,117562,128,0,117705:0:0:0:0:
182,192,117562,1,0,0:0:0:0:
256,192,117562,128,0,117705:0:0:0:0:
36,192,117705,128,0,117848:0:0:0:0:
109,192,117705,128,0,117848:0:0:0:0:
329,192,117848,128,0,117991:0:0:0:0:
182,192,117848,128,0,117991:0:0:0:0:
402,192,117991,128,0,118133:0:0:0:0:
475,192,117991,128,0,118133:0:0:0:0:
36,192,118133,128,0,118276:0:0:0:0:
109,192,118133,128,0,118276:0:0:0:0:
402,192,118276,128,0,118419:0:0:0:0:
256,192,118276,128,0,118419:0:0:0:0:
329,192,118419,128,0,118705:0:0:0:0:
182,192,118419,128,0,119276:0:0:0:0:
109,192,118419,1,0,0:0:0:0:
36,192,118705,128,0,118991:0:0:0:0:
109,192,118705,128,0,118991:0:0:0:0:
402,192,118991,128,0,119276:0:0:0:0:
475,192,119276,128,0,119419:0:0:0:0:
329,192,119276,1,0,0:0:0:0:
256,192,119276,128,0,119419:0:0:0:0:
36,192,119419,128,0,119562:0:0:0:0:
109,192,119419,128,0,119562:0:0:0:0:
329,192,119562,128,0,119705:0:0:0:0:
182,192,119562,128,0,119705:0:0:0:0:
402,192,119705,128,0,119848:0:0:0:0:
475,192,119705,128,0,119848:0:0:0:0:
36,192,119848,128,0,119991:0:0:0:0:
109,192,119848,128,0,119991:0:0:0:0:
402,192,119991,128,0,120133:0:0:0:0:
256,192,119991,128,0,120133:0:0:0:0:
329,192,120133,128,0,120419:0:0:0:0:
182,192,120133,128,0,120991:0:0:0:0:
36,192,120133,1,0,0:0:0:0:
36,192,120419,128,0,120705:0:0:0:0:
109,192,120419,128,0,120705:0:0:0:0:
402,192,120705,128,0,120991:0:0:0:0:
36,192,120991,128,0,121133:0:0:0:0:
109,192,120991,1,0,0:0:0:0:
256,192,120991,128,0,121133:0:0:0:0:
475,192,121133,128,0,121276:0:0:0:0:
402,192,121133,128,0,121276:0:0:0:0:
109,192,121276,128,0,121419:0:0:0:0:
329,192,121276,128,0,121419:0:0:0:0:
182,192,121419,128,0,121562:0:0:0:0:
256,192,121419,128,0,121562:0:0:0:0:
475,192,121562,128,0,121705:0:0:0:0:
402,192,121562,128,0,121705:0:0:0:0:
109,192,121705,128,0,121848:0:0:0:0:
36,192,121705,128,0,121848:0:0:0:0:
182,192,121848,128,0,122705:0:0:0:0:
329,192,121848,128,0,122133:0:0:0:0:
256,192,121848,1,0,0:0:0:0:
475,192,122133,128,0,122419:0:0:0:0:
402,192,122133,128,0,122419:0:0:0:0:
109,192,122419,128,0,122705:0:0:0:0:
329,192,122419,128,0,122705:0:0:0:0:
36,192,122705,128,0,122848:0:0:0:0:
256,192,122705,128,0,122848:0:0:0:0:
475,192,122705,1,0,0:0:0:0:
402,192,122705,1,0,0:0:0:0:
182,192,122848,128,0,122991:0:0:0:0:
329,192,122848,128,0,122991:0:0:0:0:
109,192,122991,128,0,123133:0:0:0:0:
402,192,122991,128,0,123133:0:0:0:0:
182,192,123133,128,0,123276:0:0:0:0:
36,192,123133,128,0,123276:0:0:0:0:
475,192,123276,128,0,123419:0:0:0:0:
402,192,123276,128,0,123419:0:0:0:0:
109,192,123419,128,0,123562:0:0:0:0:
256,192,123419,128,0,123562:0:0:0:0:
402,192,123562,1,0,0:0:0:0:
182,192,123562,128,0,124419:0:0:0:0:
36,192,123562,1,0,0:0:0:0:
329,192,123562,128,0,124419:0:0:0:0:
475,192,123705,128,0,123848:0:0:0:0:
402,192,123848,128,0,123991:0:0:0:0:
256,192,123991,128,0,124133:0:0:0:0:
109,192,124133,128,0,124276:0:0:0:0:
36,192,124276,128,0,124419:0:0:0:0:
475,192,124419,128,0,125276:0:0:0:0:
256,192,124419,128,0,124562:0:0:0:0:
109,192,124419,1,0,0:0:0:0:
402,192,124419,128,0,124562:0:0:0:0:
36,192,124562,128,0,124705:0:0:0:0:
182,192,124562,128,0,124705:0:0:0:0:
329,192,124705,128,0,124848:0:0:0:0:
256,192,124848,128,0,124991:0:0:0:0:
402,192,124848,128,0,124991:0:0:0:0:
36,192,124991,128,0,125133:0:0:0:0:
182,192,124991,128,0,125133:0:0:0:0:
329,192,125133,128,0,125276:0:0:0:0:
182,192,125276,128,0,126133:0:0:0:0:
256,192,125276,128,0,125562:0:0:0:0:
402,192,125276,128,0,125562:0:0:0:0:
36,192,125562,128,0,125848:0:0:0:0:
109,192,125562,128,0,125848:0:0:0:0:
329,192,125848,128,0,126133:0:0:0:0:
402,192,126133,128,0,126991:0:0:0:0:
36,192,126133,128,0,126276:0:0:0:0:
256,192,126133,1,0,0:0:0:0:
475,192,126133,128,0,126276:0:0:0:0:
109,192,126276,128,0,126419:0:0:0:0:
182,192,126276,128,0,126419:0:0:0:0:
329,192,126419,128,0,126562:0:0:0:0:
36,192,126562,128,0,126705:0:0:0:0:
475,192,126562,128,0,126705:0:0:0:0:
109,192,126705,128,0,126848:0:0:0:0:
182,192,126705,128,0,126848:0:0:0:0:
329,192,126848,128,0,126991:0:0:0:0:
36,192,126991,128,0,127848:0:0:0:0:
256,192,126991,128,0,127276:0:0:0:0:
475,192,126991,128,0,127276:0:0:0:0:
109,192,127276,128,0,127562:0:0:0:0:
182,192,127276,128,0,127562:0:0:0:0:
329,192,127562,128,0,127848:0:0:0:0:
109,192,127848,128,0,128705:0:0:0:0:
256,192,127848,128,0,127991:0:0:0:0:
182,192,127848,128,0,127991:0:0:0:0:
329,192,127991,128,0,128133:0:0:0:0:
475,192,127991,128,0,128133:0:0:0:0:
36,192,128133,128,0,128276:0:0:0:0:
256,192,128276,128,0,128419:0:0:0:0:
182,192,128276,128,0,128419:0:0:0:0:
329,192,128419,128,0,128562:0:0:0:0:
475,192,128419,128,0,128562:0:0:0:0:
36,192,128562,128,0,128705:0:0:0:0:
182,192,128705,128,0,129562:0:0:0:0:
256,192,128705,128,0,128991:0:0:0:0:
329,192,128705,128,0,128991:0:0:0:0:
402,192,128991,128,0,129276:0:0:0:0:
475,192,128991,128,0,129276:0:0:0:0:
36,192,129276,128,0,129562:0:0:0:0:
475,192,129562,128,0,131276:0:0:0:0:
109,192,129562,128,0,129705:0:0:0:0:
402,192,129562,128,0,129705:0:0:0:0:
36,192,129705,128,0,129848:0:0:0:0:
182,192,129705,128,0,129848:0:0:0:0:
329,192,129848,128,0,129991:0:0:0:0:
402,192,129991,128,0,130133:0:0:0:0:
109,192,129991,128,0,130133:0:0:0:0:
182,192,130133,128,0,130276:0:0:0:0:
36,192,130133,128,0,130276:0:0:0:0:
329,192,130276,128,0,130419:0:0:0:0:
256,192,130419,128,0,130562:0:0:0:0:
182,192,130419,1,0,0:0:0:0:
109,192,130419,128,0,130562:0:0:0:0:
402,192,130562,128,0,130705:0:0:0:0:
329,192,130562,128,0,130705:0:0:0:0:
36,192,130705,128,0,130848:0:0:0:0:
182,192,130705,128,0,130848:0:0:0:0:
109,192,130848,128,0,130991:0:0:0:0:
182,192,130991,128,0,131133:0:0:0:0:
329,192,131133,128,0,131276:0:0:0:0:
36,192,131276,128,0,132133:0:0:0:0:
256,192,131276,128,0,131419:0:0:0:0:
109,192,131276,128,0,131419:0:0:0:0:
475,192,131419,128,0,131562:0:0:0:0:
329,192,131419,128,0,131562:0:0:0:0:
182,192,131562,128,0,131705:0:0:0:0:
256,192,131705,128,0,131848:0:0:0:0:
109,192,131705,128,0,131848:0:0:0:0:
475,192,131848,128,0,131991:0:0:0:0:
329,192,131848,128,0,131991:0:0:0:0:
182,192,131991,128,0,132133:0:0:0:0:
329,192,132133,128,0,132991:0:0:0:0:
256,192,132133,128,0,132419:0:0:0:0:
109,192,132133,128,0,132419:0:0:0:0:
475,192,132419,128,0,132705:0:0:0:0:
402,192,132419,128,0,132705:0:0:0:0:
182,192,132705,128,0,132991:0:0:0:0:
109,192,132991,128,0,133848:0:0:0:0:
256,192,132991,128,0,133133:0:0:0:0:
36,192,132991,128,0,133133:0:0:0:0:
329,192,133133,128,0,133276:0:0:0:0:
475,192,133133,128,0,133276:0:0:0:0:
182,192,133276,128,0,133419:0:0:0:0:
256,192,133419,128,0,133562:0:0:0:0:
36,192,133419,128,0,133562:0:0:0:0:
329,192,133562,128,0,133705:0:0:0:0:
475,192,133562,128,0,133705:0:0:0:0:
182,192,133705,128,0,133848:0:0:0:0:
475,192,133848,128,0,134705:0:0:0:0:
256,192,133848,128,0,134133:0:0:0:0:
36,192,133848,128,0,134133:0:0:0:0:
402,192,134133,128,0,134419:0:0:0:0:
329,192,134133,128,0,134419:0:0:0:0:
182,192,134419,128,0,134705:0:0:0:0:
402,192,134705,128,0,135562:0:0:0:0:
256,192,134705,128,0,134848:0:0:0:0:
329,192,134705,128,0,134848:0:0:0:0:
182,192,134848,128,0,134991:0:0:0:0:
36,192,134848,128,0,134991:0:0:0:0:
475,192,134991,128,0,135133:0:0:0:0:
256,192,135133,128,0,135276:0:0:0:0:
329,192,135133,128,0,135276:0:0:0:0:
182,192,135276,128,0,135419:0:0:0:0:
36,192,135276,128,0,135419:0:0:0:0:
475,192,135419,128,0,135562:0:0:0:0:
36,192,135562,128,0,136419:0:0:0:0:
256,192,135562,128,0,135848:0:0:0:0:
329,192,135562,128,0,135848:0:0:0:0:
109,192,135848,128,0,136133:0:0:0:0:
182,192,135848,128,0,136133:0:0:0:0:
475,192,136133,128,0,136419:0:0:0:0:
329,192,136419,128,0,136562:0:0:0:0:
256,192,136419,128,0,138133:0:0:0:0:
402,192,136419,128,0,136562:0:0:0:0:
36,192,136562,128,0,136705:0:0:0:0:
182,192,136562,128,0,136705:0:0:0:0:
475,192,136705,128,0,136991:0:0:0:0:
329,192,136848,128,0,136991:0:0:0:0:
402,192,136848,128,0,136991:0:0:0:0:
36,192,136991,128,0,137062:0:0:0:0:
182,192,136991,128,0,137062:0:0:0:0:
36,192,137133,128,0,137205:0:0:0:0:
182,192,137133,128,0,137205:0:0:0:0:
475,192,137276,1,0,0:0:0:0:
329,192,137276,1,0,0:0:0:0:
402,192,137276,1,0,0:0:0:0:
182,192,137276,1,0,0:0:0:0:
36,192,137348,1,0,0:0:0:0:
109,192,137419,1,0,0:0:0:0:
182,192,137491,1,0,0:0:0:0:
475,192,137562,1,0,0:0:0:0:
402,192,137705,1,0,0:0:0:0:
36,192,137848,1,0,0:0:0:0:
109,192,137991,1,0,0:0:0:0:
475,192,138133,128,0,138991:0:0:0:0:
182,192,138133,128,0,138276:0:0:0:0:
329,192,138133,1,0,0:0:0:0:
402,192,138133,128,0,138276:0:0:0:0:
36,192,138276,128,0,138419:0:0:0:0:
109,192,138276,128,0,138419:0:0:0:0:
329,192,138419,128,0,138562:0:0:0:0:
256,192,138562,128,0,138705:0:0:0:0:
402,192,138562,128,0,138705:0:0:0:0:
36,192,138705,128,0,138848:0:0:0:0:
109,192,138705,128,0,138848:0:0:0:0:
329,192,138848,128,0,138991:0:0:0:0:
182,192,138991,128,0,139848:0:0:0:0:
256,192,138991,128,0,139276:0:0:0:0:
402,192,138991,128,0,139276:0:0:0:0:
36,192,139276,128,0,139562:0:0:0:0:
109,192,139276,128,0,139562:0:0:0:0:
329,192,139562,128,0,139848:0:0:0:0:
402,192,139848,128,0,140705:0:0:0:0:
36,192,139848,128,0,139991:0:0:0:0:
475,192,139848,128,0,139991:0:0:0:0:
109,192,139991,128,0,140133:0:0:0:0:
182,192,139991,128,0,140133:0:0:0:0:
329,192,140133,128,0,140276:0:0:0:0:
36,192,140276,128,0,140419:0:0:0:0:
475,192,140276,128,0,140419:0:0:0:0:
109,192,140419,128,0,140562:0:0:0:0:
182,192,140419,128,0,140562:0:0:0:0:
329,192,140562,128,0,140705:0:0:0:0:
36,192,140705,128,0,141562:0:0:0:0:
256,192,140705,128,0,140991:0:0:0:0:
475,192,140705,128,0,140991:0:0:0:0:
109,192,140991,128,0,141276:0:0:0:0:
182,192,140991,128,0,141276:0:0:0:0:
329,192,141276,128,0,141562:0:0:0:0:
109,192,141562,128,0,142419:0:0:0:0:
256,192,141562,128,0,141705:0:0:0:0:
182,192,141562,128,0,141705:0:0:0:0:
402,192,141705,128,0,141848:0:0:0:0:
475,192,141705,128,0,141848:0:0:0:0:
36,192,141848,128,0,141991:0:0:0:0:
256,192,141991,128,0,142133:0:0:0:0:
182,192,141991,128,0,142133:0:0:0:0:
402,192,142133,128,0,142276:0:0:0:0:
475,192,142133,128,0,142276:0:0:0:0:
36,192,142276,128,0,142419:0:0:0:0:
182,192,142419,128,0,143276:0:0:0:0:
256,192,142419,128,0,142705:0:0:0:0:
329,192,142419,128,0,142705:0:0:0:0:
402,192,142705,128,0,142991:0:0:0:0:
475,192,142705,128,0,142991:0:0:0:0:
36,192,142991,128,0,143276:0:0:0:0:
475,192,143276,128,0,144991:0:0:0:0:
329,192,143276,128,0,143419:0:0:0:0:
256,192,143276,128,0,143419:0:0:0:0:
109,192,143419,128,0,143562:0:0:0:0:
36,192,143419,128,0,143562:0:0:0:0:
402,192,143562,128,0,143705:0:0:0:0:
256,192,143705,128,0,143848:0:0:0:0:
329,192,143705,128,0,143848:0:0:0:0:
36,192,143848,128,0,143991:0:0:0:0:
109,192,143848,128,0,143991:0:0:0:0:
329,192,143991,128,0,144133:0:0:0:0:
256,192,144133,128,0,144276:0:0:0:0:
182,192,144133,1,0,0:0:0:0:
109,192,144133,128,0,144276:0:0:0:0:
329,192,144276,128,0,144419:0:0:0:0:
402,192,144276,128,0,144419:0:0:0:0:
36,192,144419,128,0,144562:0:0:0:0:
182,192,144419,128,0,144562:0:0:0:0:
109,192,144562,128,0,144705:0:0:0:0:
182,192,144705,128,0,144848:0:0:0:0:
329,192,144848,128,0,144991:0:0:0:0:
36,192,144991,128,0,145848:0:0:0:0:
256,192,144991,128,0,145133:0:0:0:0:
109,192,144991,128,0,145133:0:0:0:0:
475,192,145133,128,0,145276:0:0:0:0:
402,192,145133,128,0,145276:0:0:0:0:
182,192,145276,128,0,145419:0:0:0:0:
256,192,145419,128,0,145562:0:0:0:0:
109,192,145419,128,0,145562:0:0:0:0:
475,192,145562,128,0,145705:0:0:0:0:
402,192,145562,128,0,145705:0:0:0:0:
182,192,145705,128,0,145848:0:0:0:0:
329,192,145848,128,0,146705:0:0:0:0:
256,192,145848,128,0,146133:0:0:0:0:
109,192,145848,128,0,146133:0:0:0:0:
475,192,146133,128,0,146419:0:0:0:0:
402,192,146133,128,0,146419:0:0:0:0:
182,192,146419,128,0,146705:0:0:0:0:
109,192,146705,128,0,147562:0:0:0:0:
256,192,146705,128,0,146848:0:0:0:0:
36,192,146705,128,0,146848:0:0:0:0:
402,192,146848,128,0,146991:0:0:0:0:
475,192,146848,128,0,146991:0:0:0:0:
182,192,146991,128,0,147133:0:0:0:0:
256,192,147133,128,0,147276:0:0:0:0:
36,192,147133,128,0,147276:0:0:0:0:
402,192,147276,128,0,147419:0:0:0:0:
475,192,147276,128,0,147419:0:0:0:0:
182,192,147419,128,0,147562:0:0:0:0:
475,192,147562,128,0,148419:0:0:0:0:
256,192,147562,128,0,147848:0:0:0:0:
36,192,147562,128,0,147848:0:0:0:0:
402,192,147848,128,0,148133:0:0:0:0:
329,192,147848,128,0,148133:0:0:0:0:
182,192,148133,128,0,148419:0:0:0:0:
402,192,148419,128,0,149276:0:0:0:0:
256,192,148419,128,0,148562:0:0:0:0:
329,192,148419,128,0,148562:0:0:0:0:
109,192,148562,128,0,148705:0:0:0:0:
36,192,148562,128,0,148705:0:0:0:0:
475,192,148705,128,0,148848:0:0:0:0:
256,192,148848,128,0,148991:0:0:0:0:
329,192,148848,128,0,148991:0:0:0:0:
109,192,148991,128,0,149133:0:0:0:0:
36,192,148991,128,0,149133:0:0:0:0:
475,192,149133,128,0,149276:0:0:0:0:
36,192,149276,128,0,150133:0:0:0:0:
256,192,149276,128,0,149562:0:0:0:0:
329,192,149276,128,0,149562:0:0:0:0:
109,192,149562,128,0,150133:0:0:0:0:
182,192,149562,128,0,149848:0:0:0:0:
475,192,149848,128,0,150133:0:0:0:0:
329,192,150133,128,0,150276:0:0:0:0:
402,192,150133,1,0,0:0:0:0:
256,192,150133,128,0,151848:0:0:0:0:
182,192,150133,1,0,0:0:0:0:
36,192,150276,128,0,150419:0:0:0:0:
109,192,150276,128,0,150419:0:0:0:0:
475,192,150419,128,0,150562:0:0:0:0:
402,192,150419,128,0,150562:0:0:0:0:
329,192,150562,128,0,150705:0:0:0:0:
36,192,150705,128,0,150848:0:0:0:0:
182,192,150705,128,0,150848:0:0:0:0:
475,192,150991,1,0,0:0:0:0:
329,192,150991,1,0,0:0:0:0:
182,192,150991,1,0,0:0:0:0:
36,192,150991,1,0,0:0:0:0:
109,192,151133,128,0,151276:0:0:0:0:
402,192,151133,128,0,151276:0:0:0:0:
182,192,151276,128,0,151562:0:0:0:0:
475,192,151276,128,0,151419:0:0:0:0:
329,192,151419,128,0,151562:0:0:0:0:
475,192,151562,128,0,151848:0:0:0:0:
109,192,151562,128,0,151848:0:0:0:0:
36,192,151848,128,0,151991:0:0:0:0:
402,192,151848,1,0,0:0:0:0:
182,192,151848,128,0,153562:0:0:0:0:
329,192,151848,1,0,0:0:0:0:
256,192,152133,128,0,152276:0:0:0:0:
256,192,152419,128,0,152562:0:0:0:0:
475,192,152705,128,0,152848:0:0:0:0:
109,192,152705,1,0,0:0:0:0:
256,192,152991,128,0,153133:0:0:0:0:
256,192,153276,128,0,153419:0:0:0:0:
36,192,153562,128,0,153705:0:0:0:0:
402,192,153562,1,0,0:0:0:0:
329,192,153562,128,0,155276:0:0:0:0:
109,192,153562,1,0,0:0:0:0:
256,192,153848,128,0,153991:0:0:0:0:
256,192,154133,128,0,154276:0:0:0:0:
475,192,154419,128,0,154562:0:0:0:0:
109,192,154419,1,0,0:0:0:0:
256,192,154705,128,0,154848:0:0:0:0:
256,192,154991,128,0,155133:0:0:0:0:
36,192,155276,128,0,155419:0:0:0:0:
475,192,155276,1,0,0:0:0:0:
182,192,155276,128,0,156991:0:0:0:0:
402,192,155276,1,0,0:0:0:0:
256,192,155562,128,0,155705:0:0:0:0:
256,192,155848,128,0,155991:0:0:0:0:
475,192,156133,128,0,156276:0:0:0:0:
109,192,156133,1,0,0:0:0:0:
256,192,156419,128,0,156562:0:0:0:0:
256,192,156705,128,0,156848:0:0:0:0:
36,192,156991,128,0,157133:0:0:0:0:
402,192,156991,1,0,0:0:0:0:
329,192,156991,128,0,158419:0:0:0:0:
475,192,156991,1,0,0:0:0:0:
256,192,157276,128,0,157419:0:0:0:0:
256,192,157562,128,0,157705:0:0:0:0:
475,192,157848,128,0,157991:0:0:0:0:
109,192,157848,1,0,0:0:0:0:
256,192,158133,128,0,158276:0:0:0:0:
109,192,158419,1,0,0:0:0:0:
109,192,158562,1,0,0:0:0:0:
36,192,158705,1,0,0:0:0:0:
475,192,158705,1,0,0:0:0:0:
402,192,158705,1,0,0:0:0:0:
109,192,158752,1,0,0:0:0:0:
182,192,158800,1,0,0:0:0:0:
256,192,158848,1,0,0:0:0:0:
329,192,158895,1,0,0:0:0:0:
402,192,158943,1,0,0:0:0:0:
475,192,158991,1,0,0:0:0:0:
329,192,159086,1,0,0:0:0:0:
182,192,159181,1,0,0:0:0:0:
109,192,159276,1,0,0:0:0:0:
36,192,159276,1,0,0:0:0:0:
329,192,159419,1,0,0:0:0:0:
36,192,159562,1,0,0:0:0:0:
475,192,159562,1,0,0:0:0:0:
402,192,159610,1,0,0:0:0:0:
329,192,159657,1,0,0:0:0:0:
256,192,159705,1,0,0:0:0:0:
182,192,159752,1,0,0:0:0:0:
109,192,159800,1,0,0:0:0:0:
36,192,159848,1,0,0:0:0:0:
182,192,159943,1,0,0:0:0:0:
329,192,160038,1,0,0:0:0:0:
475,192,160133,1,0,0:0:0:0:
402,192,160133,1,0,0:0:0:0:
182,192,160276,1,0,0:0:0:0:
36,192,160419,1,0,0:0:0:0:
475,192,160419,1,0,0:0:0:0:
402,192,160419,1,0,0:0:0:0:
109,192,160467,1,0,0:0:0:0:
182,192,160514,1,0,0:0:0:0:
256,192,160562,1,0,0:0:0:0:
329,192,160610,1,0,0:0:0:0:
402,192,160657,1,0,0:0:0:0:
475,192,160705,1,0,0:0:0:0:
109,192,160800,1,0,0:0:0:0:
329,192,160895,1,0,0:0:0:0:
36,192,160991,1,0,0:0:0:0:
182,192,160991,1,0,0:0:0:0:
256,192,161133,1,0,0:0:0:0:
36,192,161276,1,0,0:0:0:0:
475,192,161276,1,0,0:0:0:0:
402,192,161324,1,0,0:0:0:0:
329,192,161371,1,0,0:0:0:0:
256,192,161419,1,0,0:0:0:0:
182,192,161467,1,0,0:0:0:0:
109,192,161514,1,0,0:0:0:0:
36,192,161562,1,0,0:0:0:0:
402,192,161657,1,0,0:0:0:0:
182,192,161752,1,0,0:0:0:0:
475,192,161848,1,0,0:0:0:0:
329,192,161848,1,0,0:0:0:0:
256,192,161991,1,0,0:0:0:0:
402,192,162133,1,0,0:0:0:0:
475,192,162133,1,0,0:0:0:0:
36,192,162133,1,0,0:0:0:0:
329,192,162181,1,0,0:0:0:0:
256,192,162229,1,0,0:0:0:0:
182,192,162276,1,0,0:0:0:0:
109,192,162324,1,0,0:0:0:0:
36,192,162371,1,0,0:0:0:0:
329,192,162419,1,0,0:0:0:0:
256,192,162514,1,0,0:0:0:0:
109,192,162610,1,0,0:0:0:0:
475,192,162705,1,0,0:0:0:0:
402,192,162752,1,0,0:0:0:0:
329,192,162800,1,0,0:0:0:0:
256,192,162848,1,0,0:0:0:0:
182,192,162895,1,0,0:0:0:0:
109,192,162943,1,0,0:0:0:0:
36,192,162991,1,0,0:0:0:0:
329,192,163086,1,0,0:0:0:0:
402,192,163181,1,0,0:0:0:0:
36,192,163276,1,0,0:0:0:0:
109,192,163324,1,0,0:0:0:0:
182,192,163371,1,0,0:0:0:0:
256,192,163419,1,0,0:0:0:0:
329,192,163467,1,0,0:0:0:0:
402,192,163514,1,0,0:0:0:0:
475,192,163562,1,0,0:0:0:0:
36,192,163657,1,0,0:0:0:0:
329,192,163752,1,0,0:0:0:0:
182,192,163848,5,0,0:0:0:0:
475,192,163848,1,0,0:0:0:0:
402,192,163848,1,0,0:0:0:0:
109,192,163919,1,0,0:0:0:0:
36,192,163991,1,0,0:0:0:0:
256,192,164062,1,0,0:0:0:0:
402,192,164133,1,0,0:0:0:0:
329,192,164133,1,0,0:0:0:0:
182,192,164205,1,0,0:0:0:0:
475,192,164276,1,0,0:0:0:0:
36,192,164348,1,0,0:0:0:0:
109,192,164419,1,0,0:0:0:0:
402,192,164419,1,0,0:0:0:0:
182,192,164491,1,0,0:0:0:0:
256,192,164562,1,0,0:0:0:0:
329,192,164633,1,0,0:0:0:0:
475,192,164705,1,0,0:0:0:0:
402,192,164705,1,0,0:0:0:0:
182,192,164705,1,0,0:0:0:0:
36,192,164776,1,0,0:0:0:0:
109,192,164848,1,0,0:0:0:0:
182,192,164919,1,0,0:0:0:0:
329,192,164991,1,0,0:0:0:0:
402,192,165062,1,0,0:0:0:0:
475,192,165133,128,0,165276:0:0:0:0:
109,192,165276,1,0,0:0:0:0:
109,192,165419,1,0,0:0:0:0:
475,192,165562,128,0,174133:0:0:0:0:
182,192,165562,128,0,165705:0:0:0:0:
36,192,165562,1,0,0:0:0:0:
329,192,165562,1,0,0:0:0:0:
402,192,165705,128,0,165848:0:0:0:0:
256,192,165848,128,0,165991:0:0:0:0:
109,192,165848,1,0,0:0:0:0:
329,192,165991,128,0,166133:0:0:0:0:
256,192,166133,128,0,166276:0:0:0:0:
36,192,166133,1,0,0:0:0:0:
182,192,166276,128,0,166419:0:0:0:0:
402,192,166419,128,0,166562:0:0:0:0:
329,192,166419,1,0,0:0:0:0:
109,192,166562,128,0,166705:0:0:0:0:
256,192,166705,128,0,166848:0:0:0:0:
329,192,166705,1,0,0:0:0:0:
36,192,166848,128,0,166991:0:0:0:0:
256,192,166991,128,0,167133:0:0:0:0:
402,192,166991,1,0,0:0:0:0:
109,192,167133,128,0,167276:0:0:0:0:
329,192,167276,128,0,167419:0:0:0:0:
36,192,167276,1,0,0:0:0:0:
182,192,167419,128,0,167562:0:0:0:0:
256,192,167562,128,0,167705:0:0:0:0:
402,192,167562,1,0,0:0:0:0:
36,192,167705,128,0,167848:0:0:0:0:
256,192,167848,128,0,167991:0:0:0:0:
329,192,167848,1,0,0:0:0:0:
109,192,167991,128,0,168133:0:0:0:0:
182,192,168133,128,0,168276:0:0:0:0:
36,192,168133,1,0,0:0:0:0:
402,192,168276,128,0,168419:0:0:0:0:
256,192,168419,128,0,168562:0:0:0:0:
329,192,168419,1,0,0:0:0:0:
109,192,168562,128,0,168705:0:0:0:0:
256,192,168705,128,0,168848:0:0:0:0:
36,192,168705,1,0,0:0:0:0:
402,192,168848,128,0,168991:0:0:0:0:
182,192,168991,128,0,169133:0:0:0:0:
36,192,168991,128,0,172419:0:0:0:0:
256,192,169276,128,0,169419:0:0:0:0:
402,192,169419,1,0,0:0:0:0:
109,192,169419,1,0,0:0:0:0:
329,192,169491,1,0,0:0:0:0:
256,192,169562,128,0,169705:0:0:0:0:
182,192,169705,128,0,169848:0:0:0:0:
109,192,169705,1,0,0:0:0:0:
402,192,169848,128,0,169991:0:0:0:0:
329,192,169848,1,0,0:0:0:0:
182,192,169991,128,0,170133:0:0:0:0:
109,192,169991,1,0,0:0:0:0:
256,192,170133,128,0,170276:0:0:0:0:
329,192,170276,128,0,170419:0:0:0:0:
402,192,170276,1,0,0:0:0:0:
256,192,170419,128,0,170562:0:0:0:0:
109,192,170419,1,0,0:0:0:0:
182,192,170705,128,0,170848:0:0:0:0:
109,192,170705,1,0,0:0:0:0:
256,192,170991,128,0,171133:0:0:0:0:
402,192,171133,1,0,0:0:0:0:
109,192,171133,1,0,0:0:0:0:
329,192,171205,1,0,0:0:0:0:
256,192,171276,128,0,171419:0:0:0:0:
182,192,171419,128,0,171562:0:0:0:0:
109,192,171419,1,0,0:0:0:0:
402,192,171562,128,0,171705:0:0:0:0:
329,192,171562,1,0,0:0:0:0:
182,192,171705,128,0,171848:0:0:0:0:
109,192,171705,1,0,0:0:0:0:
256,192,171848,128,0,171991:0:0:0:0:
329,192,171919,1,0,0:0:0:0:
402,192,171991,1,0,0:0:0:0:
109,192,172062,1,0,0:0:0:0:
256,192,172133,128,0,172276:0:0:0:0:
329,192,172205,1,0,0:0:0:0:
402,192,172276,1,0,0:0:0:0:
182,192,172348,1,0,0:0:0:0:
109,192,172419,1,0,0:0:0:0:
329,192,172419,128,0,172562:0:0:0:0:
256,192,172705,128,0,172848:0:0:0:0:
36,192,172848,1,0,0:0:0:0:
402,192,172848,1,0,0:0:0:0:
182,192,172919,1,0,0:0:0:0:
256,192,172991,128,0,173133:0:0:0:0:
329,192,173133,128,0,173276:0:0:0:0:
109,192,173133,1,0,0:0:0:0:
402,192,173276,128,0,173419:0:0:0:0:
36,192,173276,1,0,0:0:0:0:
329,192,173419,128,0,173562:0:0:0:0:
182,192,173419,1,0,0:0:0:0:
256,192,173562,128,0,173705:0:0:0:0:
36,192,173705,128,0,173848:0:0:0:0:
109,192,173705,1,0,0:0:0:0:
256,192,173848,128,0,173991:0:0:0:0:
182,192,173848,1,0,0:0:0:0:
36,192,174133,128,0,174276:0:0:0:0:
402,192,174133,1,0,0:0:0:0:
109,192,174276,1,0,0:0:0:0:
256,192,174419,128,0,174562:0:0:0:0:
36,192,174562,1,0,0:0:0:0:
475,192,174562,1,0,0:0:0:0:
109,192,174633,1,0,0:0:0:0:
256,192,174705,128,0,174848:0:0:0:0:
329,192,174848,128,0,174991:0:0:0:0:
182,192,174848,1,0,0:0:0:0:
402,192,174991,128,0,175133:0:0:0:0:
475,192,174991,1,0,0:0:0:0:
329,192,175133,128,0,175276:0:0:0:0:
109,192,175133,1,0,0:0:0:0:
36,192,175276,128,0,175419:0:0:0:0:
256,192,175276,128,0,175419:0:0:0:0:
475,192,175419,1,0,0:0:0:0:
182,192,175419,128,0,175562:0:0:0:0:
256,192,175562,128,0,175705:0:0:0:0:
109,192,175562,128,0,175705:0:0:0:0:
329,192,175705,1,0,0:0:0:0:
475,192,175848,1,0,0:0:0:0:
36,192,175848,128,0,175991:0:0:0:0:
182,192,175991,1,0,0:0:0:0:
256,192,176133,128,0,176276:0:0:0:0:
36,192,176276,1,0,0:0:0:0:
475,192,176276,1,0,0:0:0:0:
402,192,176348,1,0,0:0:0:0:
256,192,176419,128,0,176562:0:0:0:0:
329,192,176562,1,0,0:0:0:0:
36,192,176562,128,0,176705:0:0:0:0:
182,192,176705,1,0,0:0:0:0:
475,192,176705,128,0,176848:0:0:0:0:
402,192,176848,1,0,0:0:0:0:
36,192,176848,128,0,176991:0:0:0:0:
256,192,176991,128,0,177133:0:0:0:0:
109,192,176991,128,0,177133:0:0:0:0:
475,192,177133,1,0,0:0:0:0:
182,192,177133,128,0,177276:0:0:0:0:
256,192,177276,128,0,177419:0:0:0:0:
329,192,177276,128,0,177419:0:0:0:0:
109,192,177419,1,0,0:0:0:0:
475,192,177562,1,0,0:0:0:0:
36,192,177562,128,0,177705:0:0:0:0:
402,192,177705,1,0,0:0:0:0:
256,192,177848,128,0,177991:0:0:0:0:
36,192,177991,1,0,0:0:0:0:
475,192,177991,1,0,0:0:0:0:
109,192,178062,1,0,0:0:0:0:
256,192,178133,128,0,178276:0:0:0:0:
402,192,178276,128,0,178419:0:0:0:0:
36,192,178276,1,0,0:0:0:0:
109,192,178419,1,0,0:0:0:0:
475,192,178419,128,0,178562:0:0:0:0:
402,192,178562,128,0,178705:0:0:0:0:
182,192,178562,1,0,0:0:0:0:
256,192,178705,128,0,178848:0:0:0:0:
109,192,178705,1,0,0:0:0:0:
36,192,178776,1,0,0:0:0:0:
475,192,178848,1,0,0:0:0:0:
329,192,178919,1,0,0:0:0:0:
256,192,178991,128,0,179133:0:0:0:0:
182,192,179062,1,0,0:0:0:0:
109,192,179133,1,0,0:0:0:0:
475,192,179276,1,0,0:0:0:0:
329,192,179348,1,0,0:0:0:0:
182,192,179419,1,0,0:0:0:0:
109,192,179491,1,0,0:0:0:0:
36,192,179562,1,0,0:0:0:0:
