osu file format v14

[General]
AudioFilename: audio.ogg
AudioLeadIn: 0
PreviewTime: 272841
Countdown: 0
SampleSet: Normal
StackLeniency: 0.7
Mode: 1
LetterboxInBreaks: 0
WidescreenStoryboard: 1

[Editor]
DistanceSpacing: 1.1
BeatDivisor: 4
GridSize: 32
TimelineZoom: 2.600001

[Metadata]
Title:You Are My Hero
TitleUnicode:You Are My Hero
Artist:Chroma
ArtistUnicode:黒魔
Creator:[Zeth]
Version:ulko's oni
Source:
Tags:ulqui ulko tailless hero electronic instrumental
BeatmapID:4345610
BeatmapSetID:2075217

[Difficulty]
HPDrainRate:5
CircleSize:2
OverallDifficulty:6
ApproachRate:10
SliderMultiplier:1.4
SliderTickRate:1

[Events]
//Background and Video events
0,0,"112352327_p0.jpg",0,0
//Break Periods
2,131549,135951
2,151759,156162
2,192182,199110
2,262400,272391
2,273041,277443
2,293251,297654
//Storyboard Layer 0 (Background)
//Storyboard Layer 1 (Fail)
//Storyboard Layer 2 (Pass)
//Storyboard Layer 3 (Foreground)
//Storyboard Layer 4 (Overlay)
//Storyboard Sound Samples

[TimingPoints]
1245,315.789473684211,4,1,0,100,1,0
1245,-1000,4,1,0,100,0,0
18929,-1000,4,1,0,100,0,0
18930,-133.333333333333,4,1,0,100,0,0
19087,-25,4,1,0,100,0,0
20192,-1000,4,1,0,100,0,0
21455,-1000,4,1,0,100,0,0
22402,-5000,4,1,0,100,0,0
22713,-100,4,1,0,100,0,0
42929,-100,4,1,0,100,0,0
43087,-100,4,1,0,100,0,0
47980,-100,4,1,0,100,0,0
48135,-100,4,1,0,100,0,0
52954,-100,4,1,0,100,0,0
53109,-100,4,1,0,100,0,0
58007,-100,4,1,0,100,0,0
58162,-100,4,1,0,100,0,0
63137,-133.333333333333,4,1,0,100,0,0
63692,-134.737754370761,4,1,0,100,0,0
64399,-136.169782718545,4,1,0,100,0,0
65031,-137.634921175389,4,1,0,100,0,0
65663,-139.131931297973,4,1,0,100,0,0
66294,-140.659417137886,4,1,0,100,0,0
66926,-142.223316855198,4,1,0,100,0,0
67557,-143.81982494841,4,1,0,100,0,0
68189,-145.455199712127,4,1,0,100,0,0
69452,-148.837380562255,4,1,0,100,0,0
69926,-150.147651505302,4,1,0,100,0,0
70399,-151.478358628443,4,1,0,100,0,0
70715,-152.380593357711,4,1,0,100,0,0
71189,-153.75427919361,4,1,0,100,0,0
71979,-156.096619103705,4,1,0,100,0,0
73242,-160.001583311893,4,1,0,100,0,0
73873,-162.025012025012,4,1,0,100,0,0
74504,-164.10360506658,4,1,0,100,0,0
75136,-166.232804885572,4,1,0,100,0,0
75768,-168.421491218933,4,1,0,100,0,0
76399,-170.664977834072,4,1,0,100,0,0
77031,-172.97274166631,4,1,0,100,0,0
77662,-175.343773044723,4,1,0,100,0,0
78294,-177.776800439802,4,1,0,100,0,0
79558,-182.855333393649,4,1,0,100,0,0
80821,-188.232554890684,4,1,0,100,0,0
82084,-193.940266282836,4,1,0,100,0,0
83031,-50,4,1,0,100,0,0
83345,-200,4,1,0,100,0,0
84613,-100,4,1,0,100,0,0
84687,-98.0392156862745,4,1,0,100,0,0
84845,-94.3396226415094,4,1,0,100,0,0
84924,-92.5925925925926,4,1,0,100,0,0
85003,-90.9090909090909,4,1,0,100,0,0
85087,-100,4,1,0,100,0,0
87139,-100,4,1,0,100,0,0
89029,-100,4,1,0,100,0,0
89187,-98.4833941255519,4,1,0,100,0,0
89266,-97.7422120605887,4,1,0,100,0,0
89503,-95.5841252096143,4,1,0,100,0,0
89661,-94.1975762027176,4,1,0,100,0,0
89740,-93.5192780968006,4,1,0,100,0,0
89897,-92.1998562185478,4,1,0,100,0,0
89976,-91.5499241545463,4,1,0,100,0,0
90055,-90.9090909090909,4,1,0,100,0,0
90139,-100,4,1,0,100,0,0
94082,-100,4,1,0,100,0,0
94240,-98.2122652183752,4,1,0,100,0,0
94318,-97.3530731269628,4,1,0,100,0,0
94555,-94.8322954222659,4,1,0,100,0,0
94713,-93.2230694877027,4,1,0,100,0,0
94792,-92.4387646432375,4,1,0,100,0,0
94871,-91.6675467314394,4,1,0,100,0,0
94950,-90.9090909090909,4,1,0,100,0,0
95034,-100,4,1,0,100,0,0
99134,-100,4,1,0,100,0,0
99292,-97.5609756097561,4,1,0,100,0,0
99371,-96.3855421686747,4,1,0,100,0,0
99608,-93.0232558139535,4,1,0,100,0,0
99771,-90.9090909090909,4,1,0,100,0,1
99850,-100,4,1,0,100,0,1
101034,-200,4,1,0,100,0,1
101981,-125,4,1,0,100,0,0
102218,-100,4,1,0,100,0,0
107350,-133.333333333333,4,1,0,100,0,0
107978,-134.758018085142,4,1,0,100,0,0
108609,-136.215809113005,4,1,0,100,0,0
109241,-137.705485378093,4,1,0,100,0,0
109873,-139.225668748578,4,1,0,100,0,0
110504,-140.782281033842,4,1,0,100,0,0
111136,-142.37154715901,4,1,0,100,0,0
111767,-143.999710480602,4,1,0,100,0,0
112399,-145.662877747881,4,1,0,100,0,0
113662,-149.112780827821,4,1,0,100,0,0
114136,-150.446158499698,4,1,0,100,0,0
114609,-151.806493456946,4,1,0,100,0,0
114925,-152.727133151652,4,1,0,100,0,0
115399,-154.126237096431,4,1,0,100,0,0
116189,-156.521055012489,4,1,0,100,0,0
117452,-160.508269463493,4,1,0,100,0,0
118083,-162.580697883468,4,1,0,100,0,0
118714,-164.703934433015,4,1,0,100,0,0
119346,-166.88686169655,4,1,0,100,0,0
119978,-169.124835295618,4,1,0,100,0,0
120609,-171.427340485115,4,1,0,100,0,0
121241,-173.79340467351,4,1,0,100,0,0
121872,-176.221794105272,4,1,0,100,0,0
122504,-285.71426,4,1,0,100,0,0
122508,-178.72302198666,4,1,0,100,0,0
123766,-183.940458579882,4,1,0,100,0,0
125029,-189.471679245732,4,1,0,100,0,0
126292,-195.345868722078,4,1,0,100,0,0
127560,315.789473684211,99,1,0,100,1,8
131349,315.789473684211,4,1,0,100,1,1
131349,-66.6666666666667,4,1,0,100,0,1
132609,-68.0849271920295,4,1,0,100,0,1
133872,-69.564843259244,4,1,0,100,0,1
135135,-71.1105246954304,4,1,0,100,0,1
136398,-72.726454897939,4,1,0,100,0,1
137662,-74.4175342667514,4,1,0,100,0,1
138925,-76.1891298406326,4,1,0,100,0,1
140188,-78.0486392029272,4,1,0,100,0,1
141451,-79.9996041681098,4,1,0,100,0,1
142714,-82.0506054178043,4,1,0,100,0,1
143978,-84.2095394839637,4,1,0,100,0,1
145240,-86.4851564589462,4,1,0,100,0,1
146503,-88.8871785286259,4,1,0,100,0,1
147767,-91.4285068026826,4,1,0,100,0,1
149030,-94.1172361604284,4,1,0,100,0,1
150293,-96.9688973119505,4,1,0,100,0,1
150924,-98.4593274629447,4,1,0,100,0,1
151556,-99.9987630345237,4,1,0,100,0,1
152820,-103.22407650957,4,1,0,100,0,1
154083,-106.664379675687,4,1,0,100,0,1
155346,-110.344921720377,4,1,0,100,0,1
156609,-114.285310375051,4,1,0,100,0,1
157872,-118.517541159051,4,1,0,100,0,1
159135,-123.075283550278,4,1,0,100,0,1
160398,-127.997593375449,4,1,0,100,0,1
161661,-133.330034799532,4,1,0,100,0,1
162925,-139.126094962741,4,1,0,100,0,1
164188,-145.454218319869,4,1,0,100,0,1
165451,-152.379695775922,4,1,0,100,0,1
166714,-159.997625032161,4,1,0,100,0,1
167978,-168.41732463907,4,1,0,100,0,1
169241,-177.772402418911,4,1,0,100,0,1
170503,-188.227898204848,4,1,0,100,0,1
171135,-193.935468393907,4,1,0,100,0,1
171770,-200,4,1,0,100,0,0
172084,-193.953934740883,4,1,0,100,0,0
172242,-191.056910569106,4,1,0,100,0,0
172321,-199.19598,4,1,0,100,0,0
172400,-188.245156482861,4,1,0,100,0,0
172475,-186.870087840962,4,1,0,100,0,0
172558,-185.514962364604,4,1,0,100,0,0
172633,-184.179349311948,4,1,0,100,0,0
172716,-182.862830256967,4,1,0,100,0,0
172874,-180.28545941124,4,1,0,100,0,0
172953,-179.023828505625,4,1,0,100,0,0
173031,-177.779732582688,4,1,0,100,0,0
173348,-172.971585073605,4,1,0,100,0,0
173505,-170.678152183093,4,1,0,100,0,0
173584,-191.71744,4,1,0,100,0,0
173663,-168.430702558547,4,1,0,100,0,0
173738,-167.329027984766,4,1,0,100,0,0
173821,-166.241671465,4,1,0,100,0,0
173896,-165.168355671788,4,1,0,100,0,0
173979,-164.108810393829,4,1,0,100,0,0
174137,-162.029984767097,4,1,0,100,0,0
174216,-161.010197578075,4,1,0,100,0,0
174294,-160.003166811812,4,1,0,100,0,0
174611,-156.097937746196,4,1,0,100,0,0
174686,-155.151235989559,4,1,0,100,0,0
174769,-154.215948111408,4,1,0,100,0,0
174848,-177.91954,4,1,0,100,0,0
174927,-152.390288041019,4,1,0,100,0,0
175001,-151.487894460685,4,1,0,100,0,0
175085,-150.596125186289,4,1,0,100,0,0
175159,-149.714793688421,4,1,0,100,0,0
175243,-148.84371777876,4,1,0,100,0,0
175401,-147.131624927199,4,1,0,100,0,0
175480,-146.290264205574,4,1,0,100,0,0
175558,-145.458471282568,4,1,0,100,0,0
175717,-143.822943353259,4,1,0,100,0,0
175875,-142.223786066151,4,1,0,100,0,0
176032,-140.659799554566,4,1,0,100,0,0
176111,-139.890634733855,4,1,0,100,0,0
176190,-139.129836155858,4,1,0,100,0,0
176269,-138.377268058884,4,1,0,100,0,0
176348,-137.632797602833,4,1,0,100,0,0
176506,-136.176807492757,4,1,0,100,0,0
176664,-134.74231615441,4,1,0,100,0,0
176743,-134.036344342751,4,1,0,100,0,0
176821,-133.33773174111,4,1,0,100,0,0
176979,-131.96212863206,4,1,0,100,0,0
177058,-146.43456,4,1,0,100,0,0
177137,-130.614619013766,4,1,0,100,0,0
177295,-129.294350969228,4,1,0,100,0,0
177374,-128.644175684278,4,1,0,100,0,0
177453,-128.000506681867,4,1,0,100,0,0
177532,-127.363246785984,4,1,0,100,0,0
177611,-126.732300746222,4,1,0,100,0,0
177769,-125.488978578081,4,1,0,100,0,0
177927,-124.277456647399,4,1,0,100,0,0
178006,-123.676641576403,4,1,0,100,0,0
178084,-123.081607795371,4,1,0,100,0,0
178243,-121.908553504645,4,1,0,100,0,0
178321,-128.10684,4,1,0,100,0,0
178401,-120.757648183556,4,1,0,100,0,0
178558,-119.628270391855,4,1,0,100,0,0
178637,-119.071466446709,4,1,0,100,0,0
178716,-118.519821721792,4,1,0,100,0,0
178795,-117.973264841515,4,1,0,100,0,0
178874,-117.431725740848,4,1,0,100,0,0
179032,-116.363426992169,4,1,0,100,0,0
179190,-115.31439004907,4,1,0,100,0,0
179269,-114.796932689577,4,1,0,100,0,0
179347,-114.284098620222,4,1,0,100,0,0
179505,-113.278403676924,4,1,0,100,0,0
179584,-111.21914,4,1,0,100,0,0
179663,-112.284015778654,4,1,0,100,0,0
179821,-111.306933964862,4,1,0,100,0,0
179900,-110.824742268041,4,1,0,100,0,0
179979,-110.34671034671,4,1,0,100,0,0
180058,-109.872784603675,4,1,0,100,0,0
180137,-109.402912358577,4,1,0,100,0,0
180216,-103.49233,4,1,0,100,0,0
180295,-108.475122108314,4,1,0,100,0,0
180453,-107.562935760285,4,1,0,100,0,0
180532,-107.112571549714,4,1,0,100,0,0
180610,-106.66596294928,4,1,0,100,0,0
180686,-106.223063176706,4,1,0,100,0,0
180769,-105.783826223502,4,1,0,100,0,0
180847,-96.29448,4,1,0,100,0,0
180927,-104.921607309729,4,1,0,100,0,0
181084,-104.067971163749,4,1,0,100,0,0
181163,-103.646340837992,4,1,0,100,0,0
181242,-103.228113188273,4,1,0,100,0,0
181321,-102.813247189296,4,1,0,100,0,0
181400,-102.401702472639,4,1,0,100,0,0
181479,-89.60312,4,1,0,100,0,0
181558,-101.588418618679,4,1,0,100,0,0
181716,-100.787951326551,4,1,0,100,0,0
181795,-100.39242958621,4,1,0,100,0,0
181873,-100,4,1,0,100,0,0
182032,-84.16316,4,1,0,100,0,0
182111,-83.4168,4,1,0,100,0,0
182190,-98.4609390220144,4,1,0,100,0,0
182348,-97.709038182697,4,1,0,100,0,0
182427,-97.3420647149461,4,1,0,100,0,0
182505,-96.9731855902528,4,1,0,100,0,0
182584,-96.6070916563127,4,1,0,100,0,0
182663,-96.243751487741,4,1,0,100,0,0
182742,-77.72196,4,1,0,100,0,0
182821,-95.5252090913387,4,1,0,100,0,0
182979,-94.8173162609634,4,1,0,100,0,0
183058,-94.4672897196262,4,1,0,100,0,0
183137,-94.119837981284,4,1,0,100,0,0
183212,-93.7749327395862,4,1,0,100,0,0
183295,-93.4325461015852,4,1,0,100,0,0
183374,-72.47287,4,1,0,100,0,0
183453,-92.7552190869465,4,1,0,100,0,0
183611,-92.0876417801667,4,1,0,100,0,0
183690,-91.757443718228,4,1,0,100,0,0
183769,-91.4296051738954,4,1,0,100,0,0
183848,-91.1041009463722,4,1,0,100,0,0
183927,-90.7849829351536,4,1,0,100,0,0
184005,-67.655754,4,1,0,100,0,0
184084,-90.1453669847498,4,1,0,100,0,0
184242,-89.5147006730429,4,1,0,100,0,0
184321,-89.2026651370075,4,1,0,100,0,0
184400,-88.8927974672412,4,1,0,100,0,0
184479,-88.5850751500811,4,1,0,100,0,0
184558,-63.757404,4,1,0,100,0,0
184637,-63.223846,4,1,0,100,0,0
184716,-87.6745598057073,4,1,0,100,0,0
184795,-62.17361,4,1,0,100,0,0
184874,-87.0778773259821,4,1,0,100,0,0
184953,-86.7825713672462,4,1,0,100,0,0
185032,-86.4892615726876,4,1,0,100,0,0
185111,-86.1979277704345,4,1,0,100,0,0
185190,-85.9085500594935,4,1,0,100,0,0
185269,-59.153812,4,1,0,100,0,0
185348,-85.335584634867,4,1,0,100,0,0
185427,-58.18929,4,1,0,100,0,0
185506,-84.7737660921709,4,1,0,100,0,0
185585,-84.4938560561732,4,1,0,100,0,0
185663,-84.2157883774214,4,1,0,100,0,0
185742,-83.939544926092,4,1,0,100,0,0
185821,-83.6651078094607,4,1,0,100,0,0
185900,-55.421165,4,1,0,100,0,0
185979,-83.1215821717857,4,1,0,100,0,0
186058,-54.534897,4,1,0,100,0,0
186137,-82.5850729196454,4,1,0,100,0,0
186216,-82.3194071178435,4,1,0,100,0,0
186295,-82.0554450623047,4,1,0,100,0,0
186374,-81.7931704159249,4,1,0,100,0,0
186453,-81.5325670498084,4,1,0,100,0,0
186532,-51.985508,4,1,0,100,0,0
186611,-81.0163106640484,4,1,0,100,0,0
186690,-51.170788,4,1,0,100,0,0
186769,-80.5065509139421,4,1,0,100,0,0
186848,-80.2540690750298,4,1,0,100,0,0
186922,-80.0063321196771,4,1,0,100,0,0
186927,315.789473684211,20,1,0,100,1,0
186927,-80,4,1,0,100,0,0
187242,-66.6666666666667,4,1,0,100,0,1
187321,-50,4,1,0,100,0,1
191982,315.789473684211,24,1,0,100,1,0
191982,-133.333333333333,24,1,0,100,0,0
199557,-100,99,1,0,100,0,0
199715,-101.69492,99,1,0,100,0,0
199794,-102.5641,99,1,0,100,0,0
199873,-103.44827,99,1,0,100,0,0
199952,-104.34783,99,1,0,100,0,0
200031,-105.26316,99,1,0,100,0,0
200189,-107.14286,99,1,0,100,0,0
200268,-108.10811,99,1,0,100,0,0
200347,-109.090904,99,1,0,100,0,0
200426,-110.09174,99,1,0,100,0,0
200505,-111.11111,99,1,0,100,0,0
200824,157.894736842105,4,1,0,100,1,1
200824,-142.857142857143,8,1,0,100,0,1
200899,-143.594153052451,8,1,0,100,0,1
200978,-144.348404255319,8,1,0,100,0,1
201136,-145.880929982529,8,1,0,100,0,1
201294,-147.446346101603,8,1,0,100,0,1
201373,-148.241720723797,8,1,0,100,0,1
201452,-149.045722916381,8,1,0,100,0,1
201610,-150.680177679067,8,1,0,100,0,1
201689,-151.510921906623,8,1,0,100,0,1
201768,-152.350877192982,8,1,0,100,0,1
201926,-154.059040590406,8,1,0,100,0,1
202005,-154.927567258974,8,1,0,100,0,1
202084,-155.805942299411,8,1,0,100,0,1
202163,-156.694334175388,8,1,0,100,0,1
202242,-157.592915214867,8,1,0,100,0,1
202399,-159.409648285484,8,1,0,100,0,1
202557,-161.280736943763,8,1,0,100,0,1
202636,-162.232850097145,8,1,0,100,0,1
202715,-163.196271517703,8,1,0,100,0,1
202873,-165.157854697604,8,1,0,100,0,1
202952,-166.156436552885,8,1,0,100,0,1
203031,-167.167167167167,8,1,0,100,0,1
203189,-169.225972406267,8,1,0,100,0,1
203268,-170.274509803922,8,1,0,100,0,1
203347,-171.33612185305,8,1,0,100,0,1
203426,-172.411054637865,8,1,0,100,0,1
203505,-173.499560457125,8,1,0,100,0,1
203663,-175.718332658843,8,1,0,100,0,1
203705,-267.931274809854,16,1,0,100,0,1
203821,-177.99458883332,8,1,0,100,0,1
203899,-179.140193085238,8,1,0,100,0,1
203978,-180.31561461794,8,1,0,100,0,1
204136,-182.713347921225,8,1,0,100,0,1
204215,-183.936287384563,8,1,0,100,0,1
204294,-185.175707949505,8,1,0,100,0,1
204452,-187.705343247449,8,1,0,100,0,1
204531,-188.996256637939,8,1,0,100,0,1
204610,-190.305049088359,8,1,0,100,0,1
204689,-191.632094624415,8,1,0,100,0,1
204768,-192.977777777778,8,1,0,100,0,1
204926,-195.726649837721,8,1,0,100,0,1
205005,-197.13066376101,8,1,0,100,0,1
205084,-198.5549661606,8,1,0,100,0,1
205161,-200,16,1,0,100,0,1
205245,-142.857142857143,16,1,0,100,0,0
205876,-142.857142857143,8,1,0,100,0,1
206031,-144.330906597891,8,1,0,100,0,1
206110,-145.079250484035,8,1,0,100,0,1
206189,-145.835395018967,8,1,0,100,0,1
206268,-146.599462811288,8,1,0,100,0,1
206347,-147.371579052635,8,1,0,100,0,1
206505,-148.940470976653,8,1,0,100,0,1
206663,-150.543126638744,8,1,0,100,0,1
206742,-151.357458317642,8,1,0,100,0,1
206821,-152.180647826237,8,1,0,100,0,1
206978,-153.843477050492,8,1,0,100,0,1
207057,-154.694006088387,8,1,0,100,0,1
207136,-155.553991766651,8,1,0,100,0,1
207294,-157.302971001601,8,1,0,100,0,1
207373,-158.192292553763,8,1,0,100,0,1
207452,-159.091726942315,8,1,0,100,0,1
207531,-160.001447649379,8,1,0,100,0,1
207610,-160.921632147927,8,1,0,100,0,1
207768,-162.794123062194,8,1,0,100,0,1
207926,-164.710703774077,8,1,0,100,0,1
208005,-165.686017314395,8,1,0,100,0,1
208084,-166.672950047125,8,1,0,100,0,1
208242,-168.682513640353,8,1,0,100,0,1
208321,-169.705577521016,8,1,0,100,0,1
208399,-170.72793975671,8,1,0,100,0,1
208557,-172.837092927792,8,1,0,100,0,1
208636,-173.911333149758,8,1,0,100,0,1
208715,-174.999010410482,8,1,0,100,0,1
208794,-176.100378410675,8,1,0,100,0,1
208873,-177.21569727823,8,1,0,100,0,1
209031,-179.489261499736,8,1,0,100,0,1
209189,-181.821920625129,8,1,0,100,0,1
209268,-183.011135488678,8,1,0,100,0,1
209347,-184.216009000375,8,1,0,100,0,1
209505,-186.673985559262,8,1,0,100,0,1
209584,-187.927736450584,8,1,0,100,0,1
209663,-189.198442247614,8,1,0,100,0,1
209821,-191.792113140428,8,1,0,100,0,1
209899,-193.098929897357,8,1,0,100,0,1
209978,-194.44077934644,8,1,0,100,0,1
210057,-195.801408388325,8,1,0,100,0,1
210136,-197.181214040408,8,1,0,100,0,1
210294,-200,8,1,0,100,0,1
210610,-195.649180779292,8,1,0,100,0,1
210689,-194.590893529613,8,1,0,100,0,1
210847,-192.508297771456,8,1,0,100,0,1
210926,-191.483627543458,8,1,0,100,0,1
211084,-189.466666666667,8,1,0,100,0,1
211163,-188.474036739837,8,1,0,100,0,1
211242,-187.491753529489,8,1,0,100,0,1
211321,-186.519656100282,8,1,0,100,0,1
211399,-185.569702905648,8,1,0,100,0,1
211557,-183.674788340981,8,1,0,100,0,1
211715,-181.818181818182,8,1,0,100,0,1
211794,-180.903882877148,8,1,0,100,0,1
211873,-179.998733295332,8,1,0,100,0,1
212031,-178.215338308146,8,1,0,100,0,1
212110,-177.33682765506,8,1,0,100,0,1
212189,-176.466935734244,8,1,0,100,0,1
212347,-174.752505687757,8,1,0,100,0,1
212426,-173.907722432995,8,1,0,100,0,1
212505,-173.071067535473,8,1,0,100,0,1
212584,-172.242424242424,8,1,0,100,0,1
212663,-171.421678026419,8,1,0,100,0,1
212821,-169.803429527394,8,1,0,100,0,1
212978,-168.225405469397,8,1,0,100,0,1
213057,-167.442408531197,8,1,0,100,0,1
213136,-166.666666666667,8,1,0,100,0,1
213294,-165.136548518303,8,1,0,100,0,1
213373,-164.381976979582,8,1,0,100,0,1
213452,-163.634269921695,8,1,0,100,0,1
213610,-162.159077941344,8,1,0,100,0,1
213689,-161.431411530815,8,1,0,100,0,1
213768,-160.710246550554,8,1,0,100,0,1
213847,-159.995496256263,8,1,0,100,0,1
213926,-159.287075439973,8,1,0,100,0,1
214084,-157.888888888889,8,1,0,100,0,1
214242,-156.515034695451,8,1,0,100,0,1
214321,-155.837034599989,8,1,0,100,0,1
214399,-155.173355173355,8,1,0,100,0,1
214557,-153.846153846154,8,1,0,100,0,1
214636,-153.191030616645,8,1,0,100,0,1
214713,-152.54146315281,16,1,0,100,0,1
214871,-151.258715205705,16,1,0,100,0,1
214950,-150.62539749841,16,1,0,100,0,1
215029,-149.997361059798,16,1,0,100,0,1
215187,-148.756869929338,16,1,0,100,0,1
215266,-148.144286905755,16,1,0,100,0,1
215345,-147.536728443129,16,1,0,100,0,1
215503,-146.336439936152,16,1,0,100,0,1
215582,-145.74358974359,16,1,0,100,0,1
215661,-145.155523775474,16,1,0,100,0,1
215819,-143.993514718549,16,1,0,100,0,1
215978,-142.857142857143,8,1,0,100,0,1
216294,-145.862459223753,8,1,0,100,0,1
216452,-147.413039090359,8,1,0,100,0,1
216610,-148.996939816389,8,1,0,100,0,1
216768,-150.615247129992,8,1,0,100,0,1
216926,-152.269094447147,8,1,0,100,0,1
217084,-153.959665518937,8,1,0,100,0,1
217242,-155.688197257159,8,1,0,100,0,1
217557,-159.252798371856,8,1,0,100,0,1
217715,-161.102941176471,8,1,0,100,0,1
217873,-162.996577890195,8,1,0,100,0,1
218031,-164.935260463716,8,1,0,100,0,1
218189,-166.920615572147,8,1,0,100,0,1
218505,-171.03825136612,8,1,0,100,0,1
218821,-175.364174803906,8,1,0,100,0,1
218978,-177.595849882467,8,1,0,100,0,1
219136,-179.89982757205,8,1,0,100,0,1
219294,-182.264370684635,8,1,0,100,0,1
219452,-184.691899182332,8,1,0,100,0,1
219610,-187.184963690731,8,1,0,100,0,1
219768,-189.746254438382,8,1,0,100,0,1
220084,-195.085032499332,8,1,0,100,0,1
220242,-197.868689605346,8,1,0,100,0,1
220402,315.789473684211,4,1,0,100,1,8
220402,-80,4,1,0,100,0,0
221033,315.789473684211,4,1,0,100,1,1
221033,-90.9090909090909,4,1,0,100,0,1
221185,-91.4603530184234,4,1,0,100,0,1
221264,-91.7402758406942,4,1,0,100,0,1
221343,-92.0219173823495,4,1,0,100,0,1
221501,-92.5904203323558,4,1,0,100,0,1
221580,-92.8773140884845,4,1,0,100,0,1
221659,-93.1659912656883,4,1,0,100,0,1
221738,-93.456468545268,4,1,0,100,0,1
221817,-93.7487628172137,4,1,0,100,0,1
221975,-94.3388709613163,4,1,0,100,0,1
222054,-94.6367196866757,4,1,0,100,0,1
222133,-94.9364551176683,4,1,0,100,0,1
222291,-95.541658261045,4,1,0,100,0,1
222449,-96.1546270353677,4,1,0,100,0,1
222606,-96.7715570085819,4,1,0,100,0,1
222685,-97.0849903652987,4,1,0,100,0,1
222764,-97.4004606778546,4,1,0,100,0,1
222922,-98.0375921172477,4,1,0,100,0,1
223001,-98.3592938733126,4,1,0,100,0,1
223080,-98.6831138523087,4,1,0,100,0,1
223159,-99.0090730442781,4,1,0,100,0,1
223238,-99.3371927175098,4,1,0,100,0,1
223396,-100,4,1,0,100,0,1
223475,-100.33473157917,4,1,0,100,0,1
223554,-100.671711589151,4,1,0,100,0,1
223712,-101.352508132169,4,1,0,100,0,1
223791,-101.696371054327,4,1,0,100,0,1
223870,-102.04257519607,4,1,0,100,0,1
224028,-102.742103436307,4,1,0,100,0,1
224185,-103.446769472719,4,1,0,100,0,1
224264,-103.805014904436,4,1,0,100,0,1
224343,-104.165750230942,4,1,0,100,0,1
224422,-104.529001500839,4,1,0,100,0,1
224501,-104.894795127353,4,1,0,100,0,1
224659,-105.634116964803,4,1,0,100,0,1
224817,-106.383934588256,4,1,0,100,0,1
224896,-106.762849413886,4,1,0,100,0,1
224975,-107.144473100765,4,1,0,100,0,1
225133,-107.915964088775,4,1,0,100,0,1
225291,-108.698645857241,4,1,0,100,0,1
225370,-109.094259651709,4,1,0,100,0,1
225449,-109.492763675036,4,1,0,100,0,1
225528,-109.894189715983,4,1,0,100,0,1
225606,-110.293432696786,4,1,0,100,0,1
225764,-111.111111111111,4,1,0,100,0,1
226080,-100,4,1,0,100,0,1
226238,-99.3373317116135,4,1,0,100,0,1
226317,-99.0092801605217,4,1,0,100,0,1
226396,-98.6833881921587,4,1,0,100,0,1
226475,-98.359634551495,4,1,0,100,0,1
226554,-98.0379982615175,4,1,0,100,0,1
226712,-97.4009951885512,4,1,0,100,0,1
226870,-96.7722165474974,4,1,0,100,0,1
226949,-96.460861774049,4,1,0,100,0,1
227106,-95.8480029136822,4,1,0,100,0,1
227185,-95.542557482856,4,1,0,100,0,1
227343,-94.9374699374699,4,1,0,100,0,1
227501,-94.3399984067554,4,1,0,100,0,1
227580,-94.0440738534842,4,1,0,100,0,1
227659,-93.75,4,1,0,100,0,1
227738,-93.4577595391232,4,1,0,100,0,1
227817,-93.1673353788058,4,1,0,100,0,1
227975,-92.5918686473808,4,1,0,100,0,1
228133,-92.0234672468723,4,1,0,100,0,1
228212,-91.7418755083859,4,1,0,100,0,1
228370,-91.1838306063523,4,1,0,100,0,1
228449,-90.9073462808014,4,1,0,100,0,1
228606,-90.3628247682271,4,1,0,100,0,1
228764,-89.8213811672798,4,1,0,100,0,1
228843,-89.5530852994555,4,1,0,100,0,1
228922,-89.2863874542919,4,1,0,100,0,1
229001,-89.0212733969781,4,1,0,100,0,1
229080,-88.7577290612704,4,1,0,100,0,1
229238,-88.2352941176471,4,1,0,100,0,1
229396,-87.7189733713566,4,1,0,100,0,1
229475,-87.4630723781388,4,1,0,100,0,1
229633,-86.9557236214113,4,1,0,100,0,1
229712,-86.7042501006699,4,1,0,100,0,1
229870,-86.2056414922657,4,1,0,100,0,1
230028,-85.7127347736402,4,1,0,100,0,1
230106,-85.4714734221067,4,1,0,100,0,1
230264,-84.9869030105135,4,1,0,100,0,1
230343,-84.7466723915844,4,1,0,100,0,1
230501,-84.2702625773856,4,1,0,100,0,1
230659,-83.799179167846,4,1,0,100,0,1
230738,-83.5656070281904,4,1,0,100,0,1
230817,-83.3333333333333,4,1,0,100,0,1
231133,-83.3333333333333,4,1,0,100,0,1
231212,-83.6366149168471,4,1,0,100,0,1
231291,-83.9421120769373,4,1,0,100,0,1
231370,-84.2498491809365,4,1,0,100,0,1
231449,-84.5598509548207,4,1,0,100,0,1
231606,-85.1827523107962,4,1,0,100,0,1
231764,-85.8189553297093,4,1,0,100,0,1
231843,-86.140633896375,4,1,0,100,0,1
231922,-86.4647330571034,4,1,0,100,0,1
232001,-86.7912802371164,4,1,0,100,0,1
232080,-87.1203032775085,4,1,0,100,0,1
232238,-87.7858904308302,4,1,0,100,0,1
232396,-88.4617258685377,4,1,0,100,0,1
232475,-88.8035609469771,4,1,0,100,0,1
232554,-89.1480481217775,4,1,0,100,0,1
232633,-89.4952183772059,4,1,0,100,0,1
232712,-89.8451031820656,4,1,0,100,0,1
232870,-90.5531447952516,4,1,0,100,0,1
233028,-91.2724347694937,4,1,0,100,0,1
233106,-91.63175692727,4,1,0,100,0,1
233185,-91.9985811290159,4,1,0,100,0,1
233264,-92.3683541083694,4,1,0,100,0,1
233343,-92.7411115651819,4,1,0,100,0,1
233501,-93.4957256154084,4,1,0,100,0,1
233659,-94.2627206645898,4,1,0,100,0,1
233738,-94.6509566758772,4,1,0,100,0,1
233817,-95.0424039367606,4,1,0,100,0,1
233896,-95.437102454923,4,1,0,100,0,1
233975,-95.8350929054054,4,1,0,100,0,1
234133,-96.6411157244757,4,1,0,100,0,1
234291,-97.4608116813399,4,1,0,100,0,1
234370,-97.8758962747318,4,1,0,100,0,1
234449,-98.2945316729832,4,1,0,100,0,1
234528,-98.7167636343864,4,1,0,100,0,1
234606,-99.1372249221864,4,1,0,100,0,1
234764,-100,4,1,0,100,0,1
234922,-98.9003340757238,4,1,0,100,0,1
235001,-98.3595210078217,4,1,0,100,0,1
235080,-97.8245903896462,4,1,0,100,0,1
235159,-97.2954467648066,4,1,0,100,0,1
235238,-96.7719967311359,4,1,0,100,0,1
235396,-95.7418137717289,4,1,0,100,0,1
235475,-95.2349038268213,4,1,0,100,0,1
235554,-94.7333333333333,4,1,0,100,0,1
235633,-94.2370183699184,4,1,0,100,0,1
235712,-93.7458767647447,4,1,0,100,0,1
235870,-92.7787934186472,4,1,0,100,0,1
236185,-90.9090909090909,4,1,0,100,0,1
236343,-90.6146877369899,4,1,0,100,0,1
236422,-90.4682000491119,4,1,0,100,0,1
236501,-90.322185220749,4,1,0,100,0,1
236580,-90.176640966018,4,1,0,100,0,1
236659,-90.0315650137461,4,1,0,100,0,1
236817,-89.7428090047297,4,1,0,100,0,1
236975,-89.4558993140568,4,1,0,100,0,1
237054,-89.3131313131313,4,1,0,100,0,1
237133,-89.1708182900018,4,1,0,100,0,1
237291,-88.887548505137,4,1,0,100,0,1
237370,-88.7465874417858,4,1,0,100,0,1
237449,-88.6060727527808,4,1,0,100,0,1
237528,-88.466002321207,4,1,0,100,0,1
237606,-88.3281387357149,4,1,0,100,0,1
237764,-88.0501892053376,4,1,0,100,0,1
237843,-87.9118693948975,4,1,0,100,0,1
237922,-87.7739834815756,4,1,0,100,0,1
238080,-87.4995052052409,4,1,0,100,0,1
238238,-87.2267382211349,4,1,0,100,0,1
238317,-87.0909914701653,4,1,0,100,0,1
238396,-86.955666574879,4,1,0,100,0,1
238475,-86.8207615718466,4,1,0,100,0,1
238554,-86.6862745098039,4,1,0,100,0,1
238712,-86.4185464638962,4,1,0,100,0,1
238870,-86.1524670668018,4,1,0,100,0,1
238949,-86.0200408600058,4,1,0,100,0,1
239028,-85.8880211368846,4,1,0,100,0,1
239106,-85.758069522036,4,1,0,100,0,1
239185,-85.6268520849877,4,1,0,100,0,1
239343,-85.3656181814671,4,1,0,100,0,1
239501,-85.1059733959613,4,1,0,100,0,1
239580,-84.9767423980318,4,1,0,100,0,1
239659,-84.8479032722388,4,1,0,100,0,1
239817,-84.5913935288828,4,1,0,100,0,1
239896,-84.463719384051,4,1,0,100,0,1
239975,-84.3364300566567,4,1,0,100,0,1
240133,-84.082998915917,4,1,0,100,0,1
240291,-83.8310863340729,4,1,0,100,0,1
240449,-83.580678703091,4,1,0,100,0,1
240611,-83.3333333333333,4,1,0,100,0,0
241243,157.894736842105,4,1,0,100,1,1
241243,-250,8,1,0,100,0,1
241318,-248.561027205195,8,1,0,100,0,1
241397,-247.120393240566,8,1,0,100,0,1
241476,-245.696362575374,8,1,0,100,0,1
241555,-244.288649824731,8,1,0,100,0,1
241713,-241.521068859198,8,1,0,100,0,1
241871,-238.8154940562,8,1,0,100,0,1
241950,-237.485311398355,8,1,0,100,0,1
242029,-236.169864678524,8,1,0,100,0,1
242108,-234.868910375604,8,1,0,100,0,1
242187,-233.582210304894,8,1,0,100,0,1
242345,-231.050645935749,8,1,0,100,0,1
242503,-228.573367413875,8,1,0,100,0,1
242582,-227.354542591009,8,1,0,100,0,1
242661,-226.148647136495,8,1,0,100,0,1
242740,-224.955476402493,8,1,0,100,0,1
242818,-223.789697479736,8,1,0,100,0,1
242976,-221.464889979837,8,1,0,100,0,1
243134,-219.187887727214,8,1,0,100,0,1
243213,-218.066855132826,8,1,0,100,0,1
243292,-216.95723119203,8,1,0,100,0,1
243371,-215.858842629184,8,1,0,100,0,1
243450,-214.771519659936,8,1,0,100,0,1
243608,-212.629408298965,8,1,0,100,0,1
243766,-210.529605400225,8,1,0,100,0,1
243845,-209.495179848658,8,1,0,100,0,1
243924,-208.470869780492,8,1,0,100,0,1
244003,-207.456527541112,8,1,0,100,0,1
244082,-206.452008335717,8,1,0,100,0,1
244240,-204.47187373533,8,1,0,100,0,1
244397,-202.541540558417,8,1,0,100,0,1
244476,-201.583945100543,8,1,0,100,0,1
244555,-200.635361858433,8,1,0,100,0,1
244634,-199.695664202996,8,1,0,100,0,1
244713,-198.764727866402,8,1,0,100,0,1
244871,-196.928653557578,8,1,0,100,0,1
245029,-195.126189970456,8,1,0,100,0,1
245108,-194.237275103798,8,1,0,100,0,1
245187,-193.356422571325,8,1,0,100,0,1
245266,-192.483523181835,8,1,0,100,0,1
245345,-191.618469707026,8,1,0,100,0,1
245503,-189.911481140409,8,1,0,100,0,1
245661,-188.234636663376,8,1,0,100,0,1
245740,-187.407270029674,8,1,0,100,0,1
245897,-185.784412862422,8,1,0,100,0,1
245976,-184.978399355642,8,1,0,100,0,1
246292,-181.82308910321,8,1,0,100,0,1
246371,-181.051009621414,8,1,0,100,0,1
246450,-180.28545941124,8,1,0,100,0,1
246529,-179.526355996944,8,1,0,100,0,1
246687,-178.027166540406,8,1,0,100,0,1
246766,-177.286922348153,8,1,0,100,0,1
246924,-175.824749443207,8,1,0,100,0,1
247003,-175.102670294062,8,1,0,100,0,1
247082,-174.386497773789,8,1,0,100,0,1
247161,-173.676159703006,8,1,0,100,0,1
247318,-172.281515327173,8,1,0,100,0,1
247397,-171.588188347965,8,1,0,100,0,1
247555,-170.218142002864,8,1,0,100,0,1
247634,-169.541290560719,8,1,0,100,0,1
247713,-168.869800631695,8,1,0,100,0,1
247792,-168.203608762234,8,1,0,100,0,1
247950,-166.886870355079,8,1,0,100,0,1
248029,-166.236201819468,8,1,0,100,0,1
248187,-164.949968168982,8,1,0,100,0,1
248266,-164.314286643468,8,1,0,100,0,1
248345,-163.683485867012,8,1,0,100,0,1
248424,-163.057509843155,8,1,0,100,0,1
248582,-161.819812317843,8,1,0,100,0,1
248661,-161.207983025701,8,1,0,100,0,1
248818,-160.005700351522,8,1,0,100,0,1
248897,-159.407486867221,8,1,0,100,0,1
248976,-158.813729804489,8,1,0,100,0,1
249055,-158.224379550615,8,1,0,100,0,1
249213,-157.058704673682,8,1,0,100,0,1
249292,-156.48228444004,8,1,0,100,0,1
249450,-155.342044581092,8,1,0,100,0,1
249529,-154.778133472207,8,1,0,100,0,1
249608,-154.218301690984,8,1,0,100,0,1
249687,-153.662505132221,8,1,0,100,0,1
249845,-152.562844417604,8,1,0,100,0,1
249924,-152.018895173908,8,1,0,100,0,1
250082,-150.942550712515,8,1,0,100,0,1
250161,-150.410073977048,8,1,0,100,0,1
250240,-149.881340848413,8,1,0,100,0,1
250318,-149.362934933633,8,1,0,100,0,1
250476,-148.323743541569,8,1,0,100,0,1
250555,-147.809551671177,8,1,0,100,0,1
250713,-146.791789537907,8,1,0,100,0,1
250792,-146.288146389484,8,1,0,100,0,1
250871,-145.78794742689,8,1,0,100,0,1
250950,-145.29115744069,8,1,0,100,0,1
251029,-144.797741699744,8,1,0,100,0,1
251345,-142.857142857143,8,1,0,100,0,1
251424,-143.791661491326,8,1,0,100,0,1
251503,-144.73848718483,8,1,0,100,0,1
251582,-145.697864664178,8,1,0,100,0,1
251661,-146.670045187719,8,1,0,100,0,1
251818,-148.641129895142,8,1,0,100,0,1
251976,-150.67898824244,8,1,0,100,0,1
252055,-151.719016207243,8,1,0,100,0,1
252134,-152.773501077728,8,1,0,100,0,1
252213,-153.842746400886,8,1,0,100,0,1
252292,-154.927064281572,8,1,0,100,0,1
252450,-157.142210759694,8,1,0,100,0,1
252608,-159.421620380996,8,1,0,100,0,1
252687,-160.586304156841,8,1,0,100,0,1
252766,-161.768130793237,8,1,0,100,0,1
252845,-162.967481582281,8,1,0,100,0,1
252924,-164.18474920815,8,1,0,100,0,1
253082,-166.674665258914,8,1,0,100,0,1
253240,-169.241265045563,8,1,0,100,0,1
253318,-170.537687208446,8,1,0,100,0,1
253397,-171.871133765527,8,1,0,100,0,1
253476,-173.225597286648,8,1,0,100,0,1
253555,-174.601578603389,8,1,0,100,0,1
253713,-177.420178799489,8,1,0,100,0,1
253871,-180.331273690223,8,1,0,100,0,1
253950,-181.822941207267,8,1,0,100,0,1
254029,-183.339492160693,8,1,0,100,0,1
254108,-184.881554431727,8,1,0,100,0,1
254187,-186.449777205132,8,1,0,100,0,1
254345,-189.667413030419,8,1,0,100,0,1
254503,-192.998055015282,8,1,0,100,0,1
254582,-194.707630206873,8,1,0,100,0,1
254661,-196.447762882516,8,1,0,100,0,1
254740,-198.219279721477,8,1,0,100,0,1
254818,-200,8,1,0,100,0,1
254976,-195.978620514126,8,1,0,100,0,1
255134,-192.115768463074,8,1,0,100,0,1
255213,-190.240889437925,8,1,0,100,0,1
255292,-188.402251039882,8,1,0,100,0,1
255371,-186.598812553011,8,1,0,100,0,1
255450,-184.829572731637,8,1,0,100,0,1
255608,-181.389870435807,8,1,0,100,0,1
255766,-178.075855689177,8,1,0,100,0,1
255845,-176.463847828578,8,1,0,100,0,1
255924,-174.880763116057,8,1,0,100,0,1
256003,-173.325830050647,8,1,0,100,0,1
256080,-171.798304328425,16,1,0,100,0,1
256400,315.789473684211,727,1,0,100,1,0
256400,-100,4,1,0,100,0,0
256715,-80,4,1,0,100,0,0
256794,-10,4,1,0,100,0,0
260189,-200,4,1,0,100,0,0
260821,-133.333333333333,4,1,0,5,0,0
272841,1263.15789473684,4,1,0,50,1,0
272841,-133.333333333333,4,1,0,50,0,0

[HitObjects]
256,192,18930,12,0,22402,0:0:0:0:
133,126,22718,5,8,0:0:0:0:
133,126,22797,1,0,0:0:0:0:
133,126,22955,1,8,0:0:0:0:
133,126,23192,1,8,0:0:0:0:
64,64,23350,1,0,0:0:0:0:
448,64,23429,1,8,0:0:0:0:
166,102,23666,1,8,0:0:0:0:
186,125,23902,1,8,0:0:0:0:
210,106,23981,1,0,0:0:0:0:
186,126,24139,1,8,0:0:0:0:
64,64,24297,1,0,0:0:0:0:
206,88,24376,1,8,0:0:0:0:
194,103,24613,1,8,0:0:0:0:
190,104,24850,1,8,0:0:0:0:
190,104,25087,1,8,0:0:0:0:
214,110,25245,1,0,0:0:0:0:
154,105,25560,1,8,0:0:0:0:
207,68,25639,1,8,0:0:0:0:
174,52,25718,1,8,0:0:0:0:
144,103,25797,1,8,0:0:0:0:
149,91,25876,1,8,0:0:0:0:
214,94,26034,1,0,0:0:0:0:
147,90,26192,1,8,0:0:0:0:
212,72,26350,1,0,0:0:0:0:
137,97,26429,1,8,0:0:0:0:
147,90,26508,1,0,0:0:0:0:
135,97,26666,1,8,0:0:0:0:
135,98,26823,1,0,0:0:0:0:
199,77,26902,1,8,0:0:0:0:
179,101,27139,1,8,0:0:0:0:
186,92,27376,1,8,0:0:0:0:
448,64,27613,1,0,0:0:0:0:
169,98,27771,1,8,0:0:0:0:
172,191,27850,1,0,0:0:0:0:
164,194,28008,1,8,0:0:0:0:
166,186,28245,1,8,0:0:0:0:
179,189,28402,1,0,0:0:0:0:
177,186,28481,1,8,0:0:0:0:
175,124,28718,1,8,0:0:0:0:
175,124,28955,1,8,0:0:0:0:
190,73,29034,1,0,0:0:0:0:
175,124,29192,1,8,0:0:0:0:
192,89,29350,1,0,0:0:0:0:
175,124,29429,1,8,0:0:0:0:
190,94,29666,1,8,0:0:0:0:
188,97,29823,1,0,0:0:0:0:
180,108,29902,1,8,0:0:0:0:
174,120,30139,1,8,0:0:0:0:
175,124,30297,1,0,0:0:0:0:
214,80,30613,1,8,0:0:0:0:
216,79,30692,1,8,0:0:0:0:
215,80,30771,1,8,0:0:0:0:
199,20,30850,1,8,0:0:0:0:
281,60,30929,1,8,0:0:0:0:
214,100,31087,1,0,0:0:0:0:
163,95,31245,1,8,0:0:0:0:
230,72,31402,1,0,0:0:0:0:
163,95,31481,1,0,0:0:0:0:
163,95,31560,1,8,0:0:0:0:
163,95,31718,1,0,0:0:0:0:
163,95,31876,1,8,0:0:0:0:
163,95,31955,1,0,0:0:0:0:
194,115,32192,1,8,0:0:0:0:
206,86,32429,1,8,0:0:0:0:
172,129,32666,1,0,0:0:0:0:
133,126,32823,5,8,0:0:0:0:
133,126,32902,1,0,0:0:0:0:
133,126,33060,1,8,0:0:0:0:
133,126,33297,1,8,0:0:0:0:
64,64,33455,1,0,0:0:0:0:
448,64,33534,1,8,0:0:0:0:
166,102,33771,1,8,0:0:0:0:
188,124,33929,1,0,0:0:0:0:
186,125,34008,1,8,0:0:0:0:
177,39,34087,1,0,0:0:0:0:
186,126,34245,1,8,0:0:0:0:
206,88,34481,1,8,0:0:0:0:
194,103,34718,1,8,0:0:0:0:
216,107,34876,1,0,0:0:0:0:
190,104,34955,1,8,0:0:0:0:
190,104,35192,1,8,0:0:0:0:
214,110,35350,1,0,0:0:0:0:
154,105,35666,1,8,0:0:0:0:
206,43,35745,1,8,0:0:0:0:
144,103,35823,1,8,0:0:0:0:
148,104,35902,1,8,0:0:0:0:
149,91,35981,1,8,0:0:0:0:
185,51,36139,1,0,0:0:0:0:
147,90,36297,1,8,0:0:0:0:
168,76,36455,1,0,0:0:0:0:
137,97,36534,1,8,0:0:0:0:
147,90,36613,1,0,0:0:0:0:
135,97,36771,1,8,0:0:0:0:
135,98,36929,1,0,0:0:0:0:
199,77,37008,1,8,0:0:0:0:
179,101,37245,1,8,0:0:0:0:
175,103,37481,1,8,0:0:0:0:
448,64,37718,1,0,0:0:0:0:
169,98,37876,1,8,0:0:0:0:
172,191,37955,1,0,0:0:0:0:
164,194,38113,1,8,0:0:0:0:
166,186,38350,1,8,0:0:0:0:
179,189,38508,1,0,0:0:0:0:
177,186,38587,1,8,0:0:0:0:
175,124,38823,1,8,0:0:0:0:
192,89,38981,1,0,0:0:0:0:
175,124,39060,1,8,0:0:0:0:
171,35,39139,1,0,0:0:0:0:
192,89,39218,1,0,0:0:0:0:
175,124,39297,1,8,0:0:0:0:
175,124,39534,1,8,0:0:0:0:
190,94,39771,1,8,0:0:0:0:
188,97,39929,1,0,0:0:0:0:
180,108,40008,1,8,0:0:0:0:
174,120,40245,1,8,0:0:0:0:
175,124,40402,1,0,0:0:0:0:
214,80,40718,1,8,0:0:0:0:
192,53,40797,1,8,0:0:0:0:
215,80,40876,1,8,0:0:0:0:
205,64,40955,1,8,0:0:0:0:
281,60,41034,1,8,0:0:0:0:
214,100,41192,1,0,0:0:0:0:
163,95,41350,1,8,0:0:0:0:
190,53,41508,1,0,0:0:0:0:
163,95,41587,1,0,0:0:0:0:
163,95,41666,1,8,0:0:0:0:
163,95,41823,1,0,0:0:0:0:
163,95,41981,1,8,0:0:0:0:
163,95,42060,1,0,0:0:0:0:
194,115,42297,1,8,0:0:0:0:
194,115,42534,1,0,0:0:0:0:
188,112,42613,1,8,0:0:0:0:
64,320,42929,1,4,0:0:0:0:
207,193,43245,1,8,0:0:0:0:
215,122,43323,1,0,0:0:0:0:
215,124,43481,1,8,0:0:0:0:
216,125,43560,1,0,0:0:0:0:
164,82,43639,1,0,0:0:0:0:
164,82,43718,1,8,0:0:0:0:
174,66,43876,1,8,0:0:0:0:
239,81,44034,1,0,0:0:0:0:
217,92,44113,1,8,0:0:0:0:
239,81,44192,1,0,0:0:0:0:
212,97,44350,1,8,0:0:0:0:
205,102,44508,1,0,0:0:0:0:
191,98,44587,1,8,0:0:0:0:
184,102,44745,1,0,0:0:0:0:
185,102,44823,1,8,0:0:0:0:
203,108,44902,1,8,0:0:0:0:
200,109,44981,1,0,0:0:0:0:
200,112,45139,1,8,0:0:0:0:
199,121,45455,1,0,0:0:0:0:
236,191,45613,1,8,0:0:0:0:
225,182,45692,1,8,0:0:0:0:
236,191,45771,1,0,0:0:0:0:
222,184,45850,1,0,0:0:0:0:
219,184,45929,1,8,0:0:0:0:
159,78,46087,1,0,0:0:0:0:
159,78,46166,1,8,0:0:0:0:
159,78,46245,1,0,0:0:0:0:
159,78,46402,1,8,0:0:0:0:
201,87,46560,1,0,0:0:0:0:
154,102,46639,1,8,0:0:0:0:
194,91,46718,1,0,0:0:0:0:
153,102,46876,1,8,0:0:0:0:
151,104,46955,1,0,0:0:0:0:
186,78,47034,1,0,0:0:0:0:
182,85,47113,1,8,0:0:0:0:
177,84,47192,1,8,0:0:0:0:
288,84,47350,1,0,0:0:0:0:
179,151,47429,1,8,0:0:0:0:
179,151,47587,1,8,0:0:0:0:
179,151,47666,1,0,0:0:0:0:
448,64,47823,1,8,0:0:0:0:
64,320,47981,1,4,0:0:0:0:
188,183,48297,1,8,0:0:0:0:
184,189,48376,1,0,0:0:0:0:
184,189,48534,1,8,0:0:0:0:
184,188,48613,1,0,0:0:0:0:
159,69,48692,1,0,0:0:0:0:
136,141,48771,1,8,0:0:0:0:
137,63,48929,1,8,0:0:0:0:
183,72,49087,1,0,0:0:0:0:
314,87,49166,1,8,0:0:0:0:
236,14,49245,1,0,0:0:0:0:
155,29,49323,1,0,0:0:0:0:
192,49,49402,1,8,0:0:0:0:
281,98,49560,1,0,0:0:0:0:
175,62,49639,1,8,0:0:0:0:
174,148,49797,1,0,0:0:0:0:
141,66,49876,1,8,0:0:0:0:
146,70,49955,1,8,0:0:0:0:
171,20,50034,1,0,0:0:0:0:
144,70,50192,1,8,0:0:0:0:
143,71,50271,1,0,0:0:0:0:
151,164,50350,1,8,0:0:0:0:
149,164,50508,1,0,0:0:0:0:
150,125,50666,1,8,0:0:0:0:
178,103,50745,1,8,0:0:0:0:
150,125,50823,1,0,0:0:0:0:
178,103,50902,1,0,0:0:0:0:
182,108,50981,1,8,0:0:0:0:
156,140,51139,1,0,0:0:0:0:
141,134,51218,1,8,0:0:0:0:
155,139,51297,1,0,0:0:0:0:
153,139,51455,1,8,0:0:0:0:
182,150,51613,1,0,0:0:0:0:
168,155,51692,1,8,0:0:0:0:
180,150,51771,1,0,0:0:0:0:
166,155,51929,1,8,0:0:0:0:
166,155,52008,1,0,0:0:0:0:
158,103,52087,1,8,0:0:0:0:
170,111,52166,1,8,0:0:0:0:
148,124,52323,1,0,0:0:0:0:
145,122,52402,1,8,0:0:0:0:
148,124,52481,1,0,0:0:0:0:
144,122,52560,1,0,0:0:0:0:
184,72,52639,1,8,0:0:0:0:
199,113,52797,1,0,0:0:0:0:
197,111,52876,1,8,0:0:0:0:
64,320,53034,1,4,0:0:0:0:
207,193,53350,1,8,0:0:0:0:
215,122,53429,1,0,0:0:0:0:
215,124,53587,1,8,0:0:0:0:
216,125,53666,1,0,0:0:0:0:
164,82,53745,1,0,0:0:0:0:
164,82,53823,1,8,0:0:0:0:
174,66,53981,1,8,0:0:0:0:
239,81,54139,1,0,0:0:0:0:
217,92,54218,1,8,0:0:0:0:
239,81,54297,1,0,0:0:0:0:
212,97,54455,1,8,0:0:0:0:
205,102,54613,1,0,0:0:0:0:
191,98,54692,1,8,0:0:0:0:
184,102,54850,1,0,0:0:0:0:
185,102,54929,1,8,0:0:0:0:
203,108,55008,1,8,0:0:0:0:
200,109,55087,1,0,0:0:0:0:
200,112,55245,1,8,0:0:0:0:
221,91,55323,1,0,0:0:0:0:
226,91,55402,1,8,0:0:0:0:
199,121,55560,1,0,0:0:0:0:
236,191,55718,1,8,0:0:0:0:
225,182,55797,1,0,0:0:0:0:
236,191,55876,1,0,0:0:0:0:
222,184,55955,1,8,0:0:0:0:
219,184,56034,1,8,0:0:0:0:
159,78,56192,1,0,0:0:0:0:
159,78,56271,1,8,0:0:0:0:
159,78,56350,1,0,0:0:0:0:
159,78,56508,1,8,0:0:0:0:
201,87,56666,1,0,0:0:0:0:
154,102,56745,1,8,0:0:0:0:
194,91,56823,1,0,0:0:0:0:
153,102,56981,1,8,0:0:0:0:
151,104,57060,1,8,0:0:0:0:
186,78,57139,1,0,0:0:0:0:
182,85,57218,1,0,0:0:0:0:
177,84,57297,1,8,0:0:0:0:
288,84,57455,1,0,0:0:0:0:
179,151,57534,1,8,0:0:0:0:
179,151,57692,1,8,0:0:0:0:
179,151,57771,1,0,0:0:0:0:
162,167,57929,1,8,0:0:0:0:
64,320,58087,1,4,0:0:0:0:
188,183,58402,1,8,0:0:0:0:
184,189,58481,1,0,0:0:0:0:
184,189,58639,1,8,0:0:0:0:
184,188,58718,1,0,0:0:0:0:
159,69,58797,1,0,0:0:0:0:
136,141,58876,1,8,0:0:0:0:
137,63,59034,1,8,0:0:0:0:
183,72,59192,1,0,0:0:0:0:
314,87,59271,1,8,0:0:0:0:
236,14,59350,1,0,0:0:0:0:
155,29,59429,1,0,0:0:0:0:
192,49,59508,1,8,0:0:0:0:
281,98,59666,1,0,0:0:0:0:
175,62,59745,1,8,0:0:0:0:
174,148,59902,1,0,0:0:0:0:
141,66,59981,1,8,0:0:0:0:
146,70,60060,1,8,0:0:0:0:
186,25,60139,1,0,0:0:0:0:
144,70,60297,1,8,0:0:0:0:
143,71,60376,1,0,0:0:0:0:
151,164,60455,1,8,0:0:0:0:
149,164,60613,1,0,0:0:0:0:
150,125,60771,1,8,0:0:0:0:
178,103,60850,1,8,0:0:0:0:
150,125,60929,1,0,0:0:0:0:
178,103,61008,1,0,0:0:0:0:
182,108,61087,1,8,0:0:0:0:
156,140,61245,1,0,0:0:0:0:
141,134,61323,1,8,0:0:0:0:
155,139,61402,1,0,0:0:0:0:
153,139,61560,1,8,0:0:0:0:
182,150,61718,1,0,0:0:0:0:
168,155,61797,1,8,0:0:0:0:
180,150,61876,1,0,0:0:0:0:
166,155,62034,1,8,0:0:0:0:
166,155,62113,1,0,0:0:0:0:
158,103,62192,1,8,0:0:0:0:
170,111,62271,1,8,0:0:0:0:
148,124,62429,1,0,0:0:0:0:
145,122,62508,1,8,0:0:0:0:
144,122,62666,1,0,0:0:0:0:
184,72,62745,1,8,0:0:0:0:
145,72,62823,1,8,0:0:0:0:
201,173,63139,1,0,0:0:0:0:
206,122,63771,1,8,0:0:0:0:
206,122,64402,1,0,0:0:0:0:
206,122,65034,1,8,0:0:0:0:
208,97,65666,1,8,0:0:0:0:
169,97,66297,1,0,0:0:0:0:
167,110,66929,1,0,0:0:0:0:
167,110,67560,1,0,0:0:0:0:
167,110,68192,1,8,0:0:0:0:
183,121,69455,1,0,0:0:0:0:
183,121,69929,1,0,0:0:0:0:
183,121,70402,1,8,0:0:0:0:
168,100,70718,1,8,0:0:0:0:
179,88,71192,1,0,0:0:0:0:
179,91,73876,1,0,0:0:0:0:
179,91,74508,1,0,0:0:0:0:
179,91,75139,1,8,0:0:0:0:
179,91,75771,1,8,0:0:0:0:
208,89,76402,1,0,0:0:0:0:
199,113,77034,1,0,0:0:0:0:
199,113,77666,1,0,0:0:0:0:
256,192,78297,12,0,82718,0:0:0:0:
256,192,83034,12,0,84297,0:0:0:0:
185,107,84613,5,8,0:0:0:0:
157,111,84692,1,8,0:0:0:0:
159,113,84850,1,8,0:0:0:0:
148,145,84929,1,0,0:0:0:0:
159,113,85008,1,8,0:0:0:0:
147,133,86823,1,0,0:0:0:0:
146,51,86902,1,0,0:0:0:0:
148,133,86981,1,8,0:0:0:0:
64,320,87139,1,4,0:0:0:0:
235,104,87297,1,8,0:0:0:0:
177,78,87376,1,0,0:0:0:0:
223,111,87455,1,8,0:0:0:0:
177,107,87613,1,0,0:0:0:0:
166,117,87692,1,8,0:0:0:0:
177,107,87771,1,0,0:0:0:0:
177,107,87850,1,0,0:0:0:0:
175,9,88008,1,0,0:0:0:0:
168,108,88087,1,8,0:0:0:0:
190,84,88245,1,0,0:0:0:0:
186,80,88323,1,8,0:0:0:0:
189,84,88402,1,0,0:0:0:0:
186,81,88560,1,8,0:0:0:0:
167,47,88639,1,0,0:0:0:0:
181,73,88718,1,8,0:0:0:0:
181,73,88797,1,8,0:0:0:0:
157,130,89034,1,8,0:0:0:0:
157,130,89192,1,0,0:0:0:0:
157,130,89271,1,8,0:0:0:0:
165,108,89508,1,8,0:0:0:0:
165,108,89666,1,0,0:0:0:0:
170,118,89745,1,0,0:0:0:0:
161,105,89902,1,0,0:0:0:0:
207,94,89981,1,8,0:0:0:0:
207,94,90060,1,0,0:0:0:0:
152,141,91876,1,8,0:0:0:0:
152,141,91955,1,8,0:0:0:0:
152,141,92034,1,0,0:0:0:0:
448,320,92192,1,12,0:0:0:0:
179,117,92350,1,0,0:0:0:0:
179,117,92429,1,8,0:0:0:0:
179,117,92508,1,0,0:0:0:0:
165,85,92666,1,8,0:0:0:0:
179,117,92745,1,8,0:0:0:0:
165,85,92823,1,0,0:0:0:0:
177,55,92902,1,8,0:0:0:0:
164,84,93060,1,0,0:0:0:0:
167,97,93139,1,8,0:0:0:0:
168,98,93297,1,0,0:0:0:0:
184,56,93376,1,8,0:0:0:0:
170,98,93455,1,0,0:0:0:0:
197,54,93613,1,8,0:0:0:0:
154,56,93692,1,0,0:0:0:0:
155,60,93771,1,8,0:0:0:0:
155,56,93850,1,8,0:0:0:0:
175,93,94087,1,8,0:0:0:0:
197,91,94245,1,0,0:0:0:0:
177,66,94323,1,8,0:0:0:0:
187,98,94560,1,8,0:0:0:0:
175,93,94718,1,0,0:0:0:0:
171,104,94797,1,8,0:0:0:0:
178,70,94876,1,8,0:0:0:0:
173,104,94955,1,0,0:0:0:0:
64,64,96929,1,0,0:0:0:0:
146,118,97008,1,0,0:0:0:0:
165,111,97087,1,8,0:0:0:0:
64,320,97245,1,4,0:0:0:0:
163,157,97402,1,8,0:0:0:0:
64,64,97481,1,0,0:0:0:0:
163,157,97560,1,8,0:0:0:0:
166,71,97718,1,0,0:0:0:0:
170,93,97797,1,8,0:0:0:0:
166,71,97876,1,0,0:0:0:0:
169,93,97955,1,0,0:0:0:0:
169,93,98113,1,0,0:0:0:0:
179,80,98192,1,8,0:0:0:0:
205,112,98350,1,0,0:0:0:0:
201,109,98429,1,8,0:0:0:0:
205,112,98508,1,0,0:0:0:0:
200,109,98587,1,8,0:0:0:0:
185,98,98666,1,8,0:0:0:0:
207,71,98823,1,0,0:0:0:0:
203,73,98902,1,8,0:0:0:0:
207,71,98981,1,0,0:0:0:0:
158,28,99060,1,0,0:0:0:0:
190,68,99139,1,8,0:0:0:0:
183,48,99297,1,0,0:0:0:0:
188,69,99376,1,8,0:0:0:0:
139,66,99613,1,8,0:0:0:0:
64,320,99771,1,4,0:0:0:0:
448,64,101981,1,8,0:0:0:0:
170,183,102060,1,8,0:0:0:0:
170,183,102139,1,0,0:0:0:0:
448,320,102297,1,12,0:0:0:0:
191,89,102455,1,0,0:0:0:0:
181,97,102534,1,8,0:0:0:0:
191,89,102613,1,8,0:0:0:0:
179,80,102692,1,0,0:0:0:0:
179,80,102771,1,8,0:0:0:0:
191,89,102929,1,0,0:0:0:0:
191,89,103008,1,8,0:0:0:0:
170,85,103087,1,0,0:0:0:0:
186,104,103245,1,8,0:0:0:0:
181,107,103402,1,0,0:0:0:0:
180,111,103481,1,8,0:0:0:0:
180,107,103560,1,0,0:0:0:0:
180,107,103639,1,0,0:0:0:0:
181,111,103718,1,8,0:0:0:0:
175,120,103876,1,0,0:0:0:0:
171,118,103955,1,8,0:0:0:0:
173,118,104034,1,0,0:0:0:0:
169,119,104192,1,8,0:0:0:0:
169,122,104271,1,0,0:0:0:0:
134,71,104350,1,0,0:0:0:0:
132,78,104429,1,8,0:0:0:0:
152,100,104587,1,0,0:0:0:0:
153,100,104666,1,8,0:0:0:0:
188,109,104823,1,8,0:0:0:0:
188,108,104902,1,8,0:0:0:0:
174,100,105060,1,8,0:0:0:0:
173,102,105297,1,8,0:0:0:0:
170,102,105455,1,0,0:0:0:0:
177,95,105534,1,8,0:0:0:0:
184,97,105613,1,0,0:0:0:0:
181,75,105692,1,0,0:0:0:0:
174,105,105771,1,8,0:0:0:0:
173,85,105929,1,0,0:0:0:0:
170,85,106008,1,8,0:0:0:0:
174,100,106087,1,0,0:0:0:0:
173,102,106245,1,8,0:0:0:0:
203,93,106323,1,0,0:0:0:0:
170,102,106402,1,0,0:0:0:0:
166,100,106481,1,8,0:0:0:0:
184,97,106639,1,0,0:0:0:0:
175,97,106718,1,8,0:0:0:0:
175,97,106876,1,0,0:0:0:0:
165,100,106955,1,8,0:0:0:0:
163,100,107034,1,8,0:0:0:0:
64,320,107350,1,4,0:0:0:0:
193,171,107981,1,8,0:0:0:0:
188,179,108613,1,0,0:0:0:0:
192,171,109245,1,8,0:0:0:0:
192,171,109876,1,8,0:0:0:0:
192,171,110508,1,0,0:0:0:0:
192,171,111139,1,0,0:0:0:0:
192,171,111771,1,0,0:0:0:0:
199,159,112402,1,8,0:0:0:0:
159,177,113666,1,0,0:0:0:0:
159,177,114139,1,0,0:0:0:0:
159,177,114613,1,8,0:0:0:0:
159,177,114929,1,8,0:0:0:0:
174,133,115402,1,0,0:0:0:0:
179,122,118087,1,8,0:0:0:0:
163,114,118718,1,0,0:0:0:0:
163,114,119350,1,8,0:0:0:0:
163,114,119981,1,8,0:0:0:0:
163,122,120613,1,0,0:0:0:0:
163,122,121245,1,0,0:0:0:0:
163,122,121876,1,0,0:0:0:0:
256,192,122508,12,0,127245,0:0:0:0:
192,130,131349,5,12,0:0:0:0:
145,116,136401,5,0,0:0:0:0:
148,118,140191,1,0,0:0:0:0:
148,118,141454,1,8,0:0:0:0:
157,123,145243,1,8,0:0:0:0:
146,124,146506,1,0,0:0:0:0:
150,118,150296,1,8,0:0:0:0:
150,118,150927,1,8,0:0:0:0:
150,118,151559,1,0,0:0:0:0:
159,96,156612,5,8,0:0:0:0:
128,124,160401,1,8,0:0:0:0:
137,123,161664,1,0,0:0:0:0:
142,115,165454,1,8,0:0:0:0:
153,88,166717,1,0,0:0:0:0:
162,124,170506,1,8,0:0:0:0:
162,124,171138,1,8,0:0:0:0:
119,78,171770,1,0,0:0:0:0:
162,124,172085,1,8,0:0:0:0:
162,124,172243,1,0,0:0:0:0:
162,124,172401,1,0,0:0:0:0:
185,29,172480,1,0,0:0:0:0:
162,124,172559,1,0,0:0:0:0:
183,63,172638,1,0,0:0:0:0:
162,124,172717,1,8,0:0:0:0:
179,74,172875,1,8,0:0:0:0:
179,74,172954,1,8,0:0:0:0:
179,74,173033,1,0,0:0:0:0:
192,122,173349,1,8,0:0:0:0:
192,122,173506,1,0,0:0:0:0:
192,122,173664,1,0,0:0:0:0:
190,109,173743,1,0,0:0:0:0:
192,122,173822,1,8,0:0:0:0:
190,109,173901,1,0,0:0:0:0:
192,122,173980,1,8,0:0:0:0:
190,109,174138,1,8,0:0:0:0:
186,108,174217,1,8,0:0:0:0:
188,109,174296,1,0,0:0:0:0:
179,89,174612,1,0,0:0:0:0:
174,82,174691,1,0,0:0:0:0:
184,78,174770,1,8,0:0:0:0:
184,78,174927,1,8,0:0:0:0:
177,89,175006,1,8,0:0:0:0:
177,89,175085,1,0,0:0:0:0:
173,82,175164,1,0,0:0:0:0:
184,78,175243,1,8,0:0:0:0:
198,91,175401,1,0,0:0:0:0:
194,88,175480,1,8,0:0:0:0:
197,90,175559,1,8,0:0:0:0:
208,53,175717,1,0,0:0:0:0:
208,54,175875,1,8,0:0:0:0:
186,62,176033,1,0,0:0:0:0:
185,54,176112,1,0,0:0:0:0:
186,62,176191,1,8,0:0:0:0:
186,62,176270,1,8,0:0:0:0:
185,54,176349,1,0,0:0:0:0:
194,100,176506,1,8,0:0:0:0:
194,100,176664,1,0,0:0:0:0:
196,82,176743,1,8,0:0:0:0:
194,100,176822,1,8,0:0:0:0:
163,97,176980,1,0,0:0:0:0:
197,114,177138,1,8,0:0:0:0:
169,124,177296,1,0,0:0:0:0:
158,124,177375,1,8,0:0:0:0:
166,125,177454,1,8,0:0:0:0:
158,124,177533,1,0,0:0:0:0:
165,125,177612,1,0,0:0:0:0:
183,97,177770,1,8,0:0:0:0:
179,102,177927,1,0,0:0:0:0:
177,104,178006,1,0,0:0:0:0:
177,105,178085,1,8,0:0:0:0:
165,49,178243,1,0,0:0:0:0:
179,106,178401,1,8,0:0:0:0:
178,106,178559,1,0,0:0:0:0:
190,51,178638,1,0,0:0:0:0:
178,106,178717,1,8,0:0:0:0:
190,51,178796,1,8,0:0:0:0:
179,102,178875,1,0,0:0:0:0:
185,62,179033,1,8,0:0:0:0:
185,62,179191,1,0,0:0:0:0:
180,64,179270,1,8,0:0:0:0:
184,62,179349,1,8,0:0:0:0:
175,84,179506,1,0,0:0:0:0:
173,66,179664,1,8,0:0:0:0:
174,66,179822,1,0,0:0:0:0:
174,66,179901,1,8,0:0:0:0:
174,66,179980,1,8,0:0:0:0:
174,66,180059,1,0,0:0:0:0:
174,65,180138,1,0,0:0:0:0:
150,107,180296,1,8,0:0:0:0:
150,107,180454,1,0,0:0:0:0:
150,107,180533,1,0,0:0:0:0:
150,107,180612,1,8,0:0:0:0:
174,74,180691,1,8,0:0:0:0:
173,73,180770,1,0,0:0:0:0:
173,73,180927,1,8,0:0:0:0:
152,89,181085,1,0,0:0:0:0:
154,89,181164,1,8,0:0:0:0:
153,89,181243,1,8,0:0:0:0:
154,89,181322,1,8,0:0:0:0:
154,89,181401,1,0,0:0:0:0:
183,88,181559,1,8,0:0:0:0:
182,87,181717,1,0,0:0:0:0:
179,87,181796,1,8,0:0:0:0:
182,87,181875,1,0,0:0:0:0:
184,97,182191,1,8,0:0:0:0:
211,124,182349,1,0,0:0:0:0:
201,117,182427,1,8,0:0:0:0:
208,122,182506,1,0,0:0:0:0:
201,117,182585,1,8,0:0:0:0:
208,122,182664,1,0,0:0:0:0:
192,113,182822,1,8,0:0:0:0:
167,118,182980,1,0,0:0:0:0:
165,114,183059,1,8,0:0:0:0:
448,64,183138,1,8,0:0:0:0:
215,83,183217,1,8,0:0:0:0:
164,115,183296,1,0,0:0:0:0:
166,115,183454,1,8,0:0:0:0:
165,115,183612,1,0,0:0:0:0:
190,91,183691,1,8,0:0:0:0:
183,93,183770,1,0,0:0:0:0:
173,95,183849,1,8,0:0:0:0:
182,93,183927,1,0,0:0:0:0:
181,93,184085,1,8,0:0:0:0:
186,95,184243,1,0,0:0:0:0:
176,78,184322,1,8,0:0:0:0:
185,95,184401,1,0,0:0:0:0:
183,95,184480,1,0,0:0:0:0:
172,107,184717,1,8,0:0:0:0:
171,107,184875,1,0,0:0:0:0:
166,106,184954,1,8,0:0:0:0:
163,106,185033,1,0,0:0:0:0:
189,94,185112,1,8,0:0:0:0:
202,90,185191,1,0,0:0:0:0:
161,108,185349,1,8,0:0:0:0:
167,127,185506,1,0,0:0:0:0:
161,126,185585,1,8,0:0:0:0:
165,127,185664,1,8,0:0:0:0:
157,126,185743,1,8,0:0:0:0:
164,127,185822,1,0,0:0:0:0:
166,98,185980,1,8,0:0:0:0:
165,98,186138,1,0,0:0:0:0:
165,98,186217,1,8,0:0:0:0:
64,64,186296,1,0,0:0:0:0:
158,69,186375,1,8,0:0:0:0:
161,70,186454,1,0,0:0:0:0:
169,87,186612,1,8,0:0:0:0:
169,88,186770,1,0,0:0:0:0:
167,82,186849,1,8,0:0:0:0:
167,82,186927,1,0,0:0:0:0:
184,112,187242,1,12,0:0:0:0:
256,192,187400,12,0,191821,0:0:0:0:
181,34,191982,5,0,0:0:0:0:
171,229,199560,5,8,0:0:0:0:
182,181,199718,1,0,0:0:0:0:
206,66,199797,1,0,0:0:0:0:
171,229,199876,1,8,0:0:0:0:
182,181,199955,1,8,0:0:0:0:
182,181,200034,1,8,0:0:0:0:
161,88,200192,1,0,0:0:0:0:
161,88,200350,1,8,0:0:0:0:
161,88,200429,1,0,0:0:0:0:
161,88,200508,1,8,0:0:0:0:
170,204,200824,5,8,0:0:0:0:
170,162,200902,1,8,0:0:0:0:
170,204,200981,1,0,0:0:0:0:
170,204,201139,1,0,0:0:0:0:
162,130,201297,1,8,0:0:0:0:
161,135,201376,1,0,0:0:0:0:
165,130,201455,1,8,0:0:0:0:
165,130,201613,1,0,0:0:0:0:
161,135,201692,1,8,0:0:0:0:
163,133,201771,1,0,0:0:0:0:
141,88,201929,1,8,0:0:0:0:
141,88,202008,1,0,0:0:0:0:
141,88,202087,1,8,0:0:0:0:
141,88,202166,1,8,0:0:0:0:
141,88,202245,1,0,0:0:0:0:
141,88,202402,1,0,0:0:0:0:
141,88,202560,1,8,0:0:0:0:
134,87,202639,1,0,0:0:0:0:
141,88,202718,1,8,0:0:0:0:
141,88,202876,1,0,0:0:0:0:
141,88,202955,1,8,0:0:0:0:
141,88,203034,1,0,0:0:0:0:
193,46,203192,1,8,0:0:0:0:
193,46,203271,1,0,0:0:0:0:
193,46,203350,1,8,0:0:0:0:
193,46,203429,1,8,0:0:0:0:
193,46,203508,1,0,0:0:0:0:
169,102,203666,1,0,0:0:0:0:
169,100,203824,1,8,0:0:0:0:
169,97,203902,1,0,0:0:0:0:
168,100,203981,1,8,0:0:0:0:
169,102,204139,1,0,0:0:0:0:
169,97,204218,1,8,0:0:0:0:
169,102,204297,1,0,0:0:0:0:
169,102,204455,1,8,0:0:0:0:
169,102,204534,1,0,0:0:0:0:
169,102,204613,1,8,0:0:0:0:
169,102,204692,1,8,0:0:0:0:
169,100,204771,1,0,0:0:0:0:
168,100,204929,1,8,0:0:0:0:
169,97,205008,1,0,0:0:0:0:
169,97,205087,1,0,0:0:0:0:
169,102,205166,1,8,0:0:0:0:
184,82,205876,1,8,0:0:0:0:
183,82,206034,1,0,0:0:0:0:
180,72,206113,1,8,0:0:0:0:
178,80,206192,1,0,0:0:0:0:
185,89,206271,1,0,0:0:0:0:
186,89,206350,1,8,0:0:0:0:
198,78,206508,1,8,0:0:0:0:
198,78,206666,1,0,0:0:0:0:
217,116,206745,1,8,0:0:0:0:
198,78,206824,1,0,0:0:0:0:
197,77,206981,1,8,0:0:0:0:
207,102,207060,1,0,0:0:0:0:
202,89,207139,1,8,0:0:0:0:
223,70,207297,1,0,0:0:0:0:
212,120,207376,1,8,0:0:0:0:
222,70,207455,1,0,0:0:0:0:
208,102,207534,1,0,0:0:0:0:
221,70,207613,1,8,0:0:0:0:
221,70,207771,1,8,0:0:0:0:
221,70,207929,1,0,0:0:0:0:
212,120,208008,1,8,0:0:0:0:
221,70,208087,1,0,0:0:0:0:
223,70,208245,1,8,0:0:0:0:
209,102,208324,1,0,0:0:0:0:
222,70,208402,1,8,0:0:0:0:
221,70,208560,1,0,0:0:0:0:
212,120,208639,1,8,0:0:0:0:
221,70,208718,1,0,0:0:0:0:
209,102,208797,1,0,0:0:0:0:
221,70,208876,1,8,0:0:0:0:
221,70,209034,1,8,0:0:0:0:
215,72,209192,1,0,0:0:0:0:
179,121,209271,1,8,0:0:0:0:
222,70,209350,1,0,0:0:0:0:
221,70,209508,1,8,0:0:0:0:
180,122,209587,1,0,0:0:0:0:
221,70,209666,1,8,0:0:0:0:
221,70,209824,1,0,0:0:0:0:
179,121,209902,1,8,0:0:0:0:
221,70,209981,1,0,0:0:0:0:
179,121,210060,1,0,0:0:0:0:
215,72,210139,1,8,0:0:0:0:
179,121,210297,1,8,0:0:0:0:
153,44,210613,1,8,0:0:0:0:
205,67,210692,1,0,0:0:0:0:
150,95,210850,1,0,0:0:0:0:
150,95,210929,1,8,0:0:0:0:
159,126,211087,1,8,0:0:0:0:
175,73,211166,1,8,0:0:0:0:
161,126,211245,1,0,0:0:0:0:
175,74,211324,1,8,0:0:0:0:
171,82,211402,1,0,0:0:0:0:
161,86,211560,1,8,0:0:0:0:
160,87,211718,1,8,0:0:0:0:
158,84,211797,1,8,0:0:0:0:
159,88,211876,1,0,0:0:0:0:
174,60,212034,1,0,0:0:0:0:
185,62,212113,1,0,0:0:0:0:
175,73,212192,1,8,0:0:0:0:
175,74,212350,1,8,0:0:0:0:
168,71,212429,1,8,0:0:0:0:
166,68,212508,1,0,0:0:0:0:
166,69,212587,1,8,0:0:0:0:
155,55,212666,1,0,0:0:0:0:
156,56,212824,1,8,0:0:0:0:
156,56,212981,1,8,0:0:0:0:
156,55,213060,1,8,0:0:0:0:
158,57,213139,1,0,0:0:0:0:
158,57,213297,1,0,0:0:0:0:
158,57,213376,1,0,0:0:0:0:
153,60,213455,1,8,0:0:0:0:
185,40,213613,1,8,0:0:0:0:
180,35,213692,1,8,0:0:0:0:
156,56,213771,1,0,0:0:0:0:
157,66,213850,1,8,0:0:0:0:
157,66,213929,1,0,0:0:0:0:
156,73,214087,1,8,0:0:0:0:
166,72,214245,1,8,0:0:0:0:
161,66,214324,1,8,0:0:0:0:
161,66,214402,1,0,0:0:0:0:
160,65,214560,1,0,0:0:0:0:
157,59,214639,1,8,0:0:0:0:
160,65,214718,1,0,0:0:0:0:
212,120,214876,1,8,0:0:0:0:
202,118,214955,1,0,0:0:0:0:
202,118,215034,1,8,0:0:0:0:
160,50,215192,1,0,0:0:0:0:
175,43,215271,1,0,0:0:0:0:
160,51,215350,1,8,0:0:0:0:
157,73,215508,1,0,0:0:0:0:
158,86,215587,1,8,0:0:0:0:
156,73,215666,1,8,0:0:0:0:
201,55,215824,1,8,0:0:0:0:
135,95,215981,1,0,0:0:0:0:
134,150,216297,1,8,0:0:0:0:
134,150,216455,1,8,0:0:0:0:
134,150,216613,1,0,0:0:0:0:
134,150,216771,1,0,0:0:0:0:
133,150,216929,1,8,0:0:0:0:
132,150,217087,1,8,0:0:0:0:
134,150,217245,1,0,0:0:0:0:
174,119,217560,1,8,0:0:0:0:
174,119,217718,1,8,0:0:0:0:
174,119,217876,1,0,0:0:0:0:
174,119,218034,1,0,0:0:0:0:
174,119,218192,1,8,0:0:0:0:
222,130,218508,1,0,0:0:0:0:
222,130,218824,1,8,0:0:0:0:
222,130,218981,1,8,0:0:0:0:
222,130,219139,1,0,0:0:0:0:
222,130,219297,1,0,0:0:0:0:
222,130,219455,1,8,0:0:0:0:
222,130,219613,1,0,0:0:0:0:
222,130,219771,1,0,0:0:0:0:
170,137,220087,1,8,0:0:0:0:
170,137,220245,1,0,0:0:0:0:
197,140,221033,1,0,0:0:0:0:
222,141,221190,1,8,0:0:0:0:
166,48,221269,1,8,0:0:0:0:
222,141,221348,1,0,0:0:0:0:
192,82,221506,1,0,0:0:0:0:
238,116,221585,1,0,0:0:0:0:
239,116,221664,1,8,0:0:0:0:
234,112,221743,1,8,0:0:0:0:
183,84,221822,1,0,0:0:0:0:
183,84,221980,1,0,0:0:0:0:
180,82,222059,1,0,0:0:0:0:
183,84,222138,1,8,0:0:0:0:
179,80,222296,1,8,0:0:0:0:
193,68,222454,1,0,0:0:0:0:
167,128,222611,1,0,0:0:0:0:
167,128,222690,1,0,0:0:0:0:
167,128,222769,1,8,0:0:0:0:
123,78,222927,1,0,0:0:0:0:
156,82,223006,1,0,0:0:0:0:
123,78,223085,1,8,0:0:0:0:
156,82,223164,1,8,0:0:0:0:
154,80,223243,1,0,0:0:0:0:
141,108,223401,1,8,0:0:0:0:
179,91,223480,1,8,0:0:0:0:
143,109,223559,1,0,0:0:0:0:
188,88,223717,1,0,0:0:0:0:
185,78,223796,1,0,0:0:0:0:
187,86,223875,1,8,0:0:0:0:
172,75,224033,1,0,0:0:0:0:
172,75,224190,1,8,0:0:0:0:
166,73,224269,1,8,0:0:0:0:
170,75,224348,1,0,0:0:0:0:
167,73,224427,1,0,0:0:0:0:
168,75,224506,1,8,0:0:0:0:
172,135,224664,1,8,0:0:0:0:
172,135,224822,1,0,0:0:0:0:
195,102,224901,1,0,0:0:0:0:
191,97,224980,1,8,0:0:0:0:
181,111,225138,1,0,0:0:0:0:
166,84,225296,1,8,0:0:0:0:
170,75,225375,1,8,0:0:0:0:
179,110,225454,1,0,0:0:0:0:
181,104,225533,1,0,0:0:0:0:
172,135,225611,1,8,0:0:0:0:
172,135,225769,1,0,0:0:0:0:
148,196,226085,1,8,0:0:0:0:
148,196,226243,1,0,0:0:0:0:
148,196,226322,1,0,0:0:0:0:
148,196,226401,1,8,0:0:0:0:
148,196,226480,1,8,0:0:0:0:
148,196,226559,1,0,0:0:0:0:
153,78,226717,1,8,0:0:0:0:
153,78,226875,1,0,0:0:0:0:
137,76,226954,1,8,0:0:0:0:
139,78,227111,1,8,0:0:0:0:
176,64,227190,1,0,0:0:0:0:
194,73,227348,1,8,0:0:0:0:
194,74,227506,1,0,0:0:0:0:
186,79,227585,1,8,0:0:0:0:
188,77,227664,1,8,0:0:0:0:
188,77,227743,1,0,0:0:0:0:
186,79,227822,1,0,0:0:0:0:
186,79,227980,1,8,0:0:0:0:
186,80,228138,1,0,0:0:0:0:
190,76,228217,1,8,0:0:0:0:
185,80,228375,1,8,0:0:0:0:
183,81,228454,1,0,0:0:0:0:
166,64,228611,1,8,0:0:0:0:
165,65,228769,1,0,0:0:0:0:
165,64,228848,1,8,0:0:0:0:
165,66,228927,1,8,0:0:0:0:
165,64,229006,1,8,0:0:0:0:
165,62,229085,1,0,0:0:0:0:
190,76,229243,1,8,0:0:0:0:
186,88,229401,1,0,0:0:0:0:
185,88,229480,1,8,0:0:0:0:
180,84,229638,1,8,0:0:0:0:
178,81,229717,1,0,0:0:0:0:
174,104,229875,1,8,0:0:0:0:
164,94,230033,1,0,0:0:0:0:
164,95,230111,1,8,0:0:0:0:
170,86,230269,1,8,0:0:0:0:
172,89,230348,1,0,0:0:0:0:
171,104,230506,1,8,0:0:0:0:
171,105,230664,1,0,0:0:0:0:
168,101,230743,1,8,0:0:0:0:
174,104,230822,1,0,0:0:0:0:
149,135,231138,1,8,0:0:0:0:
146,87,231217,1,0,0:0:0:0:
149,135,231296,1,8,0:0:0:0:
148,87,231375,1,8,0:0:0:0:
219,46,231454,1,0,0:0:0:0:
130,130,231611,1,0,0:0:0:0:
130,130,231769,1,8,0:0:0:0:
217,37,231848,1,8,0:0:0:0:
130,130,231927,1,0,0:0:0:0:
179,68,232006,1,8,0:0:0:0:
186,37,232085,1,8,0:0:0:0:
130,130,232243,1,8,0:0:0:0:
130,130,232401,1,0,0:0:0:0:
159,85,232480,1,0,0:0:0:0:
130,130,232559,1,8,0:0:0:0:
159,85,232638,1,0,0:0:0:0:
130,130,232717,1,0,0:0:0:0:
130,130,232875,1,0,0:0:0:0:
130,130,233033,1,8,0:0:0:0:
159,85,233111,1,0,0:0:0:0:
130,130,233190,1,8,0:0:0:0:
130,130,233269,1,8,0:0:0:0:
146,102,233348,1,0,0:0:0:0:
167,85,233506,1,0,0:0:0:0:
167,85,233664,1,8,0:0:0:0:
174,75,233743,1,8,0:0:0:0:
175,66,233822,1,0,0:0:0:0:
171,80,233901,1,8,0:0:0:0:
166,85,233980,1,0,0:0:0:0:
166,85,234138,1,0,0:0:0:0:
166,85,234296,1,8,0:0:0:0:
171,49,234375,1,8,0:0:0:0:
167,85,234454,1,0,0:0:0:0:
173,48,234533,1,8,0:0:0:0:
167,85,234611,1,8,0:0:0:0:
166,85,234769,1,8,0:0:0:0:
166,85,234927,1,0,0:0:0:0:
155,66,235006,1,0,0:0:0:0:
166,85,235085,1,8,0:0:0:0:
157,68,235164,1,0,0:0:0:0:
166,85,235243,1,8,0:0:0:0:
167,85,235401,1,0,0:0:0:0:
181,46,235480,1,8,0:0:0:0:
167,85,235559,1,0,0:0:0:0:
192,100,235638,1,0,0:0:0:0:
166,85,235717,1,8,0:0:0:0:
166,85,235875,1,8,0:0:0:0:
169,119,236190,1,0,0:0:0:0:
162,182,236348,1,8,0:0:0:0:
168,173,236427,1,8,0:0:0:0:
162,182,236506,1,0,0:0:0:0:
162,182,236585,1,0,0:0:0:0:
168,173,236664,1,8,0:0:0:0:
168,173,236822,1,0,0:0:0:0:
168,173,236980,1,0,0:0:0:0:
167,71,237059,1,0,0:0:0:0:
168,173,237138,1,8,0:0:0:0:
176,79,237296,1,8,0:0:0:0:
157,79,237375,1,8,0:0:0:0:
175,78,237454,1,0,0:0:0:0:
157,79,237533,1,8,0:0:0:0:
156,78,237611,1,8,0:0:0:0:
165,105,237769,1,0,0:0:0:0:
163,97,237848,1,8,0:0:0:0:
164,104,237927,1,0,0:0:0:0:
173,76,238085,1,8,0:0:0:0:
188,76,238243,1,0,0:0:0:0:
188,79,238322,1,0,0:0:0:0:
167,58,238401,1,0,0:0:0:0:
173,58,238480,1,0,0:0:0:0:
157,62,238559,1,8,0:0:0:0:
181,54,238717,1,0,0:0:0:0:
180,58,238875,1,8,0:0:0:0:
177,58,238954,1,8,0:0:0:0:
180,58,239033,1,0,0:0:0:0:
176,58,239111,1,0,0:0:0:0:
179,58,239190,1,8,0:0:0:0:
173,58,239348,1,0,0:0:0:0:
181,54,239506,1,0,0:0:0:0:
153,85,239585,1,0,0:0:0:0:
180,58,239664,1,8,0:0:0:0:
157,73,239822,1,0,0:0:0:0:
159,64,239901,1,8,0:0:0:0:
157,73,239980,1,0,0:0:0:0:
157,73,240138,1,8,0:0:0:0:
154,75,240296,1,0,0:0:0:0:
154,75,240454,1,8,0:0:0:0:
154,75,240611,1,0,0:0:0:0:
179,144,241243,1,8,0:0:0:0:
194,164,241321,1,0,0:0:0:0:
178,146,241400,1,8,0:0:0:0:
194,164,241479,1,8,0:0:0:0:
179,144,241558,1,0,0:0:0:0:
169,120,241716,1,8,0:0:0:0:
169,115,241874,1,8,0:0:0:0:
169,118,241953,1,0,0:0:0:0:
174,66,242032,1,0,0:0:0:0:
190,42,242111,1,8,0:0:0:0:
174,66,242190,1,0,0:0:0:0:
163,55,242348,1,8,0:0:0:0:
163,55,242506,1,8,0:0:0:0:
161,55,242585,1,0,0:0:0:0:
162,56,242664,1,8,0:0:0:0:
161,55,242743,1,8,0:0:0:0:
161,56,242821,1,0,0:0:0:0:
161,55,242979,1,8,0:0:0:0:
161,57,243137,1,8,0:0:0:0:
165,62,243216,1,0,0:0:0:0:
163,55,243295,1,0,0:0:0:0:
166,62,243374,1,8,0:0:0:0:
163,55,243453,1,0,0:0:0:0:
161,55,243611,1,8,0:0:0:0:
161,55,243769,1,8,0:0:0:0:
166,62,243848,1,0,0:0:0:0:
161,55,243927,1,8,0:0:0:0:
166,62,244006,1,8,0:0:0:0:
161,57,244085,1,0,0:0:0:0:
163,55,244243,1,8,0:0:0:0:
163,55,244400,1,8,0:0:0:0:
166,62,244479,1,0,0:0:0:0:
161,55,244558,1,0,0:0:0:0:
166,62,244637,1,8,0:0:0:0:
161,55,244716,1,0,0:0:0:0:
161,55,244874,1,8,0:0:0:0:
161,57,245032,1,8,0:0:0:0:
166,62,245111,1,0,0:0:0:0:
163,55,245190,1,8,0:0:0:0:
166,62,245269,1,8,0:0:0:0:
163,55,245348,1,0,0:0:0:0:
158,47,245506,1,8,0:0:0:0:
161,64,245664,1,8,0:0:0:0:
161,65,245743,1,0,0:0:0:0:
161,66,245900,1,0,0:0:0:0:
158,47,245979,1,8,0:0:0:0:
181,130,246295,5,8,0:0:0:0:
171,106,246374,1,0,0:0:0:0:
181,114,246453,1,0,0:0:0:0:
188,92,246532,1,8,0:0:0:0:
185,101,246690,1,0,0:0:0:0:
186,100,246769,1,0,0:0:0:0:
191,124,246927,1,8,0:0:0:0:
170,106,247006,1,0,0:0:0:0:
192,53,247085,1,0,0:0:0:0:
191,124,247164,1,8,0:0:0:0:
186,102,247321,1,0,0:0:0:0:
187,101,247400,1,0,0:0:0:0:
164,103,247558,1,8,0:0:0:0:
170,107,247637,1,0,0:0:0:0:
164,104,247716,1,0,0:0:0:0:
160,90,247795,1,8,0:0:0:0:
190,98,247953,1,0,0:0:0:0:
191,98,248032,1,0,0:0:0:0:
157,95,248190,1,8,0:0:0:0:
170,106,248269,1,0,0:0:0:0:
166,109,248348,1,0,0:0:0:0:
156,97,248427,1,8,0:0:0:0:
191,98,248585,1,0,0:0:0:0:
191,98,248664,1,0,0:0:0:0:
157,95,248821,1,8,0:0:0:0:
166,109,248900,1,0,0:0:0:0:
166,111,248979,1,0,0:0:0:0:
157,95,249058,1,8,0:0:0:0:
190,98,249216,1,0,0:0:0:0:
190,98,249295,1,0,0:0:0:0:
159,124,249453,1,8,0:0:0:0:
159,125,249532,1,0,0:0:0:0:
159,125,249611,1,0,0:0:0:0:
159,124,249690,1,8,0:0:0:0:
190,96,249848,1,0,0:0:0:0:
190,96,249927,1,0,0:0:0:0:
159,124,250085,1,8,0:0:0:0:
159,124,250164,1,0,0:0:0:0:
159,124,250243,1,0,0:0:0:0:
159,124,250321,1,8,0:0:0:0:
190,96,250479,1,0,0:0:0:0:
190,96,250558,1,0,0:0:0:0:
159,124,250716,1,8,0:0:0:0:
172,62,250795,1,8,0:0:0:0:
159,124,250874,1,0,0:0:0:0:
159,124,250953,1,8,0:0:0:0:
197,88,251032,1,0,0:0:0:0:
196,98,251348,1,8,0:0:0:0:
195,98,251427,1,0,0:0:0:0:
172,62,251506,1,8,0:0:0:0:
172,62,251585,1,8,0:0:0:0:
172,62,251664,1,0,0:0:0:0:
190,112,251821,1,0,0:0:0:0:
197,77,251979,1,8,0:0:0:0:
194,81,252058,1,8,0:0:0:0:
197,78,252137,1,0,0:0:0:0:
194,81,252216,1,8,0:0:0:0:
197,78,252295,1,0,0:0:0:0:
190,104,252453,1,0,0:0:0:0:
183,86,252611,1,8,0:0:0:0:
175,87,252690,1,0,0:0:0:0:
183,86,252769,1,8,0:0:0:0:
175,88,252848,1,8,0:0:0:0:
181,86,252927,1,0,0:0:0:0:
190,99,253085,1,0,0:0:0:0:
169,86,253243,1,8,0:0:0:0:
166,86,253321,1,8,0:0:0:0:
169,86,253400,1,0,0:0:0:0:
166,86,253479,1,8,0:0:0:0:
169,86,253558,1,0,0:0:0:0:
191,100,253716,1,0,0:0:0:0:
242,95,253874,1,8,0:0:0:0:
242,95,253953,1,0,0:0:0:0:
242,95,254032,1,8,0:0:0:0:
242,95,254111,1,8,0:0:0:0:
242,95,254190,1,0,0:0:0:0:
190,100,254348,1,0,0:0:0:0:
177,111,254506,1,8,0:0:0:0:
177,108,254585,1,8,0:0:0:0:
177,111,254664,1,0,0:0:0:0:
177,111,254743,1,8,0:0:0:0:
177,111,254821,1,0,0:0:0:0:
190,100,254979,1,0,0:0:0:0:
187,116,255137,1,8,0:0:0:0:
184,115,255216,1,0,0:0:0:0:
187,116,255295,1,8,0:0:0:0:
184,115,255374,1,8,0:0:0:0:
186,116,255453,1,0,0:0:0:0:
183,58,255611,1,0,0:0:0:0:
183,58,255769,1,0,0:0:0:0:
183,58,255848,1,8,0:0:0:0:
175,64,255927,1,8,0:0:0:0:
183,58,256006,1,0,0:0:0:0:
175,64,256085,1,8,0:0:0:0:
199,97,256400,1,0,0:0:0:0:
172,100,256715,5,12,0:0:0:0:
76,71,260189,6,0,L|93:70,4,17.5
256,192,272841,5,0,0:0:0:0:
256,192,277893,5,8,0:0:0:0:
256,192,281683,5,0,0:0:0:0:
256,192,282946,1,8,0:0:0:0:
256,192,286735,5,8,0:0:0:0:
256,192,287998,1,0,0:0:0:0:
256,192,291788,5,0,0:0:0:0:
256,192,292419,1,8,0:0:0:0:
256,192,293051,1,0,0:0:0:0:
256,192,298104,5,8,0:0:0:0:
256,192,301893,5,0,0:0:0:0:
256,192,303156,1,8,0:0:0:0:
256,192,306946,5,8,0:0:0:0:
256,192,308209,1,0,0:0:0:0:
256,192,311998,5,8,0:0:0:0:
256,192,312630,1,0,0:0:0:0:
256,192,313262,1,2,0:0:0:0:
