osu file format v14

[General]
AudioFilename: audio.mp3
AudioLeadIn: 0
PreviewTime: 15567
Countdown: 0
SampleSet: Soft
StackLeniency: 0
Mode: 0
LetterboxInBreaks: 0
WidescreenStoryboard: 1

[Editor]
DistanceSpacing: 6
BeatDivisor: 4
GridSize: 4
TimelineZoom: 1.4

[Metadata]
Title:Strange Inventor
TitleUnicode:Strange Inventor
Artist:Chroma
ArtistUnicode:Chroma
Creator:ktgster
Version:Innovation
Source:
Tags:kuroma masaki sekikawa 関川聖城 fa featured artist robot & human and chro-0006 mappers' guild mg electronic instrumental thebushy
BeatmapID:4380212
BeatmapSetID:1922670

[Difficulty]
HPDrainRate:7
CircleSize:0
OverallDifficulty:6
ApproachRate:0
SliderMultiplier:0.400000005960464
SliderTickRate:0.5

[Events]
//Background and Video events
0,0,"80260271_p0_master1200.jpg",0,0
//Break Periods
//Storyboard Layer 0 (Background)
//Storyboard Layer 1 (Fail)
//Storyboard Layer 2 (Pass)
//Storyboard Layer 3 (Foreground)
//Storyboard Layer 4 (Overlay)
//Storyboard Sound Samples

[TimingPoints]
715,500,4,2,1,60,1,0
2215,-1000,4,2,1,60,0,0
5590,-1000,4,2,1,5,0,0
5715,-1000,4,2,1,60,0,0
6049,333.333333333333,4,2,1,60,1,0
7826,-1000,4,2,1,60,0,0
11298,-1000,4,2,1,5,0,0
11382,-1000,4,2,1,60,0,0
14298,-250,4,2,1,60,0,0
15567,333.333333333333,4,2,1,60,1,0
15567,-1000,4,2,1,60,0,0
18955,-100,4,2,1,60,0,0
20900,-1000,4,2,1,60,0,0
29900,-100,4,2,1,60,0,0
31566,-1000,4,2,1,60,0,0
33129,333.333333333333,4,2,1,60,1,0
33129,-1000,4,2,1,60,0,0
35244,333.333333333333,4,2,1,60,1,0
35244,-1000,4,2,1,60,0,0
35910,333.333333333333,4,2,1,60,1,0
35910,-500,4,2,1,60,0,0
36910,333.333333333333,4,2,1,60,1,0
36910,-1000,4,2,1,60,0,0
37576,-100,4,2,1,60,0,0
38465,-1000,4,2,1,60,0,0
39743,-10,4,2,1,60,0,0
41243,-1000,4,2,1,60,0,0
51243,-100,4,2,1,60,0,0
52909,-1000,4,2,1,60,0,0
55909,333.333333333333,4,2,1,60,1,0
57825,-1000,4,2,1,5,0,0
57909,-1000,4,2,1,60,0,0
58909,-1000,4,2,1,60,0,0
60816,-1000,4,2,1,5,0,0
60900,333.333333333333,4,2,1,60,1,0
62420,333.333333333333,4,2,1,60,1,0
62420,-1000,4,2,1,60,0,0
64753,-16.6666666666667,4,2,1,60,0,0
65086,-1000,4,2,1,60,0,0
67086,-66.6666666666667,4,2,1,60,0,0
67586,-1000,4,2,1,60,0,0
68642,-500,4,2,1,60,0,0
69086,-1000,4,2,1,60,0,0
69586,-500,4,2,1,60,0,0
69919,-200,4,2,1,60,0,0
70586,-1000,4,2,1,60,0,0
71753,-200,4,2,1,60,0,0
72086,-1000,4,2,1,60,0,0
73836,-1000,4,2,1,5,0,0
73951,333.333333333333,4,2,1,60,1,0
73951,-1000,4,2,1,60,0,0
76284,-16.6666666666667,4,2,1,60,0,0
76617,-1000,4,2,1,60,0,0
78617,-66.6666666666667,4,2,1,60,0,0
79117,-1000,4,2,1,60,0,0
80173,-500,4,2,1,60,0,0
80617,-1000,4,2,1,60,0,0
81117,-200,4,2,1,60,0,0
82117,-1000,4,2,1,60,0,0
83284,-200,4,2,1,60,0,0
83617,-1000,4,2,1,60,0,0
86534,-1000,4,2,1,5,0,0
86617,-16.6666666666667,4,2,1,60,0,0
86950,-1000,4,2,1,60,0,0
88950,-66.6666666666667,4,2,1,60,0,0
89450,-1000,4,2,1,60,0,0
90506,-500,4,2,1,60,0,0
90950,-1000,4,2,1,60,0,0
91450,-500,4,2,1,60,0,0
91784,-200,4,2,1,60,0,0
92450,-1000,4,2,1,60,0,0
93617,-200,4,2,1,60,0,0
93950,-1000,4,2,1,60,0,0
95700,-1000,4,2,1,5,0,0
95805,333.333333333333,4,2,1,60,1,0
95805,-1000,4,2,1,60,0,0
98138,-16.6666666666667,4,2,1,60,0,0
98471,-1000,4,2,1,60,0,0
100471,-66.6666666666667,4,2,1,60,0,0
100971,-1000,4,2,1,60,0,0
102027,-500,4,2,1,60,0,0
102693,-200,4,2,1,60,0,0
103971,-1000,4,2,1,60,0,0
105138,-200,4,2,1,60,0,0
105471,-1000,4,2,1,60,0,0
106471,-200,4,2,1,60,0,0
106804,-1000,4,2,1,60,0,0
110388,-1000,4,2,1,5,0,0
110471,-1000,4,2,1,60,0,0
112471,-200,4,2,1,60,0,0
113331,333.333333333333,4,2,1,60,1,0
113331,-1000,4,2,1,60,0,0
116719,-100,4,2,1,60,0,0
118664,-1000,4,2,1,60,0,0
127664,-100,4,2,1,60,0,0
129330,-1000,4,2,1,60,0,0
130880,333.333333333333,4,2,1,60,1,0
130880,-1000,4,2,1,60,0,0
132995,333.333333333333,4,2,1,60,1,0
132995,-1000,4,2,1,60,0,0
133661,-500,4,2,1,60,0,0
134661,333.333333333333,4,2,1,60,1,0
134661,-1000,4,2,1,60,0,0
135327,-100,4,2,1,60,0,0
136216,-1000,4,2,1,60,0,0
137494,-10,4,2,1,60,0,0
138994,-1000,4,2,1,60,0,0
148994,-100,4,2,1,60,0,0
150660,-1000,4,2,1,60,0,0
155577,-1000,4,2,1,5,0,0
155660,-1000,4,2,1,60,0,0
159244,-1000,4,2,1,5,0,0
159327,-1000,4,2,1,60,0,0
160410,-200,4,2,1,60,0,0
161327,-1000,4,2,1,60,0,0
169244,-1000,4,2,1,5,0,0
169327,-1000,4,2,1,60,0,0

[Colours]
Combo1 : 88,88,88
Combo2 : 202,202,202

[HitObjects]
68,119,2215,6,0,L|62:144,1,27.0000004023313,0|0,0:2|0:2,0:0:0:0:
30,352,5715,5,0,1:2:0:0:
181,192,6049,5,2,0:2:0:0:
181,292,6271,1,2,0:2:0:0:
202,196,6493,1,2,0:2:0:0:
159,287,6715,1,2,0:2:0:0:
219,209,6937,1,2,0:2:0:0:
142,274,7160,1,2,0:2:0:0:
229,229,7382,1,2,0:2:0:0:
132,254,7604,1,2,0:2:0:0:
313,310,7826,6,0,L|315:310,1,2.66666670640309,2|8,0:2|0:2,0:0:0:0:
228,192,8271,5,0,1:2:0:0:
184,348,8493,1,8,0:2:0:0:
184,348,8937,2,0,L|184:350,1,2.66666670640309,2|0,0:2|0:2,0:0:0:0:
256,192,9548,12,0,11298,0:2:0:0:
256,192,11382,5,0,1:2:0:0:
256,192,12715,1,0,3:2:0:0:
256,192,14298,6,0,L|256:195,4,4.00000005960464,0|0|0|0|0,0:2|0:2|0:2|0:2|0:2,0:0:0:0:
256,52,14715,6,0,L|256:54,21,1.77777780426873,2|0|0|0|0|0|0|0|0|0|0|0|0|0|0|0|0|0|0|0|0|0,0:2|0:2|0:2|0:2|0:2|0:2|0:2|0:2|0:2|0:2|0:2|0:2|0:2|0:2|0:2|0:2|0:2|0:2|0:2|0:2|0:2|0:2,0:0:0:0:
359,124,15567,6,0,L|352:124,1,7.00000010430812,0|0,1:2|0:2,0:0:0:0:
153,124,16233,1,8,0:2:0:0:
359,260,17122,6,0,L|352:260,1,7.00000010430812,0|0,1:2|0:2,0:0:0:0:
153,260,17789,1,8,0:2:0:0:
256,192,18789,5,0,0:2:0:0:
256,192,18955,2,0,L|256:197,9,6.66666676600773,0|0|0|0|0|0|0|0|0|0,0:2|0:2|0:2|0:2|0:2|0:2|0:2|0:2|0:2|0:2,0:0:0:0:
256,192,19566,1,10,0:2:0:0:
359,124,20900,6,0,L|352:124,1,7.00000010430812,0|0,1:2|0:2,0:0:0:0:
153,124,21566,1,8,0:2:0:0:
359,260,22455,6,0,L|352:260,1,7.00000010430812,0|0,1:2|0:2,0:0:0:0:
153,260,23122,1,8,0:2:0:0:
256,80,23483,6,0,L|256:87,1,8.00000011920928,0|0,0:2|0:2,0:0:0:0:
256,80,24233,1,0,1:2:0:0:
256,304,24733,5,0,3:2:0:0:
256,304,24900,2,0,L|256:296,1,8.00000011920928,8|0,3:2|0:2,0:0:0:0:
359,124,26233,6,0,L|352:124,1,7.00000010430812,0|0,1:2|0:2,0:0:0:0:
153,124,26900,1,8,0:2:0:0:
359,260,27789,6,0,L|352:260,1,7.00000010430812,0|0,1:2|0:2,0:0:0:0:
153,260,28455,1,8,0:2:0:0:
256,192,29900,6,0,L|256:197,7,5.0000000745058,0|0|0|0|0|0|0|0,0:2|0:2|0:2|0:2|0:2|0:2|0:2|0:2,0:0:0:0:
256,192,30233,1,10,0:2:0:0:
256,52,31233,5,0,3:2:0:0:
256,52,31400,1,0,3:2:0:0:
359,124,31566,6,0,L|352:124,1,7.00000010430812,0|0,1:2|0:2,0:0:0:0:
153,124,32233,1,8,0:2:0:0:
359,260,33129,6,0,L|352:260,1,7.00000010430812,0|0,1:2|0:2,0:0:0:0:
153,260,33795,1,8,0:2:0:0:
252,352,34240,5,0,3:2:0:0:
252,352,34462,1,0,3:2:0:0:
252,352,34684,1,0,3:2:0:0:
252,352,34906,2,0,L|252:350,1,2.66666670640309,0|0,3:2|0:2,0:0:0:0:
256,236,35244,6,0,L|256:235,3,1.00000001490116,0|0|0|0,1:2|1:2|1:2|1:2,0:0:0:0:
256,235,35577,2,0,L|256:233,1,2.00000002980232,2|0,3:2|0:2,0:0:0:0:
256,120,35910,6,0,L|256:126,2,6.00000008940696,0|0|0,3:2|3:2|3:2,0:0:0:0:
256,120,36576,1,8,3:2:0:0:
359,124,36910,6,0,L|352:124,1,7.00000010430812,0|0,1:2|0:2,0:0:0:0:
153,124,37576,2,0,L|147:124,15,5.0000000745058,0|0|0|0|0|0|0|0|0|0|0|0|0|0|0|0,0:2|0:2|0:2|0:2|0:2|0:2|0:2|0:2|0:2|0:2|0:2|0:2|0:2|0:2|0:2|0:2,0:0:0:0:
153,124,38243,1,0,3:2:0:0:
359,260,38465,6,0,L|352:260,1,7.00000010430812,0|0,1:2|0:2,0:0:0:0:
153,260,39132,1,8,0:2:0:0:
189,36,39743,6,0,L|256:36,2,66.6666676600773,2|0|0,0:2|0:2|0:2,0:0:0:0:
322,36,39993,2,0,L|256:36,2,66.6666676600773,2|0|0,0:2|0:2|0:2,0:0:0:0:
256,272,40909,5,8,0:2:0:0:
256,272,41243,2,0,L|256:282,1,11.0000001639128,0|0,0:2|0:2,0:0:0:0:
359,124,42243,6,0,L|352:124,1,7.00000010430812,0|0,1:2|0:2,0:0:0:0:
153,124,42909,1,8,0:2:0:0:
359,260,43798,6,0,L|352:260,1,7.00000010430812,0|0,1:2|0:2,0:0:0:0:
153,260,44465,1,8,0:2:0:0:
256,80,44826,6,0,L|256:87,1,8.00000011920928,0|0,0:2|0:2,0:0:0:0:
256,80,45576,1,0,3:2:0:0:
256,304,46076,5,0,3:2:0:0:
256,304,46243,2,0,L|256:296,1,8.00000011920928,8|0,3:2|0:2,0:0:0:0:
359,124,47576,6,0,L|352:124,1,7.00000010430812,0|0,1:2|0:2,0:0:0:0:
153,124,48243,1,8,0:2:0:0:
359,260,49132,6,0,L|352:260,1,7.00000010430812,0|0,1:2|0:2,0:0:0:0:
153,260,49798,1,8,0:2:0:0:
256,192,51243,6,0,L|256:197,7,5.0000000745058,0|0|0|0|0|0|0|0,0:2|0:2|0:2|0:2|0:2|0:2|0:2|0:2,0:0:0:0:
256,192,51576,1,10,0:2:0:0:
256,52,52576,5,0,3:2:0:0:
256,52,52743,1,0,3:2:0:0:
359,124,52909,6,0,L|352:124,1,7.00000010430812,0|0,1:2|0:2,0:0:0:0:
153,124,53576,1,8,0:2:0:0:
359,260,54465,6,0,L|352:260,1,7.00000010430812,0|0,1:2|0:2,0:0:0:0:
153,260,55132,1,8,0:2:0:0:
256,192,55909,5,0,1:2:0:0:
256,192,55992,12,0,57825,0:2:0:0:
256,192,57909,5,8,0:2:0:0:
68,119,58909,6,0,L|63:141,1,23.0000003427267,0|0,3:2|0:2,0:0:0:0:
44,344,60900,5,2,0:2:0:0:
44,244,61122,1,2,0:2:0:0:
66,339,61344,1,2,0:2:0:0:
156,224,61566,6,0,L|149:224,14,6.66666676600773,10|0|0|0|0|0|0|0|0|0|0|0|0|0|0,0:2|0:2|0:2|0:2|0:2|0:2|0:2|0:2|0:2|0:2|0:2|0:2|0:2|0:2|0:2,0:0:0:0:
216,360,62420,6,0,L|220:360,1,5.0000000745058,2|0,1:2|0:2,0:0:0:0:
356,316,62920,2,0,L|360:316,1,5.0000000745058,2|0,1:2|0:2,0:0:0:0:
496,272,63420,2,0,L|498:272,1,3.00000004470348,2|0,1:2|0:2,0:0:0:0:
256,237,63753,6,0,L|256:247,1,11.0000001639128,10|0,0:2|0:2,0:0:0:0:
416,192,64753,6,0,L|353:192,3,60.0000008940695,2|2|2|2,0:2|0:2|0:2|0:2,0:0:0:0:
376,80,65086,6,0,L|372:80,1,4.33333339790503,2|0,1:2|0:2,0:0:0:0:
236,124,65531,2,0,L|232:124,1,4.33333339790503,2|0,1:2|0:2,0:0:0:0:
96,168,65975,2,0,L|92:168,1,4.33333339790503,2|0,1:2|0:2,0:0:0:0:
192,228,66420,6,0,L|192:224,1,4.00000005960464,8|0,0:2|0:2,0:0:0:0:
86,276,66864,5,0,3:2:0:0:
86,276,66975,1,0,3:2:0:0:
86,276,67086,2,0,L|86:289,6,10.0000001490116,0|0|0|0|0|0|0,3:2|3:2|3:2|3:2|3:2|3:2|3:2,0:0:0:0:
172,352,67503,5,0,3:2:0:0:
172,352,67586,2,0,L|174:352,1,3.00000004470348,2|0,1:2|0:2,0:0:0:0:
312,308,67920,2,0,L|314:308,1,3.00000004470348,2|0,1:2|0:2,0:0:0:0:
452,264,68253,2,0,L|455:264,1,4.00000005960464,2|0,1:2|0:2,0:0:0:0:
211,249,68642,6,0,L|213:249,1,2.66666670640309,2|0,1:2|0:2,0:0:0:0:
360,200,68864,2,0,L|362:200,1,2.66666670640309,2|0,1:2|0:2,0:0:0:0:
256,148,69086,6,0,L|260:148,1,5.0000000745058,10|0,0:2|0:2,0:0:0:0:
356,88,69586,6,0,L|354:88,2,2.00000002980232,0|0|0,3:2|3:2|3:2,0:0:0:0:
212,44,69919,6,0,L|209:44,2,2.5000000372529,0|0|0,3:2|3:2|3:2,0:0:0:0:
144,136,70086,2,0,L|137:136,2,6.66666676600773,8|8|8,3:3|3:3|3:3,0:0:0:0:
144,136,70419,2,0,L|140:136,1,3.33333338300387,2|0,0:2|0:2,0:0:0:0:
292,232,70586,6,0,L|289:232,1,3.33333338300387,2|0,1:2|0:2,0:0:0:0:
10,320,71086,2,0,L|7:320,1,3.33333338300387,2|0,1:2|0:2,0:0:0:0:
10,320,71419,1,0,0:2:0:0:
132,356,71642,5,0,0:2:0:0:
132,356,71753,2,0,L|123:356,1,6.66666676600773,8|0,0:2|0:2,0:0:0:0:
90,244,71975,5,0,3:2:0:0:
90,244,72086,2,0,L|87:244,1,3.33333338300387,2|0,1:2|0:2,0:0:0:0:
370,332,72586,2,0,L|367:332,1,3.33333338300387,2|0,1:2|3:2,0:0:0:0:
280,248,72975,5,0,3:2:0:0:
280,248,73086,1,10,3:2:0:0:
256,192,73169,12,0,73836,0:0:0:0:
194,154,73951,6,0,L|198:154,1,5.0000000745058,2|0,1:2|0:2,0:0:0:0:
334,110,74451,2,0,L|338:110,1,5.0000000745058,2|0,1:2|0:2,0:0:0:0:
474,66,74951,2,0,L|476:66,1,3.00000004470348,2|0,1:2|0:2,0:0:0:0:
234,31,75284,6,0,L|234:36,1,5.33333341280619,10|0,0:2|0:2,0:0:0:0:
234,31,75839,1,0,0:2:0:0:
234,31,75951,2,0,L|234:33,1,2.66666670640309,0|0,0:2|0:2,0:0:0:0:
52,65,76284,6,0,L|132:65,3,60.0000008940695,10|2|2|2,0:2|0:2|0:2|0:2,0:0:0:0:
87,184,76617,6,0,L|91:184,1,4.33333339790503,2|0,1:2|0:2,0:0:0:0:
227,228,77062,2,0,L|231:228,1,4.33333339790503,2|0,1:2|0:2,0:0:0:0:
367,272,77506,2,0,L|371:272,1,4.33333339790503,2|0,1:2|0:2,0:0:0:0:
271,332,77951,6,0,L|271:328,1,4.00000005960464,8|0,0:2|0:2,0:0:0:0:
127,299,78395,5,0,3:2:0:0:
127,299,78506,1,0,3:2:0:0:
127,299,78617,2,0,L|127:289,6,10.0000001490116,0|0|0|0|0|0|0,3:2|3:2|3:2|3:2|3:2|3:2|3:2,0:0:0:0:
25,211,79034,5,0,3:2:0:0:
25,211,79117,2,0,L|27:211,1,3.00000004470348,2|0,1:2|0:2,0:0:0:0:
165,167,79451,2,0,L|167:167,1,3.00000004470348,2|0,1:2|0:2,0:0:0:0:
305,123,79784,2,0,L|308:123,1,4.00000005960464,2|0,1:2|0:2,0:0:0:0:
260,243,80173,6,0,L|262:243,1,2.66666670640309,2|0,1:2|0:2,0:0:0:0:
415,190,80395,2,0,L|417:190,1,2.66666670640309,2|0,1:2|0:2,0:0:0:0:
370,301,80617,6,0,L|368:301,3,1.33333335320155,10|0|0|0,3:2|3:2|3:2|3:2,0:0:0:0:
480,343,81117,6,0,L|482:343,4,2.5000000372529,0|0|0|0|0,3:2|3:2|3:2|3:2|3:2,0:0:0:0:
260,368,81450,6,0,L|257:368,2,2.5000000372529,0|0|0,3:2|3:2|3:2,0:0:0:0:
160,293,81617,2,0,L|155:293,3,5.0000000745058,0|0|0|0,3:2|3:2|3:2|3:2,0:0:0:0:
160,293,81950,2,0,L|157:293,1,3.33333338300387,2|0,0:2|0:2,0:0:0:0:
292,232,82117,6,0,L|289:232,1,3.33333338300387,2|0,1:2|0:2,0:0:0:0:
10,126,82617,2,0,L|7:126,1,3.33333338300387,2|0,1:2|0:2,0:0:0:0:
8,126,82950,1,0,0:2:0:0:
130,90,83173,5,0,0:2:0:0:
130,90,83284,2,0,L|127:90,2,3.33333338300387,8|0|0,0:2|0:2|0:2,0:0:0:0:
88,202,83506,5,0,3:2:0:0:
88,202,83617,2,0,L|85:202,1,3.33333338300387,2|0,1:2|0:2,0:0:0:0:
368,114,84117,2,0,L|365:114,1,3.33333338300387,2|0,1:2|3:2,0:0:0:0:
270,201,84506,5,0,3:2:0:0:
270,201,84617,2,0,L|270:198,1,3.00000004470348,10|0,3:2|0:2,0:0:0:0:
270,201,84950,2,0,L|270:198,1,3.00000004470348,0|0,3:2|0:2,0:0:0:0:
270,201,85284,1,0,3:2:0:0:
270,201,85367,2,0,L|270:197,1,4.00000005960464,0|0,3:2|0:2,0:0:0:0:
270,201,85784,1,0,3:2:0:0:
270,201,85867,2,0,L|270:199,1,2.00000002980232,0|0,3:2|0:2,0:0:0:0:
270,199,86117,6,0,L|270:194,1,5.0000000745058,2|0,1:2|0:2,0:0:0:0:
250,76,86617,6,0,L|313:76,3,60.0000008940695,10|2|0|2,0:2|0:2|0:2|0:2,0:0:0:0:
443,78,86950,6,0,L|439:78,1,4.33333339790503,2|0,1:2|0:2,0:0:0:0:
399,218,87395,2,0,L|395:218,1,4.33333339790503,2|0,1:2|0:2,0:0:0:0:
353,358,87839,2,0,L|349:358,1,4.33333339790503,2|0,1:2|0:2,0:0:0:0:
257,279,88284,6,0,L|257:282,1,4.00000005960464,8|0,0:2|0:2,0:0:0:0:
298,168,88728,1,0,3:2:0:0:
298,168,88839,1,0,3:2:0:0:
298,168,88950,2,0,L|298:178,6,10.0000001490116,0|0|0|0|0|0|0,3:2|3:2|3:2|3:2|3:2|3:2|3:2,0:0:0:0:
216,77,89367,5,0,3:2:0:0:
216,77,89450,2,0,L|213:77,1,3.00000004470348,2|0,1:2|0:2,0:0:0:0:
172,217,89784,2,0,L|169:217,1,3.00000004470348,2|0,1:2|0:2,0:0:0:0:
128,357,90117,2,0,L|124:357,1,4.00000005960464,2|0,1:2|0:2,0:0:0:0:
51,258,90506,6,0,L|49:258,1,2.66666670640309,2|0,1:2|0:2,0:0:0:0:
248,317,90728,2,0,L|246:317,1,2.66666670640309,2|0,1:2|0:2,0:0:0:0:
312,214,90950,6,0,L|312:218,1,5.0000000745058,10|0,0:2|0:2,0:0:0:0:
368,319,91450,6,0,L|368:321,2,2.00000002980232,0|0|0,3:2|3:2|3:2,0:0:0:0:
439,221,91784,6,0,L|439:224,2,2.5000000372529,0|0|0,3:2|3:2|3:2,0:0:0:0:
491,115,91950,2,0,L|491:107,2,6.66666676600773,8|8|8,3:0|3:0|3:0,0:0:0:0:
491,115,92284,2,0,L|491:112,1,3.33333338300387,2|0,0:2|0:2,0:0:0:0:
358,50,92450,6,0,L|355:50,1,3.33333338300387,2|0,1:2|0:2,0:0:0:0:
76,138,92950,2,0,L|73:138,1,3.33333338300387,2|0,1:2|0:2,0:0:0:0:
76,138,93284,1,0,0:2:0:0:
198,174,93506,5,0,0:2:0:0:
198,174,93617,2,0,L|195:174,2,3.33333338300387,8|0|0,0:2|0:2|0:2,0:0:0:0:
156,62,93839,5,0,3:2:0:0:
156,62,93950,2,0,L|153:62,1,3.33333338300387,2|0,1:2|0:2,0:0:0:0:
436,150,94450,2,0,L|433:150,1,3.33333338300387,2|0,1:2|3:2,0:0:0:0:
340,66,94839,5,0,3:2:0:0:
340,66,94950,1,10,3:2:0:0:
256,192,95034,12,0,95700,0:0:0:0:
251,151,95805,6,0,L|247:151,1,5.0000000745058,2|0,1:2|0:2,0:0:0:0:
340,260,96305,2,0,L|336:260,1,5.0000000745058,2|0,1:2|0:2,0:0:0:0:
429,369,96805,2,0,L|426:369,1,3.00000004470348,2|0,1:2|0:2,0:0:0:0:
246,351,97138,6,0,L|246:355,1,5.33333341280619,10|0,0:2|0:2,0:0:0:0:
246,351,97693,1,0,0:2:0:0:
246,351,97805,2,0,L|246:353,1,2.66666670640309,0|0,0:2|0:2,0:0:0:0:
118,250,98138,6,0,L|181:250,3,60.0000008940695,10|2|2|2,0:2|0:2|0:2|0:2,0:0:0:0:
309,249,98471,6,0,L|313:249,1,4.33333339790503,2|0,1:2|0:2,0:0:0:0:
220,140,98916,2,0,L|224:140,1,4.33333339790503,2|0,1:2|0:2,0:0:0:0:
131,31,99360,2,0,L|135:31,1,4.33333339790503,2|0,1:2|0:2,0:0:0:0:
322,69,99805,6,0,L|322:72,1,4.00000005960464,8|0,0:2|0:2,0:0:0:0:
438,28,100249,5,0,3:2:0:0:
438,28,100360,1,0,3:2:0:0:
438,28,100471,2,0,L|438:38,6,10.0000001490116,0|0|0|0|0|0|0,3:2|3:2|3:2|3:2|3:2|3:2|3:2,0:0:0:0:
407,155,100888,5,0,3:2:0:0:
407,155,100971,2,0,L|404:155,1,3.00000004470348,2|0,1:2|0:2,0:0:0:0:
318,264,101305,2,0,L|315:264,1,3.00000004470348,2|0,1:2|0:2,0:0:0:0:
235,373,101638,2,0,L|231:373,1,4.00000005960464,2|0,1:2|0:2,0:0:0:0:
362,365,102027,6,0,L|360:365,1,2.66666670640309,2|0,1:2|0:2,0:0:0:0:
198,267,102249,2,0,L|196:267,1,2.66666670640309,2|0,1:2|0:2,0:0:0:0:
244,156,102471,5,8,3:2:0:0:
244,156,102582,1,0,3:2:0:0:
244,156,102693,2,0,L|247:156,2,3.33333338300387,0|0|0,3:2|3:2|3:2,0:0:0:0:
184,56,102971,6,0,L|182:56,4,2.5000000372529,0|0|0|0|0,3:2|3:2|3:2|3:2|3:2,0:0:0:0:
24,108,103304,6,0,L|27:108,2,2.5000000372529,0|0|0,3:2|3:2|3:2,0:0:0:0:
124,183,103471,2,0,L|128:183,3,5.0000000745058,0|0|0|0,3:2|3:2|3:2|3:2,0:0:0:0:
124,183,103804,2,0,L|127:183,1,3.33333338300387,2|0,0:2|0:2,0:0:0:0:
96,300,103971,6,0,L|99:300,1,3.33333338300387,2|0,1:2|0:2,0:0:0:0:
378,212,104471,2,0,L|381:212,1,3.33333338300387,2|0,1:2|0:2,0:0:0:0:
378,212,104804,1,0,0:2:0:0:
256,176,105027,5,0,0:2:0:0:
256,176,105138,2,0,L|259:176,2,3.33333338300387,8|0|0,0:2|0:2|0:2,0:0:0:0:
296,288,105360,5,0,3:2:0:0:
296,288,105471,2,0,L|299:288,1,3.33333338300387,2|0,1:2|0:2,0:0:0:0:
18,200,105971,2,0,L|21:200,1,3.33333338300387,2|0,1:2|3:2,0:0:0:0:
114,284,106360,5,0,3:2:0:0:
114,284,106471,2,0,L|117:284,2,3.33333338300387,8|0|0,0:2|0:2|0:2,0:0:0:0:
144,152,106693,5,0,3:2:0:0:
144,152,106804,2,0,L|147:152,1,3.33333338300387,2|0,1:2|0:2,0:0:0:0:
436,56,107304,2,0,L|439:56,1,3.33333338300387,2|0,1:2|0:2,0:0:0:0:
368,176,107749,5,2,0:2:0:0:
368,176,107804,1,10,1:2:0:0:
296,28,107971,2,0,L|299:28,1,3.33333338300387,2|0,1:2|0:2,0:0:0:0:
256,192,108471,5,10,0:2:0:0:
256,192,108554,12,0,110388,0:2:0:0:
256,192,110471,5,10,0:2:0:0:
256,192,110638,1,2,0:2:0:0:
256,192,110804,1,2,0:2:0:0:
256,192,110971,1,2,0:2:0:0:
256,192,111138,2,0,L|256:202,1,11.0000001639128,0|0,1:2|0:2,0:0:0:0:
256,192,112138,1,0,3:2:0:0:
256,40,112471,6,0,L|256:44,14,3.33333338300387,10|0|0|0|0|0|0|0|0|0|0|0|0|0|0,0:2|0:2|0:2|0:2|0:2|0:2|0:2|0:2|0:2|0:2|0:2|0:2|0:2|0:2|0:2,0:0:0:0:
153,124,113331,6,0,L|160:124,1,7.00000010430812,0|0,1:2|0:2,0:0:0:0:
359,124,113997,1,8,0:2:0:0:
153,260,114886,6,0,L|160:260,1,7.00000010430812,0|0,1:2|0:2,0:0:0:0:
359,260,115553,1,8,0:2:0:0:
256,192,116553,5,0,0:2:0:0:
256,192,116719,2,0,L|256:197,10,6.66666676600773,0|0|0|0|0|0|0|0|0|0|0,0:2|0:2|0:2|0:2|0:2|0:2|0:2|0:2|0:2|0:2|0:0,0:0:0:0:
256,192,117331,1,10,0:2:0:0:
153,124,118664,6,0,L|160:124,1,7.00000010430812,0|0,1:2|0:2,0:0:0:0:
359,124,119331,1,8,0:2:0:0:
153,260,120219,6,0,L|160:260,1,7.00000010430812,0|0,1:2|0:2,0:0:0:0:
359,260,120886,1,8,0:2:0:0:
256,80,121247,6,0,L|256:87,1,8.00000011920928,0|0,0:2|0:2,0:0:0:0:
256,80,121997,1,0,1:2:0:0:
256,304,122497,5,0,3:2:0:0:
256,304,122664,2,0,L|256:296,1,8.00000011920928,8|0,3:2|0:2,0:0:0:0:
153,124,123997,6,0,L|160:124,1,7.00000010430812,0|0,1:2|0:2,0:0:0:0:
359,124,124664,1,8,0:2:0:0:
153,260,125553,6,0,L|160:260,1,7.00000010430812,0|0,1:2|0:2,0:0:0:0:
359,260,126219,1,8,0:2:0:0:
256,192,127664,6,0,L|256:197,7,5.0000000745058,0|0|0|0|0|0|0|0,0:2|0:2|0:2|0:2|0:2|0:2|0:2|0:2,0:0:0:0:
256,192,127997,1,10,0:2:0:0:
256,52,128997,5,0,3:2:0:0:
256,52,129164,1,0,3:2:0:0:
153,124,129330,6,0,L|160:124,1,7.00000010430812,0|0,1:2|0:2,0:0:0:0:
359,124,129997,1,8,0:2:0:0:
153,260,130880,6,0,L|160:260,1,7.00000010430812,0|0,1:2|0:2,0:0:0:0:
359,260,131546,1,8,0:2:0:0:
260,352,131991,5,0,3:2:0:0:
260,352,132213,1,0,3:2:0:0:
260,352,132435,1,0,3:2:0:0:
260,352,132657,2,0,L|260:350,1,2.66666670640309,0|0,3:2|0:2,0:0:0:0:
256,236,132995,6,0,L|256:235,3,1.00000001490116,0|0|0|0,1:2|1:2|1:2|1:2,0:0:0:0:
256,235,133328,2,0,L|256:233,1,2.00000002980232,2|0,3:2|0:2,0:0:0:0:
256,120,133661,6,0,L|256:126,2,6.00000008940696,0|0|0,3:2|3:2|3:2,0:0:0:0:
256,120,134328,1,8,3:2:0:0:
153,124,134661,6,0,L|160:124,1,7.00000010430812,0|0,1:2|0:2,0:0:0:0:
359,124,135327,2,0,L|365:124,15,5.0000000745058,0|0|0|0|0|0|0|0|0|0|0|0|0|0|0|0,0:2|0:2|0:2|0:2|0:2|0:2|0:2|0:2|0:2|0:2|0:2|0:2|0:2|0:2|0:2|0:2,0:0:0:0:
359,124,135994,1,0,3:2:0:0:
153,260,136216,6,0,L|160:260,1,7.00000010430812,0|0,1:2|0:2,0:0:0:0:
359,260,136883,1,8,0:2:0:0:
322,36,137494,6,0,L|256:36,2,66.6666676600773,2|0|0,0:2|0:2|0:2,0:0:0:0:
189,36,137744,2,0,L|256:36,2,66.6666676600773,2|0|0,0:2|0:2|0:2,0:0:0:0:
256,272,138661,5,8,0:2:0:0:
256,272,138994,2,0,L|256:282,1,11.0000001639128,0|0,0:2|0:2,0:0:0:0:
153,124,139994,6,0,L|160:124,1,7.00000010430812,0|0,1:2|0:2,0:0:0:0:
359,124,140661,1,8,0:2:0:0:
153,260,141549,6,0,L|160:260,1,7.00000010430812,0|0,1:2|0:2,0:0:0:0:
359,260,142216,1,8,0:2:0:0:
256,80,142577,6,0,L|256:87,1,8.00000011920928,0|0,0:2|0:2,0:0:0:0:
256,80,143327,1,0,1:2:0:0:
256,304,143827,5,0,3:2:0:0:
256,304,143994,2,0,L|256:296,1,8.00000011920928,8|0,3:2|0:2,0:0:0:0:
153,124,145327,6,0,L|160:124,1,7.00000010430812,0|0,1:2|0:2,0:0:0:0:
359,124,145994,1,8,0:2:0:0:
153,260,146883,6,0,L|160:260,1,7.00000010430812,0|0,1:2|0:2,0:0:0:0:
359,260,147549,1,8,0:2:0:0:
256,192,148994,6,0,L|256:197,7,5.0000000745058,0|0|0|0|0|0|0|0,0:2|0:2|0:2|0:2|0:2|0:2|0:2|0:2,0:0:0:0:
256,192,149327,1,10,0:2:0:0:
256,52,150327,5,0,3:2:0:0:
256,52,150494,1,0,3:2:0:0:
153,124,150660,6,0,L|160:124,1,7.00000010430812,0|0,1:2|0:2,0:0:0:0:
359,124,151327,1,8,0:2:0:0:
153,260,152216,6,0,L|160:260,1,7.00000010430812,0|0,1:2|0:2,0:0:0:0:
359,260,152883,1,8,0:2:0:0:
256,192,153660,5,0,1:2:0:0:
256,192,153744,12,0,155577,0:2:0:0:
256,192,155660,5,10,0:2:0:0:
68,119,156660,6,0,L|61:148,1,31.000000461936,0|0,1:2|0:2,0:0:0:0:
30,352,159327,5,0,1:2:0:0:
256,132,160410,6,0,L|256:134,5,2.5000000372529,0|0|0|0|0|0,0:2|0:2|0:2|0:2|0:2|0:2,0:0:0:0:
256,132,160660,1,8,3:2:0:0:
256,248,161327,6,0,L|256:342,1,95.0000014156102,0|0,1:2|0:2,0:0:0:0:
256,72,169327,6,0,L|256:73,1,2.00000002980232,0|0,3:2|0:2,0:0:0:0:
256,72,169549,2,0,L|256:73,1,2.00000002980232,0|0,3:2|0:2,0:0:0:0:
