osu file format v14

[General]
AudioFilename: audio.mp3
AudioLeadIn: 0
PreviewTime: 62437
Countdown: 0
SampleSet: Normal
StackLeniency: 0.7
Mode: 3
LetterboxInBreaks: 0
SpecialStyle: 0
WidescreenStoryboard: 1

[Editor]
DistanceSpacing: 0.8
BeatDivisor: 8
GridSize: 4
TimelineZoom: 2.3

[Metadata]
Title:Strange Inventor
TitleUnicode:Strange Inventor
Artist:Chroma
ArtistUnicode:黑魔
Creator:-mint-
Version:Normal
Source:
Tags:kuroma masaki sekikawa 関川聖城 osu! fa featured artist robot & human and chro-0006 mappers' guild mg electronic instrumental
BeatmapID:3648987
BeatmapSetID:1727126

[Difficulty]
HPDrainRate:6.4
CircleSize:4
OverallDifficulty:6.4
ApproachRate:5
SliderMultiplier:1.4
SliderTickRate:1

[Events]
//Background and Video events
0,0,"81772580_p3_master1200 (1).jpg",0,0
//Break Periods
//Storyboard Layer 0 (Background)
//Storyboard Layer 1 (Fail)
//Storyboard Layer 2 (Pass)
//Storyboard Layer 3 (Foreground)
//Storyboard Layer 4 (Overlay)
//Storyboard Sound Samples

[TimingPoints]
5725,333.333333333333,4,1,1,30,1,0
14724,428.571428571429,4,1,1,30,1,0
14724,-77.5193798449612,4,1,1,30,0,0
15581,333.333333333333,4,1,1,30,1,0
61580,428.571428571429,4,1,1,45,1,0
61580,-77.5193798449612,4,1,1,45,0,0
62437,333.333333333333,4,1,1,45,1,0
73103,428.571428571429,4,1,1,45,1,0
73103,-77.5193798449612,4,1,1,45,0,0
73960,333.333333333333,4,1,1,45,1,0
86959,333.333333333333,4,1,1,45,1,0
94958,428.571428571429,4,1,1,45,1,0
94958,-77.5193798449612,4,1,1,45,0,0
95815,333.333333333333,4,1,1,45,1,0
112481,428.571428571429,4,1,1,45,1,0
112481,-77.5193798449612,4,1,1,45,0,0
113338,333.333333333333,4,1,1,30,1,0

[HitObjects]
64,192,5724,5,0,0:0:0:0:
320,192,6058,1,0,0:0:0:0:
192,192,6280,1,0,0:0:0:0:
448,192,6502,1,0,0:0:0:0:
192,192,6724,1,0,0:0:0:0:
320,192,6947,1,0,0:0:0:0:
64,192,7169,1,0,0:0:0:0:
192,192,7391,1,0,0:0:0:0:
448,192,7613,1,0,0:0:0:0:
192,192,7836,1,0,0:0:0:0:
64,192,7836,1,0,0:0:0:0:
320,192,8058,1,0,0:0:0:0:
64,192,8280,1,0,0:0:0:0:
448,192,8502,1,0,0:0:0:0:
192,192,8947,1,0,0:0:0:0:
320,192,9169,1,0,0:0:0:0:
64,192,9891,1,0,0:0:0:0:
192,192,10391,1,0,0:0:0:0:
320,192,10891,1,0,0:0:0:0:
64,192,11391,1,0,0:0:0:0:
448,192,12724,1,0,0:0:0:0:
192,192,14391,128,0,14724:0:0:0:0:
64,192,14724,1,0,0:0:0:0:
448,192,14724,128,0,15581:0:0:0:0:
64,192,15581,128,0,16247:0:0:0:0:
320,192,16247,1,0,0:0:0:0:
448,192,16247,1,0,0:0:0:0:
64,192,17136,128,0,17803:0:0:0:0:
320,192,17803,1,0,0:0:0:0:
448,192,17803,1,0,0:0:0:0:
64,192,18025,1,0,0:0:0:0:
192,192,18219,1,0,0:0:0:0:
320,192,18386,1,0,0:0:0:0:
64,192,18803,1,0,0:0:0:0:
448,192,18969,128,0,19580:0:0:0:0:
192,192,19580,1,0,0:0:0:0:
64,192,19580,1,0,0:0:0:0:
64,192,20914,128,0,21580:0:0:0:0:
320,192,21580,1,0,0:0:0:0:
448,192,21580,1,0,0:0:0:0:
64,192,22469,128,0,22914:0:0:0:0:
192,192,22914,128,0,23136:0:0:0:0:
320,192,23136,1,0,0:0:0:0:
448,192,23136,1,0,0:0:0:0:
64,192,23358,1,0,0:0:0:0:
192,192,23553,1,0,0:0:0:0:
320,192,23719,1,0,0:0:0:0:
448,192,24247,1,0,0:0:0:0:
64,192,24747,1,0,0:0:0:0:
320,192,24914,1,0,0:0:0:0:
448,192,24914,128,0,25164:0:0:0:0:
192,192,25497,1,0,0:0:0:0:
64,192,26247,128,0,26914:0:0:0:0:
320,192,26914,1,0,0:0:0:0:
448,192,26914,1,0,0:0:0:0:
192,192,27247,1,0,0:0:0:0:
64,192,27803,128,0,28469:0:0:0:0:
320,192,28469,1,0,0:0:0:0:
448,192,28469,1,0,0:0:0:0:
64,192,28692,1,0,0:0:0:0:
192,192,28886,1,0,0:0:0:0:
320,192,29053,1,0,0:0:0:0:
448,192,29330,1,0,0:0:0:0:
320,192,29914,128,0,30247:0:0:0:0:
192,192,30247,1,0,0:0:0:0:
64,192,30247,1,0,0:0:0:0:
192,192,30858,128,0,31247:0:0:0:0:
448,192,31247,1,0,0:0:0:0:
320,192,31414,1,0,0:0:0:0:
64,192,31580,128,0,32247:0:0:0:0:
320,192,32247,1,0,0:0:0:0:
448,192,32247,1,0,0:0:0:0:
192,192,32497,1,0,0:0:0:0:
448,192,32858,1,0,0:0:0:0:
320,192,33136,128,0,33580:0:0:0:0:
64,192,33580,128,0,33803:0:0:0:0:
320,192,33803,1,0,0:0:0:0:
448,192,33803,1,0,0:0:0:0:
64,192,34025,1,0,0:0:0:0:
448,192,34247,1,0,0:0:0:0:
320,192,34469,1,0,0:0:0:0:
192,192,34692,1,0,0:0:0:0:
320,192,34914,1,0,0:0:0:0:
448,192,34914,1,0,0:0:0:0:
64,192,35247,128,0,35580:0:0:0:0:
448,192,35580,128,0,35747:0:0:0:0:
192,192,35914,128,0,36164:0:0:0:0:
320,192,36164,128,0,36580:0:0:0:0:
192,192,36580,1,0,0:0:0:0:
64,192,36580,1,0,0:0:0:0:
64,192,36914,1,0,0:0:0:0:
448,192,36914,128,0,37580:0:0:0:0:
192,192,37580,1,0,0:0:0:0:
320,192,37580,128,0,38247:0:0:0:0:
448,192,38247,1,0,0:0:0:0:
64,192,38469,128,0,39136:0:0:0:0:
320,192,39136,1,0,0:0:0:0:
448,192,39136,1,0,0:0:0:0:
64,192,39358,1,0,0:0:0:0:
192,192,39553,1,0,0:0:0:0:
448,192,39747,1,0,0:0:0:0:
448,192,39997,1,0,0:0:0:0:
192,192,40914,1,0,0:0:0:0:
64,192,40914,1,0,0:0:0:0:
320,192,41247,128,0,42247:0:0:0:0:
64,192,42247,128,0,42914:0:0:0:0:
320,192,42914,1,0,0:0:0:0:
448,192,42914,1,0,0:0:0:0:
64,192,43803,128,0,44247:0:0:0:0:
192,192,44247,128,0,44469:0:0:0:0:
320,192,44469,1,0,0:0:0:0:
448,192,44469,1,0,0:0:0:0:
64,192,44692,1,0,0:0:0:0:
192,192,44886,1,0,0:0:0:0:
320,192,45053,1,0,0:0:0:0:
448,192,45580,1,0,0:0:0:0:
64,192,46080,1,0,0:0:0:0:
320,192,46247,1,0,0:0:0:0:
448,192,46247,128,0,46497:0:0:0:0:
320,192,46830,128,0,47580:0:0:0:0:
64,192,47580,128,0,48247:0:0:0:0:
320,192,48247,1,0,0:0:0:0:
448,192,48247,1,0,0:0:0:0:
192,192,48580,1,0,0:0:0:0:
64,192,49136,128,0,49803:0:0:0:0:
320,192,49803,1,0,0:0:0:0:
448,192,49803,1,0,0:0:0:0:
64,192,50025,1,0,0:0:0:0:
192,192,50219,1,0,0:0:0:0:
320,192,50386,1,0,0:0:0:0:
448,192,50664,1,0,0:0:0:0:
320,192,51247,128,0,51580:0:0:0:0:
192,192,51580,1,0,0:0:0:0:
64,192,51580,1,0,0:0:0:0:
192,192,52192,128,0,52580:0:0:0:0:
448,192,52580,1,0,0:0:0:0:
320,192,52747,1,0,0:0:0:0:
64,192,52914,128,0,53580:0:0:0:0:
320,192,53580,1,0,0:0:0:0:
448,192,53580,1,0,0:0:0:0:
192,192,53830,1,0,0:0:0:0:
448,192,54192,1,0,0:0:0:0:
320,192,54469,128,0,54914:0:0:0:0:
64,192,54914,128,0,55136:0:0:0:0:
320,192,55136,1,0,0:0:0:0:
448,192,55136,1,0,0:0:0:0:
64,192,55358,1,0,0:0:0:0:
192,192,55553,1,0,0:0:0:0:
320,192,55719,1,0,0:0:0:0:
64,192,55914,1,0,0:0:0:0:
448,192,55914,128,0,57914:0:0:0:0:
320,192,57080,128,0,57914:0:0:0:0:
192,192,57914,1,0,0:0:0:0:
64,192,57914,1,0,0:0:0:0:
448,192,58914,1,0,0:0:0:0:
64,192,60914,1,0,0:0:0:0:
192,192,61136,1,0,0:0:0:0:
320,192,61358,1,0,0:0:0:0:
64,192,61580,1,0,0:0:0:0:
448,192,61580,128,0,62437:0:0:0:0:
320,192,62008,128,0,62437:0:0:0:0:
192,192,62437,1,0,0:0:0:0:
64,192,62437,1,0,0:0:0:0:
64,192,62937,1,0,0:0:0:0:
192,192,62937,1,0,0:0:0:0:
64,192,63437,1,0,0:0:0:0:
192,192,63437,1,0,0:0:0:0:
448,192,63770,1,0,0:0:0:0:
64,192,63770,1,0,0:0:0:0:
320,192,64103,1,0,0:0:0:0:
448,192,64770,1,0,0:0:0:0:
448,192,64937,1,0,0:0:0:0:
192,192,65103,1,0,0:0:0:0:
64,192,65103,1,0,0:0:0:0:
192,192,65548,1,0,0:0:0:0:
64,192,65548,1,0,0:0:0:0:
64,192,65992,1,0,0:0:0:0:
192,192,65992,1,0,0:0:0:0:
64,192,66437,1,0,0:0:0:0:
448,192,66437,1,0,0:0:0:0:
192,192,66881,1,0,0:0:0:0:
320,192,66992,1,0,0:0:0:0:
64,192,67103,128,0,67437:0:0:0:0:
448,192,67437,1,0,0:0:0:0:
192,192,67603,1,0,0:0:0:0:
64,192,67603,1,0,0:0:0:0:
192,192,67937,1,0,0:0:0:0:
64,192,67937,1,0,0:0:0:0:
320,192,68270,1,0,0:0:0:0:
448,192,68270,1,0,0:0:0:0:
320,192,68659,1,0,0:0:0:0:
448,192,68659,1,0,0:0:0:0:
192,192,68881,1,0,0:0:0:0:
320,192,68881,1,0,0:0:0:0:
64,192,69103,1,0,0:0:0:0:
448,192,69103,1,0,0:0:0:0:
320,192,69603,1,0,0:0:0:0:
448,192,69770,1,0,0:0:0:0:
64,192,69936,128,0,70103:0:0:0:0:
192,192,70103,1,0,0:0:0:0:
448,192,70214,128,0,70436:0:0:0:0:
64,192,70436,1,0,0:0:0:0:
192,192,70603,1,0,0:0:0:0:
320,192,70603,1,0,0:0:0:0:
192,192,71103,1,0,0:0:0:0:
320,192,71103,1,0,0:0:0:0:
64,192,71436,1,0,0:0:0:0:
448,192,71659,1,0,0:0:0:0:
192,192,71770,1,0,0:0:0:0:
64,192,71881,1,0,0:0:0:0:
320,192,72103,1,0,0:0:0:0:
448,192,72103,1,0,0:0:0:0:
320,192,72603,1,0,0:0:0:0:
448,192,72603,1,0,0:0:0:0:
192,192,72881,1,0,0:0:0:0:
64,192,73103,1,0,0:0:0:0:
448,192,73103,128,0,73960:0:0:0:0:
192,192,73960,1,0,0:0:0:0:
64,192,73960,1,0,0:0:0:0:
64,192,74460,1,0,0:0:0:0:
192,192,74460,1,0,0:0:0:0:
64,192,74960,1,0,0:0:0:0:
192,192,74960,1,0,0:0:0:0:
448,192,75293,1,0,0:0:0:0:
64,192,75293,1,0,0:0:0:0:
192,192,75626,1,0,0:0:0:0:
64,192,75848,1,0,0:0:0:0:
320,192,75960,1,0,0:0:0:0:
192,192,76182,1,0,0:0:0:0:
320,192,76293,1,0,0:0:0:0:
448,192,76293,1,0,0:0:0:0:
448,192,76460,1,0,0:0:0:0:
192,192,76626,1,0,0:0:0:0:
64,192,76626,1,0,0:0:0:0:
192,192,77071,1,0,0:0:0:0:
64,192,77071,1,0,0:0:0:0:
64,192,77515,1,0,0:0:0:0:
192,192,77515,1,0,0:0:0:0:
64,192,77960,1,0,0:0:0:0:
448,192,77960,1,0,0:0:0:0:
192,192,78404,1,0,0:0:0:0:
320,192,78515,1,0,0:0:0:0:
64,192,78626,128,0,78960:0:0:0:0:
448,192,78960,1,0,0:0:0:0:
192,192,79126,1,0,0:0:0:0:
64,192,79126,1,0,0:0:0:0:
192,192,79460,1,0,0:0:0:0:
64,192,79460,1,0,0:0:0:0:
320,192,79793,1,0,0:0:0:0:
448,192,79793,1,0,0:0:0:0:
320,192,80182,1,0,0:0:0:0:
448,192,80182,1,0,0:0:0:0:
192,192,80404,1,0,0:0:0:0:
320,192,80404,1,0,0:0:0:0:
64,192,80626,1,0,0:0:0:0:
448,192,80626,1,0,0:0:0:0:
320,192,80959,1,0,0:0:0:0:
192,192,81126,128,0,81293:0:0:0:0:
448,192,81293,1,0,0:0:0:0:
64,192,81459,128,0,81626:0:0:0:0:
320,192,81626,128,0,81793:0:0:0:0:
448,192,81793,128,0,81959:0:0:0:0:
64,192,81959,1,0,0:0:0:0:
192,192,82126,1,0,0:0:0:0:
320,192,82126,1,0,0:0:0:0:
192,192,82626,1,0,0:0:0:0:
320,192,82626,1,0,0:0:0:0:
64,192,82959,1,0,0:0:0:0:
448,192,83182,1,0,0:0:0:0:
192,192,83293,1,0,0:0:0:0:
64,192,83404,1,0,0:0:0:0:
320,192,83626,1,0,0:0:0:0:
448,192,83626,1,0,0:0:0:0:
320,192,84126,1,0,0:0:0:0:
448,192,84126,1,0,0:0:0:0:
192,192,84404,1,0,0:0:0:0:
64,192,84626,128,0,84959:0:0:0:0:
448,192,84626,1,0,0:0:0:0:
192,192,84959,1,0,0:0:0:0:
448,192,85293,1,0,0:0:0:0:
320,192,85376,1,0,0:0:0:0:
192,192,85459,1,0,0:0:0:0:
448,192,85626,1,0,0:0:0:0:
64,192,85793,1,0,0:0:0:0:
192,192,85876,1,0,0:0:0:0:
320,192,85959,1,0,0:0:0:0:
64,192,86126,1,0,0:0:0:0:
448,192,86126,1,0,0:0:0:0:
320,192,86626,1,0,0:0:0:0:
448,192,86626,1,0,0:0:0:0:
448,192,86793,1,0,0:0:0:0:
192,192,86959,1,0,0:0:0:0:
64,192,86959,1,0,0:0:0:0:
192,192,87403,1,0,0:0:0:0:
64,192,87403,1,0,0:0:0:0:
64,192,87847,1,0,0:0:0:0:
192,192,87847,1,0,0:0:0:0:
64,192,88292,1,0,0:0:0:0:
448,192,88292,1,0,0:0:0:0:
192,192,88736,1,0,0:0:0:0:
320,192,88847,1,0,0:0:0:0:
64,192,88959,128,0,89292:0:0:0:0:
448,192,89292,1,0,0:0:0:0:
192,192,89459,1,0,0:0:0:0:
64,192,89459,1,0,0:0:0:0:
192,192,89792,1,0,0:0:0:0:
64,192,89792,1,0,0:0:0:0:
320,192,90125,1,0,0:0:0:0:
448,192,90125,1,0,0:0:0:0:
320,192,90514,1,0,0:0:0:0:
448,192,90514,1,0,0:0:0:0:
192,192,90736,1,0,0:0:0:0:
320,192,90736,1,0,0:0:0:0:
64,192,90959,1,0,0:0:0:0:
448,192,90959,1,0,0:0:0:0:
320,192,91459,1,0,0:0:0:0:
448,192,91625,1,0,0:0:0:0:
64,192,91792,128,0,91959:0:0:0:0:
192,192,91959,1,0,0:0:0:0:
448,192,92070,128,0,92292:0:0:0:0:
64,192,92292,1,0,0:0:0:0:
192,192,92459,1,0,0:0:0:0:
320,192,92459,1,0,0:0:0:0:
192,192,92959,1,0,0:0:0:0:
320,192,92959,1,0,0:0:0:0:
64,192,93292,1,0,0:0:0:0:
448,192,93514,1,0,0:0:0:0:
192,192,93625,1,0,0:0:0:0:
64,192,93736,1,0,0:0:0:0:
320,192,93959,1,0,0:0:0:0:
448,192,93959,1,0,0:0:0:0:
320,192,94458,1,0,0:0:0:0:
448,192,94458,1,0,0:0:0:0:
192,192,94736,1,0,0:0:0:0:
64,192,94958,1,0,0:0:0:0:
448,192,94958,128,0,95815:0:0:0:0:
192,192,95815,1,0,0:0:0:0:
64,192,95815,1,0,0:0:0:0:
64,192,96315,1,0,0:0:0:0:
192,192,96315,1,0,0:0:0:0:
64,192,96815,1,0,0:0:0:0:
192,192,96815,1,0,0:0:0:0:
448,192,97148,1,0,0:0:0:0:
64,192,97148,1,0,0:0:0:0:
192,192,97481,1,0,0:0:0:0:
64,192,97703,1,0,0:0:0:0:
320,192,97815,1,0,0:0:0:0:
192,192,98037,1,0,0:0:0:0:
320,192,98148,1,0,0:0:0:0:
448,192,98148,1,0,0:0:0:0:
448,192,98315,1,0,0:0:0:0:
192,192,98481,1,0,0:0:0:0:
64,192,98481,1,0,0:0:0:0:
192,192,98926,1,0,0:0:0:0:
64,192,98926,1,0,0:0:0:0:
64,192,99370,1,0,0:0:0:0:
192,192,99370,1,0,0:0:0:0:
64,192,99815,1,0,0:0:0:0:
448,192,99815,1,0,0:0:0:0:
192,192,100259,1,0,0:0:0:0:
320,192,100370,1,0,0:0:0:0:
64,192,100481,128,0,100815:0:0:0:0:
448,192,100815,1,0,0:0:0:0:
192,192,100981,1,0,0:0:0:0:
64,192,100981,1,0,0:0:0:0:
192,192,101315,1,0,0:0:0:0:
64,192,101315,1,0,0:0:0:0:
320,192,101648,1,0,0:0:0:0:
448,192,101648,1,0,0:0:0:0:
320,192,102037,1,0,0:0:0:0:
448,192,102037,1,0,0:0:0:0:
192,192,102259,1,0,0:0:0:0:
320,192,102259,1,0,0:0:0:0:
64,192,102481,1,0,0:0:0:0:
448,192,102481,1,0,0:0:0:0:
320,192,102815,1,0,0:0:0:0:
192,192,102981,128,0,103148:0:0:0:0:
448,192,103148,1,0,0:0:0:0:
64,192,103314,128,0,103481:0:0:0:0:
320,192,103481,128,0,103648:0:0:0:0:
448,192,103648,128,0,103814:0:0:0:0:
64,192,103814,1,0,0:0:0:0:
192,192,103981,1,0,0:0:0:0:
320,192,103981,1,0,0:0:0:0:
192,192,104481,1,0,0:0:0:0:
320,192,104481,1,0,0:0:0:0:
64,192,104814,1,0,0:0:0:0:
448,192,105037,1,0,0:0:0:0:
192,192,105148,1,0,0:0:0:0:
64,192,105259,1,0,0:0:0:0:
320,192,105481,1,0,0:0:0:0:
448,192,105481,1,0,0:0:0:0:
320,192,105981,1,0,0:0:0:0:
448,192,105981,1,0,0:0:0:0:
192,192,106259,1,0,0:0:0:0:
320,192,106481,1,0,0:0:0:0:
64,192,106592,1,0,0:0:0:0:
320,192,106814,1,0,0:0:0:0:
448,192,106814,1,0,0:0:0:0:
320,192,107314,1,0,0:0:0:0:
448,192,107314,1,0,0:0:0:0:
192,192,107814,1,0,0:0:0:0:
320,192,107981,1,0,0:0:0:0:
448,192,107981,1,0,0:0:0:0:
64,192,108481,1,0,0:0:0:0:
448,192,108481,1,0,0:0:0:0:
64,192,110481,1,0,0:0:0:0:
448,192,110481,1,0,0:0:0:0:
192,192,110648,1,0,0:0:0:0:
320,192,110814,1,0,0:0:0:0:
448,192,110981,128,0,111148:0:0:0:0:
64,192,111148,1,0,0:0:0:0:
192,192,111148,128,0,112148:0:0:0:0:
320,192,112148,1,0,0:0:0:0:
64,192,112481,1,0,0:0:0:0:
448,192,112481,128,0,113338:0:0:0:0:
320,192,112909,128,0,113338:0:0:0:0:
64,192,113338,1,0,0:0:0:0:
192,192,113560,1,0,0:0:0:0:
320,192,113754,1,0,0:0:0:0:
64,192,113949,1,0,0:0:0:0:
448,192,114171,128,0,114893:0:0:0:0:
64,192,114893,128,0,115560:0:0:0:0:
320,192,115560,1,0,0:0:0:0:
448,192,115560,1,0,0:0:0:0:
64,192,115782,1,0,0:0:0:0:
192,192,115976,1,0,0:0:0:0:
320,192,116143,1,0,0:0:0:0:
64,192,116560,1,0,0:0:0:0:
448,192,116726,128,0,117338:0:0:0:0:
192,192,117338,1,0,0:0:0:0:
64,192,117338,1,0,0:0:0:0:
64,192,118671,128,0,119338:0:0:0:0:
320,192,119338,1,0,0:0:0:0:
448,192,119338,1,0,0:0:0:0:
64,192,120226,128,0,120671:0:0:0:0:
192,192,120671,128,0,120893:0:0:0:0:
320,192,120893,1,0,0:0:0:0:
448,192,120893,1,0,0:0:0:0:
64,192,121115,1,0,0:0:0:0:
192,192,121310,1,0,0:0:0:0:
320,192,121476,1,0,0:0:0:0:
448,192,122004,1,0,0:0:0:0:
64,192,122504,1,0,0:0:0:0:
320,192,122671,1,0,0:0:0:0:
448,192,122671,128,0,122921:0:0:0:0:
192,192,123254,1,0,0:0:0:0:
64,192,124004,128,0,124671:0:0:0:0:
320,192,124671,1,0,0:0:0:0:
448,192,124671,1,0,0:0:0:0:
192,192,125004,1,0,0:0:0:0:
64,192,125560,128,0,126226:0:0:0:0:
320,192,126226,1,0,0:0:0:0:
448,192,126226,1,0,0:0:0:0:
64,192,126449,1,0,0:0:0:0:
192,192,126643,1,0,0:0:0:0:
320,192,126810,1,0,0:0:0:0:
448,192,127087,1,0,0:0:0:0:
320,192,127671,128,0,128004:0:0:0:0:
192,192,128004,1,0,0:0:0:0:
64,192,128004,1,0,0:0:0:0:
192,192,128615,128,0,129004:0:0:0:0:
448,192,129004,1,0,0:0:0:0:
320,192,129171,1,0,0:0:0:0:
64,192,129337,128,0,130004:0:0:0:0:
320,192,130004,1,0,0:0:0:0:
448,192,130004,1,0,0:0:0:0:
192,192,130504,1,0,0:0:0:0:
320,192,130893,128,0,131337:0:0:0:0:
64,192,131337,128,0,131560:0:0:0:0:
320,192,131560,1,0,0:0:0:0:
448,192,131560,1,0,0:0:0:0:
64,192,131782,1,0,0:0:0:0:
448,192,132004,1,0,0:0:0:0:
320,192,132226,1,0,0:0:0:0:
192,192,132449,1,0,0:0:0:0:
320,192,132671,1,0,0:0:0:0:
448,192,132671,1,0,0:0:0:0:
64,192,133004,128,0,133337:0:0:0:0:
448,192,133337,128,0,133504:0:0:0:0:
192,192,133671,128,0,133921:0:0:0:0:
320,192,133921,128,0,134337:0:0:0:0:
192,192,134337,1,0,0:0:0:0:
64,192,134337,1,0,0:0:0:0:
64,192,134671,1,0,0:0:0:0:
448,192,134671,1,0,0:0:0:0:
320,192,134893,1,0,0:0:0:0:
192,192,135087,1,0,0:0:0:0:
448,192,135282,1,0,0:0:0:0:
64,192,135476,128,0,136004:0:0:0:0:
448,192,136004,1,0,0:0:0:0:
64,192,136226,128,0,136893:0:0:0:0:
320,192,136893,1,0,0:0:0:0:
448,192,136893,1,0,0:0:0:0:
64,192,137115,1,0,0:0:0:0:
192,192,137310,1,0,0:0:0:0:
448,192,137504,1,0,0:0:0:0:
448,192,137754,1,0,0:0:0:0:
192,192,138671,1,0,0:0:0:0:
64,192,138671,1,0,0:0:0:0:
320,192,139004,128,0,140004:0:0:0:0:
64,192,140004,128,0,140671:0:0:0:0:
320,192,140671,1,0,0:0:0:0:
448,192,140671,1,0,0:0:0:0:
64,192,141560,128,0,142004:0:0:0:0:
192,192,142004,128,0,142226:0:0:0:0:
320,192,142226,1,0,0:0:0:0:
448,192,142226,1,0,0:0:0:0:
64,192,142449,1,0,0:0:0:0:
192,192,142643,1,0,0:0:0:0:
320,192,142810,1,0,0:0:0:0:
448,192,143337,1,0,0:0:0:0:
64,192,143837,1,0,0:0:0:0:
320,192,144004,1,0,0:0:0:0:
448,192,144004,128,0,144254:0:0:0:0:
320,192,144587,128,0,145337:0:0:0:0:
64,192,145337,128,0,146004:0:0:0:0:
320,192,146004,1,0,0:0:0:0:
448,192,146004,1,0,0:0:0:0:
192,192,146337,1,0,0:0:0:0:
64,192,146893,128,0,147560:0:0:0:0:
320,192,147560,1,0,0:0:0:0:
448,192,147560,1,0,0:0:0:0:
64,192,147782,1,0,0:0:0:0:
192,192,147976,1,0,0:0:0:0:
320,192,148143,1,0,0:0:0:0:
448,192,148421,1,0,0:0:0:0:
320,192,149004,128,0,149337:0:0:0:0:
192,192,149337,1,0,0:0:0:0:
64,192,149337,1,0,0:0:0:0:
192,192,149949,128,0,150337:0:0:0:0:
448,192,150337,1,0,0:0:0:0:
320,192,150504,1,0,0:0:0:0:
64,192,150671,128,0,151337:0:0:0:0:
320,192,151337,1,0,0:0:0:0:
448,192,151337,1,0,0:0:0:0:
192,192,151587,1,0,0:0:0:0:
448,192,151949,1,0,0:0:0:0:
320,192,152226,128,0,152671:0:0:0:0:
64,192,152671,128,0,152893:0:0:0:0:
320,192,152893,1,0,0:0:0:0:
448,192,152893,1,0,0:0:0:0:
64,192,153115,1,0,0:0:0:0:
192,192,153310,1,0,0:0:0:0:
320,192,153476,1,0,0:0:0:0:
64,192,153671,1,0,0:0:0:0:
448,192,153671,128,0,155671:0:0:0:0:
320,192,154837,128,0,155671:0:0:0:0:
192,192,155671,1,0,0:0:0:0:
64,192,155671,1,0,0:0:0:0:
448,192,156671,1,0,0:0:0:0:
192,192,157254,128,0,159337:0:0:0:0:
64,192,159337,1,0,0:0:0:0:
64,192,160671,1,0,0:0:0:0:
448,192,160671,1,0,0:0:0:0:
320,192,161337,128,0,169004:0:0:0:0:
64,192,169004,128,0,169337:0:0:0:0:
448,192,169337,1,0,0:0:0:0:
192,192,169532,1,0,0:0:0:0:
