osu file format v14

[General]
AudioFilename: audio.mp3
AudioLeadIn: 0
PreviewTime: 84683
Countdown: 0
SampleSet: Normal
StackLeniency: 0.7
Mode: 1
LetterboxInBreaks: 0
WidescreenStoryboard: 0

[Editor]
Bookmarks: 1647,10219,18790,19862,28433,37005,45576,49728,58299,68076,76648,85219,93790,102362,110933
DistanceSpacing: 1
BeatDivisor: 4
GridSize: 32
TimelineZoom: 2.1

[Metadata]
Title:Sayonara Planet Wars
TitleUnicode:Sayonara Planet Wars
Artist:Chroma
ArtistUnicode:黒魔
Creator:Greenshell
Version:Constellation
Source:SOUND VOLTEX III GRAVITY WARS
Tags:The 4th KAC Original Song Contest オリジナル楽曲コンテスト SDVX
BeatmapID:1609344
BeatmapSetID:765430

[Difficulty]
HPDrainRate:7
CircleSize:3
OverallDifficulty:7
ApproachRate:10
SliderMultiplier:1.4
SliderTickRate:1

[Events]
//Background and Video events
0,0,"plaaaaanet.png",0,0
//Break Periods
//Storyboard Layer 0 (Background)
//Storyboard Layer 1 (Fail)
//Storyboard Layer 2 (Pass)
//Storyboard Layer 3 (Foreground)
//Storyboard Sound Samples

[TimingPoints]
1685,267.857142857143,4,1,0,85,1,0
37042,-111.111111111111,4,1,0,85,0,0
45613,-100,4,1,0,85,0,1
49497,-100,4,1,0,85,0,0
58336,-100,4,1,0,85,0,1
62756,-100,4,1,0,90,0,1
64899,-100,4,1,0,95,0,1
65970,-100,4,1,0,100,0,1
66506,-100,4,1,0,100,0,0
66640,-100,4,1,0,75,0,0
68113,-125,4,1,0,75,0,0
76662,-100,4,1,0,85,0,0
85256,-100,4,1,0,90,0,1
102265,-100,4,1,0,80,0,0
102399,-105.263157894737,4,1,0,80,0,0
102935,-111.111111111111,4,1,0,80,0,0
110635,-109.58904109589,4,1,0,80,0,0
110702,-108.108108108108,4,1,0,80,0,0
110769,-106.666666666667,4,1,0,80,0,0
110836,-105.263157894737,4,1,0,80,0,0
110970,-100,4,1,0,90,0,1
117399,-100,4,1,0,95,0,1
118470,-100,4,1,0,100,0,1
119006,-100,4,1,0,100,0,0

[HitObjects]
224,160,1551,5,0,0:0:0:0:
288,224,1684,1,12,0:0:0:0:
288,160,2220,1,8,0:0:0:0:
288,160,2265,1,8,0:0:0:0:
288,160,2310,1,8,0:0:0:0:
224,160,2354,1,0,0:0:0:0:
224,160,2488,1,0,0:0:0:0:
288,224,2622,1,12,0:0:0:0:
224,160,3158,1,0,0:0:0:0:
224,160,3426,1,0,0:0:0:0:
288,160,3560,1,8,0:0:0:0:
288,160,3693,1,8,0:0:0:0:
224,224,3827,1,4,0:0:0:0:
224,160,4095,1,0,0:0:0:0:
224,160,4229,1,0,0:0:0:0:
224,160,4296,1,0,0:0:0:0:
288,160,4363,1,8,0:0:0:0:
224,160,4497,1,0,0:0:0:0:
288,160,4631,1,8,0:0:0:0:
288,224,4765,1,12,0:0:0:0:
224,160,5033,1,0,0:0:0:0:
288,160,5167,1,8,0:0:0:0:
224,160,5301,1,0,0:0:0:0:
288,160,5435,1,8,0:0:0:0:
288,160,5501,1,8,0:0:0:0:
224,160,5568,1,0,0:0:0:0:
224,160,5635,1,0,0:0:0:0:
288,160,5702,1,8,0:0:0:0:
224,160,5769,1,0,0:0:0:0:
288,160,5836,1,8,0:0:0:0:
288,224,5970,1,12,0:0:0:0:
224,160,6372,1,0,0:0:0:0:
224,160,6439,1,0,0:0:0:0:
288,160,6506,1,8,0:0:0:0:
224,160,6640,1,0,0:0:0:0:
288,160,6774,1,8,0:0:0:0:
288,224,6908,1,12,0:0:0:0:
224,160,7443,1,0,0:0:0:0:
224,160,7711,1,0,0:0:0:0:
288,160,7845,1,8,0:0:0:0:
224,160,7979,1,0,0:0:0:0:
224,160,8024,1,0,0:0:0:0:
224,160,8068,1,0,0:0:0:0:
288,160,8113,1,8,0:0:0:0:
224,160,8381,1,0,0:0:0:0:
224,160,8515,1,0,0:0:0:0:
224,160,8582,1,0,0:0:0:0:
288,160,8649,1,8,0:0:0:0:
224,160,8783,1,0,0:0:0:0:
288,160,8917,1,8,0:0:0:0:
224,224,9051,1,4,0:0:0:0:
224,160,9318,1,0,0:0:0:0:
288,160,9385,1,8,0:0:0:0:
224,160,9452,1,0,0:0:0:0:
288,160,9586,1,8,0:0:0:0:
288,160,9720,1,8,0:0:0:0:
288,160,9787,1,8,0:0:0:0:
224,160,9854,1,0,0:0:0:0:
288,160,9921,1,8,0:0:0:0:
288,160,9988,1,8,0:0:0:0:
224,160,10055,1,0,0:0:0:0:
288,160,10122,1,8,0:0:0:0:
288,224,10256,1,12,0:0:0:0:
224,160,10390,1,0,0:0:0:0:
288,160,10524,1,8,0:0:0:0:
224,160,10658,1,0,0:0:0:0:
224,160,10725,1,0,0:0:0:0:
288,160,10792,1,8,0:0:0:0:
288,160,10859,1,8,0:0:0:0:
224,160,10926,1,0,0:0:0:0:
288,160,11060,1,8,0:0:0:0:
288,160,11193,1,8,0:0:0:0:
288,160,11260,1,8,0:0:0:0:
224,160,11327,1,0,0:0:0:0:
224,160,11394,1,0,0:0:0:0:
288,160,11461,1,8,0:0:0:0:
224,160,11595,1,0,0:0:0:0:
288,160,11729,1,8,0:0:0:0:
288,160,11796,1,8,0:0:0:0:
224,160,11863,1,0,0:0:0:0:
288,160,11997,1,8,0:0:0:0:
224,160,12064,1,0,0:0:0:0:
224,160,12198,1,0,0:0:0:0:
288,160,12265,1,8,0:0:0:0:
288,160,12399,1,8,0:0:0:0:
224,160,12533,1,0,0:0:0:0:
288,160,12600,1,8,0:0:0:0:
224,160,12667,1,0,0:0:0:0:
288,160,12801,1,8,0:0:0:0:
288,160,12935,1,8,0:0:0:0:
288,160,13001,1,8,0:0:0:0:
224,160,13068,1,0,0:0:0:0:
288,160,13135,1,8,0:0:0:0:
224,160,13202,1,0,0:0:0:0:
224,160,13336,1,0,0:0:0:0:
288,160,13470,1,8,0:0:0:0:
288,160,13537,1,8,0:0:0:0:
224,160,13604,1,0,0:0:0:0:
224,160,13671,1,0,0:0:0:0:
288,160,13738,1,8,0:0:0:0:
224,160,13805,1,0,0:0:0:0:
224,160,13872,1,0,0:0:0:0:
224,160,13939,1,0,0:0:0:0:
288,160,14006,1,8,0:0:0:0:
288,160,14140,1,8,0:0:0:0:
288,160,14207,1,8,0:0:0:0:
224,160,14274,1,0,0:0:0:0:
288,160,14408,1,8,0:0:0:0:
224,224,14542,1,4,0:0:0:0:
224,160,14676,1,0,0:0:0:0:
288,160,14810,1,8,0:0:0:0:
288,160,14943,1,8,0:0:0:0:
224,160,15010,1,0,0:0:0:0:
288,160,15077,1,8,0:0:0:0:
288,160,15144,1,8,0:0:0:0:
224,160,15211,1,0,0:0:0:0:
288,160,15345,1,8,0:0:0:0:
224,160,15479,1,0,0:0:0:0:
288,160,15546,1,8,0:0:0:0:
224,160,15613,1,0,0:0:0:0:
224,160,15680,1,0,0:0:0:0:
288,160,15747,1,8,0:0:0:0:
224,160,15881,1,0,0:0:0:0:
288,160,16015,1,8,0:0:0:0:
288,160,16082,1,8,0:0:0:0:
224,160,16149,1,0,0:0:0:0:
288,160,16283,1,8,0:0:0:0:
224,160,16350,1,0,0:0:0:0:
224,160,16484,1,0,0:0:0:0:
288,160,16551,1,8,0:0:0:0:
288,160,16685,1,8,0:0:0:0:
224,160,16818,1,0,0:0:0:0:
224,160,16952,1,0,0:0:0:0:
288,160,17086,1,8,0:0:0:0:
224,160,17220,1,0,0:0:0:0:
224,160,17354,1,0,0:0:0:0:
288,160,17488,1,8,0:0:0:0:
224,160,17622,1,0,0:0:0:0:
224,160,17689,1,0,0:0:0:0:
288,160,17756,1,8,0:0:0:0:
288,160,17823,1,8,0:0:0:0:
224,160,17890,1,0,0:0:0:0:
288,160,17957,1,8,0:0:0:0:
224,160,18024,1,0,0:0:0:0:
224,160,18091,1,0,0:0:0:0:
288,160,18158,1,8,0:0:0:0:
224,160,18225,1,0,0:0:0:0:
288,160,18292,1,8,0:0:0:0:
288,160,18359,1,8,0:0:0:0:
224,160,18426,1,0,0:0:0:0:
224,160,18493,1,0,0:0:0:0:
288,160,18560,1,8,0:0:0:0:
288,160,18604,1,8,0:0:0:0:
288,160,18649,1,8,0:0:0:0:
224,160,18693,1,0,0:0:0:0:
288,160,18827,1,8,0:0:0:0:
288,160,18917,1,8,0:0:0:0:
288,160,19006,1,8,0:0:0:0:
224,160,19095,1,0,0:0:0:0:
224,160,19185,1,0,0:0:0:0:
224,160,19274,1,0,0:0:0:0:
288,160,19363,1,8,0:0:0:0:
288,160,19542,1,8,0:0:0:0:
288,160,19720,1,8,0:0:0:0:
224,224,19899,1,4,0:0:0:0:
288,160,20100,1,8,0:0:0:0:
224,160,20167,1,0,0:0:0:0:
288,160,20301,1,8,0:0:0:0:
224,160,20435,1,0,0:0:0:0:
288,160,20501,1,8,0:0:0:0:
224,160,20568,1,0,0:0:0:0:
288,160,20702,1,8,0:0:0:0:
288,160,20903,1,8,0:0:0:0:
224,160,20970,1,0,0:0:0:0:
288,160,21104,1,8,0:0:0:0:
288,160,21238,1,8,0:0:0:0:
224,160,21305,1,0,0:0:0:0:
224,160,21372,1,0,0:0:0:0:
224,160,21506,1,0,0:0:0:0:
224,160,21573,1,0,0:0:0:0:
288,160,21640,1,8,0:0:0:0:
224,160,21707,1,0,0:0:0:0:
288,160,21774,1,8,0:0:0:0:
288,160,21841,1,8,0:0:0:0:
224,160,21908,1,0,0:0:0:0:
288,160,22042,1,8,0:0:0:0:
288,160,22243,1,8,0:0:0:0:
224,160,22310,1,0,0:0:0:0:
288,160,22443,1,8,0:0:0:0:
224,160,22577,1,0,0:0:0:0:
288,160,22644,1,8,0:0:0:0:
288,160,22711,1,8,0:0:0:0:
224,160,22845,1,0,0:0:0:0:
288,160,23046,1,8,0:0:0:0:
224,160,23113,1,0,0:0:0:0:
224,160,23247,1,0,0:0:0:0:
288,160,23381,1,8,0:0:0:0:
224,160,23448,1,0,0:0:0:0:
224,160,23582,1,0,0:0:0:0:
288,160,23649,1,8,0:0:0:0:
224,160,23783,1,0,0:0:0:0:
288,160,23850,1,8,0:0:0:0:
224,160,23917,1,0,0:0:0:0:
224,160,23984,1,0,0:0:0:0:
288,160,24051,1,8,0:0:0:0:
288,160,24185,1,8,0:0:0:0:
224,160,24452,1,0,0:0:0:0:
224,160,24586,1,0,0:0:0:0:
288,160,24720,1,8,0:0:0:0:
288,160,24787,1,8,0:0:0:0:
288,160,24854,1,8,0:0:0:0:
288,160,24921,1,8,0:0:0:0:
224,160,24988,1,0,0:0:0:0:
288,160,25055,1,8,0:0:0:0:
224,160,25122,1,0,0:0:0:0:
224,160,25189,1,0,0:0:0:0:
288,160,25256,1,8,0:0:0:0:
224,160,25457,1,0,0:0:0:0:
224,160,25524,1,0,0:0:0:0:
224,160,25658,1,0,0:0:0:0:
224,160,25725,1,0,0:0:0:0:
288,160,25792,1,8,0:0:0:0:
224,160,25993,1,0,0:0:0:0:
224,160,26060,1,0,0:0:0:0:
288,160,26193,1,8,0:0:0:0:
224,160,26260,1,0,0:0:0:0:
288,160,26327,1,8,0:0:0:0:
224,160,26528,1,0,0:0:0:0:
288,160,26595,1,8,0:0:0:0:
288,160,26729,1,8,0:0:0:0:
288,160,26796,1,8,0:0:0:0:
224,160,26863,1,0,0:0:0:0:
288,160,27064,1,8,0:0:0:0:
224,160,27131,1,0,0:0:0:0:
288,160,27265,1,8,0:0:0:0:
224,160,27399,1,0,0:0:0:0:
288,160,27667,1,8,0:0:0:0:
288,160,27734,1,8,0:0:0:0:
224,160,27801,1,0,0:0:0:0:
288,160,27868,1,8,0:0:0:0:
224,160,27935,1,0,0:0:0:0:
288,160,28135,1,8,0:0:0:0:
224,160,28336,1,0,0:0:0:0:
288,224,28470,1,12,0:0:0:0:
288,160,28671,1,8,0:0:0:0:
224,160,28738,1,0,0:0:0:0:
224,160,28805,1,0,0:0:0:0:
288,160,28872,1,8,0:0:0:0:
288,160,29006,1,8,0:0:0:0:
224,160,29073,1,0,0:0:0:0:
224,160,29140,1,0,0:0:0:0:
288,160,29274,1,8,0:0:0:0:
288,160,29475,1,8,0:0:0:0:
224,160,29542,1,0,0:0:0:0:
224,160,29676,1,8,0:0:0:0:
288,160,29810,1,8,0:0:0:0:
288,160,29876,1,8,0:0:0:0:
224,160,29943,1,0,0:0:0:0:
288,160,30077,1,8,0:0:0:0:
288,160,30144,1,8,0:0:0:0:
224,160,30211,1,0,0:0:0:0:
288,160,30278,1,8,0:0:0:0:
288,160,30345,1,8,0:0:0:0:
224,160,30412,1,0,0:0:0:0:
288,160,30479,1,8,0:0:0:0:
288,160,30613,1,8,0:0:0:0:
288,160,30814,1,8,0:0:0:0:
224,160,30881,1,0,0:0:0:0:
224,160,30948,1,0,0:0:0:0:
288,160,31015,1,8,0:0:0:0:
224,160,31149,1,0,0:0:0:0:
288,160,31216,1,8,0:0:0:0:
224,160,31283,1,0,0:0:0:0:
288,160,31417,1,8,0:0:0:0:
288,160,31618,1,8,0:0:0:0:
224,160,31685,1,0,0:0:0:0:
288,160,31818,1,8,0:0:0:0:
224,160,31952,1,0,0:0:0:0:
288,160,32019,1,8,0:0:0:0:
224,160,32086,1,0,0:0:0:0:
224,160,32153,1,0,0:0:0:0:
288,160,32220,1,8,0:0:0:0:
288,160,32354,1,8,0:0:0:0:
224,160,32421,1,0,0:0:0:0:
224,160,32555,1,0,0:0:0:0:
288,160,32622,1,8,0:0:0:0:
224,160,32756,1,0,0:0:0:0:
288,160,32957,1,8,0:0:0:0:
224,160,33024,1,0,0:0:0:0:
224,160,33091,1,0,0:0:0:0:
288,160,33158,1,8,0:0:0:0:
288,160,33292,1,8,0:0:0:0:
288,160,33426,1,8,0:0:0:0:
288,160,33493,1,8,0:0:0:0:
224,160,33560,1,0,0:0:0:0:
224,160,33693,1,0,0:0:0:0:
288,160,33760,1,8,0:0:0:0:
288,160,33894,1,8,0:0:0:0:
224,160,33961,1,0,0:0:0:0:
224,160,34028,1,0,0:0:0:0:
288,160,34095,1,8,0:0:0:0:
224,160,34229,1,0,0:0:0:0:
288,160,34296,1,8,0:0:0:0:
288,160,34363,1,8,0:0:0:0:
224,160,34497,1,0,0:0:0:0:
288,160,34564,1,8,0:0:0:0:
224,160,34631,1,0,0:0:0:0:
224,160,34698,1,0,0:0:0:0:
288,160,34765,1,8,0:0:0:0:
288,160,34899,1,8,0:0:0:0:
288,160,34966,1,8,0:0:0:0:
288,160,35033,1,8,0:0:0:0:
288,160,35167,1,8,0:0:0:0:
224,160,35301,1,0,0:0:0:0:
288,160,35368,1,8,0:0:0:0:
288,160,35435,1,8,0:0:0:0:
224,160,35568,1,0,0:0:0:0:
288,160,35702,1,8,0:0:0:0:
224,160,35836,1,0,0:0:0:0:
224,160,35903,1,0,0:0:0:0:
288,160,35970,1,8,0:0:0:0:
224,160,36104,1,0,0:0:0:0:
288,160,36238,1,8,0:0:0:0:
288,160,36372,1,8,0:0:0:0:
224,160,36417,1,0,0:0:0:0:
224,160,36461,1,0,0:0:0:0:
288,160,36506,1,8,0:0:0:0:
224,224,37042,1,4,0:0:0:0:
224,160,37176,1,0,0:0:0:0:
224,160,37443,1,0,0:0:0:0:
224,160,37510,1,0,0:0:0:0:
288,160,37577,1,8,0:0:0:0:
224,160,37711,1,0,0:0:0:0:
224,160,37979,1,0,0:0:0:0:
224,160,38113,1,0,0:0:0:0:
288,160,38247,1,8,0:0:0:0:
224,160,38381,1,0,0:0:0:0:
224,160,38515,1,0,0:0:0:0:
288,160,38649,1,8,0:0:0:0:
224,160,38783,1,0,0:0:0:0:
224,160,39051,1,0,0:0:0:0:
224,160,39185,1,0,0:0:0:0:
288,160,39318,1,8,0:0:0:0:
224,160,39586,1,0,0:0:0:0:
224,160,39653,1,0,0:0:0:0:
288,160,39720,1,8,0:0:0:0:
224,160,39854,1,0,0:0:0:0:
288,160,39988,1,8,0:0:0:0:
288,160,40122,1,8,0:0:0:0:
224,160,40256,1,0,0:0:0:0:
288,160,40390,1,8,0:0:0:0:
224,160,40524,1,0,0:0:0:0:
224,160,40658,1,0,0:0:0:0:
288,160,40792,1,8,0:0:0:0:
224,160,40926,1,0,0:0:0:0:
288,160,41060,1,8,0:0:0:0:
224,160,41327,1,0,0:0:0:0:
224,160,41595,1,0,0:0:0:0:
224,160,41729,1,0,0:0:0:0:
224,160,41796,1,0,0:0:0:0:
288,160,41863,1,8,0:0:0:0:
224,160,41997,1,0,0:0:0:0:
288,160,42265,1,8,0:0:0:0:
224,160,42399,1,0,0:0:0:0:
288,160,42533,1,8,0:0:0:0:
224,160,42667,1,0,0:0:0:0:
224,160,42801,1,0,0:0:0:0:
224,160,42868,1,0,0:0:0:0:
288,160,42935,1,8,0:0:0:0:
288,160,43202,1,8,0:0:0:0:
224,224,43470,1,4,0:0:0:0:
224,160,43604,1,0,0:0:0:0:
224,160,43671,1,0,0:0:0:0:
288,160,43738,1,8,0:0:0:0:
224,224,43872,1,4,0:0:0:0:
224,160,44140,1,0,0:0:0:0:
288,224,44274,1,12,0:0:0:0:
288,224,44542,1,12,0:0:0:0:
288,160,44676,1,8,0:0:0:0:
288,160,44743,1,8,0:0:0:0:
224,160,44810,1,0,0:0:0:0:
288,224,44943,1,12,0:0:0:0:
224,160,45211,1,0,0:0:0:0:
288,160,45345,1,8,0:0:0:0:
288,160,45412,1,8,0:0:0:0:
224,160,45479,1,0,0:0:0:0:
288,224,45613,1,12,0:0:0:0:
224,160,45747,1,0,0:0:0:0:
288,160,45814,1,8,0:0:0:0:
288,160,45881,1,8,0:0:0:0:
288,160,46015,1,8,0:0:0:0:
288,160,46082,1,8,0:0:0:0:
224,160,46149,1,0,0:0:0:0:
224,160,46216,1,0,0:0:0:0:
288,160,46283,1,8,0:0:0:0:
224,160,46417,1,0,0:0:0:0:
288,160,46551,1,8,0:0:0:0:
224,160,46618,1,0,0:0:0:0:
288,160,46685,1,8,0:0:0:0:
224,160,46818,1,0,0:0:0:0:
288,160,46885,1,8,0:0:0:0:
224,160,46952,1,0,0:0:0:0:
224,160,47019,1,0,0:0:0:0:
288,160,47086,1,8,0:0:0:0:
288,160,47153,1,8,0:0:0:0:
224,160,47220,1,0,0:0:0:0:
288,160,47354,1,8,0:0:0:0:
224,160,47488,1,0,0:0:0:0:
288,160,47555,1,8,0:0:0:0:
288,160,47622,1,8,0:0:0:0:
224,160,47689,1,0,0:0:0:0:
288,160,47756,1,8,0:0:0:0:
224,160,47890,1,0,0:0:0:0:
288,160,47957,1,8,0:0:0:0:
224,160,48024,1,0,0:0:0:0:
288,160,48158,1,8,0:0:0:0:
224,160,48225,1,0,0:0:0:0:
224,160,48292,1,0,0:0:0:0:
224,160,48426,1,0,0:0:0:0:
288,160,48493,1,8,0:0:0:0:
288,160,48560,1,8,0:0:0:0:
288,160,48693,1,8,0:0:0:0:
224,160,48760,1,0,0:0:0:0:
288,160,48827,1,8,0:0:0:0:
288,160,48894,1,8,0:0:0:0:
224,160,48961,1,0,0:0:0:0:
288,160,49028,1,8,0:0:0:0:
224,160,49095,1,0,0:0:0:0:
224,160,49162,1,0,0:0:0:0:
288,160,49229,1,8,0:0:0:0:
288,224,49363,1,12,0:0:0:0:
288,224,49497,1,12,0:0:0:0:
224,224,49765,1,4,0:0:0:0:
224,160,50033,1,0,0:0:0:0:
224,160,50100,1,0,0:0:0:0:
288,160,50167,1,8,0:0:0:0:
288,160,50234,1,8,0:0:0:0:
288,160,50301,1,8,0:0:0:0:
224,160,50368,1,0,0:0:0:0:
288,160,50435,1,8,0:0:0:0:
288,160,50501,1,8,0:0:0:0:
224,160,50568,1,0,0:0:0:0:
288,160,50635,1,8,0:0:0:0:
224,160,50702,1,0,0:0:0:0:
224,160,50769,1,0,0:0:0:0:
288,160,50836,1,8,0:0:0:0:
224,160,50903,1,0,0:0:0:0:
288,160,50970,1,8,0:0:0:0:
288,160,51037,1,8,0:0:0:0:
224,160,51104,1,0,0:0:0:0:
224,160,51171,1,0,0:0:0:0:
288,160,51238,1,8,0:0:0:0:
224,160,51305,1,0,0:0:0:0:
288,160,51372,1,8,0:0:0:0:
288,224,51506,1,12,0:0:0:0:
288,224,51640,1,12,0:0:0:0:
224,224,51908,1,4,0:0:0:0:
224,160,52176,1,0,0:0:0:0:
224,160,52243,1,0,0:0:0:0:
288,160,52310,1,8,0:0:0:0:
224,160,52376,1,0,0:0:0:0:
224,160,52443,1,0,0:0:0:0:
288,160,52510,1,8,0:0:0:0:
288,160,52577,1,8,0:0:0:0:
224,160,52644,1,0,0:0:0:0:
288,160,52711,1,8,0:0:0:0:
288,160,52778,1,8,0:0:0:0:
224,160,52845,1,0,0:0:0:0:
288,160,52912,1,8,0:0:0:0:
224,160,52979,1,0,0:0:0:0:
224,160,53046,1,0,0:0:0:0:
288,160,53113,1,8,0:0:0:0:
224,160,53180,1,0,0:0:0:0:
288,160,53247,1,8,0:0:0:0:
288,160,53314,1,8,0:0:0:0:
288,160,53381,1,8,0:0:0:0:
224,160,53448,1,0,0:0:0:0:
288,160,53515,1,8,0:0:0:0:
288,224,53649,1,12,0:0:0:0:
288,224,53783,1,12,0:0:0:0:
224,224,54051,1,4,0:0:0:0:
224,160,54318,1,0,0:0:0:0:
224,160,54385,1,0,0:0:0:0:
288,160,54452,1,8,0:0:0:0:
224,160,54519,1,0,0:0:0:0:
288,160,54586,1,8,0:0:0:0:
288,160,54653,1,8,0:0:0:0:
224,160,54720,1,0,0:0:0:0:
224,160,54787,1,0,0:0:0:0:
288,160,54854,1,8,0:0:0:0:
288,160,54921,1,8,0:0:0:0:
224,160,54988,1,0,0:0:0:0:
288,160,55055,1,8,0:0:0:0:
224,160,55122,1,0,0:0:0:0:
288,160,55189,1,8,0:0:0:0:
288,160,55256,1,8,0:0:0:0:
288,160,55323,1,8,0:0:0:0:
224,160,55390,1,0,0:0:0:0:
224,160,55457,1,0,0:0:0:0:
288,160,55524,1,8,0:0:0:0:
224,160,55591,1,0,0:0:0:0:
288,160,55658,1,8,0:0:0:0:
288,224,55792,1,12,0:0:0:0:
288,224,55926,1,12,0:0:0:0:
224,224,56193,1,4,0:0:0:0:
224,160,56461,1,0,0:0:0:0:
224,160,56528,1,0,0:0:0:0:
288,160,56595,1,8,0:0:0:0:
288,160,56662,1,8,0:0:0:0:
224,160,56729,1,0,0:0:0:0:
288,160,56796,1,8,0:0:0:0:
224,160,56863,1,0,0:0:0:0:
224,160,56930,1,0,0:0:0:0:
288,160,56997,1,8,0:0:0:0:
224,160,57064,1,0,0:0:0:0:
288,160,57131,1,8,0:0:0:0:
288,160,57198,1,8,0:0:0:0:
288,160,57265,1,8,0:0:0:0:
224,160,57332,1,0,0:0:0:0:
288,160,57399,1,8,0:0:0:0:
288,160,57466,1,8,0:0:0:0:
224,160,57533,1,0,0:0:0:0:
288,160,57600,1,8,0:0:0:0:
288,160,57667,1,8,0:0:0:0:
224,160,57734,1,0,0:0:0:0:
288,160,57801,1,8,0:0:0:0:
288,224,57935,1,12,0:0:0:0:
288,224,58068,1,12,0:0:0:0:
224,224,58336,1,4,0:0:0:0:
224,160,58604,1,0,0:0:0:0:
224,160,58671,1,0,0:0:0:0:
288,160,58738,1,8,0:0:0:0:
224,160,58805,1,0,0:0:0:0:
288,160,58872,1,8,0:0:0:0:
288,160,58939,1,8,0:0:0:0:
224,160,59006,1,0,0:0:0:0:
224,160,59073,1,0,0:0:0:0:
288,160,59140,1,8,0:0:0:0:
224,160,59207,1,0,0:0:0:0:
288,160,59274,1,8,0:0:0:0:
224,160,59341,1,0,0:0:0:0:
288,160,59408,1,8,0:0:0:0:
288,160,59475,1,8,0:0:0:0:
224,160,59542,1,0,0:0:0:0:
288,160,59609,1,8,0:0:0:0:
224,160,59676,1,0,0:0:0:0:
224,160,59743,1,0,0:0:0:0:
288,160,59810,1,8,0:0:0:0:
224,160,59876,1,0,0:0:0:0:
288,160,59943,1,8,0:0:0:0:
288,160,60010,1,8,0:0:0:0:
224,160,60077,1,0,0:0:0:0:
224,160,60144,1,0,0:0:0:0:
288,160,60211,1,8,0:0:0:0:
288,160,60278,1,8,0:0:0:0:
288,160,60345,1,8,0:0:0:0:
224,160,60412,1,0,0:0:0:0:
288,160,60479,1,8,0:0:0:0:
288,160,60546,1,8,0:0:0:0:
224,160,60613,1,0,0:0:0:0:
288,160,60680,1,8,0:0:0:0:
224,160,60747,1,0,0:0:0:0:
224,160,60814,1,0,0:0:0:0:
288,160,60881,1,8,0:0:0:0:
224,160,60948,1,0,0:0:0:0:
288,160,61015,1,8,0:0:0:0:
288,160,61082,1,8,0:0:0:0:
224,160,61149,1,0,0:0:0:0:
224,160,61216,1,0,0:0:0:0:
288,160,61283,1,8,0:0:0:0:
224,160,61350,1,0,0:0:0:0:
288,160,61417,1,8,0:0:0:0:
224,160,61484,1,0,0:0:0:0:
288,160,61551,1,8,0:0:0:0:
288,160,61618,1,8,0:0:0:0:
224,160,61685,1,0,0:0:0:0:
288,160,61751,1,8,0:0:0:0:
224,160,61818,1,0,0:0:0:0:
224,160,61885,1,0,0:0:0:0:
288,160,61952,1,8,0:0:0:0:
224,160,62019,1,0,0:0:0:0:
288,160,62086,1,8,0:0:0:0:
288,160,62153,1,8,0:0:0:0:
224,160,62220,1,0,0:0:0:0:
224,160,62287,1,0,0:0:0:0:
288,160,62354,1,8,0:0:0:0:
288,160,62421,1,8,0:0:0:0:
288,160,62488,1,8,0:0:0:0:
224,160,62555,1,0,0:0:0:0:
288,160,62622,1,8,0:0:0:0:
224,160,62689,1,0,0:0:0:0:
288,160,62756,1,8,0:0:0:0:
224,160,62823,1,0,0:0:0:0:
288,160,62890,1,8,0:0:0:0:
288,160,62957,1,8,0:0:0:0:
224,160,63024,1,0,0:0:0:0:
224,160,63091,1,0,0:0:0:0:
288,160,63158,1,8,0:0:0:0:
288,160,63225,1,8,0:0:0:0:
288,160,63292,1,8,0:0:0:0:
224,160,63359,1,0,0:0:0:0:
288,160,63426,1,8,0:0:0:0:
288,160,63493,1,8,0:0:0:0:
224,160,63560,1,0,0:0:0:0:
224,160,63626,1,0,0:0:0:0:
288,160,63693,1,8,0:0:0:0:
224,160,63760,1,0,0:0:0:0:
288,160,63827,1,8,0:0:0:0:
224,160,63894,1,0,0:0:0:0:
288,160,63961,1,8,0:0:0:0:
288,160,64028,1,8,0:0:0:0:
224,160,64095,1,0,0:0:0:0:
224,160,64162,1,0,0:0:0:0:
288,160,64229,1,8,0:0:0:0:
288,160,64296,1,8,0:0:0:0:
288,160,64363,1,8,0:0:0:0:
224,160,64430,1,0,0:0:0:0:
288,160,64497,1,8,0:0:0:0:
288,160,64564,1,8,0:0:0:0:
224,160,64631,1,0,0:0:0:0:
224,160,64698,1,0,0:0:0:0:
288,160,64765,1,8,0:0:0:0:
288,160,64832,1,8,0:0:0:0:
224,160,64899,1,0,0:0:0:0:
288,160,64966,1,8,0:0:0:0:
224,160,65033,1,0,0:0:0:0:
288,160,65100,1,8,0:0:0:0:
224,160,65167,1,0,0:0:0:0:
288,160,65234,1,8,0:0:0:0:
224,160,65301,1,0,0:0:0:0:
288,160,65368,1,8,0:0:0:0:
224,160,65435,1,0,0:0:0:0:
288,160,65501,1,8,0:0:0:0:
224,160,65568,1,0,0:0:0:0:
288,160,65635,1,8,0:0:0:0:
224,160,65702,1,0,0:0:0:0:
288,160,65769,1,8,0:0:0:0:
224,160,65836,1,0,0:0:0:0:
288,160,65903,1,8,0:0:0:0:
288,160,65970,1,8,0:0:0:0:
224,160,66037,1,0,0:0:0:0:
288,160,66104,1,8,0:0:0:0:
224,160,66171,1,0,0:0:0:0:
288,160,66238,1,8,0:0:0:0:
224,160,66305,1,0,0:0:0:0:
288,160,66372,1,8,0:0:0:0:
288,224,66506,1,12,0:0:0:0:
224,224,68113,1,4,0:0:0:0:
288,160,68917,1,8,0:0:0:0:
288,160,69051,1,8,0:0:0:0:
224,160,69854,1,0,0:0:0:0:
288,160,69988,1,8,0:0:0:0:
288,160,70122,1,8,0:0:0:0:
224,160,70256,1,0,0:0:0:0:
224,160,70524,1,0,0:0:0:0:
224,160,70591,1,0,0:0:0:0:
288,160,70658,1,8,0:0:0:0:
224,160,70926,1,0,0:0:0:0:
288,160,71060,1,8,0:0:0:0:
224,160,71193,1,0,0:0:0:0:
224,160,71461,1,0,0:0:0:0:
288,160,71595,1,8,0:0:0:0:
288,160,71729,1,8,0:0:0:0:
224,160,71863,1,0,0:0:0:0:
224,160,72399,1,0,0:0:0:0:
288,160,73202,1,8,0:0:0:0:
288,160,73336,1,8,0:0:0:0:
224,160,74140,1,0,0:0:0:0:
288,160,74274,1,8,0:0:0:0:
224,160,74408,1,0,0:0:0:0:
288,160,74542,1,8,0:0:0:0:
288,160,74810,1,8,0:0:0:0:
224,160,74943,1,0,0:0:0:0:
288,160,75211,1,8,0:0:0:0:
224,160,75345,1,0,0:0:0:0:
224,160,75479,1,0,0:0:0:0:
288,160,76685,1,12,0:0:0:0:
288,160,77220,1,8,0:0:0:0:
288,160,77265,1,8,0:0:0:0:
288,160,77310,1,8,0:0:0:0:
224,160,77354,1,0,0:0:0:0:
224,160,77488,1,0,0:0:0:0:
288,224,77622,1,12,0:0:0:0:
224,160,78158,1,0,0:0:0:0:
224,160,78426,1,0,0:0:0:0:
288,160,78560,1,8,0:0:0:0:
288,160,78693,1,8,0:0:0:0:
224,224,78827,1,4,0:0:0:0:
224,160,79095,1,0,0:0:0:0:
224,160,79229,1,0,0:0:0:0:
224,160,79296,1,0,0:0:0:0:
288,160,79363,1,8,0:0:0:0:
224,160,79497,1,0,0:0:0:0:
288,160,79631,1,8,0:0:0:0:
288,224,79765,1,12,0:0:0:0:
224,160,80033,1,0,0:0:0:0:
288,160,80167,1,8,0:0:0:0:
224,160,80301,1,0,0:0:0:0:
224,160,80435,1,0,0:0:0:0:
224,160,80501,1,0,0:0:0:0:
224,160,80568,1,0,0:0:0:0:
224,160,80635,1,0,0:0:0:0:
288,160,80702,1,8,0:0:0:0:
288,160,80769,1,8,0:0:0:0:
288,160,80836,1,8,0:0:0:0:
288,160,80903,1,8,0:0:0:0:
224,160,80970,1,0,0:0:0:0:
224,160,81104,1,0,0:0:0:0:
224,160,81171,1,0,0:0:0:0:
288,160,81238,1,8,0:0:0:0:
224,160,81372,1,0,0:0:0:0:
224,160,81439,1,0,0:0:0:0:
288,160,81506,1,8,0:0:0:0:
224,160,81640,1,0,0:0:0:0:
224,160,81707,1,0,0:0:0:0:
288,160,81774,1,8,0:0:0:0:
224,160,81908,1,0,0:0:0:0:
224,160,81975,1,0,0:0:0:0:
288,160,82042,1,8,0:0:0:0:
224,160,82176,1,0,0:0:0:0:
224,160,82243,1,0,0:0:0:0:
288,160,82310,1,8,0:0:0:0:
224,160,82443,1,0,0:0:0:0:
224,160,82510,1,0,0:0:0:0:
288,160,82577,1,8,0:0:0:0:
224,160,82711,1,0,0:0:0:0:
224,160,82778,1,0,0:0:0:0:
288,160,82845,1,8,0:0:0:0:
288,160,82979,1,8,0:0:0:0:
288,160,83113,1,8,0:0:0:0:
224,160,83180,1,0,0:0:0:0:
224,160,83247,1,0,0:0:0:0:
224,160,83314,1,0,0:0:0:0:
288,160,83381,1,8,0:0:0:0:
288,160,83448,1,8,0:0:0:0:
224,160,83515,1,0,0:0:0:0:
224,160,83582,1,0,0:0:0:0:
288,160,83649,1,8,0:0:0:0:
224,160,83716,1,0,0:0:0:0:
224,160,83783,1,0,0:0:0:0:
224,160,83850,1,0,0:0:0:0:
288,160,83917,1,8,0:0:0:0:
288,160,83984,1,8,0:0:0:0:
224,160,84051,1,0,0:0:0:0:
224,160,84118,1,0,0:0:0:0:
288,160,84185,1,8,0:0:0:0:
288,160,84251,1,8,0:0:0:0:
288,160,84318,1,8,0:0:0:0:
288,160,84385,1,8,0:0:0:0:
224,160,84452,1,0,0:0:0:0:
224,160,84519,1,0,0:0:0:0:
224,160,84586,1,0,0:0:0:0:
224,160,84653,1,0,0:0:0:0:
288,224,84720,1,12,0:0:0:0:
224,224,85256,1,4,0:0:0:0:
224,160,85390,1,0,0:0:0:0:
224,160,85457,1,0,0:0:0:0:
288,160,85524,1,8,0:0:0:0:
288,160,85658,1,8,0:0:0:0:
288,160,85725,1,8,0:0:0:0:
224,160,85792,1,0,0:0:0:0:
224,160,85859,1,0,0:0:0:0:
224,160,85926,1,0,0:0:0:0:
288,160,86060,1,8,0:0:0:0:
288,160,86193,1,8,0:0:0:0:
288,160,86260,1,8,0:0:0:0:
224,160,86327,1,0,0:0:0:0:
224,160,86394,1,0,0:0:0:0:
288,160,86461,1,8,0:0:0:0:
224,160,86528,1,0,0:0:0:0:
288,160,86595,1,8,0:0:0:0:
288,160,86662,1,8,0:0:0:0:
224,160,86729,1,0,0:0:0:0:
288,160,86796,1,8,0:0:0:0:
224,160,86863,1,0,0:0:0:0:
224,160,86930,1,0,0:0:0:0:
224,160,86997,1,0,0:0:0:0:
224,160,87064,1,0,0:0:0:0:
288,160,87131,1,8,0:0:0:0:
224,160,87198,1,0,0:0:0:0:
288,160,87265,1,8,0:0:0:0:
288,160,87332,1,8,0:0:0:0:
224,160,87399,1,0,0:0:0:0:
224,160,87533,1,0,0:0:0:0:
224,160,87600,1,0,0:0:0:0:
288,160,87667,1,8,0:0:0:0:
288,160,87801,1,8,0:0:0:0:
288,160,87868,1,8,0:0:0:0:
224,160,87935,1,0,0:0:0:0:
224,160,88001,1,0,0:0:0:0:
288,160,88068,1,8,0:0:0:0:
224,160,88135,1,0,0:0:0:0:
288,160,88202,1,8,0:0:0:0:
288,160,88336,1,8,0:0:0:0:
288,160,88403,1,8,0:0:0:0:
224,160,88470,1,0,0:0:0:0:
224,160,88537,1,0,0:0:0:0:
288,160,88604,1,8,0:0:0:0:
224,160,88671,1,0,0:0:0:0:
288,160,88738,1,8,0:0:0:0:
224,160,88805,1,0,0:0:0:0:
224,160,88872,1,0,0:0:0:0:
288,160,88939,1,8,0:0:0:0:
224,160,89006,1,0,0:0:0:0:
224,160,89073,1,0,0:0:0:0:
288,160,89140,1,8,0:0:0:0:
224,160,89207,1,0,0:0:0:0:
288,160,89274,1,8,0:0:0:0:
288,160,89341,1,8,0:0:0:0:
224,160,89408,1,0,0:0:0:0:
224,224,89542,1,4,0:0:0:0:
288,224,89810,1,8,0:0:0:0:
288,160,89876,1,8,0:0:0:0:
224,160,89943,1,0,0:0:0:0:
288,160,90211,1,8,0:0:0:0:
288,160,90256,1,8,0:0:0:0:
288,160,90301,1,8,0:0:0:0:
224,160,90345,1,0,0:0:0:0:
224,160,90613,1,0,0:0:0:0:
224,160,90747,1,0,0:0:0:0:
224,160,90814,1,0,0:0:0:0:
288,160,90881,1,8,0:0:0:0:
288,160,90948,1,8,0:0:0:0:
224,160,91015,1,0,0:0:0:0:
224,160,91149,1,0,0:0:0:0:
224,160,91216,1,0,0:0:0:0:
288,160,91283,1,8,0:0:0:0:
224,160,91350,1,0,0:0:0:0:
288,160,91417,1,8,0:0:0:0:
288,160,91484,1,8,0:0:0:0:
224,160,91551,1,0,0:0:0:0:
224,160,91618,1,0,0:0:0:0:
288,160,91685,1,8,0:0:0:0:
224,160,91818,1,0,0:0:0:0:
224,160,91885,1,0,0:0:0:0:
288,160,91952,1,8,0:0:0:0:
288,160,92086,1,8,0:0:0:0:
288,160,92153,1,8,0:0:0:0:
224,160,92220,1,0,0:0:0:0:
224,160,92287,1,0,0:0:0:0:
224,160,92354,1,0,0:0:0:0:
288,160,92488,1,8,0:0:0:0:
224,160,92622,1,0,0:0:0:0:
288,160,92689,1,8,0:0:0:0:
224,160,92756,1,0,0:0:0:0:
224,160,92823,1,0,0:0:0:0:
288,160,92890,1,8,0:0:0:0:
224,160,92957,1,0,0:0:0:0:
288,160,93024,1,8,0:0:0:0:
288,160,93091,1,8,0:0:0:0:
224,160,93158,1,0,0:0:0:0:
288,160,93225,1,8,0:0:0:0:
288,160,93292,1,8,0:0:0:0:
224,160,93359,1,0,0:0:0:0:
288,160,93426,1,8,0:0:0:0:
288,160,93493,1,8,0:0:0:0:
224,160,93560,1,0,0:0:0:0:
288,160,93693,1,8,0:0:0:0:
224,224,93827,1,4,0:0:0:0:
288,160,93961,1,8,0:0:0:0:
288,160,94028,1,8,0:0:0:0:
224,160,94095,1,0,0:0:0:0:
288,160,94229,1,8,0:0:0:0:
288,160,94296,1,8,0:0:0:0:
224,160,94363,1,0,0:0:0:0:
224,160,94430,1,0,0:0:0:0:
288,160,94497,1,8,0:0:0:0:
288,160,94631,1,8,0:0:0:0:
288,160,94765,1,8,0:0:0:0:
288,160,94832,1,8,0:0:0:0:
224,160,94899,1,0,0:0:0:0:
224,160,94966,1,0,0:0:0:0:
288,160,95033,1,8,0:0:0:0:
224,160,95100,1,0,0:0:0:0:
288,160,95167,1,8,0:0:0:0:
288,160,95234,1,8,0:0:0:0:
224,160,95301,1,0,0:0:0:0:
288,160,95368,1,8,0:0:0:0:
288,160,95435,1,8,0:0:0:0:
288,160,95501,1,8,0:0:0:0:
224,160,95568,1,0,0:0:0:0:
224,160,95635,1,0,0:0:0:0:
288,160,95702,1,8,0:0:0:0:
224,160,95769,1,0,0:0:0:0:
288,160,95836,1,8,0:0:0:0:
288,160,95903,1,8,0:0:0:0:
224,160,95970,1,0,0:0:0:0:
224,160,96104,1,0,0:0:0:0:
224,160,96171,1,0,0:0:0:0:
288,160,96238,1,8,0:0:0:0:
288,160,96372,1,8,0:0:0:0:
288,160,96439,1,8,0:0:0:0:
288,160,96506,1,8,0:0:0:0:
288,160,96573,1,8,0:0:0:0:
224,160,96640,1,0,0:0:0:0:
288,160,96774,1,8,0:0:0:0:
288,160,96908,1,8,0:0:0:0:
288,160,96975,1,8,0:0:0:0:
224,160,97042,1,0,0:0:0:0:
224,160,97109,1,0,0:0:0:0:
288,160,97176,1,8,0:0:0:0:
224,160,97243,1,0,0:0:0:0:
288,160,97310,1,8,0:0:0:0:
224,160,97376,1,0,0:0:0:0:
224,160,97443,1,0,0:0:0:0:
288,160,97510,1,8,0:0:0:0:
288,160,97577,1,8,0:0:0:0:
224,160,97644,1,0,0:0:0:0:
288,160,97711,1,8,0:0:0:0:
288,160,97778,1,8,0:0:0:0:
224,160,97845,1,0,0:0:0:0:
224,160,97979,1,0,0:0:0:0:
288,224,98113,1,12,0:0:0:0:
224,160,98381,1,0,0:0:0:0:
224,160,98448,1,0,0:0:0:0:
288,160,98515,1,8,0:0:0:0:
224,160,98783,1,0,0:0:0:0:
224,160,98827,1,0,0:0:0:0:
224,160,98872,1,0,0:0:0:0:
288,160,98917,1,8,0:0:0:0:
224,160,99185,1,0,0:0:0:0:
288,160,99318,1,8,0:0:0:0:
224,160,99385,1,0,0:0:0:0:
288,160,99452,1,8,0:0:0:0:
288,160,99519,1,8,0:0:0:0:
224,160,99586,1,0,0:0:0:0:
224,160,99720,1,0,0:0:0:0:
224,160,99787,1,0,0:0:0:0:
288,160,99854,1,8,0:0:0:0:
224,160,99921,1,0,0:0:0:0:
288,160,99988,1,8,0:0:0:0:
288,160,100055,1,8,0:0:0:0:
288,160,100122,1,8,0:0:0:0:
224,160,100189,1,0,0:0:0:0:
288,160,100256,1,8,0:0:0:0:
224,160,100390,1,0,0:0:0:0:
224,160,100457,1,0,0:0:0:0:
288,160,100524,1,8,0:0:0:0:
288,160,100658,1,8,0:0:0:0:
288,160,100725,1,8,0:0:0:0:
224,160,100792,1,0,0:0:0:0:
224,160,100859,1,0,0:0:0:0:
224,160,100926,1,0,0:0:0:0:
288,160,101060,1,8,0:0:0:0:
224,160,101193,1,0,0:0:0:0:
288,160,101260,1,8,0:0:0:0:
224,160,101327,1,0,0:0:0:0:
224,160,101394,1,0,0:0:0:0:
288,160,101461,1,8,0:0:0:0:
224,160,101528,1,0,0:0:0:0:
288,160,101595,1,8,0:0:0:0:
288,160,101662,1,8,0:0:0:0:
224,160,101729,1,0,0:0:0:0:
288,160,101796,1,8,0:0:0:0:
288,160,101863,1,8,0:0:0:0:
224,160,101930,1,0,0:0:0:0:
288,160,101997,1,8,0:0:0:0:
224,224,102265,1,4,0:0:0:0:
288,160,102935,1,8,0:0:0:0:
224,160,103470,1,0,0:0:0:0:
288,160,104006,1,8,0:0:0:0:
288,160,104185,1,8,0:0:0:0:
224,160,104542,1,0,0:0:0:0:
224,160,104720,1,0,0:0:0:0:
224,160,105077,1,0,0:0:0:0:
288,160,105345,1,8,0:0:0:0:
224,160,105613,1,0,0:0:0:0:
288,160,105881,1,8,0:0:0:0:
224,160,106015,1,0,0:0:0:0:
288,160,106149,1,8,0:0:0:0:
288,160,106417,1,8,0:0:0:0:
224,160,106685,1,0,0:0:0:0:
224,160,106885,1,0,0:0:0:0:
288,160,107220,1,8,0:0:0:0:
288,160,107421,1,8,0:0:0:0:
224,160,107756,1,0,0:0:0:0:
224,160,107957,1,0,0:0:0:0:
288,160,108292,1,8,0:0:0:0:
224,160,108560,1,0,0:0:0:0:
224,160,108827,1,0,0:0:0:0:
288,160,108961,1,8,0:0:0:0:
224,160,109095,1,0,0:0:0:0:
288,160,109229,1,8,0:0:0:0:
224,160,109497,1,0,0:0:0:0:
288,160,109631,1,8,0:0:0:0:
288,160,109899,1,8,0:0:0:0:
224,160,110033,1,0,0:0:0:0:
224,160,110167,1,0,0:0:0:0:
288,160,110301,1,8,0:0:0:0:
288,160,110568,1,8,0:0:0:0:
224,160,110635,1,0,0:0:0:0:
288,160,110702,1,8,0:0:0:0:
288,160,110769,1,8,0:0:0:0:
224,160,110836,1,0,0:0:0:0:
288,224,110970,1,12,0:0:0:0:
224,160,111104,1,0,0:0:0:0:
224,160,111171,1,0,0:0:0:0:
288,160,111238,1,8,0:0:0:0:
224,160,111372,1,0,0:0:0:0:
288,160,111439,1,8,0:0:0:0:
224,160,111506,1,0,0:0:0:0:
224,160,111573,1,0,0:0:0:0:
288,160,111640,1,8,0:0:0:0:
288,160,111707,1,8,0:0:0:0:
224,160,111774,1,0,0:0:0:0:
288,160,111908,1,8,0:0:0:0:
288,160,111975,1,8,0:0:0:0:
224,160,112042,1,0,0:0:0:0:
224,160,112176,1,0,0:0:0:0:
224,160,112243,1,0,0:0:0:0:
288,160,112310,1,8,0:0:0:0:
224,160,112443,1,0,0:0:0:0:
224,160,112510,1,0,0:0:0:0:
288,160,112577,1,8,0:0:0:0:
224,160,112644,1,0,0:0:0:0:
288,160,112711,1,8,0:0:0:0:
288,160,112778,1,8,0:0:0:0:
224,160,112845,1,0,0:0:0:0:
224,160,112912,1,0,0:0:0:0:
288,160,112979,1,8,0:0:0:0:
224,160,113046,1,0,0:0:0:0:
288,160,113113,1,8,0:0:0:0:
288,160,113247,1,8,0:0:0:0:
288,160,113314,1,8,0:0:0:0:
288,160,113381,1,8,0:0:0:0:
288,160,113515,1,8,0:0:0:0:
288,160,113582,1,8,0:0:0:0:
224,160,113649,1,0,0:0:0:0:
288,160,113783,1,8,0:0:0:0:
224,160,113850,1,0,0:0:0:0:
288,160,113917,1,8,0:0:0:0:
224,160,114051,1,0,0:0:0:0:
288,160,114118,1,8,0:0:0:0:
288,160,114185,1,8,0:0:0:0:
288,160,114251,1,8,0:0:0:0:
224,160,114318,1,0,0:0:0:0:
224,160,114385,1,0,0:0:0:0:
288,160,114452,1,8,0:0:0:0:
224,160,114519,1,0,0:0:0:0:
288,160,114586,1,8,0:0:0:0:
288,160,114653,1,8,0:0:0:0:
224,160,114720,1,0,0:0:0:0:
288,160,114854,1,8,0:0:0:0:
288,160,114899,1,8,0:0:0:0:
288,160,114943,1,8,0:0:0:0:
224,160,114988,1,0,0:0:0:0:
288,160,115122,1,8,0:0:0:0:
288,160,115167,1,8,0:0:0:0:
288,160,115211,1,8,0:0:0:0:
224,160,115256,1,0,0:0:0:0:
224,160,115390,1,0,0:0:0:0:
224,160,115457,1,0,0:0:0:0:
288,160,115524,1,8,0:0:0:0:
288,160,115591,1,8,0:0:0:0:
224,160,115658,1,0,0:0:0:0:
288,160,115725,1,8,0:0:0:0:
224,160,115792,1,0,0:0:0:0:
224,160,115859,1,0,0:0:0:0:
288,160,115926,1,8,0:0:0:0:
288,160,115993,1,8,0:0:0:0:
224,160,116060,1,0,0:0:0:0:
224,160,116126,1,0,0:0:0:0:
288,160,116193,1,8,0:0:0:0:
288,160,116260,1,8,0:0:0:0:
224,160,116327,1,0,0:0:0:0:
224,160,116394,1,0,0:0:0:0:
288,160,116461,1,8,0:0:0:0:
224,160,116528,1,0,0:0:0:0:
288,160,116595,1,8,0:0:0:0:
288,160,116662,1,8,0:0:0:0:
224,160,116729,1,0,0:0:0:0:
288,160,116796,1,8,0:0:0:0:
288,160,116863,1,8,0:0:0:0:
224,160,116930,1,0,0:0:0:0:
288,160,116997,1,8,0:0:0:0:
288,160,117064,1,8,0:0:0:0:
224,160,117131,1,0,0:0:0:0:
224,160,117198,1,0,0:0:0:0:
288,160,117265,1,8,0:0:0:0:
288,160,117332,1,8,0:0:0:0:
224,160,117399,1,0,0:0:0:0:
224,160,117466,1,0,0:0:0:0:
288,160,117533,1,8,0:0:0:0:
288,160,117600,1,8,0:0:0:0:
288,160,117667,1,8,0:0:0:0:
224,160,117734,1,0,0:0:0:0:
288,160,117801,1,8,0:0:0:0:
224,160,117868,1,0,0:0:0:0:
288,160,117935,1,8,0:0:0:0:
288,160,118001,1,8,0:0:0:0:
224,160,118068,1,0,0:0:0:0:
288,160,118135,1,8,0:0:0:0:
288,160,118202,1,8,0:0:0:0:
224,160,118269,1,0,0:0:0:0:
288,160,118336,1,8,0:0:0:0:
224,160,118403,1,0,0:0:0:0:
288,160,118470,1,8,0:0:0:0:
288,160,118537,1,8,0:0:0:0:
288,160,118604,1,8,0:0:0:0:
288,160,118671,1,8,0:0:0:0:
288,160,118738,1,8,0:0:0:0:
288,160,118805,1,8,0:0:0:0:
288,160,118872,1,8,0:0:0:0:
288,160,118939,1,8,0:0:0:0:
224,224,119006,1,4,0:0:0:0:
