osu file format v14

[General]
AudioFilename: wnx.mp3
AudioLeadIn: 0
PreviewTime: 84905
Countdown: 0
SampleSet: None
StackLeniency: 0.7
Mode: 3
LetterboxInBreaks: 0
SpecialStyle: 0
WidescreenStoryboard: 0

[Editor]
DistanceSpacing: 0.8
BeatDivisor: 4
GridSize: 4
TimelineZoom: 1.2

[Metadata]
Title:Sayonara Planet Wars
TitleUnicode:Sayonara Planet Wars
Artist:Chroma
ArtistUnicode:黒魔
Creator:Fresh Chicken
Version:NOVICE
Source:SOUND VOLTEX III GRAVITY WARS
Tags:Kuroma The 4th KAC Original Song Contest sdvx Konami Arcade Championship TAMAちゃん&TAMA猫 Ichigaki Shirou Zan_- Rizqy Kuo_Kyoka
BeatmapID:709403
BeatmapSetID:318594

[Difficulty]
HPDrainRate:6.5
CircleSize:4
OverallDifficulty:6.5
ApproachRate:5
SliderMultiplier:1.4
SliderTickRate:1

[Events]
//Background and Video events
0,0,"wars.png",0,0
//Break Periods
//Storyboard Layer 0 (Background)
//Storyboard Layer 1 (Fail)
//Storyboard Layer 2 (Pass)
//Storyboard Layer 3 (Foreground)
//Storyboard Sound Samples

[TimingPoints]
1669,267.857142857143,4,3,1,50,1,0
85240,-100,4,3,1,50,0,1
102249,-100,4,3,1,50,0,0

[HitObjects]
192,192,1133,5,0,0:0:0:0:
320,192,1401,1,0,0:0:0:0:
64,192,1668,1,8,0:0:0:0:
448,192,1668,1,0,0:0:0:0:
320,192,2472,1,8,0:0:0:0:
192,192,2606,1,8,0:0:0:0:
448,192,2606,1,0,0:0:0:0:
192,192,3410,1,8,0:0:0:0:
320,192,3544,1,8,0:0:0:0:
448,192,3677,1,8,0:0:0:0:
320,192,3811,1,8,0:0:0:0:
64,192,3811,1,0,0:0:0:0:
192,192,4213,1,8,0:0:0:0:
320,192,4481,1,8,0:0:0:0:
192,192,4615,1,0,0:0:0:0:
64,192,4749,1,8,0:0:0:0:
448,192,4749,1,0,0:0:0:0:
192,192,5017,1,0,0:0:0:0:
320,192,5151,1,8,0:0:0:0:
448,192,5285,1,8,0:0:0:0:
192,192,5419,128,2,5954:0:0:0:0:
64,192,5419,1,8,0:0:0:0:
320,192,5954,1,2,0:0:0:0:
448,192,5954,1,0,0:0:0:0:
64,192,6356,1,8,0:0:0:0:
192,192,6490,1,2,0:0:0:0:
448,192,6758,1,8,0:0:0:0:
320,192,6892,1,8,0:0:0:0:
192,192,6892,1,2,0:0:0:0:
64,192,7695,1,8,0:0:0:0:
192,192,7829,1,2,0:0:0:0:
320,192,7963,1,0,0:0:0:0:
64,192,8097,1,2,0:0:0:0:
448,192,8097,1,0,0:0:0:0:
192,192,8365,1,0,0:0:0:0:
320,192,8499,1,8,0:0:0:0:
64,192,8767,1,0,0:0:0:0:
448,192,8901,1,8,0:0:0:0:
192,192,9035,128,8,10240:0:0:0:0:
320,192,9035,1,2,0:0:0:0:
64,192,10240,1,8,0:0:0:0:
448,192,10240,1,0,0:0:0:0:
320,192,10508,1,8,0:0:0:0:
448,192,10508,1,0,0:0:0:0:
192,192,10776,1,8,0:0:0:0:
448,192,11044,1,8,0:0:0:0:
64,192,11044,1,0,0:0:0:0:
320,192,11311,1,8,0:0:0:0:
64,192,11579,1,8,0:0:0:0:
448,192,11579,1,0,0:0:0:0:
320,192,11847,1,8,0:0:0:0:
192,192,12115,1,8,0:0:0:0:
64,192,12115,1,0,0:0:0:0:
320,192,12383,1,8,0:0:0:0:
448,192,12651,1,8,0:0:0:0:
192,192,12651,1,0,0:0:0:0:
192,192,12919,1,8,0:0:0:0:
64,192,13186,1,8,0:0:0:0:
320,192,13186,1,0,0:0:0:0:
448,192,13454,1,8,0:0:0:0:
320,192,13722,1,8,0:0:0:0:
192,192,13722,1,0,0:0:0:0:
64,192,13990,1,8,0:0:0:0:
448,192,14124,1,2,0:0:0:0:
192,192,14258,1,0,0:0:0:0:
320,192,14392,1,2,0:0:0:0:
64,192,14526,1,8,0:0:0:0:
448,192,14526,1,0,0:0:0:0:
448,192,14794,1,8,0:0:0:0:
192,192,14794,1,0,0:0:0:0:
192,192,15061,1,8,0:0:0:0:
320,192,15329,1,8,0:0:0:0:
64,192,15329,1,0,0:0:0:0:
64,192,15597,1,8,0:0:0:0:
448,192,15865,1,8,0:0:0:0:
320,192,15865,1,0,0:0:0:0:
448,192,16133,1,8,0:0:0:0:
192,192,16401,1,8,0:0:0:0:
64,192,16401,1,0,0:0:0:0:
448,192,16669,1,8,0:0:0:0:
320,192,16802,1,8,0:0:0:0:
192,192,16936,1,8,0:0:0:0:
64,192,17070,1,8,0:0:0:0:
448,192,17204,1,8,0:0:0:0:
320,192,17338,1,8,0:0:0:0:
192,192,17472,1,8,0:0:0:0:
64,192,17606,1,8,0:0:0:0:
192,192,17740,128,8,18544:0:0:0:0:
448,192,18276,128,8,18544:0:0:0:0:
64,192,18544,128,8,18811:0:0:0:0:
320,192,18811,128,8,19079:0:0:0:0:
192,192,19079,128,8,19347:0:0:0:0:
448,192,19347,1,8,0:0:0:0:
320,192,19526,1,8,0:0:0:0:
192,192,19704,1,8,0:0:0:0:
64,192,19883,1,8,0:0:0:0:
320,192,19883,1,0,0:0:0:0:
448,192,20151,1,0,0:0:0:0:
320,192,20419,1,0,0:0:0:0:
64,192,20686,1,0,0:0:0:0:
192,192,20954,1,0,0:0:0:0:
320,192,21222,1,0,0:0:0:0:
448,192,21490,1,0,0:0:0:0:
320,192,21624,1,0,0:0:0:0:
192,192,21758,1,0,0:0:0:0:
64,192,21892,1,0,0:0:0:0:
448,192,22026,1,0,0:0:0:0:
64,192,22294,1,0,0:0:0:0:
192,192,22561,1,0,0:0:0:0:
320,192,22829,1,0,0:0:0:0:
64,192,23097,1,0,0:0:0:0:
448,192,23365,1,0,0:0:0:0:
192,192,23633,1,0,0:0:0:0:
320,192,23901,1,0,0:0:0:0:
64,192,24169,128,0,24704:0:0:0:0:
448,192,24704,1,8,0:0:0:0:
320,192,24838,1,0,0:0:0:0:
192,192,24972,1,8,0:0:0:0:
320,192,25106,1,0,0:0:0:0:
448,192,25240,1,8,0:0:0:0:
64,192,25240,1,0,0:0:0:0:
192,192,25508,1,0,0:0:0:0:
320,192,25776,1,0,0:0:0:0:
192,192,26044,1,0,0:0:0:0:
64,192,26311,1,0,0:0:0:0:
448,192,26579,1,0,0:0:0:0:
192,192,26847,1,0,0:0:0:0:
320,192,27115,1,0,0:0:0:0:
64,192,27383,128,0,27919:0:0:0:0:
448,192,27919,1,8,0:0:0:0:
192,192,28119,1,8,0:0:0:0:
448,192,28320,1,8,0:0:0:0:
64,192,28454,1,8,0:0:0:0:
320,192,28454,1,0,0:0:0:0:
320,192,28722,1,2,0:0:0:0:
192,192,28722,1,0,0:0:0:0:
448,192,28990,1,8,0:0:0:0:
192,192,29258,1,2,0:0:0:0:
64,192,29258,1,0,0:0:0:0:
320,192,29526,1,8,0:0:0:0:
64,192,29794,1,2,0:0:0:0:
448,192,29794,1,0,0:0:0:0:
192,192,30061,1,8,0:0:0:0:
320,192,30195,1,0,0:0:0:0:
448,192,30329,1,2,0:0:0:0:
64,192,30329,1,0,0:0:0:0:
192,192,30463,1,0,0:0:0:0:
320,192,30597,1,8,0:0:0:0:
448,192,30865,1,2,0:0:0:0:
64,192,30865,1,0,0:0:0:0:
192,192,31133,1,8,0:0:0:0:
320,192,31401,1,2,0:0:0:0:
64,192,31401,1,0,0:0:0:0:
192,192,31669,1,8,0:0:0:0:
448,192,31936,1,2,0:0:0:0:
64,192,31936,1,0,0:0:0:0:
320,192,32204,1,8,0:0:0:0:
448,192,32472,1,2,0:0:0:0:
192,192,32472,1,0,0:0:0:0:
320,192,32740,1,8,0:0:0:0:
448,192,33008,1,2,0:0:0:0:
64,192,33008,1,0,0:0:0:0:
192,192,33276,1,8,0:0:0:0:
448,192,33544,1,2,0:0:0:0:
320,192,33544,1,0,0:0:0:0:
64,192,33811,1,8,0:0:0:0:
320,192,34079,1,2,0:0:0:0:
192,192,34079,1,0,0:0:0:0:
448,192,34347,1,8,0:0:0:0:
64,192,34615,1,2,0:0:0:0:
192,192,34615,1,0,0:0:0:0:
448,192,34883,128,8,35285:0:0:0:0:
64,192,35151,1,2,0:0:0:0:
192,192,35151,1,0,0:0:0:0:
320,192,35285,1,0,0:0:0:0:
448,192,35419,128,8,35820:0:0:0:0:
64,192,35686,1,2,0:0:0:0:
192,192,35686,1,0,0:0:0:0:
320,192,35820,1,0,0:0:0:0:
192,192,35954,128,8,36490:0:0:0:0:
448,192,36222,1,2,0:0:0:0:
320,192,36222,128,0,36490:0:0:0:0:
64,192,36490,1,8,0:0:0:0:
448,192,36490,1,0,0:0:0:0:
448,192,37026,128,2,37294:0:0:0:0:
64,192,37026,1,8,0:0:0:0:
192,192,37561,128,2,37829:0:0:0:0:
448,192,37561,1,0,0:0:0:0:
320,192,38097,128,0,38365:0:0:0:0:
64,192,38633,128,2,38901:0:0:0:0:
448,192,38633,1,0,0:0:0:0:
192,192,39169,128,0,39436:0:0:0:0:
320,192,39704,128,2,39972:0:0:0:0:
448,192,39704,1,0,0:0:0:0:
64,192,39972,128,0,40240:0:0:0:0:
192,192,40240,1,0,0:0:0:0:
448,192,40374,1,2,0:0:0:0:
320,192,40508,1,0,0:0:0:0:
448,192,40642,1,0,0:0:0:0:
192,192,40776,1,2,0:0:0:0:
320,192,41044,1,0,0:0:0:0:
64,192,41311,128,0,41579:0:0:0:0:
448,192,41847,128,2,42115:0:0:0:0:
192,192,41847,1,0,0:0:0:0:
320,192,42383,128,0,42651:0:0:0:0:
448,192,42919,128,2,43186:0:0:0:0:
192,192,42919,1,0,0:0:0:0:
64,192,43186,128,0,43454:0:0:0:0:
320,192,43454,1,2,0:0:0:0:
192,192,43588,1,0,0:0:0:0:
64,192,43722,1,0,0:0:0:0:
448,192,43856,128,2,44124:0:0:0:0:
192,192,43856,1,0,0:0:0:0:
320,192,44124,1,0,0:0:0:0:
192,192,44258,128,0,44526:0:0:0:0:
448,192,44526,1,0,0:0:0:0:
64,192,44660,1,2,0:0:0:0:
448,192,44794,1,0,0:0:0:0:
64,192,44927,128,0,45195:0:0:0:0:
320,192,45061,1,2,0:0:0:0:
192,192,45329,1,2,0:0:0:0:
64,192,45597,1,8,0:0:0:0:
448,192,45597,1,0,0:0:0:0:
192,192,45798,1,0,0:0:0:0:
64,192,45999,1,0,0:0:0:0:
192,192,46133,1,8,0:0:0:0:
320,192,46401,1,8,0:0:0:0:
64,192,46669,1,8,0:0:0:0:
448,192,46669,1,0,0:0:0:0:
192,192,46869,1,0,0:0:0:0:
320,192,47070,1,0,0:0:0:0:
448,192,47204,1,8,0:0:0:0:
64,192,47472,1,8,0:0:0:0:
320,192,47740,1,0,0:0:0:0:
192,192,47740,1,0,0:0:0:0:
448,192,47941,1,8,0:0:0:0:
320,192,48276,1,8,0:0:0:0:
192,192,48544,1,8,0:0:0:0:
64,192,48811,1,8,0:0:0:0:
192,192,49079,1,8,0:0:0:0:
320,192,49347,1,8,0:0:0:0:
64,192,49347,1,0,0:0:0:0:
448,192,49481,1,8,0:0:0:0:
192,192,49481,1,0,0:0:0:0:
64,192,49749,128,2,51490:0:0:0:0:
448,192,49749,1,8,0:0:0:0:
448,192,50151,1,2,0:0:0:0:
448,192,50419,1,2,0:0:0:0:
320,192,50686,1,2,0:0:0:0:
320,192,50954,1,2,0:0:0:0:
448,192,51222,1,2,0:0:0:0:
448,192,51490,1,8,0:0:0:0:
192,192,51624,1,8,0:0:0:0:
320,192,51892,128,2,53633:0:0:0:0:
192,192,51892,1,8,0:0:0:0:
64,192,52294,1,2,0:0:0:0:
64,192,52561,1,2,0:0:0:0:
192,192,52829,1,2,0:0:0:0:
192,192,53097,1,2,0:0:0:0:
64,192,53365,1,2,0:0:0:0:
448,192,53633,1,8,0:0:0:0:
192,192,53767,1,8,0:0:0:0:
64,192,54035,128,2,55776:0:0:0:0:
448,192,54035,1,8,0:0:0:0:
448,192,54436,1,2,0:0:0:0:
448,192,54704,1,2,0:0:0:0:
320,192,54972,1,2,0:0:0:0:
320,192,55240,1,2,0:0:0:0:
192,192,55508,1,2,0:0:0:0:
448,192,55776,1,8,0:0:0:0:
192,192,55910,1,8,0:0:0:0:
192,192,56177,128,2,57919:0:0:0:0:
320,192,56177,1,8,0:0:0:0:
64,192,56579,1,2,0:0:0:0:
64,192,56847,1,2,0:0:0:0:
320,192,57115,1,2,0:0:0:0:
320,192,57383,1,2,0:0:0:0:
64,192,57651,1,2,0:0:0:0:
320,192,57919,1,8,0:0:0:0:
64,192,58052,1,8,0:0:0:0:
448,192,58320,128,2,60061:0:0:0:0:
320,192,58320,1,8,0:0:0:0:
192,192,58722,1,2,0:0:0:0:
320,192,58990,1,2,0:0:0:0:
192,192,59258,1,2,0:0:0:0:
320,192,59526,1,2,0:0:0:0:
192,192,59794,1,2,0:0:0:0:
320,192,60061,1,2,0:0:0:0:
192,192,60329,1,2,0:0:0:0:
448,192,60597,1,2,0:0:0:0:
64,192,60865,1,2,0:0:0:0:
320,192,61133,1,2,0:0:0:0:
192,192,61401,1,2,0:0:0:0:
448,192,61669,1,2,0:0:0:0:
64,192,61936,1,2,0:0:0:0:
320,192,62204,1,2,0:0:0:0:
192,192,62472,1,2,0:0:0:0:
320,192,62740,1,2,0:0:0:0:
192,192,62874,1,2,0:0:0:0:
320,192,63008,1,2,0:0:0:0:
192,192,63142,1,2,0:0:0:0:
448,192,63276,1,2,0:0:0:0:
64,192,63410,1,2,0:0:0:0:
448,192,63544,1,2,0:0:0:0:
64,192,63677,1,2,0:0:0:0:
192,192,63811,1,2,0:0:0:0:
320,192,63945,1,2,0:0:0:0:
64,192,64079,1,2,0:0:0:0:
448,192,64213,1,2,0:0:0:0:
320,192,64347,1,2,0:0:0:0:
192,192,64481,1,2,0:0:0:0:
448,192,64615,1,2,0:0:0:0:
64,192,64749,1,2,0:0:0:0:
448,192,64883,1,0,0:0:0:0:
320,192,65017,1,0,0:0:0:0:
448,192,65151,1,0,0:0:0:0:
320,192,65285,1,0,0:0:0:0:
192,192,65419,1,0,0:0:0:0:
64,192,65552,1,0,0:0:0:0:
192,192,65686,1,0,0:0:0:0:
64,192,65820,1,0,0:0:0:0:
448,192,65954,1,0,0:0:0:0:
320,192,66088,1,0,0:0:0:0:
192,192,66222,1,0,0:0:0:0:
64,192,66356,1,0,0:0:0:0:
320,192,66490,1,8,0:0:0:0:
448,192,66490,1,0,0:0:0:0:
448,192,67561,128,0,67829:0:0:0:0:
320,192,67829,128,0,68097:0:0:0:0:
192,192,68097,128,0,68901:0:0:0:0:
448,192,68901,1,0,0:0:0:0:
320,192,69035,128,0,69838:0:0:0:0:
64,192,69838,1,0,0:0:0:0:
192,192,69972,1,0,0:0:0:0:
320,192,70106,1,0,0:0:0:0:
448,192,70240,128,0,70508:0:0:0:0:
192,192,70508,1,0,0:0:0:0:
320,192,70642,128,0,70910:0:0:0:0:
64,192,70910,1,0,0:0:0:0:
192,192,71044,1,0,0:0:0:0:
320,192,71177,128,0,71445:0:0:0:0:
448,192,71445,1,0,0:0:0:0:
320,192,71579,1,0,0:0:0:0:
192,192,71713,1,0,0:0:0:0:
64,192,71847,128,0,72383:0:0:0:0:
192,192,72383,128,0,73186:0:0:0:0:
448,192,73186,1,0,0:0:0:0:
320,192,73320,128,0,74124:0:0:0:0:
64,192,74124,1,0,0:0:0:0:
448,192,74258,1,0,0:0:0:0:
320,192,74392,1,0,0:0:0:0:
192,192,74526,128,0,74794:0:0:0:0:
448,192,74794,1,0,0:0:0:0:
320,192,74927,128,0,75195:0:0:0:0:
64,192,75195,1,0,0:0:0:0:
192,192,75329,1,0,0:0:0:0:
64,192,75463,128,0,76133:0:0:0:0:
64,192,76669,1,8,0:0:0:0:
448,192,76669,128,2,77472:0:0:0:0:
192,192,77472,1,8,0:0:0:0:
320,192,77606,128,8,78410:0:0:0:0:
64,192,77606,1,2,0:0:0:0:
64,192,78410,1,8,0:0:0:0:
192,192,78544,1,2,0:0:0:0:
320,192,78677,1,8,0:0:0:0:
448,192,78811,128,8,79213:0:0:0:0:
64,192,78811,1,0,0:0:0:0:
64,192,79213,1,0,0:0:0:0:
320,192,79347,128,2,79615:0:0:0:0:
192,192,79615,1,0,0:0:0:0:
448,192,79749,128,8,80017:0:0:0:0:
320,192,80017,1,0,0:0:0:0:
192,192,80151,1,8,0:0:0:0:
64,192,80285,1,8,0:0:0:0:
192,192,80419,128,0,80954:0:0:0:0:
320,192,80686,128,2,80954:0:0:0:0:
64,192,80954,128,2,82695:0:0:0:0:
448,192,80954,1,0,0:0:0:0:
448,192,81222,1,2,0:0:0:0:
320,192,81490,1,2,0:0:0:0:
320,192,81758,1,2,0:0:0:0:
192,192,82026,1,2,0:0:0:0:
192,192,82294,1,2,0:0:0:0:
320,192,82561,1,2,0:0:0:0:
448,192,82695,1,0,0:0:0:0:
320,192,82829,1,2,0:0:0:0:
192,192,82963,1,0,0:0:0:0:
320,192,83097,128,8,84704:0:0:0:0:
64,192,83097,1,0,0:0:0:0:
64,192,83365,1,8,0:0:0:0:
192,192,83633,1,8,0:0:0:0:
192,192,83901,1,8,0:0:0:0:
448,192,84169,1,8,0:0:0:0:
448,192,84436,1,8,0:0:0:0:
64,192,84704,1,2,0:0:0:0:
448,192,84704,1,8,0:0:0:0:
192,192,84972,1,0,0:0:0:0:
320,192,85106,1,0,0:0:0:0:
448,192,85240,1,8,0:0:0:0:
64,192,85240,1,0,0:0:0:0:
192,192,85374,1,0,0:0:0:0:
320,192,85508,1,2,0:0:0:0:
448,192,85642,1,0,0:0:0:0:
320,192,85776,1,8,0:0:0:0:
64,192,85910,1,0,0:0:0:0:
448,192,86044,1,2,0:0:0:0:
192,192,86177,1,0,0:0:0:0:
320,192,86311,1,8,0:0:0:0:
64,192,86445,1,0,0:0:0:0:
448,192,86579,1,2,0:0:0:0:
192,192,86713,1,0,0:0:0:0:
448,192,86847,1,0,0:0:0:0:
320,192,86981,1,0,0:0:0:0:
64,192,87115,1,2,0:0:0:0:
192,192,87249,1,0,0:0:0:0:
448,192,87383,1,8,0:0:0:0:
320,192,87517,1,0,0:0:0:0:
64,192,87651,1,2,0:0:0:0:
448,192,87785,1,0,0:0:0:0:
192,192,87919,1,8,0:0:0:0:
320,192,88052,1,0,0:0:0:0:
448,192,88186,1,2,0:0:0:0:
64,192,88320,1,0,0:0:0:0:
320,192,88454,1,8,0:0:0:0:
192,192,88588,1,0,0:0:0:0:
448,192,88722,1,2,0:0:0:0:
64,192,88856,1,0,0:0:0:0:
320,192,88990,1,8,0:0:0:0:
192,192,89258,1,2,0:0:0:0:
448,192,89258,1,0,0:0:0:0:
64,192,89392,1,0,0:0:0:0:
320,192,89526,128,8,89927:0:0:0:0:
448,192,89526,1,0,0:0:0:0:
192,192,89927,128,8,90329:0:0:0:0:
64,192,89927,1,0,0:0:0:0:
64,192,90329,128,8,91133:0:0:0:0:
448,192,90329,1,0,0:0:0:0:
192,192,90865,1,2,0:0:0:0:
320,192,91133,1,0,0:0:0:0:
448,192,91267,1,0,0:0:0:0:
192,192,91401,1,2,0:0:0:0:
64,192,91535,1,0,0:0:0:0:
192,192,91669,128,8,92070:0:0:0:0:
448,192,91936,1,2,0:0:0:0:
64,192,92070,128,0,92472:0:0:0:0:
192,192,92472,128,2,93276:0:0:0:0:
448,192,92472,1,0,0:0:0:0:
320,192,93008,1,2,0:0:0:0:
448,192,93276,128,8,93544:0:0:0:0:
64,192,93544,1,2,0:0:0:0:
192,192,93677,1,0,0:0:0:0:
320,192,93811,1,8,0:0:0:0:
448,192,93811,1,0,0:0:0:0:
192,192,93945,1,0,0:0:0:0:
448,192,94079,1,2,0:0:0:0:
320,192,94213,1,0,0:0:0:0:
64,192,94347,1,8,0:0:0:0:
448,192,94481,1,0,0:0:0:0:
192,192,94615,1,2,0:0:0:0:
64,192,94749,1,0,0:0:0:0:
320,192,94883,1,8,0:0:0:0:
64,192,95017,1,0,0:0:0:0:
192,192,95151,1,2,0:0:0:0:
448,192,95285,1,0,0:0:0:0:
320,192,95419,1,0,0:0:0:0:
192,192,95552,1,0,0:0:0:0:
320,192,95686,1,2,0:0:0:0:
64,192,95820,1,0,0:0:0:0:
448,192,95954,1,8,0:0:0:0:
192,192,96088,1,0,0:0:0:0:
320,192,96222,1,2,0:0:0:0:
64,192,96356,1,0,0:0:0:0:
448,192,96490,1,8,0:0:0:0:
192,192,96624,1,0,0:0:0:0:
320,192,96758,1,2,0:0:0:0:
64,192,96892,1,0,0:0:0:0:
448,192,97026,1,8,0:0:0:0:
192,192,97160,1,0,0:0:0:0:
320,192,97294,1,2,0:0:0:0:
64,192,97427,1,0,0:0:0:0:
192,192,97561,1,8,0:0:0:0:
320,192,97695,1,0,0:0:0:0:
448,192,97829,1,2,0:0:0:0:
64,192,97963,1,0,0:0:0:0:
320,192,98097,128,8,98499:0:0:0:0:
448,192,98097,1,0,0:0:0:0:
192,192,98499,128,8,98901:0:0:0:0:
64,192,98499,1,0,0:0:0:0:
448,192,98901,1,8,0:0:0:0:
64,192,98901,128,0,99704:0:0:0:0:
448,192,99436,1,2,0:0:0:0:
192,192,99570,1,0,0:0:0:0:
320,192,99704,128,8,99972:0:0:0:0:
192,192,99972,1,2,0:0:0:0:
448,192,100106,1,0,0:0:0:0:
64,192,100240,128,8,100642:0:0:0:0:
320,192,100508,1,2,0:0:0:0:
192,192,100642,128,0,101044:0:0:0:0:
320,192,101044,128,2,101847:0:0:0:0:
448,192,101110,1,0,0:0:0:0:
64,192,101579,1,2,0:0:0:0:
448,192,101713,1,8,0:0:0:0:
64,192,101847,1,8,0:0:0:0:
192,192,101981,1,8,0:0:0:0:
320,192,102115,1,8,0:0:0:0:
448,192,102249,128,8,103990:0:0:0:0:
64,192,102919,128,0,103186:0:0:0:0:
192,192,103454,128,0,103722:0:0:0:0:
320,192,103990,128,0,104258:0:0:0:0:
448,192,104526,128,0,104794:0:0:0:0:
192,192,105061,1,0,0:0:0:0:
320,192,105329,1,0,0:0:0:0:
192,192,105597,1,0,0:0:0:0:
448,192,105865,1,0,0:0:0:0:
320,192,105999,1,0,0:0:0:0:
192,192,106133,128,0,106401:0:0:0:0:
64,192,106401,1,0,0:0:0:0:
448,192,106669,128,0,106936:0:0:0:0:
320,192,107204,128,0,107472:0:0:0:0:
192,192,107740,128,0,108008:0:0:0:0:
64,192,108276,128,0,108544:0:0:0:0:
192,192,108544,128,0,108811:0:0:0:0:
320,192,108811,1,0,0:0:0:0:
448,192,108945,1,0,0:0:0:0:
320,192,109079,1,0,0:0:0:0:
192,192,109213,128,0,109481:0:0:0:0:
320,192,109481,1,0,0:0:0:0:
448,192,109615,128,0,109883:0:0:0:0:
64,192,109883,1,0,0:0:0:0:
192,192,110017,1,0,0:0:0:0:
320,192,110151,1,0,0:0:0:0:
448,192,110285,1,0,0:0:0:0:
192,192,110419,128,0,110954:0:0:0:0:
320,192,110686,128,8,110954:0:0:0:0:
448,192,110954,1,8,0:0:0:0:
64,192,110954,1,0,0:0:0:0:
192,192,111222,1,8,0:0:0:0:
320,192,111222,1,0,0:0:0:0:
448,192,111490,1,8,0:0:0:0:
64,192,111490,1,0,0:0:0:0:
320,192,111758,1,8,0:0:0:0:
192,192,111758,1,0,0:0:0:0:
320,192,112026,1,8,0:0:0:0:
448,192,112026,1,0,0:0:0:0:
192,192,112294,1,8,0:0:0:0:
64,192,112294,1,0,0:0:0:0:
448,192,112561,1,8,0:0:0:0:
320,192,112561,1,0,0:0:0:0:
64,192,112829,1,8,0:0:0:0:
192,192,112829,1,0,0:0:0:0:
64,192,113097,1,8,0:0:0:0:
320,192,113097,1,0,0:0:0:0:
192,192,113365,1,8,0:0:0:0:
448,192,113365,1,0,0:0:0:0:
320,192,113633,1,8,0:0:0:0:
64,192,113633,1,0,0:0:0:0:
448,192,113901,1,8,0:0:0:0:
192,192,113901,1,0,0:0:0:0:
64,192,114169,1,8,0:0:0:0:
192,192,114169,1,0,0:0:0:0:
320,192,114436,1,8,0:0:0:0:
448,192,114436,1,0,0:0:0:0:
64,192,114704,1,8,0:0:0:0:
192,192,114838,1,0,0:0:0:0:
448,192,114972,1,0,0:0:0:0:
320,192,115106,1,0,0:0:0:0:
64,192,115240,1,8,0:0:0:0:
192,192,115374,1,8,0:0:0:0:
320,192,115508,1,8,0:0:0:0:
448,192,115642,1,8,0:0:0:0:
64,192,115776,1,8,0:0:0:0:
448,192,115910,1,8,0:0:0:0:
192,192,116044,1,8,0:0:0:0:
320,192,116177,1,8,0:0:0:0:
448,192,116311,1,8,0:0:0:0:
64,192,116445,1,8,0:0:0:0:
320,192,116579,1,8,0:0:0:0:
192,192,116713,1,8,0:0:0:0:
448,192,116847,1,8,0:0:0:0:
320,192,116981,1,8,0:0:0:0:
192,192,117115,1,8,0:0:0:0:
64,192,117249,1,8,0:0:0:0:
448,192,117383,128,8,118990:0:0:0:0:
320,192,117383,1,0,0:0:0:0:
64,192,117517,1,8,0:0:0:0:
320,192,117651,1,8,0:0:0:0:
192,192,117785,1,8,0:0:0:0:
64,192,117919,1,8,0:0:0:0:
320,192,118052,1,8,0:0:0:0:
192,192,118186,1,8,0:0:0:0:
320,192,118320,1,8,0:0:0:0:
64,192,118454,1,8,0:0:0:0:
192,192,118588,1,8,0:0:0:0:
64,192,118722,1,8,0:0:0:0:
320,192,118856,1,8,0:0:0:0:
64,192,118990,1,8,0:0:0:0:
192,192,118990,1,2,0:0:0:0:
