osu file format v14

[General]
AudioFilename: audio.mp3
AudioLeadIn: 0
PreviewTime: 194639
Countdown: 0
SampleSet: Normal
StackLeniency: 0.7
Mode: 1
LetterboxInBreaks: 0
WidescreenStoryboard: 1

[Editor]
DistanceSpacing: 1
BeatDivisor: 4
GridSize: 32
TimelineZoom: 2.899999

[Metadata]
Title:Sayonara Planet Wars
TitleUnicode:Sayonara Planet Wars
Artist:Chroma
ArtistUnicode:黒魔
Creator:D o t
Version:Futsuu
Source:SOUND VOLTEX III GRAVITY WARS
Tags:the 4th kac original song contest オリジナル楽曲コンテスト sdvx 五つの物語 five stories C91
BeatmapID:1956146
BeatmapSetID:916893

[Difficulty]
HPDrainRate:6
CircleSize:5
OverallDifficulty:4
ApproachRate:5
SliderMultiplier:1.4
SliderTickRate:1

[Events]
//Background and Video events
0,0,"bg (2).jpg",0,0
//Break Periods
//Storyboard Layer 0 (Background)
//Storyboard Layer 1 (Fail)
//Storyboard Layer 2 (Pass)
//Storyboard Layer 3 (Foreground)
//Storyboard Sound Samples

[TimingPoints]
2117,267.857142857143,4,1,0,100,1,0
93188,-100,4,1,0,10,0,0
94192,-100,4,1,0,100,0,0
102831,-100,4,1,0,100,0,1
119840,-100,4,1,0,100,0,0
154259,-100,4,1,0,100,0,1
171402,-100,4,1,0,100,0,0
172742,-100,4,1,0,40,0,0
175688,-100,4,1,0,70,0,0
176224,-100,4,1,0,90,0,0
194974,-100,4,1,0,100,0,1
211983,-100,4,1,0,100,0,0
220688,-100,4,1,0,100,0,1
231268,-100,4,1,0,100,0,0
231402,-100,4,1,0,70,0,0

[HitObjects]
256,192,2116,5,4,0:0:0:0:
256,192,6402,1,0,0:0:0:0:
256,192,10420,1,2,0:0:0:0:
256,192,10688,1,0,0:0:0:0:
256,192,10956,1,0,0:0:0:0:
256,192,11224,1,2,0:0:0:0:
256,192,11358,1,2,0:0:0:0:
256,192,11625,1,2,0:0:0:0:
256,192,11893,1,2,0:0:0:0:
256,192,12161,1,2,0:0:0:0:
256,192,12295,1,2,0:0:0:0:
256,192,12831,1,2,0:0:0:0:
256,192,13099,1,2,0:0:0:0:
256,192,13367,1,2,0:0:0:0:
256,192,13500,1,2,0:0:0:0:
256,192,13768,1,2,0:0:0:0:
256,192,13902,1,0,0:0:0:0:
256,192,14438,1,2,0:0:0:0:
256,192,14572,1,2,0:0:0:0:
256,192,14706,1,2,0:0:0:0:
256,192,14974,1,0,0:0:0:0:
256,192,15509,1,2,0:0:0:0:
256,192,15643,1,2,0:0:0:0:
256,192,15911,1,2,0:0:0:0:
256,192,16179,1,2,0:0:0:0:
256,192,16447,1,2,0:0:0:0:
256,192,16581,1,2,0:0:0:0:
256,192,17117,2,0,L|192:192,24,35
256,192,19259,1,4,0:0:0:0:
256,192,20063,1,2,0:0:0:0:
256,192,20197,1,2,0:0:0:0:
256,192,21000,1,0,0:0:0:0:
256,192,21268,1,2,0:0:0:0:
256,192,21402,1,0,0:0:0:0:
256,192,21804,1,0,0:0:0:0:
256,192,22206,1,2,0:0:0:0:
256,192,22340,1,2,0:0:0:0:
256,192,22742,1,2,0:0:0:0:
256,192,23009,1,0,0:0:0:0:
256,192,23545,1,0,0:0:0:0:
256,192,24349,1,2,0:0:0:0:
256,192,24483,1,2,0:0:0:0:
256,192,25286,1,0,0:0:0:0:
256,192,25554,1,0,0:0:0:0:
256,192,25688,1,2,0:0:0:0:
256,192,26090,1,0,0:0:0:0:
256,192,26492,1,2,0:0:0:0:
256,192,26625,1,0,0:0:0:0:
256,192,27027,1,0,0:0:0:0:
256,192,27295,1,2,0:0:0:0:
256,192,27563,1,2,0:0:0:0:
256,192,27831,1,0,0:0:0:0:
256,192,28099,1,2,0:0:0:0:
256,192,28367,1,0,0:0:0:0:
256,192,28634,1,2,0:0:0:0:
256,192,28902,1,0,0:0:0:0:
256,192,29170,1,2,0:0:0:0:
256,192,29438,1,0,0:0:0:0:
256,192,29706,1,0,0:0:0:0:
256,192,29974,1,2,0:0:0:0:
256,192,30375,1,2,0:0:0:0:
256,192,30777,1,2,0:0:0:0:
256,192,31313,1,2,0:0:0:0:
256,192,31581,1,0,0:0:0:0:
256,192,31849,1,2,0:0:0:0:
256,192,32117,1,0,0:0:0:0:
256,192,32384,1,2,0:0:0:0:
256,192,32652,1,0,0:0:0:0:
256,192,32920,1,2,0:0:0:0:
256,192,33188,1,0,0:0:0:0:
256,192,33456,1,2,0:0:0:0:
256,192,33724,1,0,0:0:0:0:
256,192,33992,1,0,0:0:0:0:
256,192,34259,1,2,0:0:0:0:
256,192,34661,1,0,0:0:0:0:
256,192,35063,1,2,0:0:0:0:
256,192,35867,1,2,0:0:0:0:
256,192,36134,1,6,0:0:0:0:
256,192,36402,1,0,0:0:0:0:
256,192,36938,1,2,0:0:0:0:
256,192,37474,1,0,0:0:0:0:
256,192,39081,1,2,0:0:0:0:
256,192,39349,1,2,0:0:0:0:
256,192,39617,1,0,0:0:0:0:
256,192,41224,1,0,0:0:0:0:
256,192,41492,1,0,0:0:0:0:
256,192,41759,1,2,0:0:0:0:
256,192,42295,1,2,0:0:0:0:
256,192,42831,1,0,0:0:0:0:
256,192,43233,1,0,0:0:0:0:
256,192,43367,1,2,0:0:0:0:
256,192,43634,1,2,0:0:0:0:
256,192,43902,1,0,0:0:0:0:
256,192,44304,1,2,0:0:0:0:
256,192,44438,1,0,0:0:0:0:
256,192,44706,1,2,0:0:0:0:
256,192,44974,1,0,0:0:0:0:
256,192,45509,1,2,0:0:0:0:
256,192,46045,1,0,0:0:0:0:
256,192,47652,1,0,0:0:0:0:
256,192,47920,1,0,0:0:0:0:
256,192,48188,1,2,0:0:0:0:
256,192,49795,1,2,0:0:0:0:
256,192,50063,1,2,0:0:0:0:
256,192,50331,1,0,0:0:0:0:
256,192,51938,1,0,0:0:0:0:
256,192,52206,1,0,0:0:0:0:
256,192,52474,1,2,0:0:0:0:
256,192,53009,1,2,0:0:0:0:
256,192,53545,1,2,0:0:0:0:
256,192,54081,1,6,0:0:0:0:
256,192,54617,1,0,0:0:0:0:
256,192,55018,1,0,0:0:0:0:
256,192,55152,1,2,0:0:0:0:
256,192,55688,1,0,0:0:0:0:
256,192,56224,1,2,0:0:0:0:
256,192,56759,1,0,0:0:0:0:
256,192,57161,1,0,0:0:0:0:
256,192,57295,1,2,0:0:0:0:
256,192,57563,1,2,0:0:0:0:
256,192,57831,1,0,0:0:0:0:
256,192,58099,1,2,0:0:0:0:
256,192,58233,1,2,0:0:0:0:
256,192,58367,1,0,0:0:0:0:
256,192,58902,1,0,0:0:0:0:
256,192,59304,1,0,0:0:0:0:
256,192,59438,1,2,0:0:0:0:
256,192,59974,1,0,0:0:0:0:
256,192,60509,1,2,0:0:0:0:
256,192,61045,1,6,0:0:0:0:
256,192,61849,1,6,0:0:0:0:
256,192,62652,1,6,0:0:0:0:
256,192,62920,1,2,0:0:0:0:
256,192,63188,1,0,0:0:0:0:
256,192,63724,1,0,0:0:0:0:
256,192,63992,1,0,0:0:0:0:
256,192,64259,1,2,0:0:0:0:
256,192,64795,1,0,0:0:0:0:
256,192,65063,1,0,0:0:0:0:
256,192,65331,1,2,0:0:0:0:
256,192,65867,1,2,0:0:0:0:
256,192,66402,1,2,0:0:0:0:
256,192,66670,1,0,0:0:0:0:
256,192,66938,1,6,0:0:0:0:
256,192,67072,1,6,0:0:0:0:
256,192,67340,1,4,0:0:0:0:
256,192,67742,1,2,0:0:0:0:
256,192,68009,1,2,0:0:0:0:
256,192,68277,1,2,0:0:0:0:
256,192,68545,1,2,0:0:0:0:
256,192,68813,1,2,0:0:0:0:
256,192,69081,1,6,0:0:0:0:
256,192,69215,1,6,0:0:0:0:
256,192,69483,1,4,0:0:0:0:
256,192,69884,1,2,0:0:0:0:
256,192,70152,1,2,0:0:0:0:
256,192,70420,1,2,0:0:0:0:
256,192,70688,1,2,0:0:0:0:
256,192,70956,1,2,0:0:0:0:
256,192,71224,1,6,0:0:0:0:
256,192,71358,1,6,0:0:0:0:
256,192,71625,1,4,0:0:0:0:
256,192,72027,1,2,0:0:0:0:
256,192,72295,1,2,0:0:0:0:
256,192,72563,1,2,0:0:0:0:
256,192,72831,1,2,0:0:0:0:
256,192,73099,1,2,0:0:0:0:
256,192,73367,1,6,0:0:0:0:
256,192,73500,1,6,0:0:0:0:
256,192,73768,1,4,0:0:0:0:
256,192,74170,1,2,0:0:0:0:
256,192,74438,1,2,0:0:0:0:
256,192,74706,1,2,0:0:0:0:
256,192,74974,1,2,0:0:0:0:
256,192,75242,1,2,0:0:0:0:
256,192,75509,1,6,0:0:0:0:
256,192,75643,1,6,0:0:0:0:
256,192,75911,1,4,0:0:0:0:
256,192,76313,1,2,0:0:0:0:
256,192,76581,1,0,0:0:0:0:
256,192,77117,1,0,0:0:0:0:
256,192,77384,1,2,0:0:0:0:
256,192,77652,1,0,0:0:0:0:
256,192,78188,1,0,0:0:0:0:
256,192,78456,1,2,0:0:0:0:
256,192,78724,1,0,0:0:0:0:
256,192,79259,1,0,0:0:0:0:
256,192,79527,1,2,0:0:0:0:
256,192,79795,1,0,0:0:0:0:
256,192,80331,1,0,0:0:0:0:
256,192,80465,1,0,0:0:0:0:
256,192,80599,1,0,0:0:0:0:
256,192,80867,1,0,0:0:0:0:
256,192,81134,1,0,0:0:0:0:
256,192,81402,1,2,0:0:0:0:
256,192,81536,1,2,0:0:0:0:
256,192,81670,1,2,0:0:0:0:
256,192,81938,1,2,0:0:0:0:
256,192,82206,1,2,0:0:0:0:
256,192,82474,1,0,0:0:0:0:
256,192,82608,1,0,0:0:0:0:
256,192,82742,1,0,0:0:0:0:
256,192,83009,1,2,0:0:0:0:
256,192,83277,1,2,0:0:0:0:
256,192,83545,1,0,0:0:0:0:
256,192,83679,1,0,0:0:0:0:
256,192,83813,1,2,0:0:0:0:
256,192,83947,1,2,0:0:0:0:
256,192,84081,1,0,0:0:0:0:
256,192,85688,1,4,0:0:0:0:
256,192,89974,1,0,0:0:0:0:
256,192,94259,1,4,0:0:0:0:
256,192,95063,1,2,0:0:0:0:
256,192,95197,1,2,0:0:0:0:
256,192,96000,1,0,0:0:0:0:
256,192,96268,1,2,0:0:0:0:
256,192,96402,1,0,0:0:0:0:
256,192,96804,1,0,0:0:0:0:
256,192,97206,1,2,0:0:0:0:
256,192,97340,1,2,0:0:0:0:
256,192,97742,1,2,0:0:0:0:
256,192,98009,1,0,0:0:0:0:
256,192,98545,1,0,0:0:0:0:
256,192,98813,1,2,0:0:0:0:
256,192,99081,1,2,0:0:0:0:
256,192,99349,1,2,0:0:0:0:
256,192,99617,1,2,0:0:0:0:
256,192,99884,1,2,0:0:0:0:
256,192,100152,1,2,0:0:0:0:
256,192,100420,1,2,0:0:0:0:
256,192,100688,1,0,0:0:0:0:
256,192,100956,1,2,0:0:0:0:
256,192,101224,1,2,0:0:0:0:
256,192,101492,1,2,0:0:0:0:
256,192,101759,1,2,0:0:0:0:
256,192,102027,1,2,0:0:0:0:
256,192,102161,1,2,0:0:0:0:
256,192,102295,1,6,0:0:0:0:
256,192,102831,1,4,0:0:0:0:
256,192,103099,1,2,0:0:0:0:
256,192,103367,1,0,0:0:0:0:
256,192,103500,1,0,0:0:0:0:
256,192,103634,1,2,0:0:0:0:
256,192,103902,1,0,0:0:0:0:
256,192,104170,1,2,0:0:0:0:
256,192,104438,1,0,0:0:0:0:
256,192,104706,1,2,0:0:0:0:
256,192,104840,1,0,0:0:0:0:
256,192,104974,1,0,0:0:0:0:
256,192,105242,1,2,0:0:0:0:
256,192,105509,1,0,0:0:0:0:
256,192,105643,1,0,0:0:0:0:
256,192,105777,1,2,0:0:0:0:
256,192,106045,1,0,0:0:0:0:
256,192,106313,1,2,0:0:0:0:
256,192,106581,1,0,0:0:0:0:
256,192,106849,1,2,0:0:0:0:
256,192,106983,1,0,0:0:0:0:
256,192,107117,1,6,0:0:0:0:
256,192,107518,1,2,0:0:0:0:
256,192,107920,1,6,0:0:0:0:
256,192,108456,1,2,0:0:0:0:
256,192,108724,1,0,0:0:0:0:
256,192,108992,1,0,0:0:0:0:
256,192,109125,1,0,0:0:0:0:
256,192,109259,1,2,0:0:0:0:
256,192,109661,1,2,0:0:0:0:
256,192,110063,1,2,0:0:0:0:
256,192,110867,1,2,0:0:0:0:
256,192,111402,1,0,0:0:0:0:
256,192,111670,1,2,0:0:0:0:
256,192,111938,1,0,0:0:0:0:
256,192,112071,1,0,0:0:0:0:
256,192,112205,1,2,0:0:0:0:
256,192,112473,1,0,0:0:0:0:
256,192,112741,1,2,0:0:0:0:
256,192,113009,1,0,0:0:0:0:
256,192,113277,1,2,0:0:0:0:
256,192,113411,1,0,0:0:0:0:
256,192,113545,1,0,0:0:0:0:
256,192,113813,1,2,0:0:0:0:
256,192,114080,1,0,0:0:0:0:
256,192,114214,1,0,0:0:0:0:
256,192,114348,1,2,0:0:0:0:
256,192,114616,1,0,0:0:0:0:
256,192,114884,1,2,0:0:0:0:
256,192,115152,1,0,0:0:0:0:
256,192,115420,1,2,0:0:0:0:
256,192,115554,1,0,0:0:0:0:
256,192,115688,1,6,0:0:0:0:
256,192,116089,1,2,0:0:0:0:
256,192,116491,1,6,0:0:0:0:
256,192,117027,1,2,0:0:0:0:
256,192,117295,1,0,0:0:0:0:
256,192,117563,1,0,0:0:0:0:
256,192,117696,1,0,0:0:0:0:
256,192,117830,1,2,0:0:0:0:
256,192,118232,1,2,0:0:0:0:
256,192,118634,1,2,0:0:0:0:
256,192,119438,1,2,0:0:0:0:
256,192,119840,1,6,0:0:0:0:
256,192,121045,1,2,0:0:0:0:
256,192,122117,1,2,0:0:0:0:
256,192,123188,1,2,0:0:0:0:
256,192,123724,1,2,0:0:0:0:
256,192,124259,1,2,0:0:0:0:
256,192,125331,1,2,0:0:0:0:
256,192,126402,1,2,0:0:0:0:
256,192,127474,1,2,0:0:0:0:
256,192,128277,1,2,0:0:0:0:
256,192,128545,1,0,0:0:0:0:
256,192,128813,1,0,0:0:0:0:
256,192,129081,1,2,0:0:0:0:
256,192,129215,1,2,0:0:0:0:
256,192,129482,1,2,0:0:0:0:
256,192,129750,1,2,0:0:0:0:
256,192,130018,1,2,0:0:0:0:
256,192,130152,1,2,0:0:0:0:
256,192,130688,1,2,0:0:0:0:
256,192,130956,1,2,0:0:0:0:
256,192,131224,1,2,0:0:0:0:
256,192,131357,1,2,0:0:0:0:
256,192,131625,1,2,0:0:0:0:
256,192,131759,1,0,0:0:0:0:
256,192,132295,1,2,0:0:0:0:
256,192,132429,1,2,0:0:0:0:
256,192,132563,1,2,0:0:0:0:
256,192,132831,1,0,0:0:0:0:
256,192,133366,1,2,0:0:0:0:
256,192,133500,1,2,0:0:0:0:
256,192,133768,1,2,0:0:0:0:
256,192,134036,1,2,0:0:0:0:
256,192,134304,1,2,0:0:0:0:
256,192,134438,1,2,0:0:0:0:
256,192,134974,2,0,L|192:192,24,35
256,192,137117,1,4,0:0:0:0:
256,192,137652,1,0,0:0:0:0:
256,192,138188,1,2,0:0:0:0:
256,192,138724,1,2,0:0:0:0:
256,192,138992,1,0,0:0:0:0:
256,192,139259,1,0,0:0:0:0:
256,192,139795,1,0,0:0:0:0:
256,192,140331,1,2,0:0:0:0:
256,192,140867,1,2,0:0:0:0:
256,192,141134,1,0,0:0:0:0:
256,192,141402,1,0,0:0:0:0:
256,192,141938,1,0,0:0:0:0:
256,192,142474,1,2,0:0:0:0:
256,192,143009,1,2,0:0:0:0:
256,192,143277,1,0,0:0:0:0:
256,192,143545,1,0,0:0:0:0:
256,192,144081,1,0,0:0:0:0:
256,192,144617,1,2,0:0:0:0:
256,192,145152,1,2,0:0:0:0:
256,192,145420,1,2,0:0:0:0:
256,192,145688,1,0,0:0:0:0:
256,192,146224,1,0,0:0:0:0:
256,192,146759,1,0,0:0:0:0:
256,192,147295,1,0,0:0:0:0:
256,192,147831,1,0,0:0:0:0:
256,192,148367,1,0,0:0:0:0:
256,192,148902,1,0,0:0:0:0:
256,192,149170,1,0,0:0:0:0:
256,192,149438,1,2,0:0:0:0:
256,192,149974,1,0,0:0:0:0:
256,192,150108,1,0,0:0:0:0:
256,192,150242,1,0,0:0:0:0:
256,192,150509,1,2,0:0:0:0:
256,192,150777,1,2,0:0:0:0:
256,192,151045,1,0,0:0:0:0:
256,192,151179,1,0,0:0:0:0:
256,192,151313,1,0,0:0:0:0:
256,192,151581,1,2,0:0:0:0:
256,192,151849,1,2,0:0:0:0:
256,192,152117,2,0,L|192:192,16,35
256,192,154259,1,4,0:0:0:0:
256,192,154527,1,0,0:0:0:0:
256,192,154661,1,2,0:0:0:0:
256,192,155063,1,2,0:0:0:0:
256,192,155331,1,0,0:0:0:0:
256,192,155599,1,2,0:0:0:0:
256,192,155733,1,2,0:0:0:0:
256,192,156134,1,0,0:0:0:0:
256,192,156402,1,2,0:0:0:0:
256,192,156670,1,2,0:0:0:0:
256,192,156804,1,0,0:0:0:0:
256,192,157206,1,2,0:0:0:0:
256,192,157474,1,0,0:0:0:0:
256,192,157608,1,2,0:0:0:0:
256,192,157875,1,0,0:0:0:0:
256,192,158009,1,2,0:0:0:0:
256,192,158277,1,2,0:0:0:0:
256,192,158545,1,0,0:0:0:0:
256,192,158813,1,0,0:0:0:0:
256,192,158947,1,2,0:0:0:0:
256,192,159349,1,2,0:0:0:0:
256,192,159617,1,0,0:0:0:0:
256,192,159884,1,2,0:0:0:0:
256,192,160018,1,2,0:0:0:0:
256,192,160420,1,0,0:0:0:0:
256,192,160688,1,2,0:0:0:0:
256,192,161224,1,2,0:0:0:0:
256,192,161492,1,0,0:0:0:0:
256,192,161759,1,0,0:0:0:0:
256,192,161893,1,0,0:0:0:0:
256,192,162027,1,0,0:0:0:0:
256,192,162295,1,2,0:0:0:0:
256,192,162831,1,0,0:0:0:0:
256,192,163099,1,0,0:0:0:0:
256,192,163233,1,2,0:0:0:0:
256,192,163634,1,2,0:0:0:0:
256,192,163902,1,0,0:0:0:0:
256,192,164170,1,2,0:0:0:0:
256,192,164304,1,2,0:0:0:0:
256,192,164706,1,0,0:0:0:0:
256,192,164974,1,2,0:0:0:0:
256,192,165242,1,2,0:0:0:0:
256,192,165376,1,0,0:0:0:0:
256,192,165778,1,2,0:0:0:0:
256,192,166046,1,0,0:0:0:0:
256,192,166180,1,2,0:0:0:0:
256,192,166447,1,0,0:0:0:0:
256,192,166581,1,2,0:0:0:0:
256,192,166849,1,2,0:0:0:0:
256,192,167117,1,0,0:0:0:0:
256,192,167384,1,2,0:0:0:0:
256,192,167518,1,0,0:0:0:0:
256,192,167920,1,2,0:0:0:0:
256,192,168188,1,0,0:0:0:0:
256,192,168322,1,2,0:0:0:0:
256,192,168590,1,0,0:0:0:0:
256,192,168724,1,2,0:0:0:0:
256,192,168992,1,2,0:0:0:0:
256,192,169259,2,0,L|192:192,32,35
256,192,176224,1,4,0:0:0:0:
256,192,178367,1,0,0:0:0:0:
256,192,180509,1,0,0:0:0:0:
256,192,180911,1,2,0:0:0:0:
256,192,181313,1,0,0:0:0:0:
256,192,182652,1,2,0:0:0:0:
256,192,183054,1,2,0:0:0:0:
256,192,183456,1,0,0:0:0:0:
256,192,184259,1,2,0:0:0:0:
256,192,184795,1,0,0:0:0:0:
256,192,185063,1,2,0:0:0:0:
256,192,185599,1,2,0:0:0:0:
256,192,186134,1,2,0:0:0:0:
256,192,186670,1,2,0:0:0:0:
256,192,187206,1,2,0:0:0:0:
256,192,187742,1,2,0:0:0:0:
256,192,188277,1,2,0:0:0:0:
256,192,188813,1,2,0:0:0:0:
256,192,189081,1,0,0:0:0:0:
256,192,189483,1,2,0:0:0:0:
256,192,189884,1,0,0:0:0:0:
256,192,190420,1,0,0:0:0:0:
256,192,190688,1,2,0:0:0:0:
256,192,190956,1,2,0:0:0:0:
256,192,191224,1,0,0:0:0:0:
256,192,191492,1,0,0:0:0:0:
256,192,191759,1,0,0:0:0:0:
256,192,192027,1,0,0:0:0:0:
256,192,192295,1,0,0:0:0:0:
256,192,192429,1,0,0:0:0:0:
256,192,192563,1,0,0:0:0:0:
256,192,192831,1,6,0:0:0:0:
256,192,193233,12,0,194170,0:0:0:0:
256,192,194438,5,6,0:0:0:0:
256,192,194974,1,4,0:0:0:0:
256,192,195242,1,2,0:0:0:0:
256,192,195510,1,0,0:0:0:0:
256,192,195643,1,0,0:0:0:0:
256,192,195777,1,2,0:0:0:0:
256,192,196045,1,0,0:0:0:0:
256,192,196313,1,2,0:0:0:0:
256,192,196581,1,0,0:0:0:0:
256,192,196849,1,2,0:0:0:0:
256,192,196983,1,0,0:0:0:0:
256,192,197117,1,0,0:0:0:0:
256,192,197385,1,2,0:0:0:0:
256,192,197652,1,0,0:0:0:0:
256,192,197786,1,0,0:0:0:0:
256,192,197920,1,2,0:0:0:0:
256,192,198188,1,0,0:0:0:0:
256,192,198456,1,2,0:0:0:0:
256,192,198724,1,0,0:0:0:0:
256,192,198992,1,2,0:0:0:0:
256,192,199126,1,0,0:0:0:0:
256,192,199260,1,6,0:0:0:0:
256,192,199661,1,2,0:0:0:0:
256,192,200063,1,6,0:0:0:0:
256,192,200599,1,2,0:0:0:0:
256,192,200867,1,0,0:0:0:0:
256,192,201135,1,0,0:0:0:0:
256,192,201268,1,0,0:0:0:0:
256,192,201402,1,2,0:0:0:0:
256,192,201804,1,2,0:0:0:0:
256,192,202206,1,2,0:0:0:0:
256,192,203010,1,2,0:0:0:0:
256,192,203545,1,0,0:0:0:0:
256,192,203813,1,2,0:0:0:0:
256,192,204081,1,0,0:0:0:0:
256,192,204214,1,0,0:0:0:0:
256,192,204348,1,2,0:0:0:0:
256,192,204616,1,0,0:0:0:0:
256,192,204884,1,2,0:0:0:0:
256,192,205152,1,0,0:0:0:0:
256,192,205420,1,2,0:0:0:0:
256,192,205554,1,0,0:0:0:0:
256,192,205688,1,0,0:0:0:0:
256,192,205956,1,2,0:0:0:0:
256,192,206223,1,0,0:0:0:0:
256,192,206357,1,0,0:0:0:0:
256,192,206491,1,2,0:0:0:0:
256,192,206759,1,0,0:0:0:0:
256,192,207027,1,2,0:0:0:0:
256,192,207295,1,0,0:0:0:0:
256,192,207563,1,2,0:0:0:0:
256,192,207697,1,0,0:0:0:0:
256,192,207831,1,6,0:0:0:0:
256,192,208232,1,2,0:0:0:0:
256,192,208634,1,6,0:0:0:0:
256,192,209170,1,2,0:0:0:0:
256,192,209438,1,0,0:0:0:0:
256,192,209706,1,0,0:0:0:0:
256,192,209839,1,0,0:0:0:0:
256,192,209973,1,2,0:0:0:0:
256,192,210375,1,2,0:0:0:0:
256,192,210777,1,2,0:0:0:0:
256,192,211581,1,2,0:0:0:0:
256,192,211983,1,6,0:0:0:0:
256,192,212384,1,2,0:0:0:0:
256,192,212652,1,2,0:0:0:0:
256,192,212920,1,2,0:0:0:0:
256,192,213188,1,0,0:0:0:0:
256,192,213456,1,0,0:0:0:0:
256,192,213590,1,2,0:0:0:0:
256,192,213992,1,2,0:0:0:0:
256,192,214259,1,0,0:0:0:0:
256,192,214527,1,2,0:0:0:0:
256,192,214661,1,0,0:0:0:0:
256,192,215063,1,2,0:0:0:0:
256,192,215331,1,0,0:0:0:0:
256,192,215465,1,2,0:0:0:0:
256,192,215733,1,0,0:0:0:0:
256,192,215867,1,2,0:0:0:0:
256,192,216134,1,2,0:0:0:0:
256,192,216402,1,0,0:0:0:0:
256,192,216670,1,2,0:0:0:0:
256,192,216938,1,0,0:0:0:0:
256,192,217206,1,2,0:0:0:0:
256,192,217340,1,0,0:0:0:0:
256,192,217474,1,0,0:0:0:0:
256,192,217742,1,2,0:0:0:0:
256,192,218009,1,0,0:0:0:0:
256,192,218277,1,2,0:0:0:0:
256,192,218411,1,2,0:0:0:0:
256,192,218545,1,0,0:0:0:0:
256,192,218813,1,2,0:0:0:0:
256,192,219349,1,2,0:0:0:0:
256,192,219617,1,0,0:0:0:0:
256,192,219884,1,0,0:0:0:0:
256,192,220152,1,2,0:0:0:0:
256,192,220420,1,2,0:0:0:0:
256,192,220688,1,0,0:0:0:0:
256,192,221090,1,2,0:0:0:0:
256,192,221492,1,0,0:0:0:0:
256,192,221759,1,0,0:0:0:0:
256,192,222027,1,2,0:0:0:0:
256,192,222295,1,2,0:0:0:0:
256,192,222563,1,2,0:0:0:0:
256,192,222831,1,0,0:0:0:0:
256,192,223367,1,0,0:0:0:0:
256,192,223634,1,2,0:0:0:0:
256,192,223902,1,0,0:0:0:0:
256,192,224036,1,0,0:0:0:0:
256,192,224170,1,0,0:0:0:0:
256,192,224438,1,2,0:0:0:0:
256,192,224974,1,0,0:0:0:0:
256,192,225108,1,0,0:0:0:0:
256,192,225242,1,0,0:0:0:0:
256,192,225509,1,0,0:0:0:0:
256,192,225777,1,0,0:0:0:0:
256,192,226045,1,2,0:0:0:0:
256,192,226179,1,2,0:0:0:0:
256,192,226313,1,2,0:0:0:0:
256,192,226581,1,2,0:0:0:0:
256,192,226849,1,2,0:0:0:0:
256,192,227117,1,0,0:0:0:0:
256,192,227250,1,0,0:0:0:0:
256,192,227384,1,2,0:0:0:0:
256,192,227652,1,0,0:0:0:0:
256,192,227920,1,2,0:0:0:0:
256,192,228188,1,0,0:0:0:0:
256,192,228322,1,0,0:0:0:0:
256,192,228456,1,2,0:0:0:0:
256,192,228724,1,0,0:0:0:0:
256,192,228992,1,2,0:0:0:0:
256,192,229259,1,0,0:0:0:0:
256,192,229393,1,0,0:0:0:0:
256,192,229527,1,2,0:0:0:0:
256,192,229795,1,0,0:0:0:0:
256,192,230063,1,2,0:0:0:0:
256,192,230331,1,0,0:0:0:0:
256,192,230599,1,2,0:0:0:0:
256,192,230867,1,0,0:0:0:0:
256,192,231000,1,0,0:0:0:0:
256,192,231134,1,2,0:0:0:0:
256,192,231268,1,4,0:0:0:0:
256,192,231402,12,0,235688,0:0:0:0:
