osu file format v14

[General]
AudioFilename: wnx.mp3
AudioLeadIn: 0
PreviewTime: 84972
Countdown: 0
SampleSet: Normal
StackLeniency: 0.7
Mode: 1
LetterboxInBreaks: 0
WidescreenStoryboard: 0

[Editor]
DistanceSpacing: 0.8
BeatDivisor: 4
GridSize: 16
TimelineZoom: 1.5

[Metadata]
Title:Sayonara Planet Wars
TitleUnicode:Sayonara Planet Wars
Artist:Chroma
ArtistUnicode:黒魔
Creator:BrambleClaw
Version:Inner Oni
Source:SOUND VOLTEX III GRAVITY WARS
Tags:SDVX
BeatmapID:758831
BeatmapSetID:343432

[Difficulty]
HPDrainRate:5
CircleSize:4
OverallDifficulty:6
ApproachRate:4
SliderMultiplier:1.4
SliderTickRate:1

[Events]
//Background and Video events
0,0,"wars.png",0,0
//Break Periods
//Storyboard Layer 0 (Background)
//Storyboard Layer 1 (Fail)
//Storyboard Layer 2 (Pass)
//Storyboard Layer 3 (Foreground)
//Storyboard Sound Samples

[TimingPoints]
1669,267.857142857143,4,1,0,100,1,0
85240,-100,4,1,0,100,0,1
102249,-100,4,1,0,100,0,0

[HitObjects]
208,240,1668,5,4,0:0:0:0:
208,144,1802,1,0,0:0:0:0:
208,144,1869,1,0,0:0:0:0:
304,144,1936,1,8,0:0:0:0:
208,144,2070,1,0,0:0:0:0:
304,144,2204,1,8,0:0:0:0:
208,144,2338,1,0,0:0:0:0:
304,144,2472,1,8,0:0:0:0:
304,240,2606,1,12,0:0:0:0:
208,144,2874,1,0,0:0:0:0:
304,144,3008,1,8,0:0:0:0:
208,144,3142,1,0,0:0:0:0:
304,144,3276,1,8,0:0:0:0:
304,144,3343,1,8,0:0:0:0:
208,144,3410,1,0,0:0:0:0:
304,144,3544,1,8,0:0:0:0:
208,144,3677,1,0,0:0:0:0:
208,240,3811,1,4,0:0:0:0:
208,144,3945,1,0,0:0:0:0:
208,144,4012,1,0,0:0:0:0:
304,144,4079,1,8,0:0:0:0:
208,144,4213,1,0,0:0:0:0:
304,240,4347,1,12,0:0:0:0:
208,144,4481,1,0,0:0:0:0:
304,144,4615,1,8,0:0:0:0:
304,240,4749,1,12,0:0:0:0:
208,144,4883,1,0,0:0:0:0:
304,144,5017,1,8,0:0:0:0:
208,144,5151,1,0,0:0:0:0:
208,144,5285,1,0,0:0:0:0:
208,144,5419,1,0,0:0:0:0:
208,144,5485,1,0,0:0:0:0:
208,144,5552,1,0,0:0:0:0:
208,144,5619,1,0,0:0:0:0:
304,144,5686,1,8,0:0:0:0:
208,144,5820,1,0,0:0:0:0:
208,240,5954,1,4,0:0:0:0:
208,144,6088,1,0,0:0:0:0:
208,144,6155,1,0,0:0:0:0:
304,144,6222,1,8,0:0:0:0:
208,144,6356,1,0,0:0:0:0:
304,144,6490,1,8,0:0:0:0:
208,144,6624,1,0,0:0:0:0:
304,144,6758,1,8,0:0:0:0:
304,240,6892,1,12,0:0:0:0:
208,144,7160,1,0,0:0:0:0:
304,144,7294,1,8,0:0:0:0:
304,144,7427,1,8,0:0:0:0:
208,144,7561,1,0,0:0:0:0:
208,144,7628,1,0,0:0:0:0:
304,144,7695,1,8,0:0:0:0:
208,144,7762,1,0,0:0:0:0:
304,144,7829,1,8,0:0:0:0:
208,144,7963,1,0,0:0:0:0:
304,240,8097,1,12,0:0:0:0:
304,144,8231,1,8,0:0:0:0:
304,144,8298,1,8,0:0:0:0:
304,144,8365,1,8,0:0:0:0:
208,144,8499,1,0,0:0:0:0:
304,144,8633,1,8,0:0:0:0:
208,144,8767,1,0,0:0:0:0:
208,144,8834,1,0,0:0:0:0:
304,144,8901,1,8,0:0:0:0:
208,240,9035,1,4,0:0:0:0:
208,144,9302,1,0,0:0:0:0:
304,144,9436,1,8,0:0:0:0:
304,144,9570,1,8,0:0:0:0:
208,144,9704,1,0,0:0:0:0:
208,144,9771,1,0,0:0:0:0:
208,144,9838,1,0,0:0:0:0:
208,144,9905,1,0,0:0:0:0:
304,144,9972,1,8,0:0:0:0:
304,144,10039,1,8,0:0:0:0:
304,144,10106,1,8,0:0:0:0:
304,144,10173,1,8,0:0:0:0:
208,144,10240,1,0,0:0:0:0:
208,144,10374,1,0,0:0:0:0:
304,144,10508,1,8,0:0:0:0:
208,144,10642,1,0,0:0:0:0:
208,144,10709,1,0,0:0:0:0:
208,144,10776,1,0,0:0:0:0:
208,144,10910,1,0,0:0:0:0:
304,144,11044,1,8,0:0:0:0:
208,144,11177,1,0,0:0:0:0:
208,144,11311,1,0,0:0:0:0:
208,144,11445,1,0,0:0:0:0:
208,144,11512,1,0,0:0:0:0:
304,144,11579,1,8,0:0:0:0:
208,144,11713,1,0,0:0:0:0:
208,144,11847,1,0,0:0:0:0:
208,144,11914,1,0,0:0:0:0:
208,144,11981,1,0,0:0:0:0:
208,144,12048,1,0,0:0:0:0:
304,144,12115,1,8,0:0:0:0:
208,144,12249,1,0,0:0:0:0:
304,144,12383,1,8,0:0:0:0:
208,144,12517,1,0,0:0:0:0:
208,144,12584,1,0,0:0:0:0:
208,144,12651,1,0,0:0:0:0:
304,144,12785,1,8,0:0:0:0:
208,144,12919,1,0,0:0:0:0:
208,144,12985,1,0,0:0:0:0:
304,144,13052,1,8,0:0:0:0:
304,144,13186,1,8,0:0:0:0:
208,144,13320,1,0,0:0:0:0:
208,144,13454,1,0,0:0:0:0:
208,144,13521,1,0,0:0:0:0:
208,144,13588,1,0,0:0:0:0:
208,144,13722,1,0,0:0:0:0:
208,144,13856,1,0,0:0:0:0:
304,144,13990,1,8,0:0:0:0:
304,144,14057,1,8,0:0:0:0:
304,144,14124,1,8,0:0:0:0:
304,144,14258,1,8,0:0:0:0:
304,144,14392,1,8,0:0:0:0:
208,144,14526,1,0,0:0:0:0:
304,144,14660,1,8,0:0:0:0:
208,144,14794,1,0,0:0:0:0:
208,144,14860,1,0,0:0:0:0:
304,144,14927,1,8,0:0:0:0:
208,144,15061,1,0,0:0:0:0:
208,144,15128,1,0,0:0:0:0:
208,144,15195,1,0,0:0:0:0:
208,144,15262,1,0,0:0:0:0:
304,144,15329,1,8,0:0:0:0:
208,144,15463,1,0,0:0:0:0:
208,144,15597,1,0,0:0:0:0:
304,144,15731,1,8,0:0:0:0:
304,144,15865,1,8,0:0:0:0:
208,144,15999,1,0,0:0:0:0:
208,144,16133,1,0,0:0:0:0:
208,144,16200,1,0,0:0:0:0:
304,144,16267,1,8,0:0:0:0:
208,144,16334,1,0,0:0:0:0:
304,144,16401,1,8,0:0:0:0:
208,144,16535,1,0,0:0:0:0:
208,144,16669,1,0,0:0:0:0:
208,144,16802,1,0,0:0:0:0:
208,144,16869,1,0,0:0:0:0:
304,144,16936,1,8,0:0:0:0:
304,144,17070,1,8,0:0:0:0:
208,144,17338,1,0,0:0:0:0:
304,144,17472,1,8,0:0:0:0:
304,144,17606,1,8,0:0:0:0:
208,144,17740,1,0,0:0:0:0:
208,144,17807,1,0,0:0:0:0:
208,144,17874,1,0,0:0:0:0:
208,144,17941,1,0,0:0:0:0:
304,144,18008,1,8,0:0:0:0:
304,144,18075,1,8,0:0:0:0:
304,144,18142,1,8,0:0:0:0:
304,144,18209,1,8,0:0:0:0:
208,144,18276,1,0,0:0:0:0:
208,144,18343,1,0,0:0:0:0:
208,144,18410,1,0,0:0:0:0:
208,144,18477,1,0,0:0:0:0:
304,144,18544,1,8,0:0:0:0:
304,144,18610,1,8,0:0:0:0:
304,144,18677,1,8,0:0:0:0:
304,144,18744,1,8,0:0:0:0:
208,144,18811,1,0,0:0:0:0:
208,144,18901,1,0,0:0:0:0:
208,144,18990,1,0,0:0:0:0:
304,144,19079,1,8,0:0:0:0:
304,144,19169,1,8,0:0:0:0:
304,144,19258,1,8,0:0:0:0:
304,144,19347,1,8,0:0:0:0:
304,144,19548,1,8,0:0:0:0:
304,144,19749,1,8,0:0:0:0:
304,144,19883,1,8,0:0:0:0:
208,144,20084,1,0,0:0:0:0:
304,144,20285,1,8,0:0:0:0:
208,144,20485,1,0,0:0:0:0:
304,144,20686,1,8,0:0:0:0:
208,144,20887,1,0,0:0:0:0:
304,144,21088,1,8,0:0:0:0:
208,144,21289,1,0,0:0:0:0:
208,144,21490,1,0,0:0:0:0:
208,144,21557,1,0,0:0:0:0:
304,144,21624,1,8,0:0:0:0:
208,144,21691,1,0,0:0:0:0:
304,144,21758,1,8,0:0:0:0:
304,144,21825,1,8,0:0:0:0:
208,144,21892,1,0,0:0:0:0:
208,144,21959,1,0,0:0:0:0:
304,144,22026,1,8,0:0:0:0:
208,144,22227,1,0,0:0:0:0:
304,144,22427,1,8,0:0:0:0:
208,144,22628,1,0,0:0:0:0:
208,144,22829,1,0,0:0:0:0:
304,144,23030,1,8,0:0:0:0:
208,144,23231,1,0,0:0:0:0:
208,144,23432,1,0,0:0:0:0:
304,144,23633,1,8,0:0:0:0:
208,144,23834,1,0,0:0:0:0:
208,144,24035,1,0,0:0:0:0:
304,144,24169,1,8,0:0:0:0:
208,144,24436,1,0,0:0:0:0:
208,144,24570,1,0,0:0:0:0:
304,144,24704,1,8,0:0:0:0:
304,144,24771,1,8,0:0:0:0:
304,144,24838,1,8,0:0:0:0:
304,144,24905,1,8,0:0:0:0:
208,144,24972,1,0,0:0:0:0:
208,144,25039,1,0,0:0:0:0:
304,144,25106,1,8,0:0:0:0:
208,144,25173,1,0,0:0:0:0:
304,144,25240,1,8,0:0:0:0:
208,144,25441,1,0,0:0:0:0:
208,144,25642,1,0,0:0:0:0:
304,144,25776,1,8,0:0:0:0:
208,144,25977,1,0,0:0:0:0:
304,144,26177,1,8,0:0:0:0:
208,144,26311,1,0,0:0:0:0:
304,144,26512,1,8,0:0:0:0:
208,144,26713,1,0,0:0:0:0:
304,144,26847,1,8,0:0:0:0:
208,144,27048,1,0,0:0:0:0:
304,144,27249,1,8,0:0:0:0:
208,144,27383,1,0,0:0:0:0:
208,144,27651,1,0,0:0:0:0:
208,144,27718,1,0,0:0:0:0:
304,144,27785,1,8,0:0:0:0:
208,144,27852,1,0,0:0:0:0:
208,144,27919,1,0,0:0:0:0:
304,144,28119,1,8,0:0:0:0:
208,144,28320,1,0,0:0:0:0:
304,144,28454,1,8,0:0:0:0:
208,144,28655,1,0,0:0:0:0:
304,144,28856,1,8,0:0:0:0:
208,144,29057,1,0,0:0:0:0:
304,144,29258,1,8,0:0:0:0:
208,144,29459,1,0,0:0:0:0:
304,144,29660,1,8,0:0:0:0:
208,144,29860,1,0,0:0:0:0:
208,144,30061,1,0,0:0:0:0:
208,144,30128,1,0,0:0:0:0:
304,144,30195,1,8,0:0:0:0:
208,144,30262,1,0,0:0:0:0:
304,144,30329,1,8,0:0:0:0:
304,144,30396,1,8,0:0:0:0:
208,144,30463,1,0,0:0:0:0:
208,144,30530,1,0,0:0:0:0:
304,144,30597,1,8,0:0:0:0:
208,144,30798,1,0,0:0:0:0:
304,144,30999,1,8,0:0:0:0:
208,144,31200,1,0,0:0:0:0:
208,144,31401,1,0,0:0:0:0:
304,144,31602,1,8,0:0:0:0:
208,144,31802,1,0,0:0:0:0:
208,144,32003,1,0,0:0:0:0:
304,144,32204,1,8,0:0:0:0:
208,144,32405,1,0,0:0:0:0:
208,144,32606,1,0,0:0:0:0:
304,144,32740,1,8,0:0:0:0:
208,144,32941,1,0,0:0:0:0:
208,144,33142,1,0,0:0:0:0:
304,144,33276,1,8,0:0:0:0:
208,144,33410,1,0,0:0:0:0:
304,144,33544,1,8,0:0:0:0:
304,144,33744,1,8,0:0:0:0:
208,144,33945,1,0,0:0:0:0:
304,144,34079,1,8,0:0:0:0:
208,144,34213,1,0,0:0:0:0:
304,144,34347,1,8,0:0:0:0:
304,144,34548,1,8,0:0:0:0:
208,144,34749,1,0,0:0:0:0:
304,144,34883,1,8,0:0:0:0:
304,144,34950,1,8,0:0:0:0:
304,144,35017,1,8,0:0:0:0:
208,144,35151,1,0,0:0:0:0:
304,144,35285,1,8,0:0:0:0:
304,144,35352,1,8,0:0:0:0:
208,144,35419,1,0,0:0:0:0:
208,144,35552,1,0,0:0:0:0:
304,144,35686,1,8,0:0:0:0:
208,144,35820,1,0,0:0:0:0:
304,144,35887,1,8,0:0:0:0:
208,144,35954,1,0,0:0:0:0:
208,144,36088,1,0,0:0:0:0:
304,144,36222,1,8,0:0:0:0:
304,144,36356,1,8,0:0:0:0:
208,240,36490,1,4,0:0:0:0:
208,240,37026,1,4,0:0:0:0:
208,144,37294,1,0,0:0:0:0:
304,144,37561,1,8,0:0:0:0:
208,144,37829,1,0,0:0:0:0:
208,144,37963,1,0,0:0:0:0:
208,144,38231,1,0,0:0:0:0:
208,144,38298,1,0,0:0:0:0:
304,144,38365,1,8,0:0:0:0:
208,144,38499,1,0,0:0:0:0:
304,144,38633,1,8,0:0:0:0:
208,144,38901,1,0,0:0:0:0:
208,144,39169,1,0,0:0:0:0:
208,144,39302,1,0,0:0:0:0:
304,144,39436,1,8,0:0:0:0:
208,144,39570,1,0,0:0:0:0:
208,144,39704,1,0,0:0:0:0:
304,144,39972,1,8,0:0:0:0:
208,144,40240,1,0,0:0:0:0:
208,144,40374,1,0,0:0:0:0:
208,144,40441,1,0,0:0:0:0:
304,144,40508,1,8,0:0:0:0:
208,144,40642,1,0,0:0:0:0:
208,144,40776,1,0,0:0:0:0:
304,144,41044,1,8,0:0:0:0:
208,144,41177,1,0,0:0:0:0:
304,144,41311,1,8,0:0:0:0:
304,144,41445,1,8,0:0:0:0:
208,144,41579,1,0,0:0:0:0:
208,144,41713,1,0,0:0:0:0:
304,144,41847,1,8,0:0:0:0:
304,144,41981,1,8,0:0:0:0:
208,144,42115,1,0,0:0:0:0:
304,144,42249,1,8,0:0:0:0:
304,144,42383,1,8,0:0:0:0:
208,144,42517,1,0,0:0:0:0:
208,144,42651,1,0,0:0:0:0:
208,144,42919,1,0,0:0:0:0:
304,144,43186,1,8,0:0:0:0:
208,144,43454,1,0,0:0:0:0:
208,144,43588,1,0,0:0:0:0:
304,144,43722,1,8,0:0:0:0:
304,144,43856,1,8,0:0:0:0:
208,144,44124,1,0,0:0:0:0:
304,144,44258,1,8,0:0:0:0:
304,144,44526,1,8,0:0:0:0:
208,144,44660,1,0,0:0:0:0:
304,144,44794,1,8,0:0:0:0:
208,144,44927,1,0,0:0:0:0:
304,144,45195,1,8,0:0:0:0:
208,144,45329,1,0,0:0:0:0:
208,144,45463,1,0,0:0:0:0:
208,144,45530,1,0,0:0:0:0:
304,144,45597,1,8,0:0:0:0:
208,144,45798,1,0,0:0:0:0:
304,144,45999,1,8,0:0:0:0:
208,144,46133,1,0,0:0:0:0:
208,144,46267,1,0,0:0:0:0:
304,144,46401,1,8,0:0:0:0:
208,144,46535,1,0,0:0:0:0:
208,144,46602,1,0,0:0:0:0:
304,144,46669,1,8,0:0:0:0:
208,144,46869,1,0,0:0:0:0:
304,144,47070,1,8,0:0:0:0:
208,144,47204,1,0,0:0:0:0:
304,144,47338,1,8,0:0:0:0:
304,144,47405,1,8,0:0:0:0:
304,144,47472,1,8,0:0:0:0:
304,144,47606,1,8,0:0:0:0:
208,144,47673,1,0,0:0:0:0:
304,144,47740,1,8,0:0:0:0:
208,144,47941,1,0,0:0:0:0:
304,144,48142,1,8,0:0:0:0:
208,144,48276,1,0,0:0:0:0:
208,144,48410,1,0,0:0:0:0:
304,144,48544,1,8,0:0:0:0:
208,144,48677,1,0,0:0:0:0:
208,144,48744,1,0,0:0:0:0:
304,144,48811,1,8,0:0:0:0:
208,144,49012,1,0,0:0:0:0:
304,144,49213,1,8,0:0:0:0:
208,240,49347,1,4,0:0:0:0:
304,240,49481,1,12,0:0:0:0:
208,240,49749,1,4,0:0:0:0:
208,144,50017,1,0,0:0:0:0:
208,144,50084,1,0,0:0:0:0:
304,144,50151,1,8,0:0:0:0:
208,144,50285,1,0,0:0:0:0:
208,144,50352,1,0,0:0:0:0:
304,144,50419,1,8,0:0:0:0:
208,144,50552,1,0,0:0:0:0:
208,144,50619,1,0,0:0:0:0:
304,144,50686,1,8,0:0:0:0:
208,144,50820,1,0,0:0:0:0:
208,144,50887,1,0,0:0:0:0:
304,144,50954,1,8,0:0:0:0:
208,144,51088,1,0,0:0:0:0:
208,144,51155,1,0,0:0:0:0:
304,144,51222,1,8,0:0:0:0:
208,144,51356,1,0,0:0:0:0:
304,240,51490,1,12,0:0:0:0:
208,240,51624,1,4,0:0:0:0:
208,240,51892,1,4,0:0:0:0:
304,144,52294,1,8,0:0:0:0:
208,144,52360,1,0,0:0:0:0:
208,144,52427,1,0,0:0:0:0:
208,144,52494,1,0,0:0:0:0:
304,144,52561,1,8,0:0:0:0:
208,144,52627,1,0,0:0:0:0:
208,144,52694,1,0,0:0:0:0:
208,144,52761,1,0,0:0:0:0:
304,144,52829,1,8,0:0:0:0:
208,144,52895,1,0,0:0:0:0:
208,144,52962,1,0,0:0:0:0:
208,144,53029,1,0,0:0:0:0:
304,144,53097,1,8,0:0:0:0:
208,144,53163,1,0,0:0:0:0:
208,144,53230,1,0,0:0:0:0:
208,144,53297,1,0,0:0:0:0:
304,144,53365,1,8,0:0:0:0:
208,144,53431,1,0,0:0:0:0:
208,144,53498,1,0,0:0:0:0:
304,240,53633,1,12,0:0:0:0:
208,240,53767,1,4,0:0:0:0:
208,240,54035,1,4,0:0:0:0:
208,144,54302,1,0,0:0:0:0:
208,144,54369,1,0,0:0:0:0:
304,144,54436,1,8,0:0:0:0:
304,144,54503,1,8,0:0:0:0:
208,144,54570,1,0,0:0:0:0:
208,144,54637,1,0,0:0:0:0:
304,144,54704,1,8,0:0:0:0:
304,144,54771,1,8,0:0:0:0:
208,144,54838,1,0,0:0:0:0:
208,144,54905,1,0,0:0:0:0:
304,144,54972,1,8,0:0:0:0:
304,144,55039,1,8,0:0:0:0:
208,144,55106,1,0,0:0:0:0:
208,144,55173,1,0,0:0:0:0:
304,144,55240,1,8,0:0:0:0:
304,144,55307,1,8,0:0:0:0:
208,144,55374,1,0,0:0:0:0:
208,144,55441,1,0,0:0:0:0:
304,144,55508,1,8,0:0:0:0:
304,144,55575,1,8,0:0:0:0:
208,144,55642,1,0,0:0:0:0:
208,144,55709,1,0,0:0:0:0:
304,240,55776,1,12,0:0:0:0:
208,144,55910,1,4,0:0:0:0:
208,240,56177,1,4,0:0:0:0:
208,144,56445,1,0,0:0:0:0:
208,144,56512,1,0,0:0:0:0:
304,144,56579,1,8,0:0:0:0:
208,144,56646,1,0,0:0:0:0:
208,144,56713,1,0,0:0:0:0:
208,144,56780,1,0,0:0:0:0:
304,144,56847,1,8,0:0:0:0:
208,144,56914,1,0,0:0:0:0:
208,144,56981,1,0,0:0:0:0:
208,144,57048,1,0,0:0:0:0:
304,144,57115,1,8,0:0:0:0:
208,144,57182,1,0,0:0:0:0:
208,144,57249,1,0,0:0:0:0:
208,144,57316,1,0,0:0:0:0:
304,144,57383,1,8,0:0:0:0:
208,144,57450,1,0,0:0:0:0:
304,144,57517,1,8,0:0:0:0:
208,144,57584,1,0,0:0:0:0:
304,144,57651,1,8,0:0:0:0:
304,144,57718,1,8,0:0:0:0:
208,144,57785,1,0,0:0:0:0:
208,144,57852,1,0,0:0:0:0:
304,240,57919,1,12,0:0:0:0:
208,240,58052,1,4,0:0:0:0:
208,240,58320,1,4,0:0:0:0:
208,144,58588,1,0,0:0:0:0:
208,144,58655,1,0,0:0:0:0:
304,144,58722,1,8,0:0:0:0:
208,144,58789,1,0,0:0:0:0:
208,144,58856,1,0,0:0:0:0:
208,144,58923,1,0,0:0:0:0:
304,144,58990,1,8,0:0:0:0:
208,144,59057,1,0,0:0:0:0:
208,144,59124,1,0,0:0:0:0:
208,144,59191,1,0,0:0:0:0:
304,144,59258,1,8,0:0:0:0:
304,144,59325,1,8,0:0:0:0:
208,144,59392,1,0,0:0:0:0:
208,144,59459,1,0,0:0:0:0:
304,144,59526,1,8,0:0:0:0:
208,144,59593,1,0,0:0:0:0:
208,144,59660,1,0,0:0:0:0:
208,144,59727,1,0,0:0:0:0:
304,144,59794,1,8,0:0:0:0:
304,144,59860,1,8,0:0:0:0:
208,144,59927,1,0,0:0:0:0:
208,144,59994,1,0,0:0:0:0:
304,144,60061,1,8,0:0:0:0:
208,144,60128,1,0,0:0:0:0:
208,144,60195,1,0,0:0:0:0:
208,144,60262,1,0,0:0:0:0:
304,144,60329,1,8,0:0:0:0:
208,144,60396,1,0,0:0:0:0:
208,144,60463,1,0,0:0:0:0:
208,144,60530,1,0,0:0:0:0:
304,144,60597,1,8,0:0:0:0:
208,144,60664,1,0,0:0:0:0:
208,144,60731,1,0,0:0:0:0:
208,144,60798,1,0,0:0:0:0:
304,144,60865,1,8,0:0:0:0:
208,144,60932,1,0,0:0:0:0:
304,144,60999,1,8,0:0:0:0:
208,144,61066,1,0,0:0:0:0:
304,144,61133,1,8,0:0:0:0:
208,144,61200,1,0,0:0:0:0:
208,144,61267,1,0,0:0:0:0:
208,144,61334,1,0,0:0:0:0:
304,144,61401,1,8,0:0:0:0:
304,144,61468,1,8,0:0:0:0:
208,144,61535,1,0,0:0:0:0:
208,144,61602,1,0,0:0:0:0:
304,144,61669,1,8,0:0:0:0:
208,144,61735,1,0,0:0:0:0:
208,144,61802,1,0,0:0:0:0:
208,144,61869,1,0,0:0:0:0:
304,144,61936,1,8,0:0:0:0:
208,144,62003,1,0,0:0:0:0:
304,144,62070,1,8,0:0:0:0:
208,144,62137,1,0,0:0:0:0:
304,144,62204,1,8,0:0:0:0:
208,144,62271,1,0,0:0:0:0:
208,144,62338,1,0,0:0:0:0:
208,144,62405,1,0,0:0:0:0:
304,144,62472,1,8,0:0:0:0:
304,144,62539,1,8,0:0:0:0:
208,144,62606,1,0,0:0:0:0:
208,144,62673,1,0,0:0:0:0:
304,144,62740,1,8,0:0:0:0:
208,144,62807,1,0,0:0:0:0:
208,144,62874,1,0,0:0:0:0:
208,144,62941,1,0,0:0:0:0:
304,144,63008,1,8,0:0:0:0:
208,144,63075,1,0,0:0:0:0:
208,144,63142,1,0,0:0:0:0:
208,144,63209,1,0,0:0:0:0:
304,144,63276,1,8,0:0:0:0:
304,144,63343,1,8,0:0:0:0:
208,144,63410,1,0,0:0:0:0:
208,144,63477,1,0,0:0:0:0:
304,144,63544,1,8,0:0:0:0:
304,144,63610,1,8,0:0:0:0:
208,144,63677,1,0,0:0:0:0:
208,144,63744,1,0,0:0:0:0:
304,144,63811,1,8,0:0:0:0:
208,144,63878,1,0,0:0:0:0:
208,144,63945,1,0,0:0:0:0:
208,144,64012,1,0,0:0:0:0:
304,144,64079,1,8,0:0:0:0:
208,144,64146,1,0,0:0:0:0:
304,144,64213,1,8,0:0:0:0:
208,144,64280,1,0,0:0:0:0:
304,144,64347,1,8,0:0:0:0:
304,144,64414,1,8,0:0:0:0:
208,144,64481,1,0,0:0:0:0:
208,144,64548,1,0,0:0:0:0:
304,144,64615,1,8,0:0:0:0:
304,144,64682,1,8,0:0:0:0:
208,144,64749,1,0,0:0:0:0:
208,144,64816,1,0,0:0:0:0:
304,144,64883,1,8,0:0:0:0:
208,144,64950,1,0,0:0:0:0:
208,144,65017,1,0,0:0:0:0:
304,144,65084,1,8,0:0:0:0:
208,144,65151,1,0,0:0:0:0:
208,144,65218,1,0,0:0:0:0:
304,144,65285,1,8,0:0:0:0:
208,144,65352,1,0,0:0:0:0:
304,144,65419,1,8,0:0:0:0:
208,144,65485,1,0,0:0:0:0:
208,144,65552,1,0,0:0:0:0:
304,144,65619,1,8,0:0:0:0:
208,144,65686,1,0,0:0:0:0:
208,144,65753,1,0,0:0:0:0:
304,144,65820,1,8,0:0:0:0:
208,144,65887,1,0,0:0:0:0:
304,144,65954,1,8,0:0:0:0:
304,144,66021,1,8,0:0:0:0:
208,144,66088,1,0,0:0:0:0:
208,144,66155,1,0,0:0:0:0:
304,144,66222,1,8,0:0:0:0:
304,144,66289,1,8,0:0:0:0:
208,144,66356,1,0,0:0:0:0:
208,144,66423,1,0,0:0:0:0:
304,240,66490,1,12,0:0:0:0:
208,240,68097,1,4,0:0:0:0:
208,144,68499,1,0,0:0:0:0:
304,144,68633,1,8,0:0:0:0:
208,144,68767,1,0,0:0:0:0:
304,144,68901,1,8,0:0:0:0:
304,144,69035,1,8,0:0:0:0:
208,144,69302,1,0,0:0:0:0:
304,144,69436,1,8,0:0:0:0:
208,144,69570,1,0,0:0:0:0:
304,144,69704,1,8,0:0:0:0:
304,144,69771,1,8,0:0:0:0:
208,144,69838,1,0,0:0:0:0:
208,144,69972,1,0,0:0:0:0:
304,144,70106,1,8,0:0:0:0:
304,144,70240,1,8,0:0:0:0:
208,144,70508,1,0,0:0:0:0:
304,144,70642,1,8,0:0:0:0:
208,144,70910,1,0,0:0:0:0:
304,144,71044,1,8,0:0:0:0:
208,144,71177,1,0,0:0:0:0:
208,144,71445,1,0,0:0:0:0:
304,144,71579,1,8,0:0:0:0:
208,144,71713,1,0,0:0:0:0:
208,144,71847,1,0,0:0:0:0:
208,144,71981,1,0,0:0:0:0:
208,144,72048,1,0,0:0:0:0:
304,144,72115,1,8,0:0:0:0:
208,144,72249,1,0,0:0:0:0:
208,144,72383,1,0,0:0:0:0:
208,144,72651,1,0,0:0:0:0:
304,144,72919,1,8,0:0:0:0:
208,144,73052,1,0,0:0:0:0:
304,144,73186,1,8,0:0:0:0:
304,144,73320,1,8,0:0:0:0:
208,144,73588,1,0,0:0:0:0:
304,144,73722,1,8,0:0:0:0:
208,144,73856,1,0,0:0:0:0:
304,144,73990,1,8,0:0:0:0:
304,144,74057,1,8,0:0:0:0:
208,144,74124,1,0,0:0:0:0:
304,144,74258,1,8,0:0:0:0:
208,144,74392,1,0,0:0:0:0:
304,144,74526,1,8,0:0:0:0:
304,144,74794,1,8,0:0:0:0:
208,144,74927,1,0,0:0:0:0:
304,144,75195,1,8,0:0:0:0:
208,144,75329,1,0,0:0:0:0:
208,144,75463,1,0,0:0:0:0:
304,144,75731,1,8,0:0:0:0:
208,144,75999,1,0,0:0:0:0:
304,144,76133,1,8,0:0:0:0:
208,240,76669,1,4,0:0:0:0:
208,144,76802,1,0,0:0:0:0:
208,144,76869,1,0,0:0:0:0:
304,144,76936,1,8,0:0:0:0:
208,144,77070,1,0,0:0:0:0:
304,144,77204,1,8,0:0:0:0:
304,144,77271,1,8,0:0:0:0:
208,144,77338,1,0,0:0:0:0:
208,144,77472,1,0,0:0:0:0:
304,240,77606,1,12,0:0:0:0:
208,144,77874,1,0,0:0:0:0:
304,144,78008,1,8,0:0:0:0:
208,144,78142,1,0,0:0:0:0:
304,144,78276,1,8,0:0:0:0:
208,144,78343,1,0,0:0:0:0:
304,144,78410,1,8,0:0:0:0:
208,144,78477,1,0,0:0:0:0:
304,144,78544,1,8,0:0:0:0:
208,144,78677,1,0,0:0:0:0:
304,144,78811,1,8,0:0:0:0:
208,144,79079,1,0,0:0:0:0:
304,144,79213,1,8,0:0:0:0:
208,144,79481,1,0,0:0:0:0:
304,144,79615,1,8,0:0:0:0:
208,144,79749,1,0,0:0:0:0:
208,144,80017,1,0,0:0:0:0:
304,144,80151,1,8,0:0:0:0:
304,144,80285,1,8,0:0:0:0:
208,144,80419,1,0,0:0:0:0:
208,144,80552,1,0,0:0:0:0:
208,144,80619,1,0,0:0:0:0:
304,144,80686,1,8,0:0:0:0:
208,144,80820,1,0,0:0:0:0:
304,240,80954,1,12,0:0:0:0:
208,144,81088,1,0,0:0:0:0:
304,240,81222,1,12,0:0:0:0:
208,144,81356,1,0,0:0:0:0:
304,240,81490,1,12,0:0:0:0:
208,144,81624,1,0,0:0:0:0:
304,240,81758,1,12,0:0:0:0:
208,144,81892,1,0,0:0:0:0:
304,240,82026,1,12,0:0:0:0:
208,144,82160,1,0,0:0:0:0:
304,240,82294,1,12,0:0:0:0:
208,144,82428,1,0,0:0:0:0:
304,240,82561,1,12,0:0:0:0:
208,144,82695,1,0,0:0:0:0:
304,240,82829,1,12,0:0:0:0:
208,144,82963,1,0,0:0:0:0:
304,144,83097,1,8,0:0:0:0:
208,144,83164,1,0,0:0:0:0:
208,144,83231,1,0,0:0:0:0:
208,144,83298,1,0,0:0:0:0:
304,144,83365,1,8,0:0:0:0:
208,144,83432,1,0,0:0:0:0:
208,144,83499,1,0,0:0:0:0:
208,144,83566,1,0,0:0:0:0:
304,144,83633,1,8,0:0:0:0:
208,144,83700,1,0,0:0:0:0:
208,144,83767,1,0,0:0:0:0:
208,144,83834,1,0,0:0:0:0:
304,144,83901,1,8,0:0:0:0:
208,144,83968,1,0,0:0:0:0:
208,144,84035,1,0,0:0:0:0:
208,144,84102,1,0,0:0:0:0:
304,144,84169,1,8,0:0:0:0:
304,144,84235,1,8,0:0:0:0:
304,144,84302,1,8,0:0:0:0:
304,144,84369,1,8,0:0:0:0:
208,144,84436,1,0,0:0:0:0:
208,144,84503,1,0,0:0:0:0:
208,144,84570,1,0,0:0:0:0:
208,144,84637,1,0,0:0:0:0:
304,240,84704,1,12,0:0:0:0:
208,240,85240,1,4,0:0:0:0:
208,144,85374,1,0,0:0:0:0:
208,144,85441,1,0,0:0:0:0:
304,144,85508,1,8,0:0:0:0:
208,144,85642,1,0,0:0:0:0:
208,144,85776,1,0,0:0:0:0:
208,144,85843,1,0,0:0:0:0:
304,144,85910,1,8,0:0:0:0:
208,144,85977,1,0,0:0:0:0:
304,144,86044,1,8,0:0:0:0:
208,144,86177,1,0,0:0:0:0:
208,144,86311,1,0,0:0:0:0:
304,144,86445,1,8,0:0:0:0:
208,144,86512,1,0,0:0:0:0:
304,144,86579,1,8,0:0:0:0:
208,144,86713,1,0,0:0:0:0:
208,144,86847,1,0,0:0:0:0:
208,144,86914,1,0,0:0:0:0:
208,144,86981,1,0,0:0:0:0:
208,144,87048,1,0,0:0:0:0:
304,144,87115,1,8,0:0:0:0:
208,144,87249,1,0,0:0:0:0:
304,144,87383,1,8,0:0:0:0:
208,144,87517,1,0,0:0:0:0:
208,144,87651,1,0,0:0:0:0:
304,144,87785,1,8,0:0:0:0:
208,144,87852,1,0,0:0:0:0:
304,144,87919,1,8,0:0:0:0:
208,144,88052,1,0,0:0:0:0:
208,144,88186,1,0,0:0:0:0:
304,144,88320,1,8,0:0:0:0:
304,144,88454,1,8,0:0:0:0:
208,144,88588,1,0,0:0:0:0:
208,144,88655,1,0,0:0:0:0:
304,144,88722,1,8,0:0:0:0:
208,144,88856,1,0,0:0:0:0:
304,144,88990,1,8,0:0:0:0:
304,144,89057,1,8,0:0:0:0:
208,144,89124,1,0,0:0:0:0:
208,144,89191,1,0,0:0:0:0:
304,144,89258,1,8,0:0:0:0:
208,144,89392,1,0,0:0:0:0:
304,240,89526,1,12,0:0:0:0:
208,144,89660,1,0,0:0:0:0:
208,144,89727,1,0,0:0:0:0:
208,144,89794,1,0,0:0:0:0:
304,240,89927,1,12,0:0:0:0:
208,144,90061,1,0,0:0:0:0:
208,144,90128,1,0,0:0:0:0:
304,144,90195,1,8,0:0:0:0:
208,240,90329,1,4,0:0:0:0:
304,144,90463,1,8,0:0:0:0:
208,144,90597,1,0,0:0:0:0:
208,144,90664,1,0,0:0:0:0:
304,144,90731,1,8,0:0:0:0:
208,144,90865,1,0,0:0:0:0:
304,144,90999,1,8,0:0:0:0:
304,144,91133,1,8,0:0:0:0:
304,144,91200,1,8,0:0:0:0:
208,144,91267,1,0,0:0:0:0:
208,144,91334,1,0,0:0:0:0:
304,144,91401,1,8,0:0:0:0:
304,144,91468,1,8,0:0:0:0:
208,144,91535,1,0,0:0:0:0:
208,144,91602,1,0,0:0:0:0:
304,240,91669,1,12,0:0:0:0:
208,144,91802,1,0,0:0:0:0:
208,144,91869,1,0,0:0:0:0:
208,144,91936,1,0,0:0:0:0:
304,240,92070,1,12,0:0:0:0:
208,144,92204,1,0,0:0:0:0:
208,144,92271,1,0,0:0:0:0:
304,144,92338,1,8,0:0:0:0:
208,240,92472,1,4,0:0:0:0:
304,144,92606,1,8,0:0:0:0:
208,144,92740,1,0,0:0:0:0:
208,144,92807,1,0,0:0:0:0:
304,144,92874,1,8,0:0:0:0:
208,144,92941,1,0,0:0:0:0:
304,144,93008,1,8,0:0:0:0:
208,144,93142,1,0,0:0:0:0:
304,144,93276,1,8,0:0:0:0:
304,144,93343,1,8,0:0:0:0:
304,144,93410,1,8,0:0:0:0:
304,144,93477,1,8,0:0:0:0:
208,144,93544,1,0,0:0:0:0:
208,144,93677,1,0,0:0:0:0:
304,144,93811,1,8,0:0:0:0:
208,144,93945,1,0,0:0:0:0:
208,144,94012,1,0,0:0:0:0:
304,144,94079,1,8,0:0:0:0:
208,144,94213,1,0,0:0:0:0:
304,144,94347,1,8,0:0:0:0:
208,144,94414,1,0,0:0:0:0:
208,144,94481,1,0,0:0:0:0:
208,144,94548,1,0,0:0:0:0:
304,144,94615,1,8,0:0:0:0:
208,144,94749,1,0,0:0:0:0:
304,144,94883,1,8,0:0:0:0:
304,144,94950,1,8,0:0:0:0:
208,144,95017,1,0,0:0:0:0:
208,144,95084,1,0,0:0:0:0:
304,144,95151,1,8,0:0:0:0:
304,144,95218,1,8,0:0:0:0:
208,144,95285,1,0,0:0:0:0:
208,144,95352,1,0,0:0:0:0:
304,144,95419,1,8,0:0:0:0:
208,144,95552,1,0,0:0:0:0:
304,144,95686,1,8,0:0:0:0:
304,144,95753,1,8,0:0:0:0:
208,144,95820,1,0,0:0:0:0:
208,144,95887,1,0,0:0:0:0:
304,144,95954,1,8,0:0:0:0:
208,144,96088,1,0,0:0:0:0:
208,144,96155,1,0,0:0:0:0:
304,144,96222,1,8,0:0:0:0:
208,144,96356,1,0,0:0:0:0:
304,144,96490,1,8,0:0:0:0:
208,144,96557,1,0,0:0:0:0:
208,144,96624,1,0,0:0:0:0:
304,144,96691,1,8,0:0:0:0:
304,144,96758,1,8,0:0:0:0:
208,144,96892,1,0,0:0:0:0:
304,144,97026,1,8,0:0:0:0:
208,144,97093,1,0,0:0:0:0:
208,144,97160,1,0,0:0:0:0:
208,144,97227,1,0,0:0:0:0:
304,144,97294,1,8,0:0:0:0:
208,144,97360,1,0,0:0:0:0:
208,144,97427,1,0,0:0:0:0:
208,144,97494,1,0,0:0:0:0:
304,144,97561,1,8,0:0:0:0:
208,144,97695,1,0,0:0:0:0:
208,144,97762,1,0,0:0:0:0:
304,144,97829,1,8,0:0:0:0:
208,144,97963,1,0,0:0:0:0:
304,240,98097,1,12,0:0:0:0:
208,144,98231,1,0,0:0:0:0:
208,144,98298,1,0,0:0:0:0:
208,144,98365,1,0,0:0:0:0:
304,240,98499,1,12,0:0:0:0:
208,144,98633,1,0,0:0:0:0:
208,144,98700,1,0,0:0:0:0:
304,144,98767,1,8,0:0:0:0:
208,240,98901,1,4,0:0:0:0:
304,144,99035,1,8,0:0:0:0:
208,144,99169,1,0,0:0:0:0:
304,144,99302,1,8,0:0:0:0:
208,144,99369,1,0,0:0:0:0:
304,144,99436,1,8,0:0:0:0:
208,144,99570,1,0,0:0:0:0:
208,144,99704,1,0,0:0:0:0:
208,144,99771,1,0,0:0:0:0:
208,144,99838,1,0,0:0:0:0:
208,144,99905,1,0,0:0:0:0:
304,144,99972,1,8,0:0:0:0:
304,144,100039,1,8,0:0:0:0:
208,144,100106,1,0,0:0:0:0:
208,144,100173,1,0,0:0:0:0:
304,144,100240,1,8,0:0:0:0:
208,144,100374,1,0,0:0:0:0:
208,144,100441,1,0,0:0:0:0:
304,144,100508,1,8,0:0:0:0:
304,144,100642,1,8,0:0:0:0:
208,144,100776,1,0,0:0:0:0:
208,144,100843,1,0,0:0:0:0:
304,144,100910,1,8,0:0:0:0:
208,144,100977,1,0,0:0:0:0:
304,144,101044,1,8,0:0:0:0:
208,144,101177,1,0,0:0:0:0:
304,144,101311,1,8,0:0:0:0:
208,144,101378,1,0,0:0:0:0:
208,144,101445,1,0,0:0:0:0:
208,144,101512,1,0,0:0:0:0:
304,144,101579,1,8,0:0:0:0:
208,144,101646,1,0,0:0:0:0:
208,144,101713,1,0,0:0:0:0:
208,144,101780,1,0,0:0:0:0:
304,144,101847,1,8,0:0:0:0:
304,144,101914,1,8,0:0:0:0:
208,144,101981,1,0,0:0:0:0:
208,144,102048,1,0,0:0:0:0:
304,144,102115,1,8,0:0:0:0:
208,144,102182,1,0,0:0:0:0:
304,144,102249,1,8,0:0:0:0:
208,144,102651,1,0,0:0:0:0:
208,144,102785,1,0,0:0:0:0:
304,144,102919,1,8,0:0:0:0:
208,144,103052,1,0,0:0:0:0:
208,144,103119,1,0,0:0:0:0:
304,144,103186,1,8,0:0:0:0:
208,144,103320,1,0,0:0:0:0:
304,144,103454,1,8,0:0:0:0:
208,144,103722,1,0,0:0:0:0:
208,144,103856,1,0,0:0:0:0:
304,144,103990,1,8,0:0:0:0:
208,144,104124,1,0,0:0:0:0:
208,144,104191,1,0,0:0:0:0:
304,144,104258,1,8,0:0:0:0:
208,144,104392,1,0,0:0:0:0:
304,144,104526,1,8,0:0:0:0:
208,144,104794,1,0,0:0:0:0:
208,144,104927,1,0,0:0:0:0:
304,144,105061,1,8,0:0:0:0:
304,144,105329,1,8,0:0:0:0:
208,144,105597,1,0,0:0:0:0:
304,144,105865,1,8,0:0:0:0:
208,144,105999,1,0,0:0:0:0:
208,144,106133,1,0,0:0:0:0:
208,144,106401,1,0,0:0:0:0:
304,144,106669,1,8,0:0:0:0:
208,144,106936,1,0,0:0:0:0:
208,144,107070,1,0,0:0:0:0:
304,144,107204,1,8,0:0:0:0:
208,144,107338,1,0,0:0:0:0:
208,144,107405,1,0,0:0:0:0:
304,144,107472,1,8,0:0:0:0:
208,144,107606,1,0,0:0:0:0:
304,144,107740,1,8,0:0:0:0:
208,144,108008,1,0,0:0:0:0:
208,144,108142,1,0,0:0:0:0:
304,144,108276,1,8,0:0:0:0:
208,144,108410,1,0,0:0:0:0:
304,144,108544,1,8,0:0:0:0:
304,144,108677,1,8,0:0:0:0:
208,144,108811,1,0,0:0:0:0:
208,144,108945,1,0,0:0:0:0:
304,144,109079,1,8,0:0:0:0:
304,144,109213,1,8,0:0:0:0:
208,144,109481,1,0,0:0:0:0:
304,144,109615,1,8,0:0:0:0:
304,144,109883,1,8,0:0:0:0:
208,144,110017,1,0,0:0:0:0:
304,144,110151,1,8,0:0:0:0:
208,144,110285,1,0,0:0:0:0:
304,144,110552,1,8,0:0:0:0:
208,144,110686,1,0,0:0:0:0:
208,240,110954,1,4,0:0:0:0:
208,144,111088,1,0,0:0:0:0:
208,144,111155,1,0,0:0:0:0:
304,144,111222,1,8,0:0:0:0:
208,144,111356,1,0,0:0:0:0:
304,144,111490,1,8,0:0:0:0:
304,144,111557,1,8,0:0:0:0:
208,144,111624,1,0,0:0:0:0:
208,144,111691,1,0,0:0:0:0:
304,144,111758,1,8,0:0:0:0:
208,144,111892,1,0,0:0:0:0:
304,144,112026,1,8,0:0:0:0:
208,144,112160,1,0,0:0:0:0:
208,144,112227,1,0,0:0:0:0:
208,144,112294,1,0,0:0:0:0:
304,144,112427,1,8,0:0:0:0:
208,144,112561,1,0,0:0:0:0:
208,144,112628,1,0,0:0:0:0:
208,144,112695,1,0,0:0:0:0:
208,144,112762,1,0,0:0:0:0:
304,144,112829,1,8,0:0:0:0:
208,144,112963,1,0,0:0:0:0:
304,144,113097,1,8,0:0:0:0:
304,144,113164,1,8,0:0:0:0:
208,144,113231,1,0,0:0:0:0:
208,144,113298,1,0,0:0:0:0:
304,144,113365,1,8,0:0:0:0:
304,144,113432,1,8,0:0:0:0:
208,144,113499,1,0,0:0:0:0:
208,144,113566,1,0,0:0:0:0:
304,144,113633,1,8,0:0:0:0:
208,144,113767,1,0,0:0:0:0:
208,144,113834,1,0,0:0:0:0:
304,144,113901,1,8,0:0:0:0:
208,144,114035,1,0,0:0:0:0:
304,144,114169,1,8,0:0:0:0:
208,144,114235,1,0,0:0:0:0:
208,144,114302,1,0,0:0:0:0:
208,144,114369,1,0,0:0:0:0:
304,144,114436,1,8,0:0:0:0:
208,144,114503,1,0,0:0:0:0:
304,144,114570,1,8,0:0:0:0:
208,144,114637,1,0,0:0:0:0:
304,144,114704,1,8,0:0:0:0:
208,144,114771,1,0,0:0:0:0:
208,144,114838,1,0,0:0:0:0:
208,144,114905,1,0,0:0:0:0:
304,144,114972,1,8,0:0:0:0:
304,144,115039,1,8,0:0:0:0:
304,144,115106,1,8,0:0:0:0:
304,144,115173,1,8,0:0:0:0:
208,240,115240,1,4,0:0:0:0:
208,144,115374,1,0,0:0:0:0:
304,144,115508,1,8,0:0:0:0:
304,144,115642,1,8,0:0:0:0:
208,144,115776,1,0,0:0:0:0:
208,144,115910,1,0,0:0:0:0:
304,144,116044,1,8,0:0:0:0:
304,144,116177,1,8,0:0:0:0:
208,144,116311,1,0,0:0:0:0:
208,144,116378,1,0,0:0:0:0:
208,144,116445,1,0,0:0:0:0:
304,144,116579,1,8,0:0:0:0:
304,144,116646,1,8,0:0:0:0:
304,144,116713,1,8,0:0:0:0:
208,144,116847,1,0,0:0:0:0:
208,144,116914,1,0,0:0:0:0:
208,144,116981,1,0,0:0:0:0:
304,144,117115,1,8,0:0:0:0:
304,144,117182,1,8,0:0:0:0:
304,144,117249,1,8,0:0:0:0:
208,144,117383,1,0,0:0:0:0:
208,144,117450,1,0,0:0:0:0:
208,144,117517,1,0,0:0:0:0:
208,144,117584,1,0,0:0:0:0:
304,144,117651,1,8,0:0:0:0:
304,144,117718,1,8,0:0:0:0:
304,144,117785,1,8,0:0:0:0:
304,144,117852,1,8,0:0:0:0:
208,144,117919,1,0,0:0:0:0:
208,144,117985,1,0,0:0:0:0:
208,144,118052,1,0,0:0:0:0:
208,144,118119,1,0,0:0:0:0:
304,144,118186,1,8,0:0:0:0:
304,144,118253,1,8,0:0:0:0:
304,144,118320,1,8,0:0:0:0:
304,144,118387,1,8,0:0:0:0:
208,144,118454,1,0,0:0:0:0:
304,144,118588,1,8,0:0:0:0:
208,144,118655,1,0,0:0:0:0:
304,144,118722,1,8,0:0:0:0:
208,144,118856,1,0,0:0:0:0:
304,144,118990,1,8,0:0:0:0:
304,144,119035,1,8,0:0:0:0:
304,144,119079,1,8,0:0:0:0:
208,144,119124,1,0,0:0:0:0:
