osu file format v14

[General]
AudioFilename: wnx.mp3
AudioLeadIn: 0
PreviewTime: 84972
Countdown: 0
SampleSet: Normal
StackLeniency: 0.7
Mode: 1
LetterboxInBreaks: 0
WidescreenStoryboard: 0

[Editor]
DistanceSpacing: 0.8
BeatDivisor: 4
GridSize: 16
TimelineZoom: 1.5

[Metadata]
Title:Sayonara Planet Wars
TitleUnicode:Sayonara Planet Wars
Artist:Chroma
ArtistUnicode:黒魔
Creator:BrambleClaw
Version:Futsuu
Source:SOUND VOLTEX III GRAVITY WARS
Tags:SDVX
BeatmapID:758830
BeatmapSetID:343432

[Difficulty]
HPDrainRate:4
CircleSize:4
OverallDifficulty:4
ApproachRate:4
SliderMultiplier:1.4
SliderTickRate:1

[Events]
//Background and Video events
0,0,"wars.png",0,0
//Break Periods
//Storyboard Layer 0 (Background)
//Storyboard Layer 1 (Fail)
//Storyboard Layer 2 (Pass)
//Storyboard Layer 3 (Foreground)
//Storyboard Sound Samples

[TimingPoints]
1669,267.857142857143,4,1,0,100,1,0
85240,-100,4,1,0,100,0,1
102249,-100,4,1,0,100,0,0

[HitObjects]
208,240,1668,5,4,0:0:0:0:
304,144,2204,1,8,0:0:0:0:
208,144,2740,1,0,0:0:0:0:
208,144,3008,1,0,0:0:0:0:
304,144,3276,1,8,0:0:0:0:
208,240,3811,1,4,0:0:0:0:
304,144,4347,1,8,0:0:0:0:
208,240,4749,1,4,0:0:0:0:
304,144,5151,1,8,0:0:0:0:
304,144,5419,1,8,0:0:0:0:
208,240,5954,1,4,0:0:0:0:
304,144,6490,1,8,0:0:0:0:
208,240,6892,1,4,0:0:0:0:
304,144,7561,1,8,0:0:0:0:
208,144,8097,1,0,0:0:0:0:
208,144,8365,1,0,0:0:0:0:
304,144,8633,1,8,0:0:0:0:
208,144,9169,1,0,0:0:0:0:
304,144,9704,1,8,0:0:0:0:
208,144,10240,1,0,0:0:0:0:
304,144,10776,1,8,0:0:0:0:
208,144,11311,1,0,0:0:0:0:
208,144,11579,1,0,0:0:0:0:
304,144,11847,1,8,0:0:0:0:
208,144,12383,1,0,0:0:0:0:
208,144,12651,1,0,0:0:0:0:
304,144,12919,1,8,0:0:0:0:
208,144,13454,1,0,0:0:0:0:
304,144,13990,1,8,0:0:0:0:
208,144,14526,1,0,0:0:0:0:
304,144,15061,1,8,0:0:0:0:
208,144,15597,1,0,0:0:0:0:
304,144,15865,1,8,0:0:0:0:
304,144,16133,1,8,0:0:0:0:
208,144,16669,1,0,0:0:0:0:
304,144,17204,1,8,0:0:0:0:
304,144,17740,1,8,0:0:0:0:
208,144,18276,1,0,0:0:0:0:
304,144,18544,1,8,0:0:0:0:
208,144,18811,1,0,0:0:0:0:
208,144,19079,1,0,0:0:0:0:
304,144,19347,1,8,0:0:0:0:
304,144,19615,1,8,0:0:0:0:
208,144,19883,1,0,0:0:0:0:
304,144,20419,1,8,0:0:0:0:
208,144,20954,1,0,0:0:0:0:
208,144,21222,1,0,0:0:0:0:
208,144,21490,1,8,0:0:0:0:
208,144,22026,1,0,0:0:0:0:
304,144,22561,1,8,0:0:0:0:
208,144,22829,1,0,0:0:0:0:
208,144,23097,1,0,0:0:0:0:
208,144,23365,1,0,0:0:0:0:
304,144,23633,1,8,0:0:0:0:
208,144,24169,1,0,0:0:0:0:
304,144,24704,1,8,0:0:0:0:
208,144,25240,1,0,0:0:0:0:
208,144,25508,1,0,0:0:0:0:
304,144,25776,1,8,0:0:0:0:
208,144,26311,1,0,0:0:0:0:
304,144,26847,1,8,0:0:0:0:
208,144,27115,1,0,0:0:0:0:
208,144,27383,1,0,0:0:0:0:
304,144,27919,1,8,0:0:0:0:
208,144,28454,1,0,0:0:0:0:
304,144,28722,1,8,0:0:0:0:
208,144,29258,1,8,0:0:0:0:
304,144,29794,1,8,0:0:0:0:
208,144,30061,1,0,0:0:0:0:
304,144,30329,1,8,0:0:0:0:
208,144,30597,1,0,0:0:0:0:
304,144,30865,1,8,0:0:0:0:
304,144,31401,1,8,0:0:0:0:
304,144,31936,1,8,0:0:0:0:
208,144,32204,1,0,0:0:0:0:
208,144,32472,1,8,0:0:0:0:
208,144,32740,1,0,0:0:0:0:
304,144,33276,1,8,0:0:0:0:
208,144,33811,1,0,0:0:0:0:
208,144,34079,1,0,0:0:0:0:
304,144,34347,1,8,0:0:0:0:
208,144,34615,1,0,0:0:0:0:
304,144,34883,1,8,0:0:0:0:
208,144,35285,1,0,0:0:0:0:
304,144,35954,1,8,0:0:0:0:
208,144,36356,1,0,0:0:0:0:
208,240,37026,1,4,0:0:0:0:
304,144,37561,1,8,0:0:0:0:
208,144,38097,1,0,0:0:0:0:
208,144,38365,1,0,0:0:0:0:
304,144,38633,1,8,0:0:0:0:
208,144,38901,1,0,0:0:0:0:
208,144,39169,1,0,0:0:0:0:
304,144,39704,1,8,0:0:0:0:
208,144,40240,1,0,0:0:0:0:
208,144,40508,1,0,0:0:0:0:
304,144,40776,1,8,0:0:0:0:
208,144,41311,1,0,0:0:0:0:
304,144,41847,1,8,0:0:0:0:
208,144,42383,1,0,0:0:0:0:
208,144,42651,1,0,0:0:0:0:
304,144,42919,1,8,0:0:0:0:
208,144,43186,1,0,0:0:0:0:
208,144,43454,1,0,0:0:0:0:
304,144,43856,1,8,0:0:0:0:
304,144,44526,1,8,0:0:0:0:
208,144,44927,1,0,0:0:0:0:
304,144,45329,1,8,0:0:0:0:
208,144,45597,1,0,0:0:0:0:
304,144,46133,1,8,0:0:0:0:
208,144,46669,1,0,0:0:0:0:
304,144,46936,1,8,0:0:0:0:
208,144,47204,1,0,0:0:0:0:
304,144,47740,1,8,0:0:0:0:
208,144,48276,1,0,0:0:0:0:
304,144,48811,1,8,0:0:0:0:
208,144,49079,1,0,0:0:0:0:
208,144,49347,1,0,0:0:0:0:
208,240,49749,1,4,0:0:0:0:
304,144,50151,1,8,0:0:0:0:
304,144,50419,1,8,0:0:0:0:
304,144,50686,1,8,0:0:0:0:
304,144,50954,1,8,0:0:0:0:
304,144,51222,1,8,0:0:0:0:
304,144,51490,1,8,0:0:0:0:
208,240,51892,1,4,0:0:0:0:
304,144,52294,1,8,0:0:0:0:
304,144,52561,1,8,0:0:0:0:
304,144,52829,1,8,0:0:0:0:
208,144,53097,1,0,0:0:0:0:
304,144,53365,1,8,0:0:0:0:
304,144,53633,1,8,0:0:0:0:
208,240,54035,1,4,0:0:0:0:
304,144,54436,1,8,0:0:0:0:
208,144,54704,1,0,0:0:0:0:
304,144,54972,1,8,0:0:0:0:
208,144,55240,1,0,0:0:0:0:
208,144,55508,1,0,0:0:0:0:
304,144,55776,1,8,0:0:0:0:
208,240,56177,1,4,0:0:0:0:
208,144,56579,1,0,0:0:0:0:
304,144,56847,1,8,0:0:0:0:
208,144,57115,1,0,0:0:0:0:
208,144,57383,1,0,0:0:0:0:
208,144,57651,1,0,0:0:0:0:
304,144,57919,1,8,0:0:0:0:
208,240,58320,1,4,0:0:0:0:
304,144,58722,1,8,0:0:0:0:
208,144,58990,1,0,0:0:0:0:
304,144,59258,1,8,0:0:0:0:
208,144,59526,1,0,0:0:0:0:
208,144,59794,1,0,0:0:0:0:
304,144,60061,1,8,0:0:0:0:
304,144,60329,1,8,0:0:0:0:
208,144,60597,1,0,0:0:0:0:
208,144,60865,1,0,0:0:0:0:
304,144,61133,1,8,0:0:0:0:
208,144,61401,1,0,0:0:0:0:
208,144,61669,1,0,0:0:0:0:
208,144,61936,1,0,0:0:0:0:
304,144,62204,1,8,0:0:0:0:
208,144,62472,1,0,0:0:0:0:
208,144,62740,1,0,0:0:0:0:
304,144,63008,1,8,0:0:0:0:
208,144,63276,1,0,0:0:0:0:
304,144,63544,1,8,0:0:0:0:
208,144,63811,1,0,0:0:0:0:
304,144,64079,1,8,0:0:0:0:
208,144,64347,1,0,0:0:0:0:
304,144,64615,1,8,0:0:0:0:
208,240,64883,1,4,0:0:0:0:
304,240,65419,1,12,0:0:0:0:
208,240,65954,1,4,0:0:0:0:
304,240,66490,1,12,0:0:0:0:
208,240,68097,1,4,0:0:0:0:
304,144,68633,1,8,0:0:0:0:
208,144,69169,1,0,0:0:0:0:
208,144,69436,1,0,0:0:0:0:
304,144,69704,1,8,0:0:0:0:
208,144,70240,1,0,0:0:0:0:
304,144,70776,1,8,0:0:0:0:
208,144,71311,1,0,0:0:0:0:
304,144,71579,1,8,0:0:0:0:
304,144,71847,1,8,0:0:0:0:
208,144,72115,1,0,0:0:0:0:
208,144,72383,1,0,0:0:0:0:
304,144,72919,1,8,0:0:0:0:
208,144,73320,1,0,0:0:0:0:
208,144,73722,1,0,0:0:0:0:
304,144,73990,1,8,0:0:0:0:
208,144,74258,1,0,0:0:0:0:
208,144,74526,1,0,0:0:0:0:
304,144,75061,1,8,0:0:0:0:
208,144,75597,1,0,0:0:0:0:
208,144,75865,1,0,0:0:0:0:
304,144,76133,1,8,0:0:0:0:
208,240,76669,1,4,0:0:0:0:
304,144,77204,1,8,0:0:0:0:
208,144,77606,1,0,0:0:0:0:
208,144,78008,1,0,0:0:0:0:
304,144,78276,1,8,0:0:0:0:
208,144,78811,1,0,0:0:0:0:
304,144,79213,1,8,0:0:0:0:
304,144,79615,1,8,0:0:0:0:
208,144,79883,1,0,0:0:0:0:
208,144,80151,1,0,0:0:0:0:
304,144,80419,1,8,0:0:0:0:
208,240,80954,1,4,0:0:0:0:
208,240,81222,1,4,0:0:0:0:
304,240,81490,1,12,0:0:0:0:
304,240,81758,1,12,0:0:0:0:
208,240,82026,1,4,0:0:0:0:
208,240,82294,1,4,0:0:0:0:
304,240,82561,1,12,0:0:0:0:
304,240,82829,1,12,0:0:0:0:
208,240,83097,1,4,0:0:0:0:
304,240,83365,1,12,0:0:0:0:
208,240,83633,1,4,0:0:0:0:
304,240,83901,1,12,0:0:0:0:
208,240,84169,1,4,0:0:0:0:
304,240,84704,1,12,0:0:0:0:
208,240,85240,1,4,0:0:0:0:
304,144,85508,1,8,0:0:0:0:
208,144,85776,1,0,0:0:0:0:
304,144,86044,1,8,0:0:0:0:
208,144,86311,1,0,0:0:0:0:
208,144,86445,1,0,0:0:0:0:
304,144,86579,1,8,0:0:0:0:
208,144,86847,1,0,0:0:0:0:
304,144,87115,1,8,0:0:0:0:
208,144,87383,1,0,0:0:0:0:
304,144,87651,1,8,0:0:0:0:
208,144,87919,1,0,0:0:0:0:
304,144,88186,1,8,0:0:0:0:
208,144,88454,1,0,0:0:0:0:
208,144,88588,1,0,0:0:0:0:
304,144,88722,1,8,0:0:0:0:
304,144,88856,1,8,0:0:0:0:
208,144,88990,1,0,0:0:0:0:
208,144,89124,1,0,0:0:0:0:
304,144,89258,1,8,0:0:0:0:
304,144,89392,1,8,0:0:0:0:
208,144,89526,1,0,0:0:0:0:
304,144,89927,1,8,0:0:0:0:
208,144,90329,1,0,0:0:0:0:
208,144,90597,1,0,0:0:0:0:
304,144,90865,1,8,0:0:0:0:
208,144,91133,1,0,0:0:0:0:
304,144,91401,1,8,0:0:0:0:
304,144,91669,1,8,0:0:0:0:
304,144,92070,1,8,0:0:0:0:
208,144,92472,1,0,0:0:0:0:
208,144,92740,1,0,0:0:0:0:
304,144,93008,1,8,0:0:0:0:
208,144,93276,1,0,0:0:0:0:
304,144,93544,1,8,0:0:0:0:
208,144,93811,1,0,0:0:0:0:
304,144,94079,1,8,0:0:0:0:
208,144,94347,1,0,0:0:0:0:
208,144,94481,1,0,0:0:0:0:
304,144,94615,1,8,0:0:0:0:
208,144,94883,1,0,0:0:0:0:
208,144,95017,1,0,0:0:0:0:
304,144,95151,1,8,0:0:0:0:
304,144,95285,1,8,0:0:0:0:
208,144,95419,1,0,0:0:0:0:
208,144,95552,1,0,0:0:0:0:
304,144,95686,1,8,0:0:0:0:
208,144,95954,1,0,0:0:0:0:
304,144,96222,1,8,0:0:0:0:
208,144,96490,1,0,0:0:0:0:
304,144,96758,1,8,0:0:0:0:
208,144,97026,1,0,0:0:0:0:
208,144,97160,1,0,0:0:0:0:
304,144,97294,1,8,0:0:0:0:
208,144,97561,1,0,0:0:0:0:
304,144,97829,1,8,0:0:0:0:
208,240,98097,1,4,0:0:0:0:
304,240,98499,1,12,0:0:0:0:
208,240,98901,1,4,0:0:0:0:
208,144,99169,1,0,0:0:0:0:
208,144,99302,1,0,0:0:0:0:
304,144,99436,1,8,0:0:0:0:
208,144,99704,1,0,0:0:0:0:
304,144,99972,1,8,0:0:0:0:
304,144,100240,1,8,0:0:0:0:
304,144,100642,1,8,0:0:0:0:
208,144,101044,1,0,0:0:0:0:
208,144,101311,1,0,0:0:0:0:
208,144,101579,1,0,0:0:0:0:
304,144,101847,1,8,0:0:0:0:
208,144,102115,1,0,0:0:0:0:
304,144,102249,1,8,0:0:0:0:
208,144,102919,1,0,0:0:0:0:
304,144,103454,1,8,0:0:0:0:
208,144,103990,1,0,0:0:0:0:
304,144,104526,1,8,0:0:0:0:
208,144,105061,1,0,0:0:0:0:
208,144,105597,1,0,0:0:0:0:
208,144,105865,1,0,0:0:0:0:
304,144,106133,1,8,0:0:0:0:
208,144,106401,1,0,0:0:0:0:
208,144,106669,1,0,0:0:0:0:
304,144,107204,1,8,0:0:0:0:
208,144,107740,1,0,0:0:0:0:
304,144,108276,1,8,0:0:0:0:
208,144,108811,1,0,0:0:0:0:
304,144,109213,1,8,0:0:0:0:
304,144,109883,1,8,0:0:0:0:
208,144,110285,1,0,0:0:0:0:
304,144,110686,1,8,0:0:0:0:
208,144,110954,1,0,0:0:0:0:
304,144,111490,1,8,0:0:0:0:
208,144,111892,1,0,0:0:0:0:
208,144,112294,1,0,0:0:0:0:
304,144,112561,1,8,0:0:0:0:
208,144,113097,1,0,0:0:0:0:
304,144,113633,1,8,0:0:0:0:
208,144,114035,1,0,0:0:0:0:
208,144,114436,1,0,0:0:0:0:
304,144,114704,1,8,0:0:0:0:
208,144,114972,1,0,0:0:0:0:
208,240,115240,1,4,0:0:0:0:
304,240,115776,1,12,0:0:0:0:
208,240,116311,1,4,0:0:0:0:
304,240,116847,1,12,0:0:0:0:
208,144,117383,1,4,0:0:0:0:
208,144,117651,1,4,0:0:0:0:
304,144,117919,1,12,0:0:0:0:
208,144,118186,1,4,0:0:0:0:
304,144,118454,1,12,0:0:0:0:
304,144,118722,1,12,0:0:0:0:
208,240,118990,1,4,0:0:0:0:
