osu file format v14

[General]
AudioFilename: audio.mp3
AudioLeadIn: 0
PreviewTime: 58483
Countdown: 0
SampleSet: Normal
StackLeniency: 0.7
Mode: 3
LetterboxInBreaks: 0
SpecialStyle: 0
WidescreenStoryboard: 0

[Editor]
Bookmarks: 240721,243372
DistanceSpacing: 1
BeatDivisor: 6
GridSize: 32
TimelineZoom: 2.5

[Metadata]
Title:Ryuuseigun ni Aeta Natsu
TitleUnicode:流星群に会えた夏
Artist:Chroma
ArtistUnicode:黒魔
Creator:Koito Ria
Version:Meteor Shower
Source:
Tags:electronic instrumental 8bit chiptune bitpop fa featured artist gorogoro ごろごろ kuroma summer met with a meteor shower yhsh MPG MG Mappers' Guild
BeatmapID:4378946
BeatmapSetID:2089518

[Difficulty]
HPDrainRate:8.5
CircleSize:6
OverallDifficulty:8
ApproachRate:5
SliderMultiplier:1.4
SliderTickRate:1

[Events]
//Background and Video events
0,0,"bg.jpg",0,0
//Break Periods
2,191860,200570
//Storyboard Layer 0 (Background)
//Storyboard Layer 1 (Fail)
//Storyboard Layer 2 (Pass)
//Storyboard Layer 3 (Foreground)
//Storyboard Layer 4 (Overlay)
//Storyboard Sound Samples

[TimingPoints]
3373,331.491712707182,4,1,1,70,1,0
8676,-113.636363636364,4,1,1,70,0,0
11328,-111.111111111111,4,1,1,70,0,0
11826,-108.695652173913,4,1,1,70,0,0
12323,-106.382978723404,4,1,1,70,0,0
12820,-104.166666666667,4,1,1,70,0,0
13317,-102.040816326531,4,1,1,70,0,0
13814,-100,4,1,1,70,0,0
15969,-333.333333333333,4,1,1,70,0,0
16024,-83.3333333333333,4,1,1,70,0,0
16052,-333.333333333333,4,1,1,70,0,0
16135,-83.3333333333333,4,1,1,70,0,0
16190,-250,4,1,1,70,0,0
16245,-192.307692307692,4,1,1,70,0,0
16301,-156.25,4,1,1,70,0,0
16356,-131.578947368421,4,1,1,70,0,0
16411,-113.636363636364,4,1,1,70,0,0
16466,-100,4,1,1,70,0,0
37185,-71.4285714285714,4,1,1,70,0,0
37268,-76.9230769230769,4,1,1,70,0,0
37351,-83.3333333333333,4,1,1,70,0,0
37434,-90.9090909090909,4,1,1,70,0,0
37517,-111.111111111111,4,1,1,70,0,0
37600,-125,4,1,1,70,0,0
37682,-142.857142857143,4,1,1,70,0,0
37765,-166.666666666667,4,1,1,70,0,0
37848,-100,4,1,1,70,0,0
53759,-76.9230769230769,4,1,1,70,0,0
53842,-142.857142857143,4,1,1,70,0,0
53925,-76.9230769230769,4,1,1,70,0,0
54008,-1000,4,1,1,70,0,0
54422,-20,4,1,1,70,0,0
54443,-200,4,1,1,70,0,0
54505,-20,4,1,1,70,0,0
54526,-200,4,1,1,70,0,0
54588,-20,4,1,1,70,0,0
54609,-200,4,1,1,70,0,0
54671,-20,4,1,1,70,0,0
54692,-200,4,1,1,70,0,0
54733,-20,4,1,1,70,0,0
54754,-200,4,1,1,70,0,0
54816,-20,4,1,1,70,0,0
54837,-200,4,1,1,70,0,0
54857,-20,4,1,1,70,0,0
54878,-200,4,1,1,70,0,0
54919,-20,4,1,1,70,0,0
54940,-200,4,1,1,70,0,0
54982,-20,4,1,1,70,0,0
55003,-200,4,1,1,70,0,0
55044,-20,4,1,1,70,0,0
55065,-200,4,1,1,70,0,0
55085,-500,4,1,1,70,0,0
55168,-333.333333333333,4,1,1,70,0,0
55251,-250,4,1,1,70,0,0
55334,-200,4,1,1,70,0,0
55417,-166.666666666667,4,1,1,70,0,0
55500,-142.857142857143,4,1,1,70,0,0
55582,-125,4,1,1,70,0,0
55665,-111.111111111111,4,1,1,70,0,0
55748,-100,4,1,1,70,0,0
56411,-20,4,1,1,70,0,0
57074,-500,4,1,1,70,0,0
57157,-333.333333333333,4,1,1,70,0,0
57240,-250,4,1,1,70,0,0
57323,-200,4,1,1,70,0,0
57406,-166.666666666667,4,1,1,70,0,0
57489,-142.857142857143,4,1,1,70,0,0
57571,-125,4,1,1,70,0,0
57654,-111.111111111111,4,1,1,70,0,0
57737,-100,4,1,1,70,0,0
57903,-20,4,1,1,70,0,0
57986,-333.333333333333,4,1,1,70,0,0
58069,-250,4,1,1,70,0,0
58152,-200,4,1,1,70,0,0
58235,-166.666666666667,4,1,1,70,0,0
58318,-142.857142857143,4,1,1,70,0,0
58400,-125,4,1,1,70,0,0
58483,-111.111111111111,4,1,1,70,0,0
58566,-100,4,1,1,70,0,0
59063,-100,4,1,1,70,0,1
68345,-76.9230769230769,4,1,1,70,0,0
68428,-142.857142857143,4,1,1,70,0,0
68511,-76.9230769230769,4,1,1,70,0,0
68594,-142.857142857143,4,1,1,70,0,0
68676,-100,4,1,1,70,0,0
68842,-76.9230769230769,4,1,1,70,0,0
68924,-86.9565217391304,4,1,1,70,0,0
69007,-117.647058823529,4,1,1,70,0,0
69090,-142.857142857143,4,1,1,70,0,0
69174,-100,4,1,1,70,0,0
69671,-100,4,1,1,70,0,1
76301,-100,4,1,1,70,0,0
92875,-20,4,1,1,70,0,0
92958,-333.333333333333,4,1,1,70,0,0
93041,-250,4,1,1,70,0,0
93124,-200,4,1,1,70,0,0
93207,-166.666666666667,4,1,1,70,0,0
93290,-142.857142857143,4,1,1,70,0,0
93372,-125,4,1,1,70,0,0
93455,-111.111111111111,4,1,1,70,0,0
93538,-100,4,1,1,70,0,0
98179,-20,4,1,1,70,0,0
98262,-333.333333333333,4,1,1,70,0,0
98345,-250,4,1,1,70,0,0
98428,-200,4,1,1,70,0,0
98511,-166.666666666667,4,1,1,70,0,0
98594,-142.857142857143,4,1,1,70,0,0
98676,-125,4,1,1,70,0,0
98759,-111.111111111111,4,1,1,70,0,0
98842,-100,4,1,1,70,0,0
103483,-71.4285714285714,4,1,1,70,0,0
103566,-76.9230769230769,4,1,1,70,0,0
103649,-83.3333333333333,4,1,1,70,0,0
103732,-90.9090909090909,4,1,1,70,0,0
103815,-111.111111111111,4,1,1,70,0,0
103898,-125,4,1,1,70,0,0
103980,-142.857142857143,4,1,1,70,0,0
104063,-166.666666666667,4,1,1,70,0,0
104146,-100,4,1,1,70,0,0
109284,-76.9230769230769,4,1,1,70,0,0
109366,-86.9565217391304,4,1,1,70,0,0
109449,-117.647058823529,4,1,1,70,0,0
109532,-142.857142857143,4,1,1,70,0,0
109616,-100,4,1,1,70,0,0
114091,-71.4285714285714,4,1,1,70,0,0
114174,-76.9230769230769,4,1,1,70,0,0
114257,-83.3333333333333,4,1,1,70,0,0
114340,-90.9090909090909,4,1,1,70,0,0
114423,-111.111111111111,4,1,1,70,0,0
114506,-125,4,1,1,70,0,0
114588,-142.857142857143,4,1,1,70,0,0
114671,-166.666666666667,4,1,1,70,0,0
114754,-100,4,1,1,70,0,0
118566,-76.9230769230769,4,1,1,70,0,0
118621,-83.3333333333333,4,1,1,70,0,0
118676,-90.9090909090909,4,1,1,70,0,0
118732,-100,4,1,1,70,0,0
118787,-142.857142857143,4,1,1,70,0,0
118842,-125,4,1,1,70,0,0
118897,-111.111111111111,4,1,1,70,0,0
118953,-100,4,1,1,70,0,0
119395,-71.4285714285714,4,1,1,70,0,0
119478,-76.9230769230769,4,1,1,70,0,0
119561,-83.3333333333333,4,1,1,70,0,0
119644,-90.9090909090909,4,1,1,70,0,0
119727,-111.111111111111,4,1,1,70,0,0
119810,-125,4,1,1,70,0,0
119892,-142.857142857143,4,1,1,70,0,0
119975,-166.666666666667,4,1,1,70,0,0
120058,-100,4,1,1,70,0,0
130334,-76.9230769230769,4,1,1,70,0,0
130416,-86.9565217391304,4,1,1,70,0,0
130499,-117.647058823529,4,1,1,70,0,0
130582,-142.857142857143,4,1,1,70,0,0
130666,-100,4,1,1,70,0,0
135969,-76.9230769230769,4,1,1,70,0,0
136052,-142.857142857143,4,1,1,70,0,0
136135,-76.9230769230769,4,1,1,70,0,0
136218,-1000,4,1,1,70,0,0
136632,-20,4,1,1,70,0,0
136653,-200,4,1,1,70,0,0
136715,-20,4,1,1,70,0,0
136736,-200,4,1,1,70,0,0
136798,-20,4,1,1,70,0,0
136819,-200,4,1,1,70,0,0
136881,-20,4,1,1,70,0,0
136902,-200,4,1,1,70,0,0
136943,-20,4,1,1,70,0,0
136964,-200,4,1,1,70,0,0
137026,-20,4,1,1,70,0,0
137047,-200,4,1,1,70,0,0
137067,-20,4,1,1,70,0,0
137088,-200,4,1,1,70,0,0
137129,-20,4,1,1,70,0,0
137150,-200,4,1,1,70,0,0
137192,-20,4,1,1,70,0,0
137213,-200,4,1,1,70,0,0
137254,-20,4,1,1,70,0,0
137275,-200,4,1,1,70,0,0
137295,-500,4,1,1,70,0,0
137378,-333.333333333333,4,1,1,70,0,0
137461,-250,4,1,1,70,0,0
137544,-200,4,1,1,70,0,0
137627,-166.666666666667,4,1,1,70,0,0
137710,-142.857142857143,4,1,1,70,0,0
137792,-125,4,1,1,70,0,0
137875,-111.111111111111,4,1,1,70,0,0
137958,-100,4,1,1,70,0,0
138621,-20,4,1,1,70,0,0
139284,-500,4,1,1,70,0,0
139367,-333.333333333333,4,1,1,70,0,0
139450,-250,4,1,1,70,0,0
139533,-200,4,1,1,70,0,0
139616,-166.666666666667,4,1,1,70,0,0
139699,-142.857142857143,4,1,1,70,0,0
139781,-125,4,1,1,70,0,0
139864,-111.111111111111,4,1,1,70,0,0
139947,-100,4,1,1,70,0,0
140113,-20,4,1,1,70,0,0
140196,-333.333333333333,4,1,1,70,0,0
140279,-250,4,1,1,70,0,0
140362,-200,4,1,1,70,0,0
140445,-166.666666666667,4,1,1,70,0,0
140528,-142.857142857143,4,1,1,70,0,0
140610,-125,4,1,1,70,0,0
140693,-111.111111111111,4,1,1,70,0,0
140776,-100,4,1,1,70,0,0
141273,-100,4,1,1,70,0,1
150555,-76.9230769230769,4,1,1,70,0,0
150638,-142.857142857143,4,1,1,70,0,0
150721,-76.9230769230769,4,1,1,70,0,0
150804,-142.857142857143,4,1,1,70,0,0
150886,-100,4,1,1,70,0,0
151052,-76.9230769230769,4,1,1,70,0,0
151134,-86.9565217391304,4,1,1,70,0,0
151217,-117.647058823529,4,1,1,70,0,0
151300,-142.857142857143,4,1,1,70,0,0
151384,-100,4,1,1,70,0,0
151881,-100,4,1,1,70,0,1
158511,-100,4,1,1,70,0,0
189008,-76.9230769230769,4,1,1,70,0,0
189091,-142.857142857143,4,1,1,70,0,0
189174,-100,4,1,1,70,0,0
191660,-500,4,1,1,70,0,0
193649,-20,4,1,1,70,0,0
193670,-200,4,1,1,70,0,0
193732,-20,4,1,1,70,0,0
193753,-200,4,1,1,70,0,0
193815,-20,4,1,1,70,0,0
193836,-200,4,1,1,70,0,0
193898,-20,4,1,1,70,0,0
193919,-200,4,1,1,70,0,0
193960,-20,4,1,1,70,0,0
193981,-200,4,1,1,70,0,0
194043,-20,4,1,1,70,0,0
194064,-200,4,1,1,70,0,0
194084,-20,4,1,1,70,0,0
194105,-200,4,1,1,70,0,0
194146,-20,4,1,1,70,0,0
194167,-200,4,1,1,70,0,0
194209,-20,4,1,1,70,0,0
194230,-200,4,1,1,70,0,0
194271,-20,4,1,1,70,0,0
194292,-200,4,1,1,70,0,0
194312,-20,4,1,1,70,0,0
194333,-200,4,1,1,70,0,0
194395,-20,4,1,1,70,0,0
194416,-200,4,1,1,70,0,0
194478,-20,4,1,1,70,0,0
194499,-200,4,1,1,70,0,0
194561,-20,4,1,1,70,0,0
194582,-200,4,1,1,70,0,0
194623,-20,4,1,1,70,0,0
194644,-200,4,1,1,70,0,0
194706,-20,4,1,1,70,0,0
194727,-200,4,1,1,70,0,0
194747,-20,4,1,1,70,0,0
194768,-200,4,1,1,70,0,0
194809,-20,4,1,1,70,0,0
194830,-200,4,1,1,70,0,0
194872,-20,4,1,1,70,0,0
194893,-200,4,1,1,70,0,0
194934,-20,4,1,1,70,0,0
194955,-200,4,1,1,70,0,0
194975,-20,4,1,1,70,0,0
194996,-200,4,1,1,70,0,0
195058,-20,4,1,1,70,0,0
195079,-200,4,1,1,70,0,0
195141,-20,4,1,1,70,0,0
195162,-200,4,1,1,70,0,0
195224,-20,4,1,1,70,0,0
195245,-200,4,1,1,70,0,0
195286,-20,4,1,1,70,0,0
195307,-200,4,1,1,70,0,0
195369,-20,4,1,1,70,0,0
195390,-200,4,1,1,70,0,0
195410,-20,4,1,1,70,0,0
195431,-200,4,1,1,70,0,0
195472,-20,4,1,1,70,0,0
195493,-200,4,1,1,70,0,0
195535,-20,4,1,1,70,0,0
195556,-200,4,1,1,70,0,0
195597,-20,4,1,1,70,0,0
195618,-200,4,1,1,70,0,0
195638,-20,4,1,1,70,0,0
195659,-500,4,1,1,70,0,0
195803,-20,4,1,1,70,0,0
195824,-500,4,1,1,70,0,0
196011,-20,4,1,1,70,0,0
196032,-500,4,1,1,70,0,0
196632,-20,4,1,1,70,0,0
196653,-500,4,1,1,70,0,0
196922,-20,4,1,1,70,0,0
196943,-500,4,1,1,70,0,0
197047,-20,4,1,1,70,0,0
197068,-500,4,1,1,70,0,0
197585,-20,4,1,1,70,0,0
197606,-500,4,1,1,70,0,0
198041,-20,4,1,1,70,0,0
198062,-500,4,1,1,70,0,0
198372,-20,4,1,1,70,0,0
198393,-500,4,1,1,70,0,0
198704,-20,4,1,1,70,0,0
198725,-500,4,1,1,70,0,0
199035,-20,4,1,1,70,0,0
199056,-500,4,1,1,70,0,0
199284,-20,4,1,1,70,0,0
199305,-500,4,1,1,70,0,0
199616,-20,4,1,1,70,0,0
199637,-500,4,1,1,70,0,0
199947,-20,4,1,1,70,0,0
199968,-500,4,1,1,70,0,0
200279,-20,4,1,1,70,0,0
200300,-500,4,1,1,70,0,0
200610,-20,4,1,1,70,0,0
200631,-500,4,1,1,70,0,0
200942,-20,4,1,1,70,0,0
200963,-500,4,1,1,70,0,0
201190,-333.333333333333,4,1,1,70,0,0
201273,-250,4,1,1,70,0,0
201356,-200,4,1,1,70,0,0
201439,-166.666666666667,4,1,1,70,0,0
201522,-142.857142857143,4,1,1,70,0,0
201604,-125,4,1,1,70,0,0
201687,-111.111111111111,4,1,1,70,0,0
201770,-100,4,1,1,70,0,0
211549,-76.9230769230769,4,1,1,70,0,0
211632,-142.857142857143,4,1,1,70,0,0
211715,-76.9230769230769,4,1,1,70,0,0
211798,-142.857142857143,4,1,1,70,0,0
211880,-100,4,1,1,70,0,0
212046,-76.9230769230769,4,1,1,70,0,0
212128,-86.9565217391304,4,1,1,70,0,0
212211,-117.647058823529,4,1,1,70,0,0
212294,-142.857142857143,4,1,1,70,0,0
212378,-100,4,1,1,70,0,0
219505,-76.9230769230769,4,1,1,70,0,0
219588,-142.857142857143,4,1,1,70,0,0
219671,-76.9230769230769,4,1,1,70,0,0
219754,-50,4,1,1,70,0,0
219782,-500,4,1,1,70,0,0
219865,-50,4,1,1,70,0,0
219892,-500,4,1,1,70,0,0
220914,-333.333333333333,4,1,1,70,0,0
220997,-250,4,1,1,70,0,0
221080,-200,4,1,1,70,0,0
221163,-166.666666666667,4,1,1,70,0,0
221246,-142.857142857143,4,1,1,70,0,0
221328,-125,4,1,1,70,0,0
221411,-111.111111111111,4,1,1,70,0,0
221494,-100,4,1,1,70,0,0
224809,-20,4,1,1,70,0,0
224830,-500,4,1,1,70,0,0
224892,-20,4,1,1,70,0,0
224975,-500,4,1,1,70,0,0
225058,-333.333333333333,4,1,1,70,0,0
225141,-250,4,1,1,70,0,0
225224,-200,4,1,1,70,0,0
225307,-166.666666666667,4,1,1,70,0,0
225390,-142.857142857143,4,1,1,70,0,0
225472,-125,4,1,1,70,0,0
225555,-111.111111111111,4,1,1,70,0,0
225638,-100,4,1,1,70,0,0
226135,-100,4,1,1,70,0,1
235417,-76.9230769230769,4,1,1,70,0,0
235500,-142.857142857143,4,1,1,70,0,0
235583,-76.9230769230769,4,1,1,70,0,0
235666,-142.857142857143,4,1,1,70,0,0
235748,-100,4,1,1,70,0,0
235914,-76.9230769230769,4,1,1,70,0,0
235996,-86.9565217391304,4,1,1,70,0,0
236079,-117.647058823529,4,1,1,70,0,0
236162,-142.857142857143,4,1,1,70,0,0
236246,-100,4,1,1,70,0,0
236743,-100,4,1,1,70,0,1
243372,-100,4,1,1,70,0,0
244698,-100,4,1,1,70,0,1
253980,-76.9230769230769,4,1,1,70,0,0
254063,-142.857142857143,4,1,1,70,0,0
254146,-76.9230769230769,4,1,1,70,0,0
254229,-142.857142857143,4,1,1,70,0,0
254311,-100,4,1,1,70,0,0
254477,-76.9230769230769,4,1,1,70,0,0
254559,-86.9565217391304,4,1,1,70,0,0
254642,-117.647058823529,4,1,1,70,0,0
254725,-142.857142857143,4,1,1,70,0,0
254809,-100,4,1,1,70,0,0
255306,-100,4,1,1,70,0,1
261936,-100,4,1,1,70,0,0
272212,-76.9230769230769,4,1,1,70,0,0
272295,-142.857142857143,4,1,1,70,0,0
272378,-76.9230769230769,4,1,1,70,0,0
272461,-200,4,1,1,70,0,0
272544,-166.666666666667,4,1,1,70,0,0
272627,-142.857142857143,4,1,1,70,0,0
272710,-125,4,1,1,70,0,0
272792,-111.111111111111,4,1,1,70,0,0
272875,-100,4,1,1,70,0,0

[HitObjects]
469,192,3041,128,0,3124:0:0:0:0:
384,192,3124,128,0,3207:0:0:0:0:
128,192,3207,1,0,0:0:0:0:
298,192,3207,128,0,3290:0:0:0:0:
213,192,3290,128,0,3373:0:0:0:0:
42,192,3373,1,4,0:0:0:0:
128,192,3373,1,0,0:0:0:0:
298,192,3373,128,0,8428:0:0:0:0:
384,192,3373,1,0,0:0:0:0:
469,192,3373,1,0,0:0:0:0:
42,192,3870,128,0,4035:0:0:0:0:
213,192,4367,128,0,4533:0:0:0:0:
469,192,6024,128,0,6190:0:0:0:0:
128,192,6522,128,0,6687:0:0:0:0:
213,192,7019,128,0,8428:0:0:0:0:
384,192,7848,1,8,0:0:0:0:
128,192,7931,1,8,0:0:0:0:
384,192,8013,1,8,0:0:0:0:
128,192,8096,1,8,0:0:0:0:
384,192,8179,1,8,0:0:0:0:
469,192,8179,1,0,0:0:0:0:
42,192,8262,1,8,0:0:0:0:
128,192,8262,1,0,0:0:0:0:
384,192,8345,1,8,0:0:0:0:
469,192,8345,1,0,0:0:0:0:
42,192,8428,1,8,0:0:0:0:
128,192,8428,1,0,0:0:0:0:
298,192,8511,1,8,0:0:0:0:
384,192,8511,1,0,0:0:0:0:
469,192,8511,1,0,0:0:0:0:
42,192,8593,1,8,0:0:0:0:
128,192,8593,1,0,0:0:0:0:
213,192,8593,1,0,0:0:0:0:
298,192,8676,128,2,8842:0:0:0:0:
384,192,8676,1,0,0:0:0:0:
469,192,8676,1,0,0:0:0:0:
42,192,9174,128,0,9339:0:0:0:0:
213,192,9671,128,0,9837:0:0:0:0:
469,192,11328,128,0,15969:0:0:0:0:
128,192,11826,128,0,11991:0:0:0:0:
384,192,12323,128,0,15306:0:0:0:0:
128,192,14643,128,0,14754:0:0:0:0:
213,192,14754,128,0,14864:0:0:0:0:
298,192,14864,128,0,14975:0:0:0:0:
128,192,14975,128,0,15085:0:0:0:0:
213,192,15085,128,0,15196:0:0:0:0:
298,192,15196,128,0,15306:0:0:0:0:
128,192,15306,128,0,15361:0:0:0:0:
213,192,15361,128,0,15417:0:0:0:0:
298,192,15417,128,0,15472:0:0:0:0:
384,192,15472,128,0,15527:0:0:0:0:
42,192,15527,128,0,15582:0:0:0:0:
298,192,15582,128,0,15638:0:0:0:0:
128,192,15638,128,0,15693:0:0:0:0:
213,192,15693,128,0,15748:0:0:0:0:
298,192,15748,128,0,15803:0:0:0:0:
384,192,15803,128,0,15859:0:0:0:0:
42,192,15859,128,0,15914:0:0:0:0:
298,192,15914,128,0,15969:0:0:0:0:
42,192,16466,1,0,0:0:0:0:
128,192,16466,1,0,0:0:0:0:
298,192,16549,1,0,0:0:0:0:
42,192,16632,1,4,0:0:0:0:
128,192,16632,1,0,0:0:0:0:
213,192,16632,1,0,0:0:0:0:
384,192,16632,1,0,0:0:0:0:
469,192,16632,1,0,0:0:0:0:
213,192,16798,128,0,16964:0:0:0:0:
298,192,16798,1,0,0:0:0:0:
128,192,16964,1,0,0:0:0:0:
469,192,16964,128,0,17129:0:0:0:0:
42,192,17129,128,2,17461:0:0:0:0:
213,192,17129,1,0,0:0:0:0:
384,192,17129,1,0,0:0:0:0:
298,192,17295,1,0,0:0:0:0:
213,192,17461,128,0,17627:0:0:0:0:
384,192,17461,1,0,0:0:0:0:
128,192,17627,1,0,0:0:0:0:
469,192,17627,128,0,17792:0:0:0:0:
42,192,17792,128,0,18124:0:0:0:0:
384,192,17792,1,0,0:0:0:0:
128,192,17958,1,2,0:0:0:0:
298,192,17958,1,0,0:0:0:0:
469,192,17958,1,0,0:0:0:0:
213,192,18124,1,0,0:0:0:0:
384,192,18124,128,0,18290:0:0:0:0:
42,192,18290,1,0,0:0:0:0:
469,192,18290,128,0,18455:0:0:0:0:
128,192,18455,1,2,0:0:0:0:
213,192,18455,128,0,18787:0:0:0:0:
298,192,18455,1,0,0:0:0:0:
469,192,18621,1,0,0:0:0:0:
128,192,18787,128,0,18953:0:0:0:0:
384,192,18787,1,0,0:0:0:0:
42,192,18953,128,8,19118:0:0:0:0:
298,192,18953,1,0,0:0:0:0:
469,192,18953,1,0,0:0:0:0:
213,192,19118,128,0,19616:0:0:0:0:
384,192,19118,1,0,0:0:0:0:
42,192,19284,1,2,0:0:0:0:
128,192,19284,1,0,0:0:0:0:
469,192,19284,1,0,0:0:0:0:
298,192,19450,128,0,19616:0:0:0:0:
384,192,19450,1,0,0:0:0:0:
128,192,19616,128,0,19947:0:0:0:0:
469,192,19616,1,0,0:0:0:0:
42,192,19781,128,2,19947:0:0:0:0:
298,192,19781,1,0,0:0:0:0:
384,192,19781,1,0,0:0:0:0:
213,192,19947,128,0,20030:0:0:0:0:
298,192,20030,128,0,20113:0:0:0:0:
42,192,20113,1,0,0:0:0:0:
384,192,20113,128,0,20279:0:0:0:0:
128,192,20279,1,0,0:0:0:0:
469,192,20279,128,0,20444:0:0:0:0:
213,192,20444,1,0,0:0:0:0:
298,192,20444,128,0,20776:0:0:0:0:
42,192,20610,1,2,0:0:0:0:
128,192,20610,1,0,0:0:0:0:
384,192,20610,1,0,0:0:0:0:
213,192,20776,128,0,20859:0:0:0:0:
469,192,20776,1,0,0:0:0:0:
213,192,20942,128,0,21273:0:0:0:0:
298,192,20942,1,0,0:0:0:0:
42,192,21107,1,2,0:0:0:0:
128,192,21107,128,0,21273:0:0:0:0:
469,192,21107,1,0,0:0:0:0:
298,192,21273,1,0,0:0:0:0:
384,192,21356,1,0,0:0:0:0:
128,192,21439,1,0,0:0:0:0:
213,192,21439,128,0,21605:0:0:0:0:
42,192,21605,1,8,0:0:0:0:
384,192,21605,1,0,0:0:0:0:
469,192,21605,128,0,21770:0:0:0:0:
213,192,21770,1,0,0:0:0:0:
298,192,21770,128,0,22019:0:0:0:0:
42,192,21936,1,2,0:0:0:0:
128,192,21936,1,0,0:0:0:0:
469,192,21936,1,0,0:0:0:0:
298,192,22102,128,0,22185:0:0:0:0:
384,192,22185,128,0,22268:0:0:0:0:
213,192,22268,1,0,0:0:0:0:
298,192,22268,128,0,22350:0:0:0:0:
42,192,22433,1,2,0:0:0:0:
128,192,22433,1,0,0:0:0:0:
298,192,22433,128,0,22516:0:0:0:0:
384,192,22516,128,0,22599:0:0:0:0:
213,192,22599,1,0,0:0:0:0:
298,192,22599,128,0,22765:0:0:0:0:
128,192,22765,128,0,22931:0:0:0:0:
469,192,22765,1,0,0:0:0:0:
42,192,22931,128,0,23096:0:0:0:0:
384,192,22931,1,0,0:0:0:0:
213,192,23096,128,0,23428:0:0:0:0:
298,192,23096,1,0,0:0:0:0:
128,192,23262,1,2,0:0:0:0:
384,192,23262,1,0,0:0:0:0:
469,192,23262,1,0,0:0:0:0:
42,192,23428,1,0,0:0:0:0:
298,192,23428,128,0,23511:0:0:0:0:
213,192,23593,1,0,0:0:0:0:
298,192,23593,128,0,24091:0:0:0:0:
42,192,23759,1,2,0:0:0:0:
384,192,23759,1,0,0:0:0:0:
469,192,23759,1,0,0:0:0:0:
128,192,23925,1,0,0:0:0:0:
213,192,23925,128,0,24091:0:0:0:0:
42,192,24091,128,0,24256:0:0:0:0:
469,192,24091,1,0,0:0:0:0:
128,192,24256,1,8,0:0:0:0:
213,192,24256,1,0,0:0:0:0:
384,192,24256,128,0,24422:0:0:0:0:
42,192,24422,1,0,0:0:0:0:
298,192,24422,128,0,24754:0:0:0:0:
128,192,24588,1,2,0:0:0:0:
213,192,24588,128,0,24754:0:0:0:0:
469,192,24588,1,0,0:0:0:0:
42,192,24754,128,0,24837:0:0:0:0:
128,192,24837,128,0,24919:0:0:0:0:
213,192,24919,128,0,25002:0:0:0:0:
469,192,24919,128,0,25085:0:0:0:0:
42,192,25085,128,2,25168:0:0:0:0:
298,192,25085,1,0,0:0:0:0:
384,192,25085,1,0,0:0:0:0:
128,192,25168,128,0,25251:0:0:0:0:
213,192,25251,128,0,25334:0:0:0:0:
469,192,25251,128,0,25417:0:0:0:0:
42,192,25417,128,0,25500:0:0:0:0:
128,192,25500,128,0,25582:0:0:0:0:
298,192,25582,1,0,0:0:0:0:
384,192,25582,128,0,25748:0:0:0:0:
213,192,25748,1,0,0:0:0:0:
469,192,25748,128,0,25997:0:0:0:0:
128,192,25914,1,2,0:0:0:0:
298,192,25914,128,0,25997:0:0:0:0:
384,192,25914,1,0,0:0:0:0:
213,192,25997,128,0,26080:0:0:0:0:
128,192,26080,128,0,26163:0:0:0:0:
469,192,26080,128,0,26163:0:0:0:0:
42,192,26163,128,0,26245:0:0:0:0:
469,192,26245,128,0,26328:0:0:0:0:
384,192,26328,128,0,26411:0:0:0:0:
42,192,26411,1,2,0:0:0:0:
128,192,26411,1,0,0:0:0:0:
298,192,26411,128,0,26494:0:0:0:0:
213,192,26494,128,0,26577:0:0:0:0:
128,192,26577,128,0,26660:0:0:0:0:
42,192,26660,128,0,26743:0:0:0:0:
469,192,26743,128,0,26826:0:0:0:0:
384,192,26826,128,0,26908:0:0:0:0:
42,192,26908,128,8,26991:0:0:0:0:
213,192,26908,1,0,0:0:0:0:
298,192,26908,1,0,0:0:0:0:
128,192,26991,128,0,27074:0:0:0:30:tom.wav
469,192,26991,1,0,0:0:0:0:
213,192,27074,128,0,27157:0:0:0:30:tom.wav
384,192,27074,1,0,0:0:0:0:
298,192,27157,128,0,27240:0:0:0:30:tom.wav
42,192,27240,128,4,27323:0:0:0:0:
128,192,27240,128,0,27323:0:0:0:0:
213,192,27240,1,0,0:0:0:0:
384,192,27240,1,0,0:0:0:0:
469,192,27240,1,0,0:0:0:0:
42,192,27406,128,4,27571:0:0:0:0:
128,192,27406,128,0,27489:0:0:0:0:
298,192,27571,1,0,0:0:0:0:
469,192,27571,128,0,27737:0:0:0:0:
128,192,27737,1,2,0:0:0:0:
213,192,27737,128,0,28069:0:0:0:0:
384,192,27737,1,0,0:0:0:0:
298,192,27903,1,0,0:0:0:0:
42,192,28069,128,0,28234:0:0:0:0:
384,192,28069,128,0,28152:0:0:0:0:
298,192,28234,128,0,28317:0:0:0:0:
469,192,28234,128,0,28400:0:0:0:0:
128,192,28400,128,0,28483:0:0:0:0:
213,192,28400,128,0,28732:0:0:0:0:
42,192,28566,1,4,0:0:0:0:
298,192,28566,1,0,0:0:0:0:
384,192,28566,128,0,28649:0:0:0:0:
469,192,28566,128,0,28649:0:0:0:0:
384,192,28732,128,4,28897:0:0:0:0:
469,192,28732,128,0,28814:0:0:0:0:
128,192,28897,128,0,29063:0:0:0:0:
213,192,28897,1,0,0:0:0:0:
42,192,29063,128,2,29395:0:0:0:0:
298,192,29063,1,0,0:0:0:0:
384,192,29063,1,0,0:0:0:0:
469,192,29229,1,0,0:0:0:0:
213,192,29395,128,0,29477:0:0:0:0:
298,192,29395,128,0,29560:0:0:0:0:
42,192,29560,1,8,0:0:0:0:
128,192,29560,128,0,29726:0:0:0:0:
384,192,29560,128,0,29643:0:0:0:0:
298,192,29726,128,0,29809:0:0:0:0:
469,192,29726,128,0,30223:0:0:0:0:
42,192,29892,1,4,0:0:0:0:
128,192,29892,128,0,29975:0:0:0:0:
213,192,29892,128,0,29975:0:0:0:0:
384,192,29892,1,0,0:0:0:0:
128,192,30058,128,4,30140:0:0:0:0:
213,192,30058,128,0,30223:0:0:0:0:
42,192,30223,1,0,0:0:0:0:
298,192,30223,128,0,30555:0:0:0:0:
213,192,30389,1,2,0:0:0:0:
384,192,30389,128,0,30555:0:0:0:0:
469,192,30389,1,0,0:0:0:0:
128,192,30555,128,0,30638:0:0:0:0:
213,192,30638,128,0,30721:0:0:0:0:
42,192,30721,128,0,30803:0:0:0:0:
298,192,30721,128,0,30886:0:0:0:0:
128,192,30886,128,0,30969:0:0:0:0:
384,192,30886,128,0,31052:0:0:0:0:
213,192,31052,128,0,31384:0:0:0:0:
469,192,31052,128,0,31135:0:0:0:0:
42,192,31218,1,4,0:0:0:0:
128,192,31218,1,0,0:0:0:0:
298,192,31218,128,0,31301:0:0:0:0:
384,192,31218,128,0,31301:0:0:0:0:
298,192,31384,128,4,31466:0:0:0:0:
384,192,31384,128,0,31466:0:0:0:0:
42,192,31466,128,0,31549:0:0:0:0:
213,192,31549,128,0,31881:0:0:0:0:
469,192,31549,1,0,0:0:0:0:
128,192,31715,128,2,31881:0:0:0:0:
298,192,31715,1,0,0:0:0:0:
384,192,31715,1,0,0:0:0:0:
42,192,31881,1,0,0:0:0:0:
469,192,31964,1,0,0:0:0:0:
213,192,32047,1,0,0:0:0:0:
298,192,32047,128,0,32212:0:0:0:0:
42,192,32212,1,8,0:0:0:0:
128,192,32212,1,0,0:0:0:0:
469,192,32212,128,0,32378:0:0:0:0:
213,192,32378,128,0,32627:0:0:0:0:
384,192,32378,1,0,0:0:0:0:
42,192,32544,1,4,0:0:0:0:
128,192,32544,1,0,0:0:0:0:
298,192,32544,1,0,0:0:0:0:
469,192,32544,1,0,0:0:0:0:
213,192,32710,128,0,32792:0:0:0:0:
384,192,32710,1,0,0:0:0:0:
298,192,32792,128,0,32875:0:0:0:0:
42,192,32875,1,8,0:0:0:0:
128,192,32875,1,0,0:0:0:0:
213,192,32875,128,0,32958:0:0:0:0:
213,192,33041,128,2,33124:0:0:0:0:
384,192,33041,1,0,0:0:0:0:
469,192,33041,1,0,0:0:0:0:
298,192,33124,128,0,33207:0:0:0:0:
128,192,33207,1,0,0:0:0:0:
213,192,33207,128,0,33372:0:0:0:0:
42,192,33372,1,2,0:0:0:0:
298,192,33372,1,0,0:0:0:0:
384,192,33372,128,0,33538:0:0:0:0:
128,192,33538,128,8,33704:0:0:0:0:
213,192,33538,1,0,0:0:0:0:
469,192,33538,1,0,0:0:0:0:
298,192,33704,128,0,33953:0:0:0:0:
384,192,33704,1,0,0:0:0:0:
42,192,33870,1,2,0:0:0:0:
128,192,33870,1,0,0:0:0:0:
469,192,33870,1,0,0:0:0:0:
42,192,34035,1,2,0:0:0:0:
128,192,34035,1,0,0:0:0:0:
298,192,34035,128,0,34118:0:0:0:0:
213,192,34118,128,0,34201:0:0:0:0:
298,192,34201,128,8,34284:0:0:0:0:
384,192,34201,1,0,0:0:0:0:
469,192,34201,1,0,0:0:0:0:
42,192,34367,1,2,0:0:0:0:
128,192,34367,1,0,0:0:0:0:
298,192,34367,128,0,34450:0:0:0:0:
213,192,34450,128,0,34533:0:0:0:0:
298,192,34533,128,0,34698:0:0:0:0:
42,192,34698,1,2,0:0:0:0:
128,192,34698,1,0,0:0:0:0:
384,192,34698,128,0,34864:0:0:0:0:
213,192,34864,1,8,0:0:0:0:
298,192,34864,1,0,0:0:0:0:
469,192,34864,128,0,35030:0:0:0:0:
42,192,35030,128,0,35279:0:0:0:0:
384,192,35030,1,0,0:0:0:0:
128,192,35196,1,2,0:0:0:0:
213,192,35196,1,0,0:0:0:0:
469,192,35196,1,0,0:0:0:0:
42,192,35361,128,0,35444:0:0:0:0:
298,192,35361,1,0,0:0:0:0:
469,192,35444,128,0,35527:0:0:0:0:
42,192,35527,128,8,35610:0:0:0:0:
128,192,35527,1,0,0:0:0:0:
213,192,35527,1,0,0:0:0:0:
42,192,35693,128,2,35776:0:0:0:0:
298,192,35693,1,0,0:0:0:0:
384,192,35693,1,0,0:0:0:0:
469,192,35776,128,0,35859:0:0:0:0:
42,192,35859,128,0,36024:0:0:0:0:
213,192,35859,1,0,0:0:0:0:
298,192,36024,128,2,36190:0:0:0:0:
384,192,36024,1,0,0:0:0:0:
469,192,36024,1,0,0:0:0:0:
128,192,36190,128,8,36356:0:0:0:0:
213,192,36190,1,0,0:0:0:0:
469,192,36190,1,0,0:0:0:0:
42,192,36356,128,4,37019:0:0:0:0:
298,192,36356,1,0,0:0:0:0:
384,192,36356,1,0,0:0:0:0:
469,192,36356,1,0,0:0:0:0:
128,192,36522,1,8,0:0:0:0:
213,192,36522,1,0,0:0:0:0:
469,192,36522,1,0,0:0:0:0:
128,192,36687,1,2,0:0:0:0:
298,192,36687,1,0,0:0:0:0:
384,192,36687,1,0,0:0:0:0:
213,192,36853,1,0,0:0:0:0:
469,192,36853,1,0,0:0:0:0:
213,192,37019,1,2,0:0:0:0:
384,192,37019,1,0,0:0:0:0:
128,192,37102,1,2,0:0:0:0:
298,192,37102,1,0,0:0:0:0:
42,192,37185,1,4,0:0:0:0:
213,192,37185,1,0,0:0:0:0:
384,192,37185,1,0,0:0:0:0:
469,192,37185,128,0,37848:0:0:0:0:
42,192,37848,128,4,38013:0:0:0:0:
213,192,37848,128,0,38013:0:0:0:0:
298,192,37848,128,0,37931:0:0:0:0:
384,192,37848,128,0,37931:0:0:0:0:
128,192,38013,128,0,38179:0:0:0:0:
469,192,38013,1,0,0:0:0:0:
42,192,38179,128,2,38345:0:0:0:0:
213,192,38179,128,0,38345:0:0:0:0:
298,192,38179,1,0,0:0:0:0:
128,192,38345,128,0,38511:0:0:0:0:
384,192,38345,1,0,0:0:0:0:
42,192,38511,128,2,38676:0:0:0:0:
213,192,38511,128,0,38676:0:0:0:0:
469,192,38511,1,0,0:0:0:0:
128,192,38676,128,0,38842:0:0:0:0:
298,192,38676,1,0,0:0:0:0:
42,192,38842,128,2,39008:0:0:0:0:
213,192,38842,128,0,39008:0:0:0:0:
384,192,38842,1,0,0:0:0:0:
128,192,39008,128,0,39174:0:0:0:0:
469,192,39008,1,0,0:0:0:0:
42,192,39174,128,2,39339:0:0:0:0:
213,192,39174,128,0,39339:0:0:0:0:
298,192,39174,1,0,0:0:0:0:
128,192,39339,128,0,39505:0:0:0:0:
384,192,39339,1,0,0:0:0:0:
42,192,39505,128,2,39671:0:0:0:0:
213,192,39505,128,0,39671:0:0:0:0:
469,192,39505,1,0,0:0:0:0:
128,192,39671,128,0,39837:0:0:0:0:
298,192,39671,1,0,0:0:0:0:
42,192,39837,128,2,40002:0:0:0:0:
213,192,39837,128,0,40002:0:0:0:0:
384,192,39837,1,0,0:0:0:0:
128,192,40002,1,0,0:0:0:0:
469,192,40002,128,0,40168:0:0:0:0:
42,192,40168,1,2,0:0:0:0:
213,192,40168,1,0,0:0:0:0:
298,192,40168,128,0,40334:0:0:0:0:
384,192,40334,128,0,40500:0:0:0:0:
469,192,40334,1,0,0:0:0:0:
42,192,40500,128,2,40582:0:0:0:0:
128,192,40500,128,0,40582:0:0:0:0:
213,192,40500,128,0,40831:0:0:0:0:
298,192,40665,1,0,0:0:0:0:
42,192,40831,1,2,0:0:0:0:
384,192,40831,1,0,0:0:0:0:
469,192,40831,128,0,40997:0:0:0:0:
128,192,40997,1,0,0:0:0:0:
298,192,40997,128,0,41328:0:0:0:0:
213,192,41163,1,2,0:0:0:0:
384,192,41163,1,0,0:0:0:0:
469,192,41163,1,0,0:0:0:0:
42,192,41328,1,0,0:0:0:0:
128,192,41328,128,0,41494:0:0:0:0:
213,192,41494,1,2,0:0:0:0:
298,192,41494,1,0,0:0:0:0:
384,192,41494,128,0,41660:0:0:0:0:
42,192,41660,1,0,0:0:0:0:
469,192,41660,128,0,42074:0:0:0:0:
128,192,41826,1,2,0:0:0:0:
213,192,41826,1,0,0:0:0:0:
384,192,41826,1,0,0:0:0:0:
42,192,41991,1,8,0:0:0:0:
298,192,41991,1,0,0:0:0:0:
128,192,42074,1,8,0:0:0:0:
213,192,42157,1,2,0:0:0:0:
384,192,42157,1,0,0:0:0:0:
469,192,42157,1,0,0:0:0:0:
42,192,42240,1,8,0:0:0:0:
128,192,42323,1,8,0:0:0:0:
298,192,42323,1,0,0:0:0:0:
384,192,42406,1,8,0:0:0:0:
42,192,42489,1,2,0:0:0:0:
213,192,42489,1,0,0:0:0:0:
469,192,42489,1,0,0:0:0:0:
298,192,42571,1,8,0:0:0:0:
128,192,42654,1,8,0:0:0:0:
384,192,42654,1,0,0:0:0:0:
213,192,42737,1,8,0:0:0:0:
42,192,42820,1,2,0:0:0:0:
128,192,42820,1,0,0:0:0:0:
298,192,42820,1,0,0:0:0:0:
384,192,42861,1,0,0:0:0:0:
213,192,42903,1,0,0:0:0:0:
469,192,42903,1,0,0:0:0:0:
128,192,42944,1,0,0:0:0:0:
42,192,42986,1,8,0:0:0:0:
298,192,42986,1,0,0:0:0:0:
213,192,43069,1,8,0:0:0:0:
384,192,43069,1,0,0:0:0:0:
128,192,43152,128,2,43234:0:0:0:0:
298,192,43152,128,0,43317:0:0:0:0:
469,192,43152,128,0,43317:0:0:0:0:
42,192,43317,1,0,0:0:0:0:
384,192,43317,128,0,43483:0:0:0:0:
213,192,43483,1,2,0:0:0:0:
298,192,43483,128,0,43649:0:0:0:0:
469,192,43483,128,0,43649:0:0:0:0:
128,192,43649,1,0,0:0:0:0:
384,192,43649,128,0,43814:0:0:0:0:
42,192,43814,1,2,0:0:0:0:
298,192,43814,128,0,43980:0:0:0:0:
469,192,43814,128,0,43980:0:0:0:0:
213,192,43980,1,0,0:0:0:0:
384,192,43980,128,0,44146:0:0:0:0:
128,192,44146,1,2,0:0:0:0:
298,192,44146,128,0,44312:0:0:0:0:
469,192,44146,128,0,44312:0:0:0:0:
42,192,44312,1,0,0:0:0:0:
384,192,44312,128,0,44477:0:0:0:0:
213,192,44477,1,2,0:0:0:0:
298,192,44477,128,0,44643:0:0:0:0:
469,192,44477,128,0,44643:0:0:0:0:
128,192,44643,1,0,0:0:0:0:
384,192,44643,128,0,44809:0:0:0:0:
42,192,44809,1,2,0:0:0:0:
298,192,44809,128,0,44975:0:0:0:0:
469,192,44809,128,0,44975:0:0:0:0:
213,192,44975,1,0,0:0:0:0:
384,192,44975,128,0,45140:0:0:0:0:
128,192,45140,1,2,0:0:0:0:
298,192,45140,128,0,45306:0:0:0:0:
469,192,45140,128,0,45306:0:0:0:0:
42,192,45306,128,0,45472:0:0:0:0:
384,192,45306,1,0,0:0:0:0:
213,192,45472,128,2,45638:0:0:0:0:
298,192,45472,1,0,0:0:0:0:
469,192,45472,1,0,0:0:0:0:
42,192,45638,1,0,0:0:0:0:
128,192,45638,128,0,45803:0:0:0:0:
298,192,45803,128,2,46135:0:0:0:0:
384,192,45803,128,0,45886:0:0:0:0:
469,192,45803,128,0,45886:0:0:0:0:
213,192,45969,1,0,0:0:0:0:
42,192,46135,128,2,46301:0:0:0:0:
128,192,46135,1,0,0:0:0:0:
469,192,46135,1,0,0:0:0:0:
213,192,46301,128,0,46632:0:0:0:0:
384,192,46301,1,0,0:0:0:0:
42,192,46466,1,2,0:0:0:0:
128,192,46466,1,0,0:0:0:0:
298,192,46466,1,0,0:0:0:0:
384,192,46632,128,0,46798:0:0:0:0:
469,192,46632,1,0,0:0:0:0:
128,192,46798,128,2,46964:0:0:0:0:
213,192,46798,1,0,0:0:0:0:
298,192,46798,1,0,0:0:0:0:
42,192,46964,128,0,47378:0:0:0:0:
469,192,46964,1,0,0:0:0:0:
128,192,47129,1,2,0:0:0:0:
298,192,47129,1,0,0:0:0:0:
384,192,47129,1,0,0:0:0:0:
213,192,47295,1,8,0:0:0:0:
469,192,47295,1,0,0:0:0:0:
384,192,47378,1,8,0:0:0:0:
42,192,47461,1,2,0:0:0:0:
128,192,47461,1,0,0:0:0:0:
298,192,47461,1,0,0:0:0:0:
469,192,47544,1,8,0:0:0:0:
213,192,47627,1,8,0:0:0:0:
384,192,47627,1,0,0:0:0:0:
128,192,47710,1,8,0:0:0:0:
42,192,47792,1,2,0:0:0:0:
298,192,47792,1,0,0:0:0:0:
469,192,47792,1,0,0:0:0:0:
213,192,47875,1,8,0:0:0:0:
128,192,47958,1,8,0:0:0:0:
384,192,47958,1,0,0:0:0:0:
298,192,48041,1,8,0:0:0:0:
213,192,48124,1,2,0:0:0:0:
384,192,48124,1,0,0:0:0:0:
469,192,48124,1,0,0:0:0:0:
128,192,48165,1,0,0:0:0:0:
42,192,48207,1,0,0:0:0:0:
298,192,48207,1,0,0:0:0:0:
384,192,48248,1,0,0:0:0:0:
213,192,48290,1,8,0:0:0:0:
469,192,48290,1,0,0:0:0:0:
128,192,48372,1,8,0:0:0:0:
298,192,48372,1,0,0:0:0:0:
42,192,48455,128,4,48538:0:0:0:0:
213,192,48455,128,0,48538:0:0:0:0:
384,192,48455,128,0,48621:0:0:0:0:
469,192,48455,1,0,0:0:0:0:
128,192,48621,128,0,48787:0:0:0:0:
298,192,48621,1,0,0:0:0:0:
213,192,48787,1,0,0:0:0:0:
384,192,48787,128,0,48953:0:0:0:0:
128,192,48953,128,0,49118:0:0:0:0:
298,192,48953,1,0,0:0:0:0:
213,192,49118,1,0,0:0:0:0:
384,192,49118,128,0,49284:0:0:0:0:
128,192,49284,128,0,49450:0:0:0:0:
298,192,49284,1,0,0:0:0:0:
213,192,49450,1,0,0:0:0:0:
384,192,49450,128,0,49616:0:0:0:0:
128,192,49616,128,0,49781:0:0:0:0:
298,192,49616,1,0,0:0:0:0:
42,192,49781,128,0,49864:0:0:0:0:
213,192,49781,128,0,49864:0:0:0:0:
384,192,49781,128,0,49947:0:0:0:0:
128,192,49947,128,0,50113:0:0:0:0:
298,192,49947,1,0,0:0:0:0:
213,192,50113,1,0,0:0:0:0:
384,192,50113,128,0,50279:0:0:0:0:
128,192,50279,128,0,50444:0:0:0:0:
298,192,50279,1,0,0:0:0:0:
213,192,50444,1,0,0:0:0:0:
384,192,50444,128,0,50610:0:0:0:0:
42,192,50610,128,0,50776:0:0:0:0:
298,192,50610,1,0,0:0:0:0:
213,192,50776,128,0,50942:0:0:0:0:
469,192,50776,1,0,0:0:0:0:
128,192,50942,1,0,0:0:0:0:
298,192,50942,128,0,51107:0:0:0:0:
42,192,51107,128,0,51439:0:0:0:0:
384,192,51107,128,0,51190:0:0:0:0:
469,192,51107,128,0,51190:0:0:0:0:
213,192,51273,1,0,0:0:0:0:
128,192,51439,1,0,0:0:0:0:
469,192,51439,128,0,51605:0:0:0:0:
213,192,51605,128,0,51936:0:0:0:0:
384,192,51605,1,0,0:0:0:0:
298,192,51770,1,0,0:0:0:0:
128,192,51936,128,0,52102:0:0:0:0:
384,192,51936,1,0,0:0:0:0:
213,192,52102,1,0,0:0:0:0:
469,192,52102,128,0,52268:0:0:0:0:
42,192,52268,128,0,52599:0:0:0:0:
298,192,52268,1,0,0:0:0:0:
213,192,52433,128,0,52516:0:0:0:0:
384,192,52433,128,0,52516:0:0:0:0:
469,192,52433,128,0,52516:0:0:0:0:
128,192,52599,128,0,52682:0:0:0:0:
298,192,52599,128,0,52682:0:0:0:0:
384,192,52682,128,0,52765:0:0:0:0:
213,192,52765,128,0,52848:0:0:0:0:
469,192,52765,128,0,53676:0:0:0:0:
42,192,52931,128,0,53013:0:0:0:0:
298,192,52931,128,0,53013:0:0:0:0:
128,192,53096,128,0,53179:0:0:0:0:
384,192,53096,128,0,53676:0:0:0:0:
42,192,53262,128,0,53345:0:0:0:0:
213,192,53262,128,0,53345:0:0:0:0:
128,192,53428,128,0,53511:0:0:0:0:
298,192,53428,128,0,53676:0:0:0:0:
213,192,53593,128,0,53676:0:0:0:0:
42,192,53759,1,4,0:0:0:0:
128,192,53759,1,0,0:0:0:0:
298,192,53759,1,0,0:0:0:0:
384,192,53759,1,0,0:0:0:0:
469,192,53759,1,0,0:0:0:0:
42,192,53925,1,4,0:0:0:0:
128,192,53925,1,0,0:0:0:0:
298,192,53925,1,0,0:0:0:0:
384,192,53925,1,0,0:0:0:0:
469,192,53925,1,0,0:0:0:0:
42,192,55748,128,0,57737:0:0:0:0:
128,192,56080,128,0,57737:0:0:0:0:
213,192,56411,128,0,57737:0:0:0:0:
469,192,57737,1,0,0:0:0:0:
298,192,57792,1,0,0:0:0:0:
469,192,57848,1,0,0:0:0:0:
213,192,58566,128,0,58732:0:0:0:0:
42,192,58732,128,0,58814:0:0:0:0:
298,192,58732,128,0,58897:0:0:0:0:
128,192,58814,128,0,58897:0:0:0:0:
213,192,58897,128,0,58980:0:0:0:0:
384,192,58897,128,0,58980:0:0:0:0:
298,192,58980,128,0,59063:0:0:0:0:
42,192,59063,1,4,0:0:0:0:
128,192,59063,1,0,0:0:0:0:
213,192,59063,1,0,0:0:0:0:
384,192,59063,1,0,0:0:0:0:
469,192,59063,128,0,59229:0:0:0:0:
213,192,59229,1,2,0:0:0:0:
298,192,59229,1,0,0:0:0:0:
128,192,59395,128,8,59560:0:0:0:0:
384,192,59395,1,0,0:0:0:0:
469,192,59395,1,0,0:0:0:0:
42,192,59560,128,2,59892:0:0:0:0:
298,192,59560,1,0,0:0:0:0:
384,192,59643,1,0,0:0:0:0:
213,192,59726,1,2,0:0:0:0:
469,192,59726,1,0,0:0:0:0:
298,192,59892,128,2,60058:0:0:0:0:
384,192,59892,1,0,0:0:0:0:
128,192,60058,128,8,60223:0:0:0:0:
213,192,60058,1,0,0:0:0:0:
469,192,60058,1,0,0:0:0:0:
42,192,60223,128,0,60389:0:0:0:0:
298,192,60223,1,0,0:0:0:0:
128,192,60389,1,2,0:0:0:0:
384,192,60389,1,0,0:0:0:0:
469,192,60389,128,0,60555:0:0:0:0:
213,192,60555,1,2,0:0:0:0:
298,192,60555,1,0,0:0:0:0:
128,192,60721,128,8,60886:0:0:0:0:
384,192,60721,1,0,0:0:0:0:
469,192,60721,1,0,0:0:0:0:
42,192,60886,128,2,61218:0:0:0:0:
298,192,60886,1,0,0:0:0:0:
384,192,60969,1,0,0:0:0:0:
213,192,61052,1,2,0:0:0:0:
469,192,61052,1,0,0:0:0:0:
298,192,61218,128,2,61384:0:0:0:0:
384,192,61218,1,0,0:0:0:0:
128,192,61384,128,8,61549:0:0:0:0:
213,192,61384,1,0,0:0:0:0:
469,192,61384,1,0,0:0:0:0:
42,192,61549,128,0,61715:0:0:0:0:
298,192,61549,1,0,0:0:0:0:
213,192,61715,1,2,0:0:0:0:
384,192,61715,1,0,0:0:0:0:
469,192,61715,128,0,61881:0:0:0:0:
128,192,61881,1,2,0:0:0:0:
298,192,61881,1,0,0:0:0:0:
42,192,62047,1,8,0:0:0:0:
384,192,62047,128,0,62212:0:0:0:0:
469,192,62047,1,0,0:0:0:0:
213,192,62212,1,2,0:0:0:0:
298,192,62212,128,0,62544:0:0:0:0:
128,192,62295,1,0,0:0:0:0:
42,192,62378,1,2,0:0:0:0:
469,192,62378,1,0,0:0:0:0:
213,192,62544,128,2,62627:0:0:0:0:
384,192,62544,1,0,0:0:0:0:
298,192,62627,128,0,62710:0:0:0:0:
42,192,62710,1,8,0:0:0:0:
128,192,62710,1,0,0:0:0:0:
384,192,62710,128,0,62875:0:0:0:0:
213,192,62875,1,2,0:0:0:0:
469,192,62875,128,0,63621:0:0:0:0:
128,192,62958,1,0,0:0:0:0:
42,192,63041,1,2,0:0:0:0:
384,192,63041,1,0,0:0:0:0:
213,192,63207,1,2,0:0:0:0:
298,192,63207,1,0,0:0:0:0:
42,192,63372,1,8,0:0:0:0:
128,192,63372,1,0,0:0:0:0:
384,192,63372,1,0,0:0:0:0:
213,192,63538,1,2,0:0:0:0:
298,192,63538,1,0,0:0:0:0:
128,192,63704,1,8,0:0:0:0:
384,192,63704,1,0,0:0:0:0:
469,192,63704,1,0,0:0:0:0:
213,192,63870,1,2,0:0:0:0:
298,192,63870,128,0,64035:0:0:0:0:
42,192,64035,128,8,64201:0:0:0:0:
128,192,64035,1,0,0:0:0:0:
384,192,64035,1,0,0:0:0:0:
213,192,64201,128,0,64367:0:0:0:0:
469,192,64201,1,0,0:0:0:0:
42,192,64367,1,2,0:0:0:0:
128,192,64367,1,0,0:0:0:0:
298,192,64367,128,0,64533:0:0:0:0:
384,192,64367,1,0,0:0:0:0:
213,192,64533,1,2,0:0:0:0:
469,192,64533,1,0,0:0:0:0:
42,192,64698,1,8,0:0:0:0:
128,192,64698,1,0,0:0:0:0:
384,192,64698,128,0,64864:0:0:0:0:
213,192,64864,1,2,0:0:0:0:
469,192,64864,128,0,65196:0:0:0:0:
128,192,64947,1,0,0:0:0:0:
42,192,65030,1,2,0:0:0:0:
298,192,65030,1,0,0:0:0:0:
213,192,65196,128,2,65361:0:0:0:0:
384,192,65196,1,0,0:0:0:0:
42,192,65361,1,8,0:0:0:0:
298,192,65361,128,0,65527:0:0:0:0:
469,192,65361,1,0,0:0:0:0:
128,192,65527,128,0,65693:0:0:0:0:
213,192,65527,1,0,0:0:0:0:
42,192,65693,128,2,65859:0:0:0:0:
384,192,65693,1,0,0:0:0:0:
469,192,65693,1,0,0:0:0:0:
213,192,65859,128,2,66024:0:0:0:0:
298,192,65859,1,0,0:0:0:0:
42,192,66024,128,8,66190:0:0:0:0:
384,192,66024,1,0,0:0:0:0:
469,192,66024,1,0,0:0:0:0:
213,192,66190,128,2,66356:0:0:0:0:
298,192,66190,1,0,0:0:0:0:
384,192,66273,1,0,0:0:0:0:
42,192,66356,1,2,0:0:0:0:
469,192,66356,128,0,66522:0:0:0:0:
213,192,66522,1,2,0:0:0:0:
298,192,66522,128,0,66687:0:0:0:0:
42,192,66687,1,8,0:0:0:0:
128,192,66687,1,0,0:0:0:0:
384,192,66687,128,0,66853:0:0:0:0:
213,192,66853,1,2,0:0:0:0:
298,192,66853,128,0,67019:0:0:0:0:
128,192,66936,1,0,0:0:0:0:
42,192,67019,128,2,67185:0:0:0:0:
384,192,67019,1,0,0:0:0:0:
469,192,67019,1,0,0:0:0:0:
213,192,67185,1,2,0:0:0:0:
298,192,67185,1,0,0:0:0:0:
42,192,67350,128,8,67433:0:0:0:0:
384,192,67350,1,0,0:0:0:0:
469,192,67350,128,0,67433:0:0:0:0:
128,192,67433,128,0,67516:0:0:0:0:
213,192,67516,128,2,67599:0:0:0:0:
469,192,67516,128,0,67931:0:0:0:0:
298,192,67599,128,0,67682:0:0:0:0:
42,192,67682,1,8,0:0:0:0:
128,192,67682,1,0,0:0:0:0:
384,192,67682,1,0,0:0:0:0:
213,192,67848,1,2,0:0:0:0:
298,192,67848,1,0,0:0:0:0:
42,192,68013,128,8,68096:0:0:0:0:
298,192,68013,1,0,0:0:0:0:
469,192,68013,1,0,0:0:0:0:
128,192,68096,128,0,68179:0:0:0:30:tom.wav
384,192,68096,1,0,0:0:0:0:
213,192,68179,128,0,68262:0:0:0:30:tom.wav
469,192,68179,1,0,0:0:0:0:
298,192,68262,128,0,68345:0:0:0:30:tom.wav
42,192,68345,1,4,0:0:0:0:
128,192,68345,1,0,0:0:0:0:
384,192,68345,1,0,0:0:0:0:
469,192,68345,1,0,0:0:0:0:
42,192,68511,1,4,0:0:0:0:
128,192,68511,1,0,0:0:0:0:
384,192,68511,1,0,0:0:0:0:
469,192,68511,1,0,0:0:0:0:
128,192,68842,1,4,0:0:0:0:
213,192,68842,1,0,0:0:0:0:
298,192,68842,1,0,0:0:0:0:
384,192,68842,1,0,0:0:0:0:
469,192,68842,1,0,0:0:0:0:
128,192,69174,1,2,0:0:0:0:
298,192,69174,128,0,69339:0:0:0:0:
42,192,69339,1,0,0:0:0:30:tom.wav
213,192,69339,128,0,69505:0:0:0:0:
469,192,69339,1,0,0:0:0:0:
384,192,69422,1,0,0:0:0:30:tom.wav
128,192,69505,128,0,69588:0:0:0:30:tom.wav
298,192,69505,128,0,69588:0:0:0:0:
213,192,69588,128,0,69671:0:0:0:30:tom.wav
42,192,69671,128,4,69837:0:0:0:0:
128,192,69671,1,0,0:0:0:0:
298,192,69671,1,0,0:0:0:0:
384,192,69671,1,0,0:0:0:0:
469,192,69671,1,0,0:0:0:0:
213,192,69837,1,2,0:0:0:0:
298,192,69837,1,0,0:0:0:0:
42,192,70002,1,8,0:0:0:0:
128,192,70002,1,0,0:0:0:0:
384,192,70002,128,0,70168:0:0:0:0:
213,192,70168,1,2,0:0:0:0:
469,192,70168,128,0,70500:0:0:0:0:
128,192,70251,1,0,0:0:0:0:
42,192,70334,1,2,0:0:0:0:
298,192,70334,1,0,0:0:0:0:
128,192,70500,1,2,0:0:0:0:
213,192,70500,128,0,70665:0:0:0:0:
42,192,70665,1,8,0:0:0:0:
298,192,70665,1,0,0:0:0:0:
384,192,70665,128,0,70831:0:0:0:0:
213,192,70831,1,0,0:0:0:0:
469,192,70831,128,0,70997:0:0:0:0:
42,192,70997,128,2,71163:0:0:0:0:
128,192,70997,1,0,0:0:0:0:
384,192,70997,1,0,0:0:0:0:
213,192,71163,1,2,0:0:0:0:
298,192,71163,1,0,0:0:0:0:
42,192,71328,1,8,0:0:0:0:
128,192,71328,1,0,0:0:0:0:
384,192,71328,128,0,71494:0:0:0:0:
213,192,71494,1,2,0:0:0:0:
469,192,71494,128,0,71826:0:0:0:0:
128,192,71577,1,0,0:0:0:0:
42,192,71660,1,2,0:0:0:0:
298,192,71660,1,0,0:0:0:0:
128,192,71826,1,2,0:0:0:0:
213,192,71826,128,0,71991:0:0:0:0:
42,192,71991,1,8,0:0:0:0:
298,192,71991,1,0,0:0:0:0:
384,192,71991,128,0,72157:0:0:0:0:
213,192,72157,1,0,0:0:0:0:
469,192,72157,128,0,72323:0:0:0:0:
42,192,72323,128,2,72489:0:0:0:0:
128,192,72323,1,0,0:0:0:0:
298,192,72323,1,0,0:0:0:0:
213,192,72489,1,2,0:0:0:0:
384,192,72489,1,0,0:0:0:0:
42,192,72654,1,8,0:0:0:0:
128,192,72654,128,0,72820:0:0:0:0:
469,192,72654,1,0,0:0:0:0:
213,192,72820,128,2,73152:0:0:0:0:
298,192,72820,1,0,0:0:0:0:
384,192,72903,1,0,0:0:0:0:
42,192,72986,1,2,0:0:0:0:
469,192,72986,1,0,0:0:0:0:
128,192,73152,1,2,0:0:0:0:
298,192,73152,128,0,73234:0:0:0:0:
213,192,73234,128,0,73317:0:0:0:0:
128,192,73317,128,8,73483:0:0:0:0:
384,192,73317,1,0,0:0:0:0:
469,192,73317,1,0,0:0:0:0:
42,192,73483,128,2,73980:0:0:0:0:
298,192,73483,1,0,0:0:0:0:
213,192,73649,1,8,0:0:0:0:
384,192,73649,1,0,0:0:0:0:
469,192,73649,1,0,0:0:0:0:
128,192,73814,1,2,0:0:0:0:
298,192,73814,128,0,73897:0:0:0:0:
213,192,73897,128,0,73980:0:0:0:0:
128,192,73980,1,8,0:0:0:0:
384,192,73980,1,0,0:0:0:0:
469,192,73980,128,0,74312:0:0:0:0:
42,192,74146,1,8,0:0:0:0:
213,192,74146,1,0,0:0:0:0:
298,192,74146,1,0,0:0:0:0:
128,192,74312,1,2,0:0:0:0:
384,192,74312,1,0,0:0:0:0:
42,192,74477,128,2,74643:0:0:0:0:
298,192,74477,1,0,0:0:0:0:
128,192,74643,1,8,0:0:0:0:
384,192,74643,1,0,0:0:0:0:
469,192,74643,128,0,74809:0:0:0:0:
298,192,74726,1,0,0:0:0:30:tom.wav
128,192,74809,128,0,74975:0:0:0:30:tom.wav
213,192,74809,1,0,0:0:0:0:
298,192,74892,1,0,0:0:0:30:tom.wav
42,192,74975,1,4,0:0:0:0:
213,192,74975,128,0,75140:0:0:0:0:
384,192,74975,1,0,0:0:0:0:
469,192,74975,1,0,0:0:0:0:
128,192,75140,1,2,0:0:0:0:
298,192,75140,1,0,0:0:0:0:
42,192,75306,128,8,75472:0:0:0:0:
213,192,75306,1,0,0:0:0:0:
384,192,75306,1,0,0:0:0:0:
298,192,75472,1,0,0:0:0:0:
469,192,75472,128,0,75803:0:0:0:0:
213,192,75555,1,0,0:0:0:0:
128,192,75638,1,2,0:0:0:0:
384,192,75638,1,0,0:0:0:0:
42,192,75803,1,2,0:0:0:0:
298,192,75803,128,0,75969:0:0:0:0:
128,192,75969,128,8,76135:0:0:0:0:
213,192,75969,1,0,0:0:0:0:
384,192,75969,1,0,0:0:0:0:
42,192,76135,128,0,76301:0:0:0:0:
298,192,76135,1,0,0:0:0:0:
128,192,76301,128,4,76384:0:0:0:0:
213,192,76301,128,0,76384:0:0:0:0:
469,192,76301,128,0,76384:0:0:0:0:
298,192,76384,128,0,76466:0:0:0:0:
128,192,76466,128,4,76549:0:0:0:0:
213,192,76466,128,0,76549:0:0:0:0:
469,192,76466,128,0,76549:0:0:0:0:
298,192,76549,128,0,76632:0:0:0:0:
469,192,76632,128,0,76715:0:0:0:0:
298,192,76715,128,0,76798:0:0:0:0:
469,192,76798,128,0,76881:0:0:0:0:
298,192,76881,128,0,76964:0:0:0:0:
213,192,76964,1,0,0:0:0:0:
469,192,76964,128,0,77129:0:0:0:0:
42,192,77129,1,0,0:0:0:0:
298,192,77129,128,0,77295:0:0:0:0:
128,192,77295,1,0,0:0:0:0:
384,192,77295,128,0,77461:0:0:0:0:
213,192,77461,128,0,77627:0:0:0:0:
469,192,77461,1,0,0:0:0:0:
42,192,77627,128,4,77792:0:0:0:0:
128,192,77627,1,0,0:0:0:0:
298,192,77627,1,0,0:0:0:0:
384,192,77627,1,0,0:0:0:0:
213,192,77792,1,0,0:0:0:0:
469,192,77792,1,0,0:0:0:0:
128,192,77958,1,2,0:0:0:0:
298,192,77958,128,0,78041:0:0:0:0:
213,192,78124,1,2,0:0:0:0:
298,192,78124,128,0,80279:0:0:0:0:
42,192,78290,1,8,0:0:0:0:
128,192,78290,1,0,0:0:0:0:
469,192,78290,1,0,0:0:0:0:
384,192,78455,1,0,0:0:0:0:
128,192,78621,1,0,0:0:0:0:
42,192,78787,1,2,0:0:0:0:
469,192,78787,1,0,0:0:0:0:
213,192,78953,1,2,0:0:0:0:
384,192,78953,1,0,0:0:0:0:
128,192,79118,1,0,0:0:0:0:
469,192,79284,1,0,0:0:0:0:
213,192,79450,1,2,0:0:0:0:
384,192,79450,1,0,0:0:0:0:
42,192,79616,1,8,0:0:0:0:
128,192,79616,1,0,0:0:0:0:
469,192,79616,1,0,0:0:0:0:
384,192,79781,1,0,0:0:0:0:
213,192,79947,1,0,0:0:0:0:
42,192,80113,1,2,0:0:0:0:
469,192,80113,1,0,0:0:0:0:
213,192,80279,1,2,0:0:0:0:
384,192,80279,1,0,0:0:0:0:
298,192,80444,1,0,0:0:0:0:
213,192,80610,1,2,0:0:0:0:
384,192,80610,1,0,0:0:0:0:
128,192,80776,1,2,0:0:0:0:
469,192,80776,1,0,0:0:0:0:
42,192,80942,128,8,81107:0:0:0:0:
213,192,80942,1,0,0:0:0:0:
298,192,80942,1,0,0:0:0:0:
469,192,81107,1,0,0:0:0:0:
213,192,81273,1,0,0:0:0:0:
42,192,81439,1,2,0:0:0:0:
384,192,81439,1,0,0:0:0:0:
128,192,81605,1,2,0:0:0:0:
298,192,81605,128,0,81770:0:0:0:0:
213,192,81770,1,0,0:0:0:0:
128,192,81936,1,2,0:0:0:0:
298,192,81936,1,0,0:0:0:0:
42,192,82102,1,2,0:0:0:0:
384,192,82102,1,0,0:0:0:0:
213,192,82268,128,8,82433:0:0:0:0:
298,192,82268,1,0,0:0:0:0:
469,192,82268,1,0,0:0:0:0:
128,192,82433,1,0,0:0:0:0:
42,192,82599,1,2,0:0:0:0:
384,192,82599,1,0,0:0:0:0:
213,192,82765,1,8,0:0:0:0:
298,192,82765,1,0,0:0:0:0:
469,192,82765,1,0,0:0:0:0:
42,192,82931,1,2,0:0:0:0:
128,192,82931,1,0,0:0:0:0:
384,192,82931,128,0,83096:0:0:0:0:
213,192,83096,1,0,0:0:0:0:
298,192,83262,1,2,0:0:0:0:
384,192,83262,1,0,0:0:0:0:
128,192,83428,1,2,0:0:0:0:
469,192,83428,1,0,0:0:0:0:
42,192,83593,1,8,0:0:0:0:
213,192,83593,1,0,0:0:0:0:
384,192,83593,1,0,0:0:0:0:
298,192,83759,1,0,0:0:0:0:
213,192,83925,1,0,0:0:0:0:
42,192,84091,1,2,0:0:0:0:
384,192,84091,1,0,0:0:0:0:
128,192,84256,1,2,0:0:0:0:
469,192,84256,128,0,86826:0:0:0:0:
298,192,84422,1,0,0:0:0:0:
42,192,84588,1,0,0:0:0:0:
213,192,84754,1,2,0:0:0:0:
384,192,84754,1,0,0:0:0:0:
42,192,84919,1,8,0:0:0:0:
128,192,84919,128,0,85085:0:0:0:0:
298,192,84919,1,0,0:0:0:0:
384,192,85085,1,0,0:0:0:0:
128,192,85251,1,0,0:0:0:0:
42,192,85417,1,2,0:0:0:0:
298,192,85417,1,0,0:0:0:0:
213,192,85582,1,2,0:0:0:0:
384,192,85582,128,0,86826:0:0:0:0:
298,192,85748,1,0,0:0:0:0:
42,192,85914,1,2,0:0:0:0:
128,192,85914,1,0,0:0:0:0:
298,192,86080,1,2,0:0:0:0:
42,192,86245,1,8,0:0:0:0:
213,192,86245,1,0,0:0:0:0:
128,192,86411,1,0,0:0:0:0:
298,192,86577,1,0,0:0:0:0:
42,192,86743,1,2,0:0:0:0:
128,192,86743,1,0,0:0:0:0:
298,192,86908,128,2,87323:0:0:0:0:
384,192,86908,1,0,0:0:0:0:
469,192,86908,1,0,0:0:0:0:
213,192,87074,128,0,87820:0:0:0:0:
128,192,87240,128,0,87820:0:0:0:0:
298,192,87406,1,2,0:0:0:0:
469,192,87406,128,0,87903:0:0:0:0:
42,192,87571,1,8,0:0:0:0:
384,192,87571,128,0,87903:0:0:0:0:
298,192,87737,128,0,87903:0:0:0:0:
42,192,87903,1,0,0:0:0:30:tom.wav
128,192,87903,1,0,0:0:0:0:
213,192,87903,1,0,0:0:0:0:
298,192,87986,1,0,0:0:0:30:tom.wav
128,192,88069,1,0,0:0:0:30:tom.wav
384,192,88069,1,0,0:0:0:0:
213,192,88152,1,0,0:0:0:30:tom.wav
42,192,88234,1,4,0:0:0:0:
128,192,88234,1,0,0:0:0:0:
298,192,88234,1,0,0:0:0:0:
384,192,88234,128,0,88317:0:0:0:0:
469,192,88234,128,0,88317:0:0:0:0:
213,192,88400,1,2,0:0:0:0:
384,192,88400,128,0,88483:0:0:0:0:
469,192,88400,128,0,88483:0:0:0:0:
128,192,88566,1,0,0:0:0:0:
384,192,88566,128,0,88732:0:0:0:0:
469,192,88566,128,0,88732:0:0:0:0:
298,192,88732,1,2,0:0:0:0:
42,192,88897,1,8,0:0:0:0:
128,192,88897,1,0,0:0:0:0:
384,192,89063,128,0,89229:0:0:0:0:
469,192,89063,128,0,89229:0:0:0:0:
213,192,89229,1,0,0:0:0:0:
42,192,89395,128,2,89643:0:0:0:0:
128,192,89395,128,0,89643:0:0:0:0:
298,192,89395,1,0,0:0:0:0:
469,192,89560,1,0,0:0:0:0:
42,192,89726,128,2,89809:0:0:0:0:
128,192,89726,128,0,89809:0:0:0:0:
298,192,89726,1,0,0:0:0:0:
42,192,89892,128,0,90058:0:0:0:0:
128,192,89892,128,0,90058:0:0:0:0:
384,192,89892,1,0,0:0:0:0:
213,192,90058,1,2,0:0:0:0:
384,192,90223,1,8,0:0:0:0:
469,192,90223,1,0,0:0:0:0:
42,192,90389,128,0,90555:0:0:0:0:
128,192,90389,128,0,90555:0:0:0:0:
384,192,90555,1,0,0:0:0:0:
213,192,90721,1,0,0:0:0:0:
42,192,90886,1,2,0:0:0:0:
384,192,90886,128,0,90969:0:0:0:0:
469,192,90886,128,0,90969:0:0:0:0:
213,192,91052,1,2,0:0:0:0:
384,192,91052,128,0,91135:0:0:0:0:
469,192,91052,128,0,91135:0:0:0:0:
128,192,91218,1,0,0:0:0:0:
384,192,91218,128,0,91384:0:0:0:0:
469,192,91218,128,0,91384:0:0:0:0:
298,192,91384,1,2,0:0:0:0:
42,192,91549,1,8,0:0:0:0:
128,192,91549,1,0,0:0:0:0:
384,192,91715,128,0,91881:0:0:0:0:
469,192,91715,128,0,91881:0:0:0:0:
213,192,91881,1,0,0:0:0:0:
42,192,92047,128,2,92295:0:0:0:0:
128,192,92047,128,0,92295:0:0:0:0:
298,192,92047,1,0,0:0:0:0:
469,192,92212,1,0,0:0:0:0:
42,192,92378,128,2,92461:0:0:0:0:
128,192,92378,128,0,92461:0:0:0:0:
298,192,92378,1,0,0:0:0:0:
42,192,92544,128,0,92710:0:0:0:30:tom.wav
128,192,92544,128,0,92710:0:0:0:0:
384,192,92544,1,0,0:0:0:0:
469,192,92544,1,0,0:0:0:0:
213,192,92710,1,0,0:0:0:30:tom.wav
298,192,92710,1,0,0:0:0:0:
128,192,92875,1,0,0:0:0:30:tom.wav
384,192,92875,1,0,0:0:0:0:
42,192,93538,128,4,93621:0:0:0:0:
128,192,93538,128,0,93621:0:0:0:0:
384,192,93538,1,0,0:0:0:0:
469,192,93538,1,0,0:0:0:0:
42,192,93704,128,2,93787:0:0:0:0:
128,192,93704,128,0,93787:0:0:0:0:
298,192,93704,1,0,0:0:0:0:
42,192,93870,128,0,94035:0:0:0:0:
128,192,93870,128,0,94035:0:0:0:0:
384,192,93870,1,0,0:0:0:0:
213,192,94035,1,2,0:0:0:0:
384,192,94201,1,8,0:0:0:0:
469,192,94201,1,0,0:0:0:0:
42,192,94367,128,0,94533:0:0:0:0:
128,192,94367,128,0,94533:0:0:0:0:
298,192,94533,1,0,0:0:0:0:
213,192,94698,1,2,0:0:0:0:
384,192,94698,128,0,94947:0:0:0:0:
469,192,94698,128,0,94947:0:0:0:0:
42,192,94864,1,0,0:0:0:0:
213,192,95030,1,2,0:0:0:0:
384,192,95030,128,0,95113:0:0:0:0:
469,192,95030,128,0,95113:0:0:0:0:
128,192,95196,1,0,0:0:0:0:
384,192,95196,128,0,95361:0:0:0:0:
469,192,95196,128,0,95361:0:0:0:0:
298,192,95361,1,2,0:0:0:0:
42,192,95527,1,8,0:0:0:0:
128,192,95527,1,0,0:0:0:0:
384,192,95693,128,0,95859:0:0:0:0:
469,192,95693,128,0,95859:0:0:0:0:
128,192,95859,1,0,0:0:0:0:
298,192,96024,1,0,0:0:0:0:
42,192,96190,128,2,96273:0:0:0:0:
128,192,96190,128,0,96273:0:0:0:0:
469,192,96190,1,0,0:0:0:0:
42,192,96356,128,2,96439:0:0:0:0:
128,192,96356,128,0,96439:0:0:0:0:
298,192,96356,1,0,0:0:0:0:
42,192,96522,128,0,96687:0:0:0:0:
128,192,96522,128,0,96687:0:0:0:0:
384,192,96522,1,0,0:0:0:0:
213,192,96687,1,2,0:0:0:0:
384,192,96853,1,8,0:0:0:0:
469,192,96853,1,0,0:0:0:0:
42,192,97019,128,0,97185:0:0:0:0:
128,192,97019,128,0,97185:0:0:0:0:
298,192,97185,1,0,0:0:0:0:
213,192,97350,1,2,0:0:0:0:
384,192,97350,128,0,97599:0:0:0:0:
469,192,97350,128,0,97599:0:0:0:0:
42,192,97516,1,0,0:0:0:0:
213,192,97682,1,2,0:0:0:0:
384,192,97682,128,0,97765:0:0:0:0:
469,192,97682,128,0,97765:0:0:0:0:
42,192,97848,1,0,0:0:0:30:tom.wav
128,192,97848,1,0,0:0:0:0:
384,192,97848,128,0,98013:0:0:0:0:
469,192,97848,128,0,98013:0:0:0:0:
213,192,98013,1,0,0:0:0:30:tom.wav
298,192,98013,1,0,0:0:0:0:
128,192,98179,1,0,0:0:0:30:tom.wav
384,192,98179,1,0,0:0:0:0:
128,192,98842,1,4,0:0:0:0:
213,192,98842,1,0,0:0:0:0:
298,192,98842,1,0,0:0:0:0:
384,192,98842,128,0,98925:0:0:0:0:
469,192,98842,128,0,98925:0:0:0:0:
42,192,99008,128,2,99174:0:0:0:0:
384,192,99008,128,0,99091:0:0:0:0:
469,192,99008,128,0,99091:0:0:0:0:
128,192,99174,128,0,99339:0:0:0:0:
384,192,99174,128,0,99339:0:0:0:0:
469,192,99174,128,0,99339:0:0:0:0:
213,192,99339,128,2,99671:0:0:0:0:
42,192,99505,1,8,0:0:0:0:
298,192,99505,1,0,0:0:0:0:
128,192,99671,128,0,99837:0:0:0:0:
384,192,99671,128,0,99837:0:0:0:0:
469,192,99671,128,0,99837:0:0:0:0:
213,192,99837,128,0,100002:0:0:0:0:
42,192,100002,128,2,100251:0:0:0:0:
128,192,100002,128,0,100251:0:0:0:0:
298,192,100002,128,0,100334:0:0:0:0:
384,192,100168,1,0,0:0:0:0:
42,192,100334,128,2,100417:0:0:0:0:
128,192,100334,128,0,100417:0:0:0:0:
469,192,100334,128,0,100500:0:0:0:0:
42,192,100500,128,0,100665:0:0:0:0:
128,192,100500,128,0,100665:0:0:0:0:
384,192,100500,128,0,100665:0:0:0:0:
298,192,100665,128,2,100997:0:0:0:0:
384,192,100831,1,8,0:0:0:0:
469,192,100831,1,0,0:0:0:0:
42,192,100997,128,0,101163:0:0:0:0:
128,192,100997,128,0,101163:0:0:0:0:
213,192,100997,128,0,101163:0:0:0:0:
298,192,101163,128,0,101328:0:0:0:0:
42,192,101328,128,0,101826:0:0:0:0:
298,192,101494,1,2,0:0:0:0:
384,192,101494,128,0,101577:0:0:0:0:
469,192,101494,128,0,101577:0:0:0:0:
128,192,101660,128,2,101826:0:0:0:0:
384,192,101660,128,0,101743:0:0:0:0:
469,192,101660,128,0,101743:0:0:0:0:
213,192,101826,128,0,102157:0:0:0:0:
384,192,101826,128,0,101991:0:0:0:0:
469,192,101826,128,0,101991:0:0:0:0:
298,192,101991,128,2,102157:0:0:0:0:
42,192,102157,1,8,0:0:0:0:
128,192,102157,128,0,102240:0:0:0:0:
213,192,102240,128,0,102323:0:0:0:0:
298,192,102323,128,0,102489:0:0:0:0:
384,192,102323,128,0,102489:0:0:0:0:
469,192,102323,128,0,102489:0:0:0:0:
213,192,102489,128,0,102654:0:0:0:0:
42,192,102654,128,2,102903:0:0:0:0:
128,192,102654,128,0,102903:0:0:0:0:
469,192,102654,128,0,102986:0:0:0:0:
384,192,102820,1,0,0:0:0:0:
42,192,102986,128,2,103069:0:0:0:0:
128,192,102986,128,0,103069:0:0:0:0:
298,192,102986,128,0,103069:0:0:0:0:
42,192,103152,128,0,103317:0:0:0:30:tom.wav
128,192,103152,128,0,103317:0:0:0:0:
213,192,103152,1,0,0:0:0:0:
298,192,103152,128,0,103483:0:0:0:0:
384,192,103317,128,0,103483:0:0:0:30:tom.wav
469,192,103317,1,0,0:0:0:0:
128,192,103483,1,0,0:0:0:30:tom.wav
213,192,103483,128,0,104146:0:0:0:0:
42,192,104146,128,4,104229:0:0:0:0:
128,192,104146,128,0,104229:0:0:0:0:
298,192,104146,128,0,104229:0:0:0:0:
384,192,104146,1,0,0:0:0:0:
469,192,104146,1,0,0:0:0:0:
42,192,104312,128,2,104395:0:0:0:0:
128,192,104312,128,0,104395:0:0:0:0:
298,192,104312,128,0,104395:0:0:0:0:
384,192,104395,128,0,104477:0:0:0:0:
42,192,104477,128,0,104643:0:0:0:0:
128,192,104477,128,0,104643:0:0:0:0:
298,192,104477,128,0,104560:0:0:0:0:
298,192,104643,128,2,104726:0:0:0:0:
384,192,104726,128,0,104809:0:0:0:0:
213,192,104809,1,8,0:0:0:0:
298,192,104809,128,0,104975:0:0:0:0:
42,192,104975,128,0,105140:0:0:0:0:
128,192,104975,128,0,105140:0:0:0:0:
469,192,104975,128,0,105140:0:0:0:0:
213,192,105140,128,0,105306:0:0:0:0:
128,192,105306,128,2,105638:0:0:0:0:
384,192,105306,128,0,105555:0:0:0:0:
469,192,105306,128,0,105555:0:0:0:0:
42,192,105472,1,0,0:0:0:0:
213,192,105638,128,2,105721:0:0:0:0:
384,192,105638,128,0,105721:0:0:0:0:
469,192,105638,128,0,105721:0:0:0:0:
213,192,105803,128,0,106301:0:0:0:0:
384,192,105803,128,0,105969:0:0:0:0:
469,192,105803,128,0,105969:0:0:0:0:
298,192,105969,1,2,0:0:0:0:
42,192,106135,1,8,0:0:0:0:
128,192,106135,128,0,106301:0:0:0:0:
298,192,106301,128,0,106466:0:0:0:0:
384,192,106301,128,0,106466:0:0:0:0:
469,192,106301,128,0,106466:0:0:0:0:
42,192,106466,128,0,106632:0:0:0:0:
384,192,106632,128,0,106964:0:0:0:0:
42,192,106798,128,2,106881:0:0:0:0:
128,192,106798,128,0,106881:0:0:0:0:
298,192,106798,128,0,106964:0:0:0:0:
42,192,106964,128,2,107047:0:0:0:0:
128,192,106964,128,0,107047:0:0:0:0:
469,192,106964,128,0,107047:0:0:0:0:
384,192,107047,128,0,107129:0:0:0:0:
42,192,107129,128,0,107295:0:0:0:0:
128,192,107129,128,0,107295:0:0:0:0:
298,192,107129,128,0,107212:0:0:0:0:
469,192,107295,128,2,107378:0:0:0:0:
384,192,107378,128,0,107461:0:0:0:0:
213,192,107461,1,8,0:0:0:0:
298,192,107461,128,0,107544:0:0:0:0:
42,192,107627,128,0,107792:0:0:0:0:
128,192,107627,128,0,107792:0:0:0:0:
469,192,107627,128,0,107710:0:0:0:0:
384,192,107710,128,0,107792:0:0:0:0:
213,192,107792,128,0,107958:0:0:0:0:
128,192,107958,128,2,108290:0:0:0:0:
384,192,107958,128,0,108207:0:0:0:0:
469,192,107958,128,0,108207:0:0:0:0:
42,192,108124,1,0,0:0:0:0:
213,192,108290,128,2,108372:0:0:0:0:
384,192,108290,128,0,108372:0:0:0:0:
469,192,108290,128,0,108372:0:0:0:0:
213,192,108455,128,0,108787:0:0:0:30:tom.wav
298,192,108455,1,0,0:0:0:0:
384,192,108455,128,0,108621:0:0:0:0:
469,192,108455,128,0,108621:0:0:0:0:
42,192,108621,1,0,0:0:0:30:tom.wav
128,192,108621,1,0,0:0:0:0:
298,192,108704,1,0,0:0:0:0:
384,192,108745,1,0,0:0:0:0:
42,192,108787,1,0,0:0:0:30:tom.wav
469,192,108787,1,0,0:0:0:0:
213,192,108911,1,0,0:0:0:0:
298,192,108953,1,0,0:0:0:0:
384,192,108994,1,0,0:0:0:0:
42,192,109035,1,0,0:0:0:30:tom.wav
128,192,109035,1,0,0:0:0:0:
213,192,109160,1,0,0:0:0:30:tom.wav
298,192,109160,1,0,0:0:0:0:
384,192,109284,1,0,0:0:0:30:tom.wav
469,192,109284,1,0,0:0:0:0:
128,192,109616,128,4,109781:0:0:0:0:
213,192,109616,1,0,0:0:0:0:
298,192,109616,128,0,109698:0:0:0:0:
384,192,109616,128,0,109698:0:0:0:0:
469,192,109616,1,0,0:0:0:0:
42,192,109781,128,4,109947:0:0:0:0:
298,192,109781,128,0,109864:0:0:0:0:
384,192,109781,128,0,109864:0:0:0:0:
469,192,109781,1,0,0:0:0:0:
213,192,109947,128,2,110279:0:0:0:0:
298,192,109947,128,0,110113:0:0:0:0:
384,192,109947,128,0,110113:0:0:0:0:
128,192,110113,1,8,0:0:0:0:
469,192,110113,1,0,0:0:0:0:
42,192,110279,128,0,110444:0:0:0:0:
298,192,110279,128,0,110444:0:0:0:0:
384,192,110279,128,0,110444:0:0:0:0:
469,192,110444,128,0,110610:0:0:0:0:
128,192,110610,128,2,110859:0:0:0:0:
213,192,110610,128,0,110859:0:0:0:0:
298,192,110610,128,0,110942:0:0:0:0:
384,192,110776,1,0,0:0:0:0:
128,192,110942,128,2,111024:0:0:0:0:
213,192,110942,128,0,111024:0:0:0:0:
469,192,110942,128,0,111107:0:0:0:0:
128,192,111107,128,0,111273:0:0:0:0:
213,192,111107,128,0,111273:0:0:0:0:
384,192,111107,128,0,111273:0:0:0:0:
298,192,111273,128,2,111605:0:0:0:0:
384,192,111439,1,8,0:0:0:0:
469,192,111439,1,0,0:0:0:0:
42,192,111605,128,0,111770:0:0:0:0:
128,192,111605,128,0,111770:0:0:0:0:
213,192,111605,128,0,111770:0:0:0:0:
384,192,111770,128,0,111936:0:0:0:0:
42,192,111936,128,0,112433:0:0:0:0:
213,192,112102,1,2,0:0:0:0:
298,192,112102,128,0,112185:0:0:0:0:
384,192,112102,128,0,112185:0:0:0:0:
128,192,112268,128,2,112433:0:0:0:0:
298,192,112268,128,0,112350:0:0:0:0:
384,192,112268,128,0,112350:0:0:0:0:
213,192,112433,128,0,112765:0:0:0:0:
298,192,112433,128,0,112599:0:0:0:0:
384,192,112433,128,0,112599:0:0:0:0:
469,192,112599,128,2,112765:0:0:0:0:
42,192,112765,1,8,0:0:0:0:
128,192,112765,128,0,112848:0:0:0:0:
213,192,112848,128,0,112931:0:0:0:0:
298,192,112931,128,0,113096:0:0:0:0:
384,192,112931,128,0,113096:0:0:0:0:
469,192,112931,128,0,113096:0:0:0:0:
42,192,113096,128,0,113262:0:0:0:0:
128,192,113262,128,2,113511:0:0:0:0:
213,192,113262,128,0,113511:0:0:0:0:
469,192,113262,128,0,113593:0:0:0:0:
298,192,113428,1,0,0:0:0:0:
128,192,113593,128,2,113676:0:0:0:0:
213,192,113593,128,0,113676:0:0:0:0:
384,192,113593,128,0,113676:0:0:0:0:
298,192,113676,128,0,113759:0:0:0:0:
42,192,113759,1,0,0:0:0:30:tom.wav
128,192,113759,128,0,113925:0:0:0:0:
213,192,113759,128,0,113925:0:0:0:0:
469,192,113759,128,0,114091:0:0:0:0:
298,192,113925,1,0,0:0:0:30:tom.wav
384,192,113925,128,0,114091:0:0:0:0:
42,192,114091,128,0,114754:0:0:0:30:tom.wav
128,192,114091,1,0,0:0:0:0:
128,192,114754,128,4,114837:0:0:0:0:
213,192,114754,128,0,114837:0:0:0:0:
298,192,114754,128,0,114837:0:0:0:0:
384,192,114754,1,0,0:0:0:0:
469,192,114754,1,0,0:0:0:0:
128,192,114919,128,2,115002:0:0:0:0:
213,192,114919,128,0,115002:0:0:0:0:
298,192,114919,128,0,115002:0:0:0:0:
384,192,115002,128,0,115085:0:0:0:0:
128,192,115085,128,0,115251:0:0:0:0:
213,192,115085,128,0,115251:0:0:0:0:
298,192,115085,128,0,115168:0:0:0:0:
298,192,115251,128,2,115334:0:0:0:0:
384,192,115334,128,0,115417:0:0:0:0:
42,192,115417,1,8,0:0:0:0:
298,192,115417,128,0,115582:0:0:0:0:
128,192,115582,128,0,115748:0:0:0:0:
213,192,115582,128,0,115748:0:0:0:0:
384,192,115582,128,0,115748:0:0:0:0:
469,192,115748,128,0,115914:0:0:0:0:
213,192,115914,128,2,116163:0:0:0:0:
298,192,115914,128,0,116163:0:0:0:0:
384,192,115914,128,0,116163:0:0:0:0:
42,192,116080,1,0,0:0:0:0:
213,192,116245,128,2,116328:0:0:0:0:
298,192,116245,128,0,116328:0:0:0:0:
384,192,116245,128,0,116328:0:0:0:0:
128,192,116328,128,0,116411:0:0:0:0:
213,192,116411,128,0,116494:0:0:0:0:
298,192,116411,128,0,116577:0:0:0:0:
384,192,116411,128,0,116577:0:0:0:0:
213,192,116577,128,2,116660:0:0:0:0:
128,192,116660,128,0,116743:0:0:0:0:
213,192,116743,128,8,116908:0:0:0:0:
469,192,116743,1,0,0:0:0:0:
42,192,116908,128,0,117074:0:0:0:0:
298,192,116908,128,0,117074:0:0:0:0:
384,192,116908,128,0,117074:0:0:0:0:
128,192,117074,128,0,117240:0:0:0:0:
384,192,117240,128,0,117489:0:0:0:0:
128,192,117406,128,2,117489:0:0:0:0:
213,192,117406,128,0,117489:0:0:0:0:
469,192,117406,1,0,0:0:0:0:
128,192,117571,128,2,117654:0:0:0:0:
213,192,117571,128,0,117654:0:0:0:0:
384,192,117571,128,0,117654:0:0:0:0:
298,192,117654,128,0,117737:0:0:0:0:
128,192,117737,128,0,117903:0:0:0:0:
213,192,117737,128,0,117903:0:0:0:0:
384,192,117737,128,0,117820:0:0:0:0:
384,192,117903,128,2,117986:0:0:0:0:
298,192,117986,128,0,118069:0:0:0:0:
42,192,118069,1,8,0:0:0:0:
384,192,118069,128,0,118234:0:0:0:0:
128,192,118234,128,0,118400:0:0:0:30:tom.wav
213,192,118234,128,0,118400:0:0:0:0:
298,192,118234,1,0,0:0:0:0:
469,192,118234,128,0,118400:0:0:0:0:
42,192,118400,128,0,118566:0:0:0:30:tom.wav
384,192,118400,1,0,0:0:0:0:
128,192,118566,128,4,118953:0:0:0:0:
213,192,118566,128,0,118953:0:0:0:0:
298,192,118566,1,0,0:0:0:0:
469,192,118566,128,0,118953:0:0:0:0:
42,192,118953,1,2,0:0:0:0:
298,192,118953,1,0,0:0:0:0:
384,192,118953,1,0,0:0:0:0:
213,192,119063,1,0,0:0:0:30:tom.wav
469,192,119063,1,0,0:0:0:0:
42,192,119174,1,0,0:0:0:30:tom.wav
298,192,119174,1,0,0:0:0:0:
128,192,119284,1,0,0:0:0:30:tom.wav
384,192,119284,1,0,0:0:0:0:
42,192,119395,128,2,120058:0:0:0:0:
213,192,119395,1,0,0:0:0:0:
298,192,119395,1,0,0:0:0:0:
469,192,119395,1,0,0:0:0:0:
128,192,120058,128,4,120223:0:0:0:0:
298,192,120058,1,0,0:0:0:0:
469,192,120058,128,0,120223:0:0:0:0:
213,192,120223,128,0,120389:0:0:0:0:
384,192,120223,128,0,120389:0:0:0:0:
128,192,120389,128,0,120555:0:0:0:0:
298,192,120389,128,0,120555:0:0:0:0:
42,192,120555,128,0,120721:0:0:0:0:
384,192,120555,128,0,120721:0:0:0:0:
128,192,120721,128,0,120886:0:0:0:0:
469,192,120721,128,0,120886:0:0:0:0:
213,192,120886,128,0,121052:0:0:0:0:
384,192,120886,128,0,121052:0:0:0:0:
128,192,121052,128,0,121218:0:0:0:0:
298,192,121052,128,0,121218:0:0:0:0:
42,192,121218,128,0,121384:0:0:0:0:
384,192,121218,128,0,121384:0:0:0:0:
128,192,121384,128,0,121549:0:0:0:0:
469,192,121384,128,0,121549:0:0:0:0:
213,192,121549,128,0,121715:0:0:0:0:
384,192,121549,128,0,121715:0:0:0:0:
128,192,121715,128,0,121881:0:0:0:0:
298,192,121715,128,0,121881:0:0:0:0:
42,192,121881,128,0,122047:0:0:0:0:
384,192,121881,128,0,122047:0:0:0:0:
128,192,122047,128,0,122212:0:0:0:0:
469,192,122047,128,0,122212:0:0:0:0:
213,192,122212,128,0,122378:0:0:0:0:
384,192,122212,128,0,122378:0:0:0:0:
128,192,122378,128,0,122544:0:0:0:0:
298,192,122378,128,0,122544:0:0:0:0:
42,192,122544,128,0,122627:0:0:0:0:
384,192,122544,128,0,122710:0:0:0:0:
128,192,122627,128,0,122710:0:0:0:0:
213,192,122710,128,0,123041:0:0:0:0:
469,192,122710,128,0,122875:0:0:0:0:
384,192,122875,128,0,123041:0:0:0:0:
128,192,123041,128,0,123207:0:0:0:0:
298,192,123041,128,0,123207:0:0:0:0:
42,192,123207,128,0,123538:0:0:0:0:
384,192,123207,128,0,123372:0:0:0:0:
213,192,123372,128,0,123538:0:0:0:0:
469,192,123372,128,0,123538:0:0:0:0:
384,192,123538,128,0,123704:0:0:0:0:
128,192,123704,128,0,123870:0:0:0:0:
298,192,123704,128,0,123870:0:0:0:0:
42,192,123870,128,0,124201:0:0:0:0:
384,192,123870,128,0,124035:0:0:0:0:
213,192,124035,128,0,124201:0:0:0:0:
469,192,124035,128,0,124201:0:0:0:0:
384,192,124201,128,0,124367:0:0:0:0:
128,192,124367,128,0,124533:0:0:0:0:
298,192,124367,128,0,124533:0:0:0:0:
42,192,124533,128,0,124698:0:0:0:0:
384,192,124533,128,0,124698:0:0:0:0:
213,192,124698,128,0,124864:0:0:0:0:
469,192,124698,128,0,124864:0:0:0:0:
384,192,124864,128,0,125030:0:0:0:0:
128,192,125030,128,0,125196:0:0:0:0:
298,192,125030,128,0,125196:0:0:0:0:
384,192,125196,128,0,125279:0:0:0:0:
213,192,125279,128,0,125361:0:0:0:0:
42,192,125361,128,0,125527:0:0:0:0:
469,192,125361,128,0,125527:0:0:0:0:
128,192,125527,128,0,125693:0:0:0:0:
298,192,125527,128,0,125693:0:0:0:0:
213,192,125693,128,0,125859:0:0:0:0:
384,192,125693,128,0,125859:0:0:0:0:
128,192,125859,128,0,126024:0:0:0:0:
469,192,125859,128,0,126024:0:0:0:0:
42,192,126024,128,0,126190:0:0:0:0:
384,192,126024,128,0,126190:0:0:0:0:
128,192,126190,128,0,126356:0:0:0:0:
298,192,126190,128,0,126356:0:0:0:0:
213,192,126356,128,0,126522:0:0:0:0:
384,192,126356,128,0,126522:0:0:0:0:
128,192,126522,128,0,126687:0:0:0:0:
469,192,126522,128,0,126687:0:0:0:0:
42,192,126687,128,0,126853:0:0:0:0:
384,192,126687,128,0,126853:0:0:0:0:
128,192,126853,128,0,127019:0:0:0:0:
298,192,126853,128,0,127019:0:0:0:0:
213,192,127019,128,0,127185:0:0:0:0:
384,192,127019,128,0,127185:0:0:0:0:
128,192,127185,128,0,127350:0:0:0:0:
469,192,127185,128,0,127350:0:0:0:0:
42,192,127350,128,0,127516:0:0:0:0:
384,192,127350,128,0,127516:0:0:0:0:
128,192,127516,128,0,127682:0:0:0:0:
298,192,127516,128,0,127682:0:0:0:0:
213,192,127682,128,0,127848:0:0:0:0:
384,192,127682,128,0,127848:0:0:0:0:
128,192,127848,128,0,128013:0:0:0:0:
469,192,127848,128,0,127931:0:0:0:0:
384,192,127931,128,0,128013:0:0:0:0:
42,192,128013,128,0,128179:0:0:0:0:
298,192,128013,128,0,128345:0:0:0:0:
128,192,128179,128,0,128345:0:0:0:0:
213,192,128345,128,0,128511:0:0:0:0:
384,192,128345,128,0,128511:0:0:0:0:
128,192,128511,128,0,128676:0:0:0:0:
469,192,128511,128,0,128842:0:0:0:0:
42,192,128676,128,0,128842:0:0:0:0:
298,192,128676,128,0,128842:0:0:0:0:
128,192,128842,128,0,129008:0:0:0:0:
213,192,129008,128,0,129174:0:0:0:0:
384,192,129008,128,0,129174:0:0:0:0:
128,192,129174,128,0,129339:0:0:0:0:
469,192,129174,128,0,129505:0:0:0:0:
42,192,129339,1,0,0:0:0:0:
298,192,129339,128,0,129505:0:0:0:0:
128,192,129505,1,0,0:0:0:30:tom.wav
384,192,129505,1,0,0:0:0:0:
213,192,129588,1,0,0:0:0:30:tom.wav
469,192,129588,1,0,0:0:0:0:
42,192,129671,1,0,0:0:0:30:tom.wav
298,192,129671,1,0,0:0:0:0:
128,192,129754,1,0,0:0:0:30:tom.wav
384,192,129754,1,0,0:0:0:0:
213,192,129837,1,0,0:0:0:30:tom.wav
469,192,129837,1,0,0:0:0:0:
42,192,129919,1,0,0:0:0:30:tom.wav
298,192,129919,1,0,0:0:0:0:
128,192,130002,1,2,0:0:0:0:
213,192,130085,1,2,0:0:0:0:
42,192,130168,1,8,0:0:0:0:
298,192,130168,1,0,0:0:0:0:
469,192,130168,1,0,0:0:0:0:
42,192,130334,1,4,0:0:0:0:
128,192,130334,1,0,0:0:0:0:
384,192,130334,1,0,0:0:0:0:
469,192,130334,1,0,0:0:0:0:
42,192,130665,128,4,130831:0:0:0:0:
128,192,130665,128,0,130831:0:0:0:0:
298,192,130665,1,0,0:0:0:0:
384,192,130665,128,0,130748:0:0:0:0:
469,192,130665,128,0,130748:0:0:0:0:
213,192,130831,128,0,130997:0:0:0:0:
384,192,130831,128,0,130914:0:0:0:0:
469,192,130831,128,0,130914:0:0:0:0:
42,192,130997,128,2,131163:0:0:0:0:
128,192,130997,128,0,131163:0:0:0:0:
384,192,130997,128,0,131080:0:0:0:0:
469,192,130997,128,0,131080:0:0:0:0:
213,192,131163,128,0,131328:0:0:0:0:
384,192,131163,128,0,131245:0:0:0:0:
469,192,131163,128,0,131245:0:0:0:0:
42,192,131328,128,2,131494:0:0:0:0:
128,192,131328,128,0,131494:0:0:0:0:
384,192,131328,128,0,131411:0:0:0:0:
469,192,131328,128,0,131411:0:0:0:0:
213,192,131494,128,0,131660:0:0:0:0:
384,192,131494,128,0,131577:0:0:0:0:
469,192,131494,128,0,131577:0:0:0:0:
42,192,131660,128,2,131826:0:0:0:0:
128,192,131660,128,0,131826:0:0:0:0:
384,192,131660,128,0,131743:0:0:0:0:
469,192,131660,128,0,131743:0:0:0:0:
213,192,131826,128,0,131991:0:0:0:0:
384,192,131826,128,0,131908:0:0:0:0:
469,192,131826,128,0,131908:0:0:0:0:
42,192,131991,128,2,132074:0:0:0:0:
128,192,131991,128,0,132074:0:0:0:0:
384,192,131991,128,0,132157:0:0:0:0:
469,192,131991,128,0,132157:0:0:0:0:
42,192,132157,128,0,132240:0:0:0:0:
128,192,132157,128,0,132240:0:0:0:0:
298,192,132157,128,0,132323:0:0:0:0:
42,192,132323,128,2,132406:0:0:0:0:
128,192,132323,128,0,132406:0:0:0:0:
384,192,132323,128,0,132489:0:0:0:0:
469,192,132323,128,0,132489:0:0:0:0:
42,192,132489,128,0,132571:0:0:0:0:
128,192,132489,128,0,132571:0:0:0:0:
298,192,132489,128,0,132654:0:0:0:0:
42,192,132654,128,2,132737:0:0:0:0:
128,192,132654,128,0,132737:0:0:0:0:
384,192,132654,128,0,132820:0:0:0:0:
469,192,132654,128,0,132820:0:0:0:0:
42,192,132820,128,0,132903:0:0:0:0:
128,192,132820,128,0,132903:0:0:0:0:
298,192,132820,128,0,132986:0:0:0:0:
42,192,132986,128,2,133069:0:0:0:0:
128,192,132986,128,0,133069:0:0:0:0:
384,192,132986,128,0,133152:0:0:0:0:
42,192,133152,128,0,133234:0:0:0:0:
128,192,133152,128,0,133234:0:0:0:0:
469,192,133152,128,0,133317:0:0:0:0:
213,192,133317,128,2,133649:0:0:0:0:
298,192,133317,128,0,133400:0:0:0:0:
384,192,133317,128,0,133400:0:0:0:0:
298,192,133483,128,0,133566:0:0:0:0:
384,192,133483,128,0,133566:0:0:0:0:
128,192,133649,128,2,133814:0:0:0:0:
298,192,133649,128,0,133732:0:0:0:0:
384,192,133649,128,0,133732:0:0:0:0:
42,192,133814,128,0,134146:0:0:0:0:
298,192,133814,128,0,133897:0:0:0:0:
384,192,133814,128,0,133897:0:0:0:0:
298,192,133980,128,2,134063:0:0:0:0:
384,192,133980,128,0,134063:0:0:0:0:
213,192,134146,128,0,134312:0:0:0:0:
298,192,134146,128,0,134229:0:0:0:0:
384,192,134146,128,0,134229:0:0:0:0:
128,192,134312,128,2,134477:0:0:0:0:
298,192,134312,128,0,134395:0:0:0:0:
384,192,134312,128,0,134395:0:0:0:0:
298,192,134477,128,0,134560:0:0:0:0:
384,192,134477,128,0,134560:0:0:0:0:
469,192,134477,128,0,134809:0:0:0:0:
128,192,134643,128,2,134726:0:0:0:0:
213,192,134643,128,0,134726:0:0:0:0:
128,192,134809,128,0,134892:0:0:0:0:
213,192,134809,128,0,134892:0:0:0:0:
298,192,134809,128,0,134892:0:0:0:0:
384,192,134892,128,0,134975:0:0:0:0:
128,192,134975,128,2,135058:0:0:0:0:
213,192,134975,128,0,135058:0:0:0:0:
469,192,134975,128,0,135886:0:0:0:0:
128,192,135140,128,0,135223:0:0:0:0:
213,192,135140,128,0,135223:0:0:0:0:
128,192,135306,128,2,135389:0:0:0:0:
213,192,135306,128,0,135389:0:0:0:0:
384,192,135306,128,0,135886:0:0:0:0:
128,192,135472,128,0,135555:0:0:0:0:
213,192,135472,128,0,135555:0:0:0:0:
128,192,135638,128,2,135721:0:0:0:0:
213,192,135638,128,0,135721:0:0:0:0:
298,192,135638,128,0,135886:0:0:0:0:
128,192,135803,128,0,135886:0:0:0:0:
213,192,135803,128,0,135886:0:0:0:0:
42,192,135969,1,4,0:0:0:0:
128,192,135969,1,0,0:0:0:0:
298,192,135969,1,0,0:0:0:0:
384,192,135969,1,0,0:0:0:0:
469,192,135969,1,0,0:0:0:0:
42,192,136135,1,4,0:0:0:0:
128,192,136135,1,0,0:0:0:0:
298,192,136135,1,0,0:0:0:0:
384,192,136135,1,0,0:0:0:0:
469,192,136135,1,0,0:0:0:0:
469,192,137958,128,0,139947:0:0:0:0:
384,192,138290,128,0,139947:0:0:0:0:
298,192,138621,128,0,139947:0:0:0:0:
42,192,139947,1,0,0:0:0:0:
213,192,140002,1,0,0:0:0:0:
42,192,140058,1,0,0:0:0:0:
298,192,140776,128,0,140942:0:0:0:0:
213,192,140942,128,0,141107:0:0:0:0:
469,192,140942,128,0,141024:0:0:0:0:
384,192,141024,128,0,141107:0:0:0:0:
128,192,141107,128,0,141190:0:0:0:0:
298,192,141107,128,0,141190:0:0:0:0:
213,192,141190,128,0,141273:0:0:0:0:
42,192,141273,128,4,141439:0:0:0:0:
128,192,141273,1,0,0:0:0:0:
298,192,141273,1,0,0:0:0:0:
384,192,141273,1,0,0:0:0:0:
469,192,141273,1,0,0:0:0:0:
213,192,141439,128,2,141522:0:0:0:0:
469,192,141439,128,0,141522:0:0:0:0:
384,192,141522,128,0,141605:0:0:0:0:
42,192,141605,1,8,0:0:0:0:
128,192,141605,128,0,141687:0:0:0:0:
298,192,141605,128,0,141770:0:0:0:0:
213,192,141770,1,2,0:0:0:0:
469,192,141770,128,0,142102:0:0:0:0:
128,192,141853,1,0,0:0:0:0:
42,192,141936,1,2,0:0:0:0:
213,192,141936,1,0,0:0:0:0:
298,192,141936,1,0,0:0:0:0:
128,192,142102,1,2,0:0:0:0:
298,192,142102,1,0,0:0:0:0:
384,192,142102,128,0,142268:0:0:0:0:
42,192,142268,1,8,0:0:0:0:
128,192,142268,1,0,0:0:0:0:
213,192,142268,128,0,142433:0:0:0:0:
298,192,142433,128,0,142599:0:0:0:0:
384,192,142433,1,0,0:0:0:0:
42,192,142599,128,2,142765:0:0:0:0:
128,192,142599,1,0,0:0:0:0:
469,192,142599,1,0,0:0:0:0:
213,192,142765,128,2,142848:0:0:0:0:
469,192,142765,128,0,142848:0:0:0:0:
384,192,142848,128,0,142931:0:0:0:0:
42,192,142931,1,8,0:0:0:0:
128,192,142931,128,0,143013:0:0:0:0:
298,192,142931,128,0,143096:0:0:0:0:
213,192,143096,1,2,0:0:0:0:
469,192,143096,128,0,143428:0:0:0:0:
128,192,143179,1,0,0:0:0:0:
42,192,143262,1,2,0:0:0:0:
213,192,143262,1,0,0:0:0:0:
298,192,143262,1,0,0:0:0:0:
128,192,143428,1,2,0:0:0:0:
298,192,143428,1,0,0:0:0:0:
384,192,143428,128,0,143593:0:0:0:0:
42,192,143593,1,8,0:0:0:0:
128,192,143593,1,0,0:0:0:0:
213,192,143593,128,0,143759:0:0:0:0:
298,192,143759,128,0,143925:0:0:0:0:
384,192,143759,1,0,0:0:0:0:
128,192,143925,128,2,144091:0:0:0:0:
213,192,143925,1,0,0:0:0:0:
469,192,143925,1,0,0:0:0:0:
42,192,144091,128,2,144174:0:0:0:0:
469,192,144091,128,0,144174:0:0:0:0:
384,192,144174,128,0,144256:0:0:0:0:
128,192,144256,1,8,0:0:0:0:
213,192,144256,128,0,144422:0:0:0:0:
298,192,144256,128,0,144339:0:0:0:0:
42,192,144422,128,2,144754:0:0:0:0:
384,192,144422,1,0,0:0:0:0:
469,192,144505,1,0,0:0:0:0:
128,192,144588,1,2,0:0:0:0:
213,192,144588,1,0,0:0:0:0:
384,192,144588,1,0,0:0:0:0:
128,192,144754,128,2,144837:0:0:0:0:
298,192,144754,128,0,144837:0:0:0:0:
469,192,144754,1,0,0:0:0:0:
213,192,144837,128,0,144919:0:0:0:0:
128,192,144919,128,8,145085:0:0:0:0:
384,192,144919,1,0,0:0:0:0:
469,192,144919,1,0,0:0:0:0:
42,192,145085,128,2,145831:0:0:0:0:
298,192,145085,1,0,0:0:0:0:
384,192,145168,1,0,0:0:0:0:
128,192,145251,1,2,0:0:0:0:
213,192,145251,1,0,0:0:0:0:
469,192,145251,1,0,0:0:0:0:
213,192,145417,1,2,0:0:0:0:
298,192,145417,1,0,0:0:0:0:
128,192,145582,1,8,0:0:0:0:
384,192,145582,1,0,0:0:0:0:
469,192,145582,1,0,0:0:0:0:
213,192,145748,1,2,0:0:0:0:
298,192,145748,1,0,0:0:0:0:
42,192,145914,1,8,0:0:0:0:
128,192,145914,1,0,0:0:0:0:
384,192,145914,1,0,0:0:0:0:
213,192,146080,128,2,146245:0:0:0:0:
298,192,146080,1,0,0:0:0:0:
128,192,146245,1,8,0:0:0:0:
384,192,146245,128,0,146411:0:0:0:0:
469,192,146245,1,0,0:0:0:0:
213,192,146411,1,0,0:0:0:0:
298,192,146411,128,0,146577:0:0:0:0:
42,192,146577,1,2,0:0:0:0:
128,192,146577,1,0,0:0:0:0:
384,192,146577,1,0,0:0:0:0:
469,192,146577,128,0,146743:0:0:0:0:
42,192,146743,128,2,146826:0:0:0:0:
298,192,146743,128,0,146826:0:0:0:0:
384,192,146826,128,0,146908:0:0:0:0:
128,192,146908,128,8,147074:0:0:0:0:
213,192,146908,1,0,0:0:0:0:
469,192,146908,128,0,146991:0:0:0:0:
42,192,147074,128,2,147406:0:0:0:0:
298,192,147074,1,0,0:0:0:0:
384,192,147157,1,0,0:0:0:0:
213,192,147240,1,2,0:0:0:0:
298,192,147240,1,0,0:0:0:0:
469,192,147240,1,0,0:0:0:0:
128,192,147406,1,2,0:0:0:0:
213,192,147406,1,0,0:0:0:0:
384,192,147406,128,0,147571:0:0:0:0:
42,192,147571,1,8,0:0:0:0:
298,192,147571,128,0,147737:0:0:0:0:
469,192,147571,1,0,0:0:0:0:
128,192,147737,1,0,0:0:0:0:
213,192,147737,128,0,147903:0:0:0:0:
42,192,147903,1,2,0:0:0:0:
384,192,147903,1,0,0:0:0:0:
469,192,147903,128,0,148069:0:0:0:0:
42,192,148069,1,2,0:0:0:0:
298,192,148069,128,0,148234:0:0:0:0:
128,192,148234,1,8,0:0:0:0:
384,192,148234,1,0,0:0:0:0:
469,192,148234,128,0,148400:0:0:0:0:
213,192,148400,1,2,0:0:0:0:
298,192,148400,128,0,148566:0:0:0:0:
128,192,148483,1,0,0:0:0:0:
42,192,148566,1,2,0:0:0:0:
213,192,148566,1,0,0:0:0:0:
384,192,148566,128,0,148732:0:0:0:0:
213,192,148732,128,2,148897:0:0:0:0:
298,192,148732,1,0,0:0:0:0:
469,192,148732,1,0,0:0:0:0:
128,192,148897,128,8,149063:0:0:0:0:
298,192,148897,1,0,0:0:0:0:
384,192,148897,1,0,0:0:0:0:
42,192,149063,128,2,149229:0:0:0:0:
469,192,149063,1,0,0:0:0:0:
298,192,149146,1,0,0:0:0:0:
128,192,149229,128,2,149312:0:0:0:0:
384,192,149229,128,0,149395:0:0:0:0:
469,192,149229,1,0,0:0:0:0:
213,192,149312,128,0,149395:0:0:0:0:
128,192,149395,1,2,0:0:0:0:
298,192,149395,128,0,149477:0:0:0:0:
384,192,149477,128,0,149560:0:0:0:0:
42,192,149560,1,8,0:0:0:0:
298,192,149560,128,0,149643:0:0:0:0:
469,192,149560,128,0,149643:0:0:0:0:
213,192,149643,128,0,149726:0:0:0:0:
128,192,149726,128,2,149809:0:0:0:0:
469,192,149726,128,0,150140:0:0:0:0:
42,192,149809,128,0,149892:0:0:0:0:
128,192,149892,128,8,149975:0:0:0:0:
298,192,149892,1,0,0:0:0:0:
384,192,149892,1,0,0:0:0:0:
213,192,149975,128,0,150058:0:0:0:0:
128,192,150058,1,2,0:0:0:0:
298,192,150058,128,0,150140:0:0:0:0:
384,192,150140,128,0,150223:0:0:0:0:
42,192,150223,1,8,0:0:0:0:
213,192,150223,1,0,0:0:0:0:
469,192,150223,128,0,150306:0:0:0:0:
128,192,150306,1,0,0:0:0:30:tom.wav
384,192,150306,128,0,150389:0:0:0:0:
42,192,150389,1,0,0:0:0:30:tom.wav
298,192,150389,128,0,150472:0:0:0:0:
213,192,150472,128,0,150555:0:0:0:30:tom.wav
42,192,150555,1,4,0:0:0:0:
128,192,150555,1,0,0:0:0:0:
384,192,150555,1,0,0:0:0:0:
469,192,150555,1,0,0:0:0:0:
42,192,150721,1,4,0:0:0:0:
128,192,150721,1,0,0:0:0:0:
384,192,150721,1,0,0:0:0:0:
469,192,150721,1,0,0:0:0:0:
42,192,151052,128,4,151384:0:0:0:0:
128,192,151052,128,0,151384:0:0:0:0:
213,192,151052,128,0,151384:0:0:0:0:
384,192,151052,1,0,0:0:0:0:
469,192,151052,1,0,0:0:0:0:
298,192,151384,128,2,151549:0:0:0:0:
384,192,151384,1,0,0:0:0:0:
42,192,151549,1,0,0:0:0:30:tom.wav
469,192,151549,128,0,151715:0:0:0:0:
128,192,151632,1,0,0:0:0:30:tom.wav
213,192,151715,128,0,151798:0:0:0:30:tom.wav
384,192,151715,128,0,151798:0:0:0:0:
298,192,151798,128,0,151881:0:0:0:30:tom.wav
42,192,151881,1,4,0:0:0:0:
128,192,151881,1,0,0:0:0:0:
213,192,151881,1,0,0:0:0:0:
384,192,151881,1,0,0:0:0:0:
469,192,151881,128,0,152047:0:0:0:0:
42,192,152047,128,2,152129:0:0:0:0:
298,192,152047,128,0,152129:0:0:0:0:
128,192,152129,128,0,152212:0:0:0:0:
213,192,152212,128,8,152378:0:0:0:0:
384,192,152212,128,0,152295:0:0:0:0:
469,192,152212,1,0,0:0:0:0:
42,192,152378,128,2,152710:0:0:0:0:
298,192,152378,1,0,0:0:0:0:
384,192,152461,1,0,0:0:0:0:
213,192,152544,1,2,0:0:0:0:
298,192,152544,1,0,0:0:0:0:
469,192,152544,1,0,0:0:0:0:
128,192,152710,128,2,152875:0:0:0:0:
213,192,152710,1,0,0:0:0:0:
384,192,152710,1,0,0:0:0:0:
298,192,152875,128,8,153041:0:0:0:0:
384,192,152875,1,0,0:0:0:0:
469,192,152875,1,0,0:0:0:0:
128,192,153041,1,0,0:0:0:0:
213,192,153041,128,0,153207:0:0:0:0:
42,192,153207,1,2,0:0:0:0:
384,192,153207,1,0,0:0:0:0:
469,192,153207,128,0,153372:0:0:0:0:
42,192,153372,128,2,153455:0:0:0:0:
298,192,153372,128,0,153455:0:0:0:0:
128,192,153455,128,0,153538:0:0:0:0:
213,192,153538,128,8,153704:0:0:0:0:
384,192,153538,128,0,153621:0:0:0:0:
469,192,153538,1,0,0:0:0:0:
42,192,153704,128,2,154035:0:0:0:0:
298,192,153704,1,0,0:0:0:0:
384,192,153787,1,0,0:0:0:0:
213,192,153870,1,2,0:0:0:0:
298,192,153870,1,0,0:0:0:0:
469,192,153870,1,0,0:0:0:0:
128,192,154035,128,2,154201:0:0:0:0:
213,192,154035,1,0,0:0:0:0:
384,192,154035,1,0,0:0:0:0:
298,192,154201,128,8,154367:0:0:0:0:
384,192,154201,1,0,0:0:0:0:
469,192,154201,1,0,0:0:0:0:
128,192,154367,1,0,0:0:0:0:
213,192,154367,128,0,154533:0:0:0:0:
42,192,154533,1,2,0:0:0:0:
298,192,154533,1,0,0:0:0:0:
469,192,154533,128,0,154698:0:0:0:0:
42,192,154698,128,2,154781:0:0:0:0:
384,192,154698,128,0,154781:0:0:0:0:
128,192,154781,128,0,154864:0:0:0:0:
213,192,154864,128,8,155030:0:0:0:0:
384,192,154864,1,0,0:0:0:0:
469,192,154864,128,0,154947:0:0:0:0:
128,192,155030,1,2,0:0:0:0:
298,192,155030,128,0,155361:0:0:0:0:
42,192,155113,1,0,0:0:0:0:
128,192,155196,1,2,0:0:0:0:
384,192,155196,1,0,0:0:0:0:
469,192,155196,1,0,0:0:0:0:
42,192,155361,1,2,0:0:0:0:
213,192,155361,128,0,155444:0:0:0:0:
384,192,155361,128,0,155444:0:0:0:0:
298,192,155444,128,0,155527:0:0:0:0:
128,192,155527,1,8,0:0:0:0:
213,192,155527,128,0,155693:0:0:0:0:
469,192,155527,1,0,0:0:0:0:
298,192,155693,1,2,0:0:0:0:
384,192,155693,128,0,156190:0:0:0:0:
128,192,155859,1,8,0:0:0:0:
213,192,155859,1,0,0:0:0:0:
469,192,155859,1,0,0:0:0:0:
42,192,156024,1,2,0:0:0:0:
298,192,156024,128,0,156107:0:0:0:0:
213,192,156107,128,0,156190:0:0:0:0:
42,192,156190,1,8,0:0:0:0:
128,192,156190,128,0,156522:0:0:0:0:
469,192,156190,1,0,0:0:0:0:
213,192,156356,1,8,0:0:0:0:
298,192,156356,1,0,0:0:0:0:
384,192,156356,1,0,0:0:0:0:
42,192,156522,1,2,0:0:0:0:
298,192,156522,1,0,0:0:0:0:
469,192,156522,1,0,0:0:0:0:
128,192,156687,1,2,0:0:0:0:
213,192,156687,1,0,0:0:0:0:
384,192,156687,128,0,156853:0:0:0:0:
42,192,156853,1,8,0:0:0:0:
298,192,156853,1,0,0:0:0:0:
469,192,156853,128,0,157019:0:0:0:0:
213,192,156936,1,0,0:0:0:30:tom.wav
128,192,157019,128,0,157185:0:0:0:30:tom.wav
384,192,157019,1,0,0:0:0:0:
298,192,157102,1,0,0:0:0:30:tom.wav
42,192,157185,1,4,0:0:0:0:
213,192,157185,1,0,0:0:0:0:
384,192,157185,128,0,157350:0:0:0:0:
469,192,157185,1,0,0:0:0:0:
213,192,157350,128,2,157433:0:0:0:0:
298,192,157350,128,0,157433:0:0:0:0:
384,192,157433,128,0,157516:0:0:0:0:
42,192,157516,128,8,157599:0:0:0:0:
128,192,157516,1,0,0:0:0:0:
469,192,157516,128,0,157682:0:0:0:0:
213,192,157682,1,0,0:0:0:0:
298,192,157682,128,0,158013:0:0:0:0:
128,192,157765,1,0,0:0:0:0:
42,192,157848,1,2,0:0:0:0:
384,192,157848,1,0,0:0:0:0:
469,192,157848,1,0,0:0:0:0:
128,192,158013,128,2,158179:0:0:0:0:
213,192,158013,1,0,0:0:0:0:
469,192,158013,1,0,0:0:0:0:
42,192,158179,128,8,158345:0:0:0:0:
298,192,158179,1,0,0:0:0:0:
384,192,158179,1,0,0:0:0:0:
213,192,158345,1,0,0:0:0:0:
469,192,158345,128,0,158511:0:0:0:0:
42,192,158511,128,4,158593:0:0:0:0:
298,192,158511,128,0,158593:0:0:0:0:
384,192,158511,128,0,158593:0:0:0:0:
213,192,158593,128,0,158676:0:0:0:0:
42,192,158676,128,4,158759:0:0:0:0:
298,192,158676,128,0,158759:0:0:0:0:
384,192,158676,128,0,158759:0:0:0:0:
213,192,158759,128,0,158842:0:0:0:0:
42,192,158842,128,0,158925:0:0:0:0:
213,192,158925,128,0,159008:0:0:0:0:
42,192,159008,128,2,159091:0:0:0:0:
298,192,159008,1,0,0:0:0:0:
384,192,159008,1,0,0:0:0:0:
213,192,159091,128,0,159174:0:0:0:0:
42,192,159174,128,0,159339:0:0:0:0:
213,192,159339,128,2,159505:0:0:0:0:
298,192,159339,1,0,0:0:0:0:
384,192,159339,1,0,0:0:0:0:
42,192,159505,1,4,0:0:0:0:
128,192,159505,128,0,159671:0:0:0:0:
469,192,159505,1,0,0:0:0:0:
213,192,159671,1,0,0:0:0:0:
298,192,159671,128,0,159837:0:0:0:0:
42,192,159837,128,4,160002:0:0:0:0:
128,192,159837,128,0,160002:0:0:0:0:
384,192,159837,1,0,0:0:0:0:
469,192,159837,1,0,0:0:0:0:
384,192,160002,1,2,0:0:0:0:
469,192,160002,1,0,0:0:0:0:
42,192,160168,128,0,160251:0:0:0:0:
298,192,160168,128,0,160334:0:0:0:0:
42,192,160334,128,2,162406:0:0:0:0:
469,192,160334,1,0,0:0:0:0:
128,192,160500,128,8,160665:0:0:0:0:
298,192,160500,1,0,0:0:0:0:
384,192,160500,1,0,0:0:0:0:
213,192,160665,1,0,0:0:0:0:
298,192,160831,128,0,160997:0:0:0:0:
384,192,160997,1,2,0:0:0:0:
469,192,160997,1,0,0:0:0:0:
128,192,161163,128,0,161328:0:0:0:0:
384,192,161328,1,2,0:0:0:0:
469,192,161328,1,0,0:0:0:0:
213,192,161494,128,0,161660:0:0:0:0:
298,192,161660,1,2,0:0:0:0:
469,192,161660,1,0,0:0:0:0:
128,192,161826,128,8,161991:0:0:0:0:
213,192,161826,1,0,0:0:0:0:
384,192,161826,1,0,0:0:0:0:
469,192,161991,1,0,0:0:0:0:
298,192,162157,128,0,162323:0:0:0:0:
384,192,162323,1,0,0:0:0:0:
42,192,162489,1,2,0:0:0:0:
128,192,162489,1,0,0:0:0:0:
469,192,162489,128,0,162654:0:0:0:0:
42,192,162654,1,2,0:0:0:0:
128,192,162654,1,0,0:0:0:0:
298,192,162820,128,0,162986:0:0:0:0:
42,192,162986,1,2,0:0:0:0:
384,192,162986,1,0,0:0:0:0:
128,192,163152,1,8,0:0:0:0:
213,192,163152,1,0,0:0:0:0:
469,192,163152,128,0,163317:0:0:0:0:
298,192,163317,1,0,0:0:0:0:
384,192,163483,128,0,163649:0:0:0:0:
42,192,163649,1,2,0:0:0:0:
128,192,163649,1,0,0:0:0:0:
298,192,163814,128,0,163980:0:0:0:0:
42,192,163980,1,0,0:0:0:30:tom.wav
213,192,163980,1,0,0:0:0:0:
298,192,164146,1,0,0:0:0:30:tom.wav
469,192,164146,128,0,164312:0:0:0:0:
42,192,164312,1,0,0:0:0:30:tom.wav
213,192,164312,1,0,0:0:0:0:
298,192,164477,1,8,0:0:0:0:
384,192,164477,1,0,0:0:0:0:
469,192,164477,1,0,0:0:0:0:
213,192,164588,1,0,0:0:0:0:
128,192,164643,1,2,0:0:0:0:
384,192,164643,1,0,0:0:0:0:
298,192,164698,1,0,0:0:0:0:
42,192,164809,1,8,0:0:0:0:
128,192,164809,1,0,0:0:0:0:
213,192,164809,1,0,0:0:0:0:
213,192,164975,1,8,0:0:0:0:
384,192,164975,1,0,0:0:0:0:
469,192,164975,1,0,0:0:0:0:
42,192,165140,1,2,0:0:0:0:
128,192,165140,1,0,0:0:0:0:
298,192,165140,128,0,165306:0:0:0:0:
42,192,165306,1,2,0:0:0:0:
128,192,165306,1,0,0:0:0:0:
384,192,165472,128,0,165638:0:0:0:0:
42,192,165638,1,2,0:0:0:0:
298,192,165638,1,0,0:0:0:0:
128,192,165803,1,8,0:0:0:0:
213,192,165803,1,0,0:0:0:0:
469,192,165803,128,0,165969:0:0:0:0:
384,192,165969,1,0,0:0:0:0:
298,192,166135,128,0,166301:0:0:0:0:
42,192,166301,1,2,0:0:0:0:
128,192,166301,1,0,0:0:0:0:
384,192,166466,128,0,166632:0:0:0:0:
42,192,166632,1,2,0:0:0:0:
213,192,166632,1,0,0:0:0:0:
298,192,166798,128,0,166964:0:0:0:0:
42,192,166964,1,2,0:0:0:0:
384,192,166964,1,0,0:0:0:0:
213,192,167129,1,8,0:0:0:0:
298,192,167129,1,0,0:0:0:0:
469,192,167129,128,0,167295:0:0:0:0:
128,192,167295,1,0,0:0:0:0:
42,192,167461,128,0,167627:0:0:0:0:
298,192,167627,1,0,0:0:0:0:
213,192,167792,128,2,167958:0:0:0:0:
384,192,167792,1,0,0:0:0:0:
469,192,167792,1,0,0:0:0:0:
384,192,167958,1,2,0:0:0:0:
469,192,167958,1,0,0:0:0:0:
128,192,168124,128,0,168290:0:0:0:0:
213,192,168290,1,2,0:0:0:0:
469,192,168290,1,0,0:0:0:0:
42,192,168455,1,8,0:0:0:0:
128,192,168455,1,0,0:0:0:0:
298,192,168455,128,0,168621:0:0:0:0:
213,192,168621,1,0,0:0:0:0:
128,192,168787,128,0,168953:0:0:0:0:
384,192,168953,1,2,0:0:0:0:
469,192,168953,1,0,0:0:0:0:
213,192,169118,128,0,169284:0:0:0:0:
298,192,169284,1,0,0:0:0:30:tom.wav
384,192,169284,1,0,0:0:0:0:
128,192,169450,128,0,169616:0:0:0:30:tom.wav
213,192,169450,1,0,0:0:0:0:
298,192,169616,1,0,0:0:0:30:tom.wav
384,192,169616,1,0,0:0:0:0:
42,192,169781,1,8,0:0:0:0:
128,192,169781,1,0,0:0:0:0:
469,192,169781,1,0,0:0:0:0:
298,192,169892,1,0,0:0:0:0:
128,192,169947,1,2,0:0:0:0:
384,192,169947,1,0,0:0:0:0:
213,192,170002,1,0,0:0:0:0:
42,192,170113,1,8,0:0:0:0:
384,192,170113,1,0,0:0:0:0:
469,192,170113,1,0,0:0:0:0:
42,192,170279,1,8,0:0:0:0:
128,192,170279,1,0,0:0:0:0:
298,192,170279,1,0,0:0:0:0:
128,192,170444,1,4,0:0:0:0:
213,192,170444,128,0,170610:0:0:0:0:
384,192,170444,1,0,0:0:0:0:
469,192,170444,1,0,0:0:0:0:
384,192,170610,1,2,0:0:0:0:
469,192,170610,128,0,170776:0:0:0:0:
42,192,170776,128,0,170942:0:0:0:0:
213,192,170776,1,0,0:0:0:0:
298,192,170942,128,2,171273:0:0:0:0:
469,192,170942,1,0,0:0:0:0:
42,192,171107,1,8,0:0:0:0:
128,192,171107,1,0,0:0:0:0:
384,192,171107,128,0,171273:0:0:0:0:
213,192,171273,1,0,0:0:0:0:
469,192,171273,128,0,171439:0:0:0:0:
42,192,171439,128,0,171605:0:0:0:0:
384,192,171439,1,0,0:0:0:0:
128,192,171605,1,2,0:0:0:0:
298,192,171605,128,0,171936:0:0:0:0:
213,192,171770,1,0,0:0:0:0:
384,192,171770,128,0,171936:0:0:0:0:
42,192,171936,128,2,172102:0:0:0:0:
128,192,171936,1,0,0:0:0:0:
384,192,172102,1,0,0:0:0:0:
469,192,172102,128,0,172268:0:0:0:0:
128,192,172268,1,2,0:0:0:0:
213,192,172268,128,0,172599:0:0:0:0:
42,192,172433,1,8,0:0:0:0:
298,192,172433,128,0,172599:0:0:0:0:
469,192,172433,1,0,0:0:0:0:
128,192,172599,1,0,0:0:0:0:
384,192,172599,128,0,172765:0:0:0:0:
213,192,172765,1,0,0:0:0:0:
469,192,172765,128,0,172931:0:0:0:0:
42,192,172931,128,0,174422:0:0:0:0:
298,192,172931,1,0,0:0:0:0:
213,192,173096,128,2,173262:0:0:0:0:
384,192,173096,1,0,0:0:0:0:
469,192,173096,1,0,0:0:0:0:
384,192,173262,1,2,0:0:0:0:
469,192,173262,1,0,0:0:0:0:
128,192,173428,1,0,0:0:0:0:
298,192,173428,128,0,173593:0:0:0:0:
213,192,173593,1,2,0:0:0:0:
469,192,173593,1,0,0:0:0:0:
128,192,173759,128,8,173925:0:0:0:0:
298,192,173759,1,0,0:0:0:0:
384,192,173759,1,0,0:0:0:0:
213,192,173925,1,0,0:0:0:0:
128,192,174091,1,0,0:0:0:0:
298,192,174091,128,0,174256:0:0:0:0:
213,192,174256,1,2,0:0:0:0:
384,192,174256,1,0,0:0:0:0:
298,192,174422,1,0,0:0:0:0:
469,192,174422,128,0,174588:0:0:0:0:
128,192,174588,1,0,0:0:0:30:tom.wav
213,192,174588,1,0,0:0:0:0:
298,192,174754,1,0,0:0:0:30:tom.wav
384,192,174754,128,0,174919:0:0:0:0:
128,192,174919,1,0,0:0:0:30:tom.wav
213,192,174919,1,0,0:0:0:0:
42,192,175085,1,8,0:0:0:0:
384,192,175085,1,0,0:0:0:0:
469,192,175085,1,0,0:0:0:0:
213,192,175196,1,0,0:0:0:0:
128,192,175251,1,2,0:0:0:0:
384,192,175251,1,0,0:0:0:0:
298,192,175306,1,0,0:0:0:0:
42,192,175417,1,8,0:0:0:0:
128,192,175417,1,0,0:0:0:0:
469,192,175417,1,0,0:0:0:0:
213,192,175582,1,8,0:0:0:0:
384,192,175582,1,0,0:0:0:0:
469,192,175582,1,0,0:0:0:0:
42,192,175748,1,2,0:0:0:0:
128,192,175748,1,0,0:0:0:0:
298,192,175748,128,0,175914:0:0:0:0:
42,192,175914,128,2,176080:0:0:0:0:
128,192,175914,1,0,0:0:0:0:
384,192,176080,1,0,0:0:0:0:
469,192,176080,128,0,176245:0:0:0:0:
42,192,176245,1,2,0:0:0:0:
213,192,176245,128,0,176577:0:0:0:0:
128,192,176411,128,8,176577:0:0:0:0:
384,192,176411,1,0,0:0:0:0:
469,192,176411,1,0,0:0:0:0:
42,192,176577,128,0,176743:0:0:0:0:
298,192,176577,1,0,0:0:0:0:
128,192,176743,1,0,0:0:0:0:
469,192,176743,128,0,176908:0:0:0:0:
213,192,176908,128,2,177240:0:0:0:0:
384,192,176908,1,0,0:0:0:0:
128,192,177074,128,0,177240:0:0:0:0:
298,192,177074,1,0,0:0:0:0:
384,192,177240,1,2,0:0:0:0:
469,192,177240,128,0,177406:0:0:0:0:
42,192,177406,128,0,177571:0:0:0:0:
128,192,177406,1,0,0:0:0:0:
298,192,177571,128,2,177903:0:0:0:0:
384,192,177571,1,0,0:0:0:0:
42,192,177737,1,8,0:0:0:0:
213,192,177737,128,0,177903:0:0:0:0:
469,192,177737,1,0,0:0:0:0:
128,192,177903,128,0,178069:0:0:0:0:
384,192,177903,1,0,0:0:0:0:
42,192,178069,128,0,178234:0:0:0:0:
298,192,178069,1,0,0:0:0:0:
213,192,178234,1,0,0:0:0:0:
469,192,178234,128,0,179726:0:0:0:0:
42,192,178400,1,2,0:0:0:0:
128,192,178400,1,0,0:0:0:0:
298,192,178400,128,0,178566:0:0:0:0:
42,192,178566,1,2,0:0:0:0:
128,192,178566,1,0,0:0:0:0:
213,192,178732,128,0,178897:0:0:0:0:
384,192,178732,1,0,0:0:0:0:
42,192,178897,1,2,0:0:0:0:
298,192,178897,1,0,0:0:0:0:
128,192,179063,1,8,0:0:0:0:
213,192,179063,1,0,0:0:0:0:
384,192,179063,128,0,179229:0:0:0:0:
42,192,179229,1,0,0:0:0:0:
213,192,179395,128,0,179560:0:0:0:0:
384,192,179395,1,0,0:0:0:0:
128,192,179560,1,2,0:0:0:0:
298,192,179560,1,0,0:0:0:0:
42,192,179726,128,0,179892:0:0:0:0:
213,192,179726,1,0,0:0:0:0:
298,192,179892,1,0,0:0:0:30:tom.wav
384,192,179892,1,0,0:0:0:0:
128,192,180058,128,0,180223:0:0:0:30:tom.wav
213,192,180058,1,0,0:0:0:0:
298,192,180223,1,0,0:0:0:30:tom.wav
384,192,180223,1,0,0:0:0:0:
42,192,180389,1,8,0:0:0:0:
128,192,180389,1,0,0:0:0:0:
469,192,180389,1,0,0:0:0:0:
298,192,180500,1,0,0:0:0:0:
128,192,180555,1,2,0:0:0:0:
384,192,180555,1,0,0:0:0:0:
213,192,180610,1,0,0:0:0:0:
42,192,180721,1,8,0:0:0:0:
384,192,180721,1,0,0:0:0:0:
469,192,180721,1,0,0:0:0:0:
42,192,180886,1,8,0:0:0:0:
128,192,180886,1,0,0:0:0:0:
213,192,180886,1,0,0:0:0:0:
384,192,181052,1,2,0:0:0:0:
469,192,181052,1,0,0:0:0:0:
42,192,181163,1,8,0:0:0:0:
213,192,181163,1,0,0:0:0:0:
128,192,181273,1,0,0:0:0:30:tom.wav
298,192,181273,1,0,0:0:0:0:
213,192,181384,1,0,0:0:0:30:tom.wav
384,192,181384,1,0,0:0:0:0:
42,192,181494,1,0,0:0:0:30:tom.wav
298,192,181494,1,0,0:0:0:0:
128,192,181605,1,2,0:0:0:0:
384,192,181605,1,0,0:0:0:0:
42,192,181715,1,4,0:0:0:0:
213,192,181715,1,0,0:0:0:0:
298,192,181715,1,0,0:0:0:0:
469,192,181715,1,0,0:0:0:0:
384,192,181881,1,0,0:0:0:0:
128,192,181964,1,2,0:0:0:0:
298,192,181964,1,0,0:0:0:0:
213,192,182047,1,0,0:0:0:0:
298,192,182212,1,2,0:0:0:0:
469,192,182212,1,0,0:0:0:0:
42,192,182378,1,8,0:0:0:0:
128,192,182378,1,0,0:0:0:0:
384,192,182378,1,0,0:0:0:0:
213,192,182544,1,2,0:0:0:0:
298,192,182544,128,0,182710:0:0:0:0:
384,192,182710,128,0,182875:0:0:0:0:
469,192,182710,1,0,0:0:0:0:
128,192,182875,128,2,183207:0:0:0:0:
213,192,182875,1,0,0:0:0:0:
42,192,183041,128,8,183207:0:0:0:0:
298,192,183041,1,0,0:0:0:0:
469,192,183041,1,0,0:0:0:0:
213,192,183207,1,0,0:0:0:0:
384,192,183207,128,0,183372:0:0:0:0:
128,192,183372,1,2,0:0:0:0:
469,192,183372,128,0,183538:0:0:0:0:
42,192,183538,128,0,185030:0:0:0:0:
298,192,183538,1,0,0:0:0:0:
213,192,183704,128,2,183870:0:0:0:0:
384,192,183704,1,0,0:0:0:0:
469,192,183704,1,0,0:0:0:0:
384,192,183870,1,2,0:0:0:0:
469,192,183870,1,0,0:0:0:0:
128,192,184035,1,0,0:0:0:0:
298,192,184035,128,0,184201:0:0:0:0:
213,192,184201,1,2,0:0:0:0:
469,192,184201,1,0,0:0:0:0:
128,192,184367,128,8,184533:0:0:0:0:
298,192,184367,1,0,0:0:0:0:
384,192,184367,1,0,0:0:0:0:
213,192,184533,1,0,0:0:0:0:
298,192,184698,1,0,0:0:0:0:
384,192,184698,128,0,184864:0:0:0:0:
128,192,184864,1,2,0:0:0:0:
469,192,184864,1,0,0:0:0:0:
298,192,185030,128,0,185196:0:0:0:0:
384,192,185030,1,0,0:0:0:0:
42,192,185196,1,0,0:0:0:30:tom.wav
213,192,185196,1,0,0:0:0:0:
298,192,185361,1,0,0:0:0:30:tom.wav
469,192,185361,128,0,185527:0:0:0:0:
42,192,185527,1,0,0:0:0:30:tom.wav
213,192,185527,1,0,0:0:0:0:
128,192,185693,1,8,0:0:0:0:
298,192,185693,1,0,0:0:0:0:
384,192,185693,1,0,0:0:0:0:
213,192,185803,1,0,0:0:0:0:
42,192,185859,1,2,0:0:0:0:
469,192,185859,1,0,0:0:0:0:
298,192,185914,1,0,0:0:0:0:
128,192,186024,1,8,0:0:0:0:
213,192,186024,1,0,0:0:0:0:
384,192,186024,1,0,0:0:0:0:
213,192,186190,1,8,0:0:0:0:
298,192,186190,1,0,0:0:0:0:
469,192,186190,1,0,0:0:0:0:
42,192,186356,1,2,0:0:0:0:
128,192,186356,1,0,0:0:0:0:
384,192,186356,128,0,186522:0:0:0:0:
42,192,186522,128,8,186687:0:0:0:0:
128,192,186522,1,0,0:0:0:0:
469,192,186522,1,0,0:0:0:0:
298,192,186687,128,0,186853:0:0:0:0:
384,192,186687,1,0,0:0:0:0:
213,192,186853,128,2,187185:0:0:0:0:
469,192,186853,1,0,0:0:0:0:
128,192,187019,128,8,187185:0:0:0:0:
298,192,187019,1,0,0:0:0:0:
384,192,187019,1,0,0:0:0:0:
42,192,187185,128,0,187350:0:0:0:30:tom.wav
469,192,187185,1,0,0:0:0:0:
384,192,187268,1,0,0:0:0:30:tom.wav
128,192,187350,1,0,0:0:0:30:tom.wav
298,192,187350,128,0,187516:0:0:0:0:
213,192,187516,128,2,187848:0:0:0:0:
384,192,187516,1,0,0:0:0:0:
128,192,187682,128,0,187848:0:0:0:30:tom.wav
469,192,187682,1,0,0:0:0:0:
384,192,187765,1,0,0:0:0:30:tom.wav
42,192,187848,1,0,0:0:0:30:tom.wav
298,192,187848,128,0,188013:0:0:0:0:
128,192,187931,1,0,0:0:0:30:tom.wav
213,192,188013,128,0,188179:0:0:0:30:tom.wav
469,192,188013,1,0,0:0:0:0:
384,192,188096,1,0,0:0:0:30:tom.wav
42,192,188179,1,0,0:0:0:30:tom.wav
298,192,188179,128,0,188345:0:0:0:0:
128,192,188262,1,0,0:0:0:30:tom.wav
213,192,188345,1,8,0:0:0:0:
384,192,188345,1,0,0:0:0:0:
469,192,188345,1,0,0:0:0:0:
213,192,188566,128,2,188787:0:0:0:0:
298,192,188566,1,0,0:0:0:0:
128,192,188676,1,0,0:0:0:0:
42,192,188787,1,2,0:0:0:0:
384,192,188787,128,0,188925:0:0:0:0:
128,192,189008,1,4,0:0:0:0:
213,192,189008,1,0,0:0:0:0:
298,192,189008,128,0,191660:0:0:0:0:
384,192,189008,128,0,191660:0:0:0:0:
469,192,189008,128,0,191660:0:0:0:0:
42,192,189505,128,0,189588:0:0:0:0:
128,192,189588,128,0,189671:0:0:0:0:
213,192,189671,128,0,191660:0:0:0:0:
298,192,201770,5,0,0:0:0:0:
42,192,201936,128,0,202019:0:0:0:0:
469,192,201936,128,0,202102:0:0:0:0:
128,192,202019,128,0,202102:0:0:0:0:
213,192,202102,128,0,202185:0:0:0:0:
384,192,202102,128,0,202185:0:0:0:0:
298,192,202185,128,0,202268:0:0:0:0:
128,192,202268,128,4,202599:0:0:0:0:
213,192,202268,1,0,0:0:0:0:
384,192,202268,1,0,0:0:0:0:
469,192,202268,128,0,202350:0:0:0:0:
42,192,202433,128,0,202599:0:0:0:0:
213,192,202599,128,0,202765:0:0:0:50:clap.wav
384,192,202599,1,0,0:0:0:0:
469,192,202599,1,0,0:0:0:0:
128,192,202765,128,0,203096:0:0:0:50:clap.wav
384,192,202765,128,0,202848:0:0:0:0:
469,192,202765,128,0,202848:0:0:0:0:
298,192,203096,128,0,203262:0:0:0:0:
384,192,203096,1,0,0:0:0:0:
42,192,203262,128,0,203345:0:0:0:50:clap.wav
128,192,203262,128,0,203345:0:0:0:0:
469,192,203262,128,0,203428:0:0:0:0:
213,192,203428,1,0,0:0:0:0:
384,192,203428,128,0,203593:0:0:0:0:
128,192,203593,128,0,203925:0:0:0:0:
298,192,203593,128,0,203676:0:0:0:0:
42,192,203759,128,0,203925:0:0:0:0:
213,192,203925,128,0,204091:0:0:0:50:clap.wav
384,192,203925,1,0,0:0:0:0:
469,192,203925,1,0,0:0:0:0:
128,192,204091,128,0,204422:0:0:0:50:clap.wav
384,192,204091,1,0,0:0:0:0:
469,192,204091,1,0,0:0:0:0:
298,192,204256,128,0,204339:0:0:0:0:
42,192,204422,128,0,204588:0:0:0:0:
384,192,204422,1,0,0:0:0:0:
128,192,204588,1,0,0:0:0:50:clap.wav
213,192,204588,1,0,0:0:0:0:
469,192,204588,128,0,204754:0:0:0:0:
42,192,204754,1,0,0:0:0:0:
384,192,204754,128,0,204919:0:0:0:0:
213,192,204919,128,0,205002:0:0:0:0:
298,192,204919,128,0,205251:0:0:0:0:
384,192,205085,128,0,205251:0:0:0:0:
42,192,205251,1,0,0:0:0:50:clap.wav
128,192,205251,1,0,0:0:0:0:
469,192,205251,128,0,205417:0:0:0:0:
42,192,205417,128,0,205500:0:0:0:50:clap.wav
128,192,205417,128,0,205500:0:0:0:0:
298,192,205417,128,0,205748:0:0:0:0:
213,192,205748,128,0,205831:0:0:0:0:
298,192,205831,128,0,205914:0:0:0:0:
128,192,205914,128,0,206080:0:0:0:50:clap.wav
384,192,205914,128,0,205997:0:0:0:0:
469,192,205914,128,0,205997:0:0:0:0:
42,192,206080,128,0,206908:0:0:0:0:
298,192,206080,1,0,0:0:0:0:
384,192,206245,128,0,206328:0:0:0:0:
213,192,206411,1,0,0:0:0:0:
298,192,206577,1,0,0:0:0:50:clap.wav
384,192,206577,1,0,0:0:0:0:
469,192,206577,1,0,0:0:0:0:
298,192,206743,1,0,0:0:0:50:clap.wav
384,192,206743,1,0,0:0:0:0:
469,192,206743,1,0,0:0:0:0:
128,192,206908,128,0,206991:0:0:0:0:
213,192,207074,128,0,207240:0:0:0:0:
298,192,207074,1,0,0:0:0:0:
128,192,207240,128,0,207406:0:0:0:50:clap.wav
384,192,207240,1,0,0:0:0:0:
469,192,207240,1,0,0:0:0:0:
42,192,207406,128,0,207571:0:0:0:0:
298,192,207406,1,0,0:0:0:0:
213,192,207571,128,0,207654:0:0:0:0:
384,192,207571,128,0,207903:0:0:0:0:
469,192,207737,128,0,207903:0:0:0:0:
42,192,207903,1,0,0:0:0:50:clap.wav
128,192,207903,1,0,0:0:0:0:
298,192,207903,128,0,208069:0:0:0:0:
42,192,208069,128,0,208152:0:0:0:50:clap.wav
128,192,208069,128,0,208152:0:0:0:0:
384,192,208069,128,0,208400:0:0:0:0:
128,192,208400,1,0,0:0:0:0:
213,192,208400,128,0,208566:0:0:0:0:
42,192,208566,128,0,208732:0:0:0:50:clap.wav
384,192,208566,128,0,208649:0:0:0:0:
469,192,208566,128,0,208649:0:0:0:0:
128,192,208732,128,0,208897:0:0:0:0:
298,192,208732,1,0,0:0:0:0:
213,192,208897,128,0,208980:0:0:0:0:
469,192,208897,128,0,209063:0:0:0:0:
298,192,209063,128,0,209229:0:0:0:0:
384,192,209063,1,0,0:0:0:0:
42,192,209229,1,0,0:0:0:50:clap.wav
128,192,209229,1,0,0:0:0:0:
469,192,209229,128,0,209395:0:0:0:0:
42,192,209395,1,0,0:0:0:50:clap.wav
128,192,209395,1,0,0:0:0:0:
298,192,209395,128,0,209560:0:0:0:0:
213,192,209560,128,0,209726:0:0:0:0:
469,192,209560,128,0,209643:0:0:0:0:
42,192,209726,128,0,209892:0:0:0:0:
298,192,209726,1,0,0:0:0:0:
128,192,209892,128,0,210058:0:0:0:50:clap.wav
384,192,209892,1,0,0:0:0:0:
469,192,209892,1,0,0:0:0:0:
213,192,210058,1,0,0:0:0:0:
298,192,210058,128,0,210223:0:0:0:0:
42,192,210223,128,0,210306:0:0:0:0:
469,192,210223,128,0,210555:0:0:0:0:
128,192,210306,128,0,210389:0:0:0:0:
213,192,210389,128,0,210472:0:0:0:0:
298,192,210472,128,0,210555:0:0:0:0:
42,192,210555,128,0,210638:0:0:0:50:clap.wav
128,192,210555,128,0,210638:0:0:0:0:
384,192,210555,128,0,210638:0:0:0:0:
469,192,210638,128,0,210721:0:0:0:0:
42,192,210721,128,0,211466:0:0:0:50:clap.wav
128,192,210721,128,0,210803:0:0:0:0:
213,192,210721,128,0,210803:0:0:0:0:
298,192,210803,128,0,210886:0:0:0:0:
384,192,210886,128,0,210969:0:0:0:0:
469,192,210969,128,0,211052:0:0:0:0:
213,192,211052,128,0,211135:0:0:0:0:
298,192,211135,128,0,211218:0:0:0:0:
128,192,211218,128,0,211301:0:0:0:50:clap.wav
384,192,211218,128,0,211301:0:0:0:0:
469,192,211218,128,0,211301:0:0:0:0:
298,192,211301,128,0,211384:0:0:0:0:
213,192,211384,128,0,211466:0:0:0:0:
128,192,211466,128,0,211549:0:0:0:0:
42,192,211549,1,4,0:0:0:0:
298,192,211549,1,0,0:0:0:0:
384,192,211549,1,0,0:0:0:0:
469,192,211549,1,0,0:0:0:0:
42,192,211715,1,4,0:0:0:0:
298,192,211715,1,0,0:0:0:0:
384,192,211715,1,0,0:0:0:0:
469,192,211715,1,0,0:0:0:0:
213,192,211881,1,2,0:0:0:0:
298,192,211881,1,0,0:0:0:0:
42,192,212047,128,4,212378:0:0:0:0:
128,192,212047,128,0,212378:0:0:0:0:
213,192,212047,128,0,212378:0:0:0:0:
384,192,212047,1,0,0:0:0:0:
469,192,212047,1,0,0:0:0:0:
298,192,212378,1,0,0:0:0:0:
384,192,212378,128,0,212544:0:0:0:0:
213,192,212544,1,0,0:0:0:0:
469,192,212544,128,0,212710:0:0:0:0:
42,192,212627,1,0,0:0:0:0:
128,192,212710,128,8,212792:0:0:0:0:
298,192,212710,128,0,212875:0:0:0:0:
42,192,212875,1,4,0:0:0:0:
213,192,212875,128,0,213207:0:0:0:0:
384,192,212875,128,0,212958:0:0:0:0:
469,192,212875,128,0,212958:0:0:0:0:
128,192,213041,128,0,213207:0:0:0:0:
384,192,213041,128,0,213124:0:0:0:0:
469,192,213041,128,0,213124:0:0:0:0:
42,192,213207,128,8,213372:0:0:0:0:
384,192,213207,128,0,213290:0:0:0:0:
469,192,213207,128,0,213290:0:0:0:0:
213,192,213372,128,0,213704:0:0:0:0:
384,192,213372,128,0,213455:0:0:0:0:
469,192,213372,128,0,213455:0:0:0:0:
128,192,213538,1,0,0:0:0:50:clap.wav
384,192,213538,128,0,213621:0:0:0:0:
469,192,213538,128,0,213621:0:0:0:0:
42,192,213704,128,0,213870:0:0:0:0:
384,192,213704,128,0,213787:0:0:0:0:
469,192,213704,128,0,213787:0:0:0:0:
128,192,213870,128,8,214035:0:0:0:0:
384,192,213870,128,0,213953:0:0:0:0:
469,192,213870,128,0,213953:0:0:0:0:
213,192,214035,128,0,214201:0:0:0:0:
384,192,214035,128,0,214118:0:0:0:0:
469,192,214035,128,0,214118:0:0:0:0:
42,192,214201,128,8,214284:0:0:0:0:
128,192,214201,128,0,214284:0:0:0:0:
298,192,214201,128,0,214533:0:0:0:0:
42,192,214367,128,0,214450:0:0:0:0:
128,192,214367,128,0,214450:0:0:0:0:
384,192,214367,128,0,214533:0:0:0:0:
42,192,214533,128,8,214616:0:0:0:0:
128,192,214533,128,0,214616:0:0:0:0:
469,192,214533,128,0,214698:0:0:0:0:
42,192,214698,128,0,214781:0:0:0:0:
128,192,214698,128,0,214781:0:0:0:0:
298,192,214698,128,0,215030:0:0:0:0:
42,192,214864,128,0,214947:0:0:0:50:clap.wav
128,192,214864,128,0,214947:0:0:0:0:
384,192,214864,1,0,0:0:0:0:
42,192,215030,128,0,215113:0:0:0:0:
128,192,215030,128,0,215113:0:0:0:0:
469,192,215030,128,0,215196:0:0:0:0:
42,192,215196,128,8,215279:0:0:0:0:
128,192,215196,128,0,215279:0:0:0:0:
384,192,215196,128,0,215361:0:0:0:0:
42,192,215361,128,0,215444:0:0:0:0:
128,192,215361,128,0,215444:0:0:0:0:
213,192,215361,128,0,215527:0:0:0:0:
128,192,215527,128,8,215859:0:0:0:0:
298,192,215527,128,0,215610:0:0:0:0:
384,192,215527,128,0,215610:0:0:0:0:
42,192,215693,128,0,215859:0:0:0:0:
298,192,215693,128,0,215776:0:0:0:0:
384,192,215693,128,0,215776:0:0:0:0:
213,192,215859,128,8,216024:0:0:0:0:
298,192,215859,128,0,215942:0:0:0:0:
384,192,215859,128,0,215942:0:0:0:0:
42,192,216024,128,0,216356:0:0:0:0:
298,192,216024,128,0,216107:0:0:0:0:
384,192,216024,128,0,216107:0:0:0:0:
213,192,216190,1,0,0:0:0:50:clap.wav
298,192,216190,128,0,216273:0:0:0:0:
384,192,216190,128,0,216273:0:0:0:0:
128,192,216356,128,0,216439:0:0:0:0:
298,192,216356,128,0,216439:0:0:0:0:
384,192,216356,128,0,216439:0:0:0:0:
213,192,216439,128,0,216522:0:0:0:0:
42,192,216522,128,8,216687:0:0:0:0:
298,192,216522,128,0,216605:0:0:0:0:
384,192,216522,128,0,216605:0:0:0:0:
298,192,216687,128,0,216770:0:0:0:0:
384,192,216687,128,0,216770:0:0:0:0:
469,192,216687,128,0,217019:0:0:0:0:
128,192,216853,128,8,216936:0:0:0:0:
213,192,216853,128,0,216936:0:0:0:0:
128,192,217019,128,0,217102:0:0:0:0:
213,192,217019,128,0,217102:0:0:0:0:
384,192,217019,128,0,217102:0:0:0:0:
298,192,217102,128,0,217185:0:0:0:0:
128,192,217185,128,8,217268:0:0:0:0:
213,192,217185,128,0,217268:0:0:0:0:
469,192,217185,128,0,217516:0:0:0:0:
128,192,217350,128,0,217433:0:0:0:0:
213,192,217350,128,0,217433:0:0:0:0:
128,192,217516,128,0,217599:0:0:0:50:clap.wav
213,192,217516,128,0,217599:0:0:0:0:
384,192,217516,1,0,0:0:0:0:
128,192,217682,128,0,217765:0:0:0:0:
213,192,217682,128,0,217765:0:0:0:0:
469,192,217682,128,0,217848:0:0:0:0:
128,192,217848,128,8,217931:0:0:0:0:
213,192,217848,128,0,217931:0:0:0:0:
384,192,217848,128,0,218013:0:0:0:0:
128,192,218013,128,0,218096:0:0:0:0:
213,192,218013,128,0,218096:0:0:0:0:
298,192,218013,128,0,218179:0:0:0:0:
42,192,218179,128,4,218511:0:0:0:0:
128,192,218179,1,0,0:0:0:0:
384,192,218179,1,0,0:0:0:0:
469,192,218179,1,0,0:0:0:0:
213,192,218345,128,2,218511:0:0:0:0:
298,192,218345,128,0,218511:0:0:0:0:
128,192,218511,128,2,218676:0:0:0:0:
384,192,218511,128,0,218676:0:0:0:0:
42,192,218676,1,4,0:0:0:0:
213,192,218676,128,0,218842:0:0:0:0:
298,192,218676,128,0,219008:0:0:0:0:
469,192,218676,1,0,0:0:0:0:
128,192,218842,1,2,0:0:0:0:
384,192,218842,128,0,219008:0:0:0:0:
213,192,219008,128,0,219174:0:0:0:30:tom.wav
469,192,219008,128,0,219174:0:0:0:0:
42,192,219174,128,0,219339:0:0:0:30:tom.wav
298,192,219174,128,0,219339:0:0:0:0:
128,192,219339,128,0,219505:0:0:0:30:tom.wav
384,192,219339,128,0,219505:0:0:0:0:
42,192,219505,1,4,0:0:0:0:
213,192,219505,1,0,0:0:0:0:
298,192,219505,1,0,0:0:0:0:
469,192,219505,1,0,0:0:0:0:
42,192,219671,1,4,0:0:0:0:
213,192,219671,1,0,0:0:0:0:
298,192,219671,1,0,0:0:0:0:
469,192,219671,1,0,0:0:0:0:
128,192,221494,128,0,221605:0:0:0:0:
384,192,221549,128,0,221660:0:0:0:0:
213,192,221605,128,0,221715:0:0:0:0:
469,192,221660,128,0,221770:0:0:0:0:
42,192,221715,128,0,221826:0:0:0:0:
298,192,221770,128,0,221881:0:0:0:0:
128,192,221826,128,0,221936:0:0:0:0:
384,192,221881,128,0,221991:0:0:0:0:
213,192,221936,128,0,222047:0:0:0:0:
469,192,221991,128,0,222102:0:0:0:0:
42,192,222047,128,0,222157:0:0:0:0:
298,192,222102,128,0,222212:0:0:0:0:
128,192,222157,128,0,222268:0:0:0:0:
384,192,222212,128,0,222323:0:0:0:0:
213,192,222268,128,0,222378:0:0:0:0:
469,192,222323,128,0,222433:0:0:0:0:
42,192,222378,128,0,222489:0:0:0:0:
298,192,222433,128,0,222544:0:0:0:0:
128,192,222489,128,0,222599:0:0:0:0:
384,192,222544,128,0,222654:0:0:0:0:
213,192,222599,128,0,222710:0:0:0:0:
469,192,222654,128,0,222765:0:0:0:0:
42,192,222710,128,0,222820:0:0:0:0:
298,192,222765,128,0,222875:0:0:0:0:
128,192,222820,128,0,222931:0:0:0:0:
384,192,222875,128,0,222986:0:0:0:0:
213,192,222931,128,0,223041:0:0:0:0:
469,192,222986,128,0,223096:0:0:0:0:
42,192,223041,128,0,223152:0:0:0:0:
298,192,223096,128,0,223207:0:0:0:0:
128,192,223152,128,0,223262:0:0:0:0:
384,192,223207,128,0,223317:0:0:0:0:
213,192,223262,128,0,223372:0:0:0:0:
469,192,223317,128,0,223428:0:0:0:0:
42,192,223372,128,0,223483:0:0:0:0:
298,192,223428,128,0,223538:0:0:0:0:
128,192,223483,128,0,223538:0:0:0:0:
213,192,223538,128,0,223593:0:0:0:0:
298,192,223593,128,0,223649:0:0:0:0:
384,192,223649,128,0,223704:0:0:0:0:
42,192,223704,128,0,223759:0:0:0:0:
469,192,223759,128,0,223814:0:0:0:0:
128,192,223814,128,0,223870:0:0:0:0:
213,192,223870,128,0,223925:0:0:0:0:
298,192,223925,128,0,223980:0:0:0:0:
384,192,223980,128,0,224035:0:0:0:0:
42,192,224035,128,0,224091:0:0:0:0:
469,192,224091,128,0,224146:0:0:0:0:
128,192,224146,128,0,224201:0:0:0:0:
213,192,224201,128,0,224256:0:0:0:0:
298,192,224256,128,0,224312:0:0:0:0:
384,192,224312,128,0,224367:0:0:0:0:
42,192,224367,128,0,224422:0:0:0:0:
469,192,224422,128,0,224477:0:0:0:0:
128,192,224477,128,0,224533:0:0:0:0:
213,192,224533,128,0,224588:0:0:0:0:
298,192,224588,128,0,224643:0:0:0:0:
384,192,224643,128,0,224698:0:0:0:0:
42,192,224698,128,0,224754:0:0:0:0:
469,192,224754,128,0,224809:0:0:0:0:
298,192,225638,128,0,225803:0:0:0:0:
213,192,225803,128,0,225969:0:0:0:0:
469,192,225803,128,0,225886:0:0:0:0:
384,192,225886,128,0,225969:0:0:0:0:
128,192,225969,128,0,226052:0:0:0:0:
298,192,225969,128,0,226052:0:0:0:0:
213,192,226052,128,0,226135:0:0:0:0:
42,192,226135,128,4,226301:0:0:0:0:
128,192,226135,128,0,226301:0:0:0:0:
298,192,226135,1,0,0:0:0:0:
384,192,226135,1,0,0:0:0:0:
469,192,226135,1,0,0:0:0:0:
213,192,226301,128,2,226384:0:0:0:0:
384,192,226301,128,0,226384:0:0:0:0:
469,192,226301,1,0,0:0:0:0:
298,192,226384,128,0,226466:0:0:0:0:
42,192,226466,1,8,0:0:0:0:
128,192,226466,128,0,226549:0:0:0:0:
384,192,226466,128,0,226632:0:0:0:0:
213,192,226632,1,2,0:0:0:0:
469,192,226632,128,0,226964:0:0:0:0:
128,192,226715,1,0,0:0:0:0:
213,192,226798,1,2,0:0:0:0:
298,192,226798,1,0,0:0:0:0:
384,192,226798,128,0,226964:0:0:0:0:
42,192,226964,128,2,227295:0:0:0:0:
213,192,226964,1,0,0:0:0:0:
298,192,226964,128,0,227129:0:0:0:0:
128,192,227129,128,8,227295:0:0:0:0:
384,192,227129,128,0,227295:0:0:0:0:
469,192,227129,1,0,0:0:0:0:
213,192,227295,128,0,227461:0:0:0:0:
298,192,227295,128,0,227461:0:0:0:0:
42,192,227461,128,2,227627:0:0:0:0:
128,192,227461,128,0,227627:0:0:0:0:
384,192,227461,1,0,0:0:0:0:
469,192,227461,1,0,0:0:0:0:
213,192,227627,128,2,227710:0:0:0:0:
384,192,227627,128,0,227710:0:0:0:0:
469,192,227627,1,0,0:0:0:0:
298,192,227710,128,0,227792:0:0:0:0:
42,192,227792,1,8,0:0:0:0:
128,192,227792,128,0,227875:0:0:0:0:
384,192,227792,128,0,227958:0:0:0:0:
213,192,227958,1,2,0:0:0:0:
469,192,227958,128,0,228290:0:0:0:0:
128,192,228041,1,0,0:0:0:0:
213,192,228124,1,2,0:0:0:0:
298,192,228124,1,0,0:0:0:0:
384,192,228124,128,0,228290:0:0:0:0:
42,192,228290,128,2,228621:0:0:0:0:
213,192,228290,1,0,0:0:0:0:
298,192,228290,128,0,228455:0:0:0:0:
128,192,228455,128,8,228621:0:0:0:0:
384,192,228455,128,0,228621:0:0:0:0:
469,192,228455,1,0,0:0:0:0:
213,192,228621,128,0,228787:0:0:0:0:
298,192,228621,128,0,228787:0:0:0:0:
42,192,228787,1,2,0:0:0:0:
128,192,228787,1,0,0:0:0:0:
384,192,228787,128,0,228953:0:0:0:0:
469,192,228787,128,0,228953:0:0:0:0:
42,192,228953,1,2,0:0:0:0:
128,192,228953,128,0,229035:0:0:0:0:
213,192,228953,128,0,229035:0:0:0:0:
298,192,229035,128,0,229118:0:0:0:0:
213,192,229118,128,8,229284:0:0:0:0:
384,192,229118,128,0,229201:0:0:0:0:
469,192,229118,1,0,0:0:0:0:
42,192,229284,128,2,229616:0:0:0:0:
298,192,229284,1,0,0:0:0:0:
384,192,229367,1,0,0:0:0:0:
128,192,229450,128,2,229616:0:0:0:0:
213,192,229450,1,0,0:0:0:0:
298,192,229450,1,0,0:0:0:0:
213,192,229616,128,2,229698:0:0:0:0:
384,192,229616,128,0,229698:0:0:0:0:
469,192,229616,1,0,0:0:0:0:
298,192,229698,128,0,229781:0:0:0:0:
42,192,229781,128,8,229947:0:0:0:0:
128,192,229781,1,0,0:0:0:0:
384,192,229781,128,0,229947:0:0:0:0:
213,192,229947,1,2,0:0:0:0:
469,192,229947,128,0,230693:0:0:0:0:
128,192,230030,1,0,0:0:0:0:
42,192,230113,1,2,0:0:0:0:
213,192,230113,1,0,0:0:0:0:
298,192,230113,1,0,0:0:0:0:
384,192,230113,1,0,0:0:0:0:
128,192,230279,1,2,0:0:0:0:
213,192,230279,1,0,0:0:0:0:
298,192,230279,1,0,0:0:0:0:
42,192,230444,1,8,0:0:0:0:
128,192,230444,1,0,0:0:0:0:
298,192,230444,1,0,0:0:0:0:
384,192,230444,1,0,0:0:0:0:
42,192,230610,1,2,0:0:0:0:
213,192,230610,1,0,0:0:0:0:
298,192,230610,1,0,0:0:0:0:
128,192,230776,1,8,0:0:0:0:
213,192,230776,1,0,0:0:0:0:
384,192,230776,1,0,0:0:0:0:
469,192,230776,1,0,0:0:0:0:
42,192,230942,128,2,231273:0:0:0:0:
213,192,230942,1,0,0:0:0:0:
298,192,230942,128,0,231107:0:0:0:0:
128,192,231107,128,8,231273:0:0:0:0:
384,192,231107,1,0,0:0:0:0:
469,192,231107,128,0,231273:0:0:0:0:
213,192,231273,128,0,231356:0:0:0:0:
298,192,231273,128,0,231356:0:0:0:0:
42,192,231439,1,2,0:0:0:0:
128,192,231439,1,0,0:0:0:0:
213,192,231439,1,0,0:0:0:0:
298,192,231439,128,0,231605:0:0:0:0:
384,192,231439,128,0,231605:0:0:0:0:
42,192,231605,128,2,231687:0:0:0:0:
128,192,231605,128,0,231687:0:0:0:0:
469,192,231605,1,0,0:0:0:0:
213,192,231687,128,0,231770:0:0:0:0:
42,192,231770,1,8,0:0:0:0:
298,192,231770,128,0,231853:0:0:0:0:
384,192,231770,128,0,231936:0:0:0:0:
213,192,231936,1,2,0:0:0:0:
469,192,231936,128,0,232268:0:0:0:0:
128,192,232019,1,0,0:0:0:0:
213,192,232102,1,2,0:0:0:0:
298,192,232102,1,0,0:0:0:0:
384,192,232102,128,0,232268:0:0:0:0:
42,192,232268,128,2,232599:0:0:0:0:
213,192,232268,1,0,0:0:0:0:
298,192,232268,128,0,232433:0:0:0:0:
128,192,232433,128,8,232599:0:0:0:0:
384,192,232433,1,0,0:0:0:0:
469,192,232433,128,0,232599:0:0:0:0:
213,192,232599,128,0,232765:0:0:0:0:
298,192,232599,128,0,232765:0:0:0:0:
42,192,232765,128,2,232931:0:0:0:0:
128,192,232765,1,0,0:0:0:0:
384,192,232765,1,0,0:0:0:0:
469,192,232765,1,0,0:0:0:0:
213,192,232931,128,2,233096:0:0:0:0:
384,192,232931,1,0,0:0:0:0:
469,192,232931,1,0,0:0:0:0:
42,192,233096,128,8,233262:0:0:0:0:
128,192,233096,1,0,0:0:0:0:
298,192,233096,1,0,0:0:0:0:
213,192,233262,128,2,233428:0:0:0:0:
384,192,233262,1,0,0:0:0:0:
298,192,233345,1,0,0:0:0:0:
128,192,233428,128,2,233593:0:0:0:0:
384,192,233428,1,0,0:0:0:0:
469,192,233428,1,0,0:0:0:0:
213,192,233593,1,2,0:0:0:0:
384,192,233593,1,0,0:0:0:0:
469,192,233593,128,0,233759:0:0:0:0:
42,192,233759,128,8,233925:0:0:0:0:
128,192,233759,1,0,0:0:0:0:
298,192,233759,1,0,0:0:0:0:
213,192,233925,1,2,0:0:0:0:
384,192,233925,128,0,234091:0:0:0:0:
128,192,234008,1,0,0:0:0:0:
42,192,234091,128,2,234174:0:0:0:0:
213,192,234091,1,0,0:0:0:0:
298,192,234091,128,0,234256:0:0:0:0:
469,192,234091,1,0,0:0:0:0:
384,192,234174,128,0,234256:0:0:0:0:
128,192,234256,1,2,0:0:0:0:
213,192,234256,128,0,234339:0:0:0:0:
469,192,234256,128,0,234339:0:0:0:0:
298,192,234339,128,0,234422:0:0:0:0:
42,192,234422,128,8,234505:0:0:0:0:
384,192,234422,128,0,234505:0:0:0:0:
469,192,234422,1,0,0:0:0:0:
213,192,234505,128,0,234588:0:0:0:0:
42,192,234588,128,2,234837:0:0:0:0:
128,192,234588,1,0,0:0:0:0:
298,192,234588,128,0,234671:0:0:0:0:
384,192,234671,128,0,234754:0:0:0:0:
128,192,234754,128,8,234837:0:0:0:0:
298,192,234754,1,0,0:0:0:0:
469,192,234754,128,0,234837:0:0:0:0:
213,192,234837,128,0,234919:0:0:0:0:
42,192,234919,1,2,0:0:0:0:
128,192,234919,128,0,235002:0:0:0:0:
298,192,234919,128,0,235002:0:0:0:0:
384,192,235002,128,0,235085:0:0:0:0:
42,192,235085,128,8,235168:0:0:0:0:
213,192,235085,1,0,0:0:0:0:
469,192,235085,128,0,235168:0:0:0:0:
128,192,235168,128,0,235251:0:0:0:30:tom.wav
298,192,235168,1,0,0:0:0:0:
213,192,235251,128,0,235334:0:0:0:30:tom.wav
384,192,235251,128,0,235334:0:0:0:0:
298,192,235334,128,0,235417:0:0:0:30:tom.wav
469,192,235334,1,0,0:0:0:0:
42,192,235417,1,4,0:0:0:0:
128,192,235417,1,0,0:0:0:0:
213,192,235417,1,0,0:0:0:0:
384,192,235417,1,0,0:0:0:0:
42,192,235582,1,4,0:0:0:0:
128,192,235582,1,0,0:0:0:0:
213,192,235582,1,0,0:0:0:0:
384,192,235582,1,0,0:0:0:0:
42,192,235914,128,4,236328:0:0:0:0:
128,192,235914,128,0,236411:0:0:0:0:
213,192,235914,128,0,236494:0:0:0:0:
298,192,235914,1,0,0:0:0:0:
469,192,235914,1,0,0:0:0:0:
384,192,236245,128,2,236411:0:0:0:0:
469,192,236245,128,0,236577:0:0:0:0:
42,192,236411,1,0,0:0:0:30:tom.wav
298,192,236411,128,0,236577:0:0:0:0:
128,192,236494,1,0,0:0:0:30:tom.wav
213,192,236577,128,0,236660:0:0:0:30:tom.wav
384,192,236577,128,0,236660:0:0:0:0:
298,192,236660,128,0,236743:0:0:0:30:tom.wav
42,192,236743,1,4,0:0:0:0:
128,192,236743,1,0,0:0:0:0:
213,192,236743,1,0,0:0:0:0:
384,192,236743,128,0,236908:0:0:0:0:
469,192,236743,128,0,236908:0:0:0:0:
42,192,236908,128,2,236991:0:0:0:0:
128,192,236908,1,0,0:0:0:0:
298,192,236908,128,0,236991:0:0:0:0:
213,192,236991,128,0,237074:0:0:0:0:
128,192,237074,128,8,237240:0:0:0:0:
384,192,237074,128,0,237157:0:0:0:0:
469,192,237074,1,0,0:0:0:0:
42,192,237240,128,2,237571:0:0:0:0:
298,192,237240,1,0,0:0:0:0:
384,192,237323,1,0,0:0:0:0:
128,192,237406,128,2,237571:0:0:0:0:
213,192,237406,1,0,0:0:0:0:
298,192,237406,1,0,0:0:0:0:
213,192,237571,128,2,237737:0:0:0:0:
298,192,237571,1,0,0:0:0:0:
469,192,237571,128,0,237903:0:0:0:0:
42,192,237737,1,8,0:0:0:0:
128,192,237737,128,0,237903:0:0:0:0:
384,192,237737,128,0,237903:0:0:0:0:
213,192,237903,128,0,238069:0:0:0:0:
298,192,237903,128,0,238069:0:0:0:0:
42,192,238069,1,2,0:0:0:0:
128,192,238069,1,0,0:0:0:0:
384,192,238069,128,0,238234:0:0:0:0:
469,192,238069,128,0,238234:0:0:0:0:
42,192,238234,128,2,238317:0:0:0:0:
128,192,238234,1,0,0:0:0:0:
298,192,238234,128,0,238317:0:0:0:0:
213,192,238317,128,0,238400:0:0:0:0:
128,192,238400,128,8,238566:0:0:0:0:
384,192,238400,128,0,238483:0:0:0:0:
469,192,238400,1,0,0:0:0:0:
42,192,238566,128,2,238897:0:0:0:0:
298,192,238566,1,0,0:0:0:0:
384,192,238649,1,0,0:0:0:0:
128,192,238732,128,2,238897:0:0:0:0:
213,192,238732,1,0,0:0:0:0:
298,192,238732,1,0,0:0:0:0:
213,192,238897,128,2,239063:0:0:0:0:
298,192,238897,1,0,0:0:0:0:
469,192,238897,128,0,239229:0:0:0:0:
42,192,239063,1,8,0:0:0:0:
128,192,239063,128,0,239229:0:0:0:0:
384,192,239063,128,0,239229:0:0:0:0:
213,192,239229,128,0,239395:0:0:0:0:
298,192,239229,128,0,239395:0:0:0:0:
42,192,239395,128,2,239560:0:0:0:0:
128,192,239395,128,0,239560:0:0:0:0:
384,192,239395,1,0,0:0:0:0:
469,192,239395,1,0,0:0:0:0:
213,192,239560,128,2,239643:0:0:0:0:
384,192,239560,128,0,239643:0:0:0:0:
469,192,239560,1,0,0:0:0:0:
298,192,239643,128,0,239726:0:0:0:0:
128,192,239726,128,8,239892:0:0:0:0:
213,192,239726,1,0,0:0:0:0:
469,192,239726,128,0,239809:0:0:0:0:
42,192,239892,128,2,240223:0:0:0:0:
298,192,239892,1,0,0:0:0:0:
384,192,239975,1,0,0:0:0:0:
213,192,240058,1,2,0:0:0:0:
298,192,240058,1,0,0:0:0:0:
469,192,240058,128,0,240223:0:0:0:0:
128,192,240223,1,2,0:0:0:0:
298,192,240223,128,0,240306:0:0:0:0:
384,192,240223,128,0,240306:0:0:0:0:
213,192,240306,128,0,240389:0:0:0:0:
42,192,240389,128,8,240555:0:0:0:0:
128,192,240389,128,0,240555:0:0:0:0:
469,192,240389,1,0,0:0:0:0:
213,192,240555,128,2,240721:0:0:0:0:
384,192,240555,128,0,240886:0:0:0:0:
42,192,240721,1,8,0:0:0:0:
128,192,240721,1,0,0:0:0:0:
469,192,240721,128,0,240886:0:0:0:0:
42,192,240886,128,2,240969:0:0:0:0:
213,192,240886,1,0,0:0:0:0:
298,192,240886,128,0,240969:0:0:0:0:
384,192,240969,128,0,241052:0:0:0:0:
128,192,241052,1,2,0:0:0:0:
213,192,241052,128,0,241218:0:0:0:0:
469,192,241052,128,0,241135:0:0:0:0:
42,192,241218,128,8,241384:0:0:0:0:
298,192,241218,128,0,241384:0:0:0:0:
384,192,241218,1,0,0:0:0:0:
128,192,241384,1,2,0:0:0:0:
213,192,241384,128,0,241466:0:0:0:0:
469,192,241384,128,0,241466:0:0:0:0:
384,192,241466,128,0,241549:0:0:0:0:
42,192,241549,128,2,241881:0:0:0:0:
128,192,241549,128,0,241715:0:0:0:0:
298,192,241549,128,0,241632:0:0:0:0:
213,192,241715,128,8,241881:0:0:0:0:
384,192,241715,1,0,0:0:0:0:
469,192,241715,128,0,241881:0:0:0:0:
298,192,241798,1,0,0:0:0:30:tom.wav
128,192,241881,128,0,241964:0:0:0:30:tom.wav
384,192,241881,128,0,241964:0:0:0:0:
213,192,241964,1,0,0:0:0:30:tom.wav
42,192,242047,1,4,0:0:0:0:
128,192,242047,1,0,0:0:0:0:
298,192,242047,1,0,0:0:0:0:
384,192,242047,128,0,242212:0:0:0:0:
469,192,242047,128,0,242212:0:0:0:0:
42,192,242212,1,2,0:0:0:0:
128,192,242212,128,0,242295:0:0:0:0:
213,192,242212,128,0,242295:0:0:0:0:
298,192,242295,128,0,242378:0:0:0:0:
128,192,242378,1,8,0:0:0:0:
384,192,242378,128,0,242461:0:0:0:0:
469,192,242378,128,0,242544:0:0:0:0:
42,192,242544,128,0,242875:0:0:0:0:
213,192,242544,1,0,0:0:0:0:
298,192,242627,1,0,0:0:0:0:
128,192,242710,128,2,242875:0:0:0:0:
384,192,242710,1,0,0:0:0:0:
469,192,242710,1,0,0:0:0:0:
213,192,242875,128,2,243207:0:0:0:0:
298,192,242875,128,0,243041:0:0:0:0:
384,192,242875,1,0,0:0:0:0:
42,192,243041,128,8,243207:0:0:0:0:
128,192,243041,128,0,243207:0:0:0:0:
469,192,243041,1,0,0:0:0:0:
298,192,243207,128,0,243372:0:0:0:0:
384,192,243207,128,0,243372:0:0:0:0:
128,192,243372,128,4,243455:0:0:0:0:
213,192,243372,128,0,243455:0:0:0:0:
469,192,243372,128,0,243455:0:0:0:0:
42,192,243455,128,0,243538:0:0:0:0:
298,192,243455,128,0,243538:0:0:0:0:
128,192,243538,128,4,243621:0:0:0:0:
213,192,243538,128,0,243621:0:0:0:0:
469,192,243538,128,0,243621:0:0:0:0:
42,192,243621,128,0,243704:0:0:0:0:
298,192,243621,128,0,243704:0:0:0:0:
128,192,243704,128,0,243787:0:0:0:0:
469,192,243704,128,0,243787:0:0:0:0:
213,192,243787,128,0,243870:0:0:0:0:
298,192,243787,128,0,243870:0:0:0:0:
42,192,243870,128,0,243953:0:0:0:0:
469,192,243870,128,0,243953:0:0:0:0:
128,192,243953,128,0,244035:0:0:0:0:
298,192,243953,128,0,244035:0:0:0:0:
213,192,244035,128,0,244118:0:0:0:0:
469,192,244035,128,0,244201:0:0:0:0:
42,192,244118,128,0,244201:0:0:0:0:
128,192,244201,128,0,244284:0:0:0:0:
298,192,244201,128,0,244367:0:0:0:0:
213,192,244284,128,0,244367:0:0:0:0:
42,192,244367,128,2,244533:0:0:0:0:
469,192,244367,128,0,244450:0:0:0:0:
384,192,244450,128,0,244533:0:0:0:0:
128,192,244533,128,0,244616:0:0:0:0:
298,192,244533,128,0,244616:0:0:0:0:
213,192,244616,128,0,244698:0:0:0:0:
42,192,244698,128,4,244781:0:0:0:0:
128,192,244698,1,0,0:0:0:0:
298,192,244698,1,0,0:0:0:0:
384,192,244698,128,0,244864:0:0:0:0:
469,192,244698,1,0,0:0:0:0:
128,192,244864,1,2,0:0:0:0:
213,192,244864,128,0,244947:0:0:0:0:
298,192,244864,1,0,0:0:0:0:
42,192,245030,1,8,0:0:0:0:
384,192,245030,128,0,245113:0:0:0:0:
469,192,245030,128,0,245113:0:0:0:0:
213,192,245196,128,2,245279:0:0:0:0:
469,192,245196,128,0,246273:0:0:0:0:
128,192,245279,128,0,245361:0:0:0:0:
213,192,245361,128,2,245444:0:0:0:0:
298,192,245361,128,0,245444:0:0:0:0:
384,192,245361,1,0,0:0:0:0:
42,192,245527,1,2,0:0:0:0:
128,192,245527,128,0,245610:0:0:0:0:
213,192,245527,128,0,245610:0:0:0:0:
42,192,245693,128,8,245776:0:0:0:0:
298,192,245693,1,0,0:0:0:0:
384,192,245693,128,0,245776:0:0:0:0:
128,192,245859,128,0,245942:0:0:0:0:
213,192,245859,128,0,245942:0:0:0:0:
42,192,246024,128,2,246107:0:0:0:0:
128,192,246024,1,0,0:0:0:0:
298,192,246024,128,0,246107:0:0:0:0:
384,192,246024,128,0,246107:0:0:0:0:
213,192,246190,1,2,0:0:0:0:
298,192,246190,128,0,246273:0:0:0:0:
384,192,246190,128,0,246273:0:0:0:0:
42,192,246356,128,8,246439:0:0:0:0:
128,192,246356,128,0,246439:0:0:0:0:
469,192,246356,128,0,246439:0:0:0:0:
213,192,246522,1,2,0:0:0:0:
384,192,246522,1,0,0:0:0:0:
42,192,246605,1,0,0:0:0:0:
213,192,246687,128,2,246770:0:0:0:0:
298,192,246687,128,0,246770:0:0:0:0:
469,192,246687,128,0,246770:0:0:0:0:
128,192,246853,1,2,0:0:0:0:
213,192,246853,1,0,0:0:0:0:
298,192,246853,1,0,0:0:0:0:
42,192,247019,128,8,247102:0:0:0:0:
384,192,247019,128,0,247102:0:0:0:0:
469,192,247019,128,0,247102:0:0:0:0:
213,192,247185,1,0,0:0:0:0:
298,192,247185,1,0,0:0:0:0:
42,192,247350,128,2,247433:0:0:0:0:
128,192,247350,128,0,247433:0:0:0:0:
384,192,247350,128,0,247433:0:0:0:0:
469,192,247350,128,0,247433:0:0:0:0:
42,192,247516,128,2,247599:0:0:0:0:
128,192,247516,128,0,247599:0:0:0:0:
384,192,247516,128,0,247599:0:0:0:0:
213,192,247599,128,0,247682:0:0:0:0:
42,192,247682,128,8,247765:0:0:0:0:
298,192,247682,128,0,247765:0:0:0:0:
469,192,247682,1,0,0:0:0:0:
384,192,247765,128,0,247848:0:0:0:0:
128,192,247848,128,2,247931:0:0:0:0:
469,192,247848,128,0,247931:0:0:0:0:
213,192,247931,128,0,248013:0:0:0:0:
128,192,248013,128,2,248096:0:0:0:0:
298,192,248013,128,0,248096:0:0:0:0:
384,192,248013,1,0,0:0:0:0:
42,192,248096,128,0,248179:0:0:0:0:
298,192,248179,128,2,248262:0:0:0:0:
384,192,248179,128,0,248262:0:0:0:0:
469,192,248179,1,0,0:0:0:0:
213,192,248262,128,0,248345:0:0:0:0:
42,192,248345,1,8,0:0:0:0:
128,192,248345,128,0,248428:0:0:0:0:
384,192,248345,128,0,248428:0:0:0:0:
298,192,248428,128,0,248511:0:0:0:0:
213,192,248511,128,2,248593:0:0:0:0:
469,192,248511,128,0,248593:0:0:0:0:
128,192,248593,128,0,248676:0:0:0:0:
42,192,248676,128,2,248759:0:0:0:0:
213,192,248676,1,0,0:0:0:0:
384,192,248676,128,0,248759:0:0:0:0:
469,192,248676,1,0,0:0:0:0:
298,192,248759,128,0,248842:0:0:0:0:
128,192,248842,1,2,0:0:0:0:
213,192,248842,128,0,248925:0:0:0:0:
469,192,248842,128,0,248925:0:0:0:0:
384,192,248925,128,0,249008:0:0:0:0:
42,192,249008,128,8,249091:0:0:0:0:
128,192,249008,1,0,0:0:0:0:
298,192,249008,128,0,249091:0:0:0:0:
213,192,249091,128,0,249174:0:0:0:0:
42,192,249174,1,2,0:0:0:0:
128,192,249174,128,0,249256:0:0:0:0:
469,192,249174,128,0,249256:0:0:0:0:
384,192,249256,128,0,249339:0:0:0:0:
42,192,249339,128,8,249422:0:0:0:0:
298,192,249339,128,0,249422:0:0:0:0:
469,192,249339,1,0,0:0:0:0:
213,192,249422,128,0,249505:0:0:0:0:
128,192,249505,128,2,249588:0:0:0:0:
298,192,249505,128,0,249588:0:0:0:0:
469,192,249505,1,0,0:0:0:0:
384,192,249588,128,0,249671:0:0:0:0:
42,192,249671,128,8,249754:0:0:0:0:
213,192,249671,128,0,249754:0:0:0:0:
469,192,249671,128,0,249754:0:0:0:0:
298,192,249837,128,0,249919:0:0:0:0:
384,192,249837,1,0,0:0:0:0:
42,192,250002,1,4,0:0:0:0:
128,192,250002,1,0,0:0:0:0:
213,192,250002,1,0,0:0:0:0:
384,192,250002,1,0,0:0:0:0:
469,192,250002,1,0,0:0:0:0:
42,192,250168,1,2,0:0:0:0:
298,192,250168,1,0,0:0:0:0:
384,192,250168,128,0,250251:0:0:0:0:
469,192,250168,128,0,250251:0:0:0:0:
42,192,250334,1,8,0:0:0:0:
128,192,250334,1,0,0:0:0:0:
213,192,250334,128,0,250417:0:0:0:0:
298,192,250417,128,0,250500:0:0:0:0:
213,192,250500,1,2,0:0:0:0:
384,192,250500,128,0,250582:0:0:0:0:
128,192,250582,1,0,0:0:0:0:
213,192,250665,128,2,250748:0:0:0:0:
298,192,250665,128,0,250748:0:0:0:0:
469,192,250665,1,0,0:0:0:0:
213,192,250831,1,2,0:0:0:0:
298,192,250831,1,0,0:0:0:0:
384,192,250831,1,0,0:0:0:0:
42,192,250914,128,0,250997:0:0:0:0:
128,192,250914,128,0,250997:0:0:0:0:
298,192,250997,1,8,0:0:0:0:
384,192,250997,1,0,0:0:0:0:
469,192,250997,1,0,0:0:0:0:
42,192,251163,128,0,251245:0:0:0:0:
213,192,251163,128,0,251245:0:0:0:0:
128,192,251328,128,2,251411:0:0:0:0:
298,192,251328,128,0,251411:0:0:0:0:
384,192,251328,128,0,251411:0:0:0:0:
469,192,251328,128,0,251411:0:0:0:0:
213,192,251494,128,2,251577:0:0:0:0:
384,192,251494,1,0,0:0:0:0:
469,192,251494,1,0,0:0:0:0:
128,192,251577,128,0,251660:0:0:0:0:
298,192,251577,128,0,251660:0:0:0:0:
42,192,251660,1,8,0:0:0:0:
384,192,251660,128,0,251743:0:0:0:0:
469,192,251660,1,0,0:0:0:0:
213,192,251826,128,2,251908:0:0:0:0:
469,192,251826,128,0,251908:0:0:0:0:
128,192,251908,1,0,0:0:0:0:
42,192,251991,128,2,252074:0:0:0:0:
213,192,251991,128,0,252074:0:0:0:0:
384,192,251991,128,0,252074:0:0:0:0:
128,192,252157,128,2,252240:0:0:0:0:
298,192,252157,128,0,252240:0:0:0:0:
469,192,252157,128,0,252240:0:0:0:0:
42,192,252323,128,8,252406:0:0:0:0:
213,192,252323,128,0,252406:0:0:0:0:
384,192,252323,128,0,252406:0:0:0:0:
128,192,252489,1,2,0:0:0:0:
298,192,252489,1,0,0:0:0:0:
384,192,252571,1,0,0:0:0:0:
42,192,252654,128,2,252737:0:0:0:0:
213,192,252654,128,0,252737:0:0:0:0:
298,192,252654,128,0,252737:0:0:0:0:
469,192,252654,128,0,252737:0:0:0:0:
128,192,252737,128,0,252820:0:0:0:0:
213,192,252820,128,2,252903:0:0:0:0:
384,192,252820,128,0,252903:0:0:0:0:
469,192,252820,1,0,0:0:0:0:
298,192,252903,128,0,252986:0:0:0:0:
128,192,252986,1,8,0:0:0:0:
213,192,252986,128,0,253069:0:0:0:0:
384,192,252986,128,0,253069:0:0:0:0:
469,192,253069,128,0,253152:0:0:0:0:
42,192,253152,1,2,0:0:0:0:
128,192,253152,128,0,253234:0:0:0:0:
298,192,253152,128,0,253234:0:0:0:0:
213,192,253234,128,0,253317:0:0:0:0:
128,192,253317,128,8,253400:0:0:0:0:
298,192,253317,128,0,253400:0:0:0:0:
469,192,253317,1,0,0:0:0:0:
384,192,253400,128,0,253483:0:0:0:0:
42,192,253483,1,2,0:0:0:0:
213,192,253483,128,0,253566:0:0:0:0:
469,192,253483,128,0,253566:0:0:0:0:
298,192,253566,128,0,253649:0:0:0:0:
42,192,253649,128,8,253732:0:0:0:0:
213,192,253649,128,0,253732:0:0:0:0:
384,192,253649,1,0,0:0:0:0:
128,192,253732,128,0,253814:0:0:0:30:tom.wav
298,192,253732,128,0,253814:0:0:0:0:
213,192,253814,128,0,253897:0:0:0:30:tom.wav
384,192,253814,128,0,253897:0:0:0:0:
298,192,253897,128,0,253980:0:0:0:30:tom.wav
469,192,253897,128,0,253980:0:0:0:0:
42,192,253980,1,4,0:0:0:0:
128,192,253980,1,0,0:0:0:0:
213,192,253980,1,0,0:0:0:0:
384,192,253980,1,0,0:0:0:0:
42,192,254146,1,4,0:0:0:0:
128,192,254146,1,0,0:0:0:0:
213,192,254146,1,0,0:0:0:0:
384,192,254146,1,0,0:0:0:0:
42,192,254477,128,4,255140:0:0:0:0:
128,192,254477,128,0,254726:0:0:0:0:
213,192,254477,128,0,254726:0:0:0:0:
298,192,254477,128,0,254892:0:0:0:0:
384,192,254477,128,0,254892:0:0:0:0:
469,192,254477,128,0,254892:0:0:0:0:
128,192,254809,1,2,0:0:0:0:
213,192,254809,1,0,0:0:0:0:
128,192,254975,1,0,0:0:0:30:tom.wav
298,192,254975,1,0,0:0:0:0:
469,192,254975,1,0,0:0:0:0:
213,192,255058,1,0,0:0:0:30:tom.wav
384,192,255058,1,0,0:0:0:0:
128,192,255140,128,0,255223:0:0:0:30:tom.wav
298,192,255140,128,0,255223:0:0:0:0:
42,192,255223,128,0,255306:0:0:0:30:tom.wav
213,192,255223,128,0,255306:0:0:0:0:
128,192,255306,128,4,255389:0:0:0:0:
298,192,255306,1,0,0:0:0:0:
384,192,255306,1,0,0:0:0:0:
469,192,255306,1,0,0:0:0:0:
213,192,255472,128,2,255555:0:0:0:0:
384,192,255472,1,0,0:0:0:0:
469,192,255472,1,0,0:0:0:0:
42,192,255638,1,8,0:0:0:0:
128,192,255638,1,0,0:0:0:0:
298,192,255638,128,0,255721:0:0:0:0:
213,192,255803,128,2,255886:0:0:0:0:
384,192,255803,128,0,255886:0:0:0:0:
128,192,255886,128,0,255969:0:0:0:0:
213,192,255969,128,2,256052:0:0:0:0:
298,192,255969,128,0,256052:0:0:0:0:
469,192,255969,1,0,0:0:0:0:
128,192,256135,128,2,256218:0:0:0:0:
213,192,256135,128,0,256218:0:0:0:0:
298,192,256135,1,0,0:0:0:0:
42,192,256301,1,8,0:0:0:0:
384,192,256301,128,0,256384:0:0:0:0:
469,192,256301,128,0,256384:0:0:0:0:
213,192,256466,128,0,256549:0:0:0:0:
298,192,256466,128,0,256549:0:0:0:0:
42,192,256632,128,2,256715:0:0:0:0:
128,192,256632,128,0,256715:0:0:0:0:
384,192,256632,128,0,256715:0:0:0:0:
469,192,256632,128,0,256715:0:0:0:0:
42,192,256798,128,2,256881:0:0:0:0:
128,192,256798,128,0,256881:0:0:0:0:
298,192,256798,1,0,0:0:0:0:
213,192,256964,128,8,257047:0:0:0:0:
384,192,256964,128,0,257047:0:0:0:0:
469,192,256964,128,0,257047:0:0:0:0:
42,192,257129,1,2,0:0:0:0:
298,192,257129,1,0,0:0:0:0:
384,192,257212,1,0,0:0:0:0:
128,192,257295,128,2,257378:0:0:0:0:
213,192,257295,128,0,257378:0:0:0:0:
298,192,257295,128,0,257378:0:0:0:0:
213,192,257461,1,2,0:0:0:0:
298,192,257461,1,0,0:0:0:0:
384,192,257461,1,0,0:0:0:0:
42,192,257627,128,8,257710:0:0:0:0:
128,192,257627,128,0,257710:0:0:0:0:
469,192,257627,128,0,257710:0:0:0:0:
213,192,257792,1,0,0:0:0:0:
384,192,257792,1,0,0:0:0:0:
42,192,257958,128,2,258041:0:0:0:0:
128,192,257958,128,0,258041:0:0:0:0:
298,192,257958,128,0,258041:0:0:0:0:
469,192,257958,128,0,258041:0:0:0:0:
42,192,258124,128,2,258207:0:0:0:0:
298,192,258124,128,0,258207:0:0:0:0:
384,192,258124,128,0,258207:0:0:0:0:
213,192,258207,128,0,258290:0:0:0:0:
128,192,258290,128,8,258372:0:0:0:0:
384,192,258290,1,0,0:0:0:0:
469,192,258290,128,0,258372:0:0:0:0:
42,192,258372,128,0,258455:0:0:0:0:
213,192,258455,128,2,258538:0:0:0:0:
298,192,258455,128,0,258538:0:0:0:0:
128,192,258538,128,0,258621:0:0:0:0:
213,192,258621,128,2,258704:0:0:0:0:
384,192,258621,1,0,0:0:0:0:
469,192,258621,128,0,258704:0:0:0:0:
298,192,258704,128,0,258787:0:0:0:0:
42,192,258787,1,2,0:0:0:0:
128,192,258787,128,0,258870:0:0:0:0:
384,192,258787,128,0,258870:0:0:0:0:
469,192,258870,128,0,258953:0:0:0:0:
42,192,258953,128,8,259035:0:0:0:0:
213,192,258953,128,0,259035:0:0:0:0:
298,192,258953,128,0,259035:0:0:0:0:
128,192,259118,128,2,259201:0:0:0:0:
384,192,259118,128,0,259201:0:0:0:0:
469,192,259118,128,0,259201:0:0:0:0:
42,192,259284,128,8,259367:0:0:0:0:
213,192,259284,128,0,259367:0:0:0:0:
298,192,259284,128,0,259367:0:0:0:0:
469,192,259284,128,0,259367:0:0:0:0:
128,192,259450,128,2,259533:0:0:0:0:
298,192,259450,1,0,0:0:0:0:
384,192,259450,1,0,0:0:0:0:
42,192,259616,128,2,259698:0:0:0:0:
298,192,259616,128,0,259698:0:0:0:0:
384,192,259616,128,0,259698:0:0:0:0:
42,192,259781,1,8,0:0:0:0:
213,192,259781,1,0,0:0:0:0:
469,192,259781,128,0,259864:0:0:0:0:
128,192,259947,128,2,260030:0:0:0:0:
213,192,259947,128,0,260030:0:0:0:0:
298,192,259947,128,0,260030:0:0:0:0:
128,192,260113,1,2,0:0:0:0:
213,192,260113,128,0,260279:0:0:0:0:
469,192,260113,128,0,260444:0:0:0:0:
42,192,260279,128,8,260444:0:0:0:0:
298,192,260279,1,0,0:0:0:0:
384,192,260279,128,0,260444:0:0:0:0:
213,192,260361,1,0,0:0:0:30:tom.wav
128,192,260444,128,0,260527:0:0:0:30:tom.wav
298,192,260444,128,0,260527:0:0:0:0:
213,192,260527,1,0,0:0:0:30:tom.wav
42,192,260610,128,4,260776:0:0:0:0:
128,192,260610,128,0,260776:0:0:0:0:
298,192,260610,1,0,0:0:0:0:
384,192,260610,128,0,260693:0:0:0:0:
469,192,260610,128,0,260693:0:0:0:0:
213,192,260776,128,2,260859:0:0:0:0:
384,192,260776,128,0,260859:0:0:0:0:
469,192,260776,1,0,0:0:0:0:
298,192,260859,128,0,260942:0:0:0:0:
42,192,260942,1,8,0:0:0:0:
128,192,260942,128,0,261024:0:0:0:0:
384,192,260942,128,0,261107:0:0:0:0:
213,192,261107,1,2,0:0:0:0:
469,192,261107,128,0,261439:0:0:0:0:
42,192,261190,1,0,0:0:0:0:
128,192,261273,128,2,261356:0:0:0:0:
213,192,261273,128,0,261356:0:0:0:0:
384,192,261273,128,0,261439:0:0:0:0:
128,192,261439,128,2,261770:0:0:0:0:
213,192,261439,128,0,261522:0:0:0:0:
298,192,261439,128,0,261605:0:0:0:0:
42,192,261605,128,8,261770:0:0:0:0:
384,192,261605,128,0,261770:0:0:0:0:
469,192,261605,1,0,0:0:0:0:
213,192,261770,128,0,261936:0:0:0:0:
298,192,261770,128,0,261936:0:0:0:0:
42,192,261936,128,2,262019:0:0:0:0:
128,192,261936,128,0,262019:0:0:0:0:
384,192,261936,128,0,262019:0:0:0:0:
469,192,261936,128,0,262019:0:0:0:0:
213,192,262019,128,0,262102:0:0:0:0:
298,192,262019,128,0,262102:0:0:0:0:
42,192,262102,128,2,262185:0:0:0:0:
128,192,262102,128,0,262185:0:0:0:0:
384,192,262102,128,0,262185:0:0:0:0:
469,192,262102,128,0,262185:0:0:0:0:
213,192,262185,128,0,262268:0:0:0:0:
298,192,262185,128,0,262268:0:0:0:0:
42,192,262268,128,0,262350:0:0:0:0:
469,192,262268,128,0,262350:0:0:0:0:
213,192,262350,128,0,262433:0:0:0:0:
298,192,262350,128,0,262433:0:0:0:0:
42,192,262433,128,0,262516:0:0:0:0:
469,192,262433,128,0,262516:0:0:0:0:
213,192,262516,128,0,262599:0:0:0:0:
298,192,262516,128,0,262599:0:0:0:0:
42,192,262599,128,0,262682:0:0:0:0:
469,192,262599,128,0,262682:0:0:0:0:
213,192,262682,128,0,262765:0:0:0:0:
298,192,262682,128,0,262765:0:0:0:0:
42,192,262765,128,0,262848:0:0:0:0:
469,192,262765,128,0,262848:0:0:0:0:
213,192,262848,128,0,262931:0:0:0:0:
298,192,262848,128,0,262931:0:0:0:0:
42,192,262931,128,0,263013:0:0:0:0:
469,192,262931,128,0,263013:0:0:0:0:
213,192,263013,128,0,263096:0:0:0:0:
298,192,263013,128,0,263096:0:0:0:0:
42,192,263096,128,0,263179:0:0:0:0:
469,192,263096,128,0,263179:0:0:0:0:
213,192,263179,128,0,263262:0:0:0:0:
298,192,263179,128,0,263262:0:0:0:0:
42,192,263262,128,0,263345:0:0:0:0:
469,192,263262,128,0,263345:0:0:0:0:
213,192,263345,128,0,263428:0:0:0:0:
298,192,263345,128,0,263428:0:0:0:0:
42,192,263428,128,0,263511:0:0:0:0:
469,192,263428,128,0,263511:0:0:0:0:
213,192,263511,128,0,263593:0:0:0:0:
298,192,263511,128,0,263593:0:0:0:0:
42,192,263593,128,0,263676:0:0:0:0:
469,192,263593,128,0,263676:0:0:0:0:
213,192,263676,128,0,263759:0:0:0:0:
298,192,263676,128,0,263759:0:0:0:0:
42,192,263759,128,0,263842:0:0:0:0:
469,192,263759,128,0,263842:0:0:0:0:
213,192,263842,128,0,263925:0:0:0:0:
298,192,263842,128,0,263925:0:0:0:0:
42,192,263925,128,0,264091:0:0:0:0:
469,192,263925,128,0,264091:0:0:0:0:
213,192,264091,128,0,264256:0:0:0:0:
298,192,264091,128,0,264256:0:0:0:0:
42,192,264256,128,0,264339:0:0:0:0:
384,192,264256,128,0,264422:0:0:0:0:
128,192,264339,128,0,264422:0:0:0:0:
213,192,264422,128,0,264505:0:0:0:0:
469,192,264422,128,0,264505:0:0:0:0:
298,192,264505,128,0,264588:0:0:0:0:
42,192,264588,128,4,269643:0:0:0:0:
128,192,264588,128,0,266245:0:0:0:0:
213,192,264588,128,0,264919:0:0:0:0:
384,192,264588,1,0,0:0:0:0:
469,192,264588,1,0,0:0:0:0:
469,192,264919,128,0,265002:0:0:0:0:
469,192,265085,128,0,269643:0:0:0:0:
298,192,266245,128,0,266328:0:0:0:0:
384,192,266328,128,0,266411:0:0:0:0:
213,192,266411,128,0,266494:0:0:0:0:
128,192,266494,128,0,266577:0:0:0:0:
298,192,266577,128,0,266660:0:0:0:0:
384,192,266660,128,0,266743:0:0:0:0:
213,192,266743,128,0,266826:0:0:0:0:
128,192,266826,128,0,266908:0:0:0:0:
298,192,266908,128,0,266991:0:0:0:0:
384,192,266991,128,0,267074:0:0:0:0:
213,192,267074,128,0,267157:0:0:0:0:
128,192,267157,128,0,267240:0:0:0:0:
298,192,267240,128,0,267406:0:0:0:0:
213,192,267406,128,0,267571:0:0:0:0:
298,192,267571,128,0,267737:0:0:0:0:
128,192,267737,128,0,267903:0:0:0:0:
384,192,267903,128,0,268069:0:0:0:0:
128,192,268069,128,0,268234:0:0:0:0:
298,192,268234,128,0,268400:0:0:0:0:
213,192,268400,128,0,268566:0:0:0:0:
298,192,268566,128,0,268732:0:0:0:0:
128,192,268732,128,0,268897:0:0:0:0:
384,192,268897,128,0,269063:0:0:0:0:
213,192,269063,1,8,0:0:0:0:
298,192,269146,1,8,0:0:0:0:
213,192,269229,1,8,0:0:0:0:
298,192,269312,1,8,0:0:0:0:
128,192,269395,1,8,0:0:0:0:
213,192,269395,1,0,0:0:0:0:
298,192,269477,1,8,0:0:0:0:
384,192,269477,1,0,0:0:0:0:
128,192,269560,1,8,0:0:0:0:
213,192,269560,1,0,0:0:0:0:
298,192,269643,1,8,0:0:0:0:
384,192,269643,1,0,0:0:0:0:
42,192,269726,1,8,0:0:0:0:
128,192,269726,1,0,0:0:0:0:
213,192,269726,1,0,0:0:0:0:
298,192,269809,1,8,0:0:0:0:
384,192,269809,1,0,0:0:0:0:
469,192,269809,1,0,0:0:0:0:
42,192,269892,1,2,0:0:0:0:
128,192,269892,1,0,0:0:0:0:
213,192,269892,1,0,0:0:0:0:
298,192,270223,1,0,0:0:0:0:
384,192,270334,1,0,0:0:0:0:
128,192,270444,1,0,0:0:0:0:
42,192,270555,128,0,272129:0:0:0:0:
213,192,270555,128,0,272129:0:0:0:0:
298,192,270555,128,0,272129:0:0:0:0:
469,192,270555,128,0,272129:0:0:0:0:
42,192,272212,1,0,0:0:0:0:
213,192,272212,1,0,0:0:0:0:
298,192,272212,1,0,0:0:0:0:
469,192,272212,1,0,0:0:0:0:
42,192,272378,1,0,0:0:0:0:
213,192,272378,1,0,0:0:0:0:
298,192,272378,1,0,0:0:0:0:
469,192,272378,1,0,0:0:0:0:
469,192,272875,1,0,0:0:0:0:
298,192,272931,1,0,0:0:0:0:
469,192,272986,1,0,0:0:0:0:
